osu file format v14

[General]
AudioFilename: audio.mp3
AudioLeadIn: 0
PreviewTime: 93
Countdown: 0
SampleSet: Soft
StackLeniency: 0.5
Mode: 0
LetterboxInBreaks: 0
WidescreenStoryboard: 1

[Editor]
Bookmarks: 140,6029,35477,53146,64925,67870,106152,135600
DistanceSpacing: 0.8
BeatDivisor: 4
GridSize: 16
TimelineZoom: 2.1

[Metadata]
Title:Fell In Luv (feat. Bryson Tiller)
TitleUnicode:Fell In Luv (feat. Bryson Tiller)
Artist:Playboi Carti
ArtistUnicode:Playboi Carti
Creator:-Tochi
Version:Normal Luv
Source:
Tags:hip hop pierre pi'erre bourne die lit
BeatmapID:2168509
BeatmapSetID:841693

[Difficulty]
HPDrainRate:5
CircleSize:3.6
OverallDifficulty:8
ApproachRate:6
SliderMultiplier:0.999999999999999
SliderTickRate:1

[Events]
//Background and Video events
0,0,"bg.jpg",0,0
//Break Periods
//Storyboard Layer 0 (Background)
//Storyboard Layer 1 (Fail)
//Storyboard Layer 2 (Pass)
//Storyboard Layer 3 (Foreground)
//Storyboard Layer 4 (Overlay)
//Storyboard Sound Samples

[TimingPoints]
140,368.098159509202,4,2,1,60,1,0
140,-90.9090909090909,4,2,1,60,0,0
3084,-125,4,2,1,60,0,0
4189,-90.9090909090909,4,2,1,60,0,0
8974,-125,4,2,1,60,0,0
10078,-90.9090909090909,4,2,1,60,0,0
14863,-125,4,2,1,60,0,0
15968,-90.9090909090909,4,2,1,60,0,0
20753,-125,4,2,1,60,0,0
21857,-90.9090909090909,4,2,1,60,0,0
50201,-125,4,2,1,60,0,0
51305,-90.9090909090909,4,2,1,60,0,0
64189,-142.857142857143,4,2,1,60,0,0
64925,-86.9565217391304,4,2,1,70,0,1
65661,-76.9230769230769,4,2,1,70,0,1
65937,-76.9230769230769,4,2,1,5,0,1
66029,-100,4,2,1,70,0,1
66305,-100,4,2,1,5,0,1
66397,-83.3333333333333,4,2,1,70,0,1
66673,-83.3333333333333,4,2,1,5,0,1
66765,-83.3333333333333,4,2,1,70,0,1
67870,-125,4,2,1,60,0,0
68974,-90.9090909090909,4,2,1,60,0,0
73759,-125,4,2,1,60,0,0
74863,-90.9090909090909,4,2,1,60,0,0
79649,-125,4,2,1,60,0,0
80753,-90.9090909090909,4,2,1,60,0,0
85538,-125,4,2,1,60,0,0
86643,-90.9090909090909,4,2,1,60,0,0
103207,-125,4,2,1,60,0,0
104311,-90.9090909090909,4,2,1,60,0,0
109097,-125,4,2,1,60,0,0
110201,-90.9090909090909,4,2,1,60,0,0
114986,-125,4,2,1,60,0,0
116090,-90.9090909090909,4,2,1,60,0,0
120876,-125,4,2,1,60,0,0
121980,-90.9090909090909,4,2,1,60,0,0

[Colours]
Combo1 : 185,140,165
Combo2 : 213,125,113
Combo3 : 135,157,190
Combo4 : 215,181,100

[HitObjects]
456,228,140,6,0,P|434:240|349:230,1,110.000003356934,2|2,1:2|1:2,0:0:0:0:
292,167,876,1,8,0:0:0:0:
331,88,1244,2,0,L|356:32,2,55.0000016784668,0|2|2,1:0|1:2|0:0,0:0:0:0:
265,146,1980,2,0,P|220:170|155:159,1,110.000003356934,2|8,1:2|0:0,0:0:0:0:
126,139,2532,1,2,1:2:0:0:
126,139,2716,1,0,1:0:0:0:
99,231,3084,6,0,L|129:318,1,79.9999999999999,2|0,1:2|0:0,0:0:0:0:
172,298,3636,2,0,L|254:338,1,79.9999999999999,2|0,1:2|0:0,0:0:0:0:
286,322,4189,6,0,L|344:305,1,55.0000016784668,2|2,1:2|1:2,0:0:0:0:
381,297,4557,1,2,0:0:0:0:
428,223,4925,1,2,1:2:0:0:
380,148,5293,2,0,L|310:133,1,55.0000016784668,8|2,0:0|1:2,0:0:0:0:
288,158,5661,2,0,L|218:143,1,55.0000016784668,2|0,0:0|0:0,0:0:0:0:
163,190,6029,6,0,B|136:150|136:150|170:85,2,110.000003356934,6|0|8,1:2|1:0|0:0,0:0:0:0:
215,260,7133,1,2,1:2:0:0:
302,248,7501,2,0,B|349:238|349:238|371:168,2,110.000003356934,2|0|8,0:0|1:0|0:0,0:0:0:0:
215,260,8606,1,2,0:0:0:0:
215,260,8974,6,0,L|54:280,1,160,2|8,1:2|0:0,0:0:0:0:
79,194,10078,1,2,1:2:0:0:
56,108,10446,6,0,L|173:122,1,110.000003356934,2|0,1:2|1:0,0:0:0:0:
208,128,10998,1,0,0:0:0:0:
251,134,11182,2,0,L|328:118,1,55.0000016784668,8|0,0:0|1:0,0:0:0:0:
344,142,11551,2,0,L|421:126,1,55.0000016784668,2|2,1:2|0:0,0:0:0:0:
479,96,11919,6,0,P|435:160|439:248,1,165.0000050354,6|2,1:2|0:0,0:0:0:0:
456,284,12655,1,8,0:0:0:0:
383,334,13023,1,2,1:2:0:0:
339,326,13207,1,2,0:0:0:0:
295,318,13391,6,0,P|263:260|302:115,1,220.000006713867,2|8,1:2|0:0,0:0:0:0:
335,38,14495,1,2,1:2:0:0:
291,29,14679,1,0,0:0:0:0:
247,20,14863,6,0,P|202:57|94:56,1,160,2|8,1:2|0:0,0:0:0:0:
21,92,15968,1,2,1:2:0:0:
43,129,16152,1,2,0:0:0:0:
65,166,16336,6,0,L|77:289,1,110.000003356934,2|0,1:2|1:0,0:0:0:0:
157,306,17072,2,0,L|162:251,1,55.0000016784668,8|0,0:0|1:0,0:0:0:0:
201,232,17440,2,0,L|206:177,1,55.0000016784668,2|2,1:2|0:0,0:0:0:0:
280,124,17808,6,0,P|320:147|398:147,2,110.000003356934,6|0|8,1:2|0:0|0:0,0:0:0:0:
213,66,18913,1,2,1:2:0:0:
131,35,19281,2,0,P|85:27|12:53,2,110.000003356934,2|0|8,1:2|1:0|0:0,0:0:0:0:
213,66,20386,1,2,1:2:0:0:
213,66,20753,6,0,L|381:49,1,160,2|8,1:2|0:0,0:0:0:0:
460,46,21857,6,0,L|441:121,1,55.0000016784668,2|0,1:2|0:0,0:0:0:0:
430,140,22225,2,0,L|441:261,1,110.000003356934,2|0,1:2|1:0,0:0:0:0:
383,317,22962,2,0,L|319:304,1,55.0000016784668,8|0,0:0|1:0,0:0:0:0:
300,272,23330,2,0,L|236:259,1,55.0000016784668,2|2,0:0|0:0,0:0:0:0:
165,296,23698,6,0,P|114:314|68:231,1,165.0000050354,6|0,1:2|1:0,0:0:0:0:
94,197,24434,1,8,0:0:0:0:
170,153,24802,1,2,1:2:0:0:
213,150,24986,1,2,0:0:0:0:
256,148,25170,2,0,P|320:179|368:168,1,110.000003356934,2|0,1:2|1:0,0:0:0:0:
397,158,25722,1,0,1:0:0:0:
397,158,25906,1,8,1:2:0:0:
382,71,26274,2,0,L|319:58,1,55.0000016784668,2|2,1:2|0:0,0:0:0:0:
284,65,26643,6,0,L|110:88,1,165.0000050354,2|0,1:2|0:0,0:0:0:0:
77,96,27379,1,8,0:0:0:0:
17,160,27747,1,2,1:2:0:0:
8,203,27931,1,2,0:0:0:0:
1,246,28115,2,0,P|62:225|186:301,1,220.000006713867,2|8,1:2|1:2,0:0:0:0:
258,350,29219,2,0,L|332:343,1,55.0000016784668,2|0,1:2|0:0,0:0:0:0:
353,329,29587,6,0,P|385:268|355:175,1,165.0000050354,6|0,1:2|0:0,0:0:0:0:
320,159,30324,1,8,0:0:0:0:
234,179,30692,2,0,L|169:194,1,55.0000016784668,2|0,1:2|1:0,0:0:0:0:
139,207,31060,2,0,L|156:78,2,110.000003356934,2|0|8,1:2|1:0|1:2,0:0:0:0:
101,286,32164,1,2,1:2:0:0:
57,292,32348,1,2,0:0:0:0:
30,256,32532,6,0,L|5:22,1,220.000006713867,2|8,1:2|0:0,0:0:0:0:
93,51,33636,2,0,L|156:64,1,55.0000016784668,2|2,1:2|0:0,0:0:0:0:
187,45,34005,2,0,L|301:32,2,110.000003356934,2|0|8,1:2|1:0|1:2,0:0:0:0:
169,85,34925,1,2,0:0:0:0:
151,125,35109,1,2,0:0:0:0:
134,165,35293,1,0,1:0:0:0:
117,205,35477,6,0,B|171:240|171:240|333:214,1,220.000006713867,6|8,1:2|0:0,0:0:0:0:
353,132,36581,2,0,L|368:75,1,55.0000016784668,2|2,1:2|0:0,0:0:0:0:
382,37,36949,1,2,1:2:0:0:
465,63,37317,1,0,1:0:0:0:
441,148,37686,1,8,1:2:0:0:
353,132,38054,1,2,0:0:0:0:
309,126,38238,1,2,0:0:0:0:
265,120,38422,6,0,L|90:147,1,165.0000050354,2|0,1:2|1:0,0:0:0:0:
59,156,39158,1,8,1:2:0:0:
107,229,39526,1,2,1:2:0:0:
59,156,39894,2,0,P|53:108|82:46,2,110.000003356934,2|0|8,1:2|1:0|0:0,0:0:0:0:
107,229,40998,1,2,0:0:0:0:
148,243,41182,1,2,1:2:0:0:
189,257,41366,6,0,P|263:223|409:255,1,220.000006713867,2|8,1:2|0:0,0:0:0:0:
454,311,42471,1,2,1:2:0:0:
480,227,42839,2,0,P|466:167|426:130,1,110.000003356934,2|0,1:2|1:0,0:0:0:0:
345,120,43575,2,0,P|283:153|182:143,1,165.0000050354,8|2,1:2|0:0,0:0:0:0:
114,186,44311,6,0,P|69:177|26:72,1,165.0000050354,6|0,1:2|1:0,0:0:0:0:
57,47,45047,2,0,L|178:29,1,110.000003356934,8|2,0:0|1:2,0:0:0:0:
209,39,45600,1,2,0:0:0:0:
252,47,45784,1,2,1:2:0:0:
286,128,46152,1,0,1:0:0:0:
372,143,46520,1,8,0:0:0:0:
440,87,46888,1,2,1:2:0:0:
357,55,47256,6,0,L|379:280,1,220.000006713867,2|8,1:2|0:0,0:0:0:0:
316,336,48360,2,0,L|252:323,1,55.0000016784668,2|2,1:2|0:0,0:0:0:0:
220,311,48728,2,0,P|170:337|16:290,1,220.000006713867,2|8,1:2|0:0,0:0:0:0:
50,212,49833,2,0,L|116:196,1,55.0000016784668,2|0,1:2|0:0,0:0:0:0:
158,122,50201,6,0,L|0:98,1,160,2|8,1:2|0:0,0:0:0:0:
38,19,51305,1,2,1:2:0:0:
125,24,51673,6,0,L|235:40,1,110.000003356934,2|0,1:2|1:0,0:0:0:0:
267,68,52225,1,0,0:0:0:0:
300,96,52409,1,8,1:2:0:0:
387,84,52778,1,2,1:2:0:0:
474,72,53146,6,0,P|468:125|454:191,1,110.000003356934,2|0,1:2|1:0,0:0:0:0:
441,221,53698,1,0,0:0:0:0:
423,261,53882,1,8,0:0:0:0:
338,284,54250,2,0,L|311:217,1,55.0000016784668,2|0,1:2|0:0,0:0:0:0:
286,201,54618,6,0,P|230:194|154:176,1,110.000003356934,2|2,1:2|1:2,0:0:0:0:
138,161,55170,1,0,0:0:0:0:
138,161,55354,1,8,1:2:0:0:
67,214,55722,2,0,L|83:284,1,55.0000016784668,2|0,1:2|0:0,0:0:0:0:
101,305,56090,6,0,L|224:328,1,110.000003356934,2|2,1:2|0:2,0:0:0:0:
253,320,56643,1,0,1:0:0:0:
296,314,56827,2,0,L|355:304,1,55.0000016784668,8|0,0:0|0:0,0:0:0:0:
393,298,57195,1,2,1:2:0:0:
351,220,57563,1,2,1:2:0:0:
378,136,57931,1,2,1:2:0:0:
405,52,58299,1,8,0:0:0:0:
465,116,58667,1,2,1:2:0:0:
378,136,59035,6,0,L|247:118,1,110.000003356934,2|2,1:2|1:2,0:0:0:0:
226,131,59587,1,0,1:0:0:0:
183,141,59771,1,8,0:0:0:0:
95,150,60139,2,0,P|72:127|58:94,1,55.0000016784668,2|2,1:2|0:0,0:0:0:0:
55,63,60508,2,0,P|107:48|163:22,1,110.000003356934,2|2,1:2|1:2,0:0:0:0:
244,34,61244,1,8,2:0:0:0:
307,94,61612,2,0,L|367:84,1,55.0000016784668,2|2,1:2|1:2,0:0:0:0:
404,79,61980,6,0,P|430:121|441:180,1,110.000003356934,2|2,1:2|0:0,0:0:0:0:
433,223,62532,1,0,1:0:0:0:
402,254,62716,2,0,P|353:264|294:254,1,110.000003356934,8|2,0:0|1:2,0:0:0:0:
254,236,63268,1,2,0:0:0:0:
254,236,63452,1,2,1:2:0:0:
211,158,63820,1,2,1:2:0:0:
163,231,64189,6,0,L|82:241,1,69.9999978637695,2|0,0:0|3:0,0:0:0:0:
93,239,64925,6,0,B|49:191|49:191|47:134|96:95,1,172.500003290176,4|0,3:2|3:0,0:0:0:0:
169,62,65661,2,0,L|251:62,1,64.9999970245362,12|0,3:2|0:0,0:0:0:0:
309,97,66029,1,0,3:0:0:0:
313,196,66397,2,0,B|341:165|341:165|343:123|309:97,1,119.999996337891,0|0,3:0|3:0,0:0:0:0:
234,62,66949,1,0,0:0:0:0:
178,126,67133,2,0,L|206:331,1,179.999994506836,12|0,3:2|0:0,1:1:0:0:
278,356,67870,6,0,B|316:365|316:365|355:347,2,79.9999999999999,2|2|8,3:1|1:0|0:0,0:0:0:0:
138,323,68974,1,2,1:2:0:0:
253,239,69342,1,2,1:2:0:0:
278,356,69710,1,2,1:2:0:0:
181,332,70078,1,10,0:0:0:0:
155,236,70446,1,2,1:2:0:0:
253,239,70814,6,0,B|293:242|293:242|319:260|319:260|359:263,2,110.000003356934,6|0|8,1:2|1:0|0:0,0:0:0:0:
164,236,71919,1,2,1:2:0:0:
212,161,72287,2,0,B|235:127|235:127|263:113|263:113|286:81,2,110.000003356934,2|0|8,1:2|1:0|0:0,0:0:0:0:
240,194,73207,1,2,1:2:0:0:
268,227,73391,1,2,1:2:0:0:
296,260,73575,1,0,0:0:0:0:
324,293,73759,6,0,L|491:268,1,160,2|8,1:2|0:0,0:0:0:0:
441,191,74863,1,2,1:2:0:0:
482,112,75232,6,0,L|369:95,1,110.000003356934,2|2,1:2|1:2,0:0:0:0:
286,83,75968,1,8,0:0:0:0:
221,142,76336,2,0,L|161:159,1,55.0000016784668,2|0,0:0|1:0,0:0:0:0:
125,166,76704,6,0,P|80:155|41:94,1,110.000003356934,2|2,1:2|1:2,0:0:0:0:
51,62,77256,1,0,0:0:0:0:
86,35,77440,2,0,L|213:29,1,110.000003356934,8|2,0:0|1:2,0:0:0:0:
269,78,78176,2,0,L|383:90,2,110.000003356934,2|2|8,1:2|0:0|0:0,0:0:0:0:
232,103,79097,1,2,1:2:0:0:
195,128,79281,1,2,0:0:0:0:
172,211,79649,6,0,L|212:374,1,160,2|8,1:2|0:0,0:0:0:0:
290,329,80753,1,2,1:2:0:0:
369,366,81121,6,0,L|397:255,1,110.000003356934,2|2,1:2|1:2,0:0:0:0:
347,186,81857,2,0,L|306:127,1,55.0000016784668,8|0,0:0|1:0,0:0:0:0:
271,136,82225,2,0,L|230:77,1,55.0000016784668,2|0,1:2|0:0,0:0:0:0:
291,20,82593,6,0,L|410:9,1,110.000003356934,6|2,1:2|1:2,0:0:0:0:
441,27,83146,1,0,0:0:0:0:
481,44,83330,1,8,0:0:0:0:
436,120,83698,1,2,1:2:0:0:
452,206,84066,2,0,L|473:329,2,110.000003356934,2|2|8,1:2|1:2|0:0,0:0:0:0:
368,177,85170,2,0,L|309:167,1,55.0000016784668,2|2,1:2|1:2,0:0:0:0:
249,226,85538,6,0,L|170:244,2,79.9999999999999,2|2|10,1:2|0:2|0:0,0:0:0:0:
313,167,86643,1,2,1:2:0:0:
255,101,87011,6,0,L|127:88,1,110.000003356934,2|2,1:2|1:2,0:0:0:0:
114,121,87563,1,0,1:0:0:0:
83,152,87747,1,8,0:0:0:0:
128,227,88115,1,2,1:2:0:0:
67,290,88483,6,0,P|125:312|177:298,1,110.000003356934,6|2,1:2|1:2,0:0:0:0:
206,277,89035,1,2,1:2:0:0:
241,252,89219,2,0,P|295:242|345:264,1,110.000003356934,8|2,0:0|1:2,0:0:0:0:
418,312,89955,2,0,P|438:259|441:199,1,110.000003356934,2|2,1:2|1:2,0:0:0:0:
403,126,90692,1,8,0:0:0:0:
318,103,91060,2,0,L|252:89,1,55.0000016784668,2|0,0:0|1:0,0:0:0:0:
259,47,91428,6,0,L|371:37,1,110.000003356934,2|2,1:2|1:2,0:0:0:0:
454,57,92164,1,8,0:0:0:0:
505,128,92532,1,2,1:2:0:0:
498,171,92716,1,0,0:0:0:0:
490,214,92900,6,0,B|440:239|440:239|388:220,1,110.000003356934,2|2,1:2|1:2,0:0:0:0:
305,193,93636,2,0,L|240:205,1,55.0000016784668,8|0,0:0|0:0,0:0:0:0:
221,235,94005,2,0,L|156:247,1,55.0000016784668,2|0,1:2|0:0,0:0:0:0:
126,227,94373,6,0,L|109:106,2,110.000003356934,2|2|8,1:2|1:2|0:0,0:0:0:0:
91,308,95477,1,2,1:2:0:0:
25,249,95845,2,0,L|9:140,1,110.000003356934,2|2,1:2|1:2,0:0:0:0:
44,59,96581,1,8,0:0:0:0:
130,74,96949,2,0,L|185:82,1,55.0000016784668,2|0,1:2|0:0,0:0:0:0:
220,106,97317,6,0,P|262:86|341:88,2,110.000003356934,2|2|10,1:2|1:2|0:0,0:0:0:0:
194,141,98238,1,2,0:0:0:0:
173,180,98422,2,0,L|190:245,1,55.0000016784668,2|0,1:2|0:0,0:0:0:0:
205,273,98790,6,0,L|328:262,1,110.000003356934,2|2,1:2|1:2,0:0:0:0:
373,328,99526,2,0,L|496:317,1,110.000003356934,8|2,3:2|1:2,0:0:0:0:
502,232,100262,2,0,L|378:221,1,110.000003356934,0|2,3:0|1:2,0:0:0:0:
346,148,100998,2,0,L|222:137,1,110.000003356934,8|2,3:2|1:2,0:0:0:0:
270,57,101735,6,0,L|331:51,1,55.0000016784668,2|0,1:2|0:0,0:0:0:0:
356,22,102103,2,0,L|417:16,1,55.0000016784668,2|0,3:2|0:0,0:0:0:0:
449,37,102471,1,10,3:2:0:0:
503,106,102839,1,2,1:2:0:0:
492,148,103023,1,2,0:0:0:0:
481,190,103207,6,0,P|412:218|320:204,1,160,2|8,1:2|0:0,0:0:0:0:
253,162,104311,1,2,1:2:0:0:
179,114,104679,6,0,P|124:97|59:104,2,110.000003356934,2|2|8,0:0|1:2|0:0,0:0:0:0:
189,157,105600,1,2,1:2:0:0:
199,199,105784,1,2,0:0:0:0:
208,241,105968,1,0,0:0:0:0:
218,283,106152,6,0,P|264:297|329:281,2,110.000003356934,6|0|8,1:2|1:0|0:0,0:0:0:0:
153,223,107256,1,2,1:2:0:0:
218,163,107624,2,0,P|264:149|329:165,2,110.000003356934,2|0|8,0:0|1:0|0:0,0:0:0:0:
153,223,108728,1,2,0:0:0:0:
153,223,109097,6,0,P|81:237|13:187,1,160,2|8,1:2|0:0,0:0:0:0:
32,102,110201,1,2,1:2:0:0:
99,45,110569,6,0,L|216:37,1,110.000003356934,2|0,1:2|1:0,0:0:0:0:
289,72,111305,2,0,L|360:67,1,55.0000016784668,8|0,0:0|1:0,0:0:0:0:
382,88,111673,2,0,L|453:83,1,55.0000016784668,2|2,1:2|0:0,0:0:0:0:
470,112,112041,6,0,P|456:195|447:294,1,165.0000050354,6|2,1:2|0:0,0:0:0:0:
447,319,112778,1,8,0:0:0:0:
366,284,113146,1,2,1:2:0:0:
322,277,113330,1,2,0:0:0:0:
278,270,113514,6,0,P|269:183|248:34,1,220.000006713867,2|8,1:2|0:0,0:0:0:0:
168,20,114618,1,2,1:2:0:0:
124,15,114802,1,0,0:0:0:0:
80,10,114986,6,0,P|100:87|105:166,1,160,2|8,1:2|0:0,0:0:0:0:
88,253,116090,1,2,1:2:0:0:
29,319,116459,6,0,B|65:347|65:347|128:334,1,110.000003356934,2|0,1:2|1:0,0:0:0:0:
214,315,117195,2,0,L|267:304,1,55.0000016784668,8|0,0:0|1:0,0:0:0:0:
293,268,117563,2,0,L|346:257,1,55.0000016784668,2|2,1:2|0:0,0:0:0:0:
372,221,117931,6,0,L|355:86,2,110.000003356934,6|0|8,1:2|0:0|0:0,0:0:0:0:
435,281,119035,1,2,1:2:0:0:
498,221,119403,2,0,L|515:86,2,110.000003356934,2|0|8,1:2|1:0|0:0,0:0:0:0:
435,281,120508,1,2,1:2:0:0:
435,281,120876,6,0,L|264:262,1,160,2|8,1:2|0:0,0:0:0:0:
197,303,121980,6,0,L|183:234,1,55.0000016784668,2|0,1:2|0:0,0:0:0:0:
148,225,122348,2,0,L|167:114,1,110.000003356934,2|0,1:2|1:0,0:0:0:0:
253,103,123084,2,0,L|326:95,1,55.0000016784668,8|0,0:0|1:0,0:0:0:0:
351,92,123452,2,0,L|424:84,1,55.0000016784668,2|2,0:0|0:0,0:0:0:0:
432,50,123820,6,0,P|357:41|261:8,1,165.0000050354,6|0,1:2|1:0,0:0:0:0:
228,22,124557,1,8,0:0:0:0:
154,69,124925,1,2,1:2:0:0:
147,112,125109,1,2,0:0:0:0:
140,155,125293,6,0,P|163:204|169:274,1,110.000003356934,2|0,1:2|1:0,0:0:0:0:
170,302,125845,1,0,0:0:0:0:
170,302,126029,1,8,1:2:0:0:
235,360,126397,2,0,L|300:348,1,55.0000016784668,2|2,1:2|0:0,0:0:0:0:
332,357,126765,6,0,P|398:358|448:281,1,165.0000050354,2|0,1:2|0:0,0:0:0:0:
447,237,127501,1,8,0:0:0:0:
493,162,127870,1,2,1:2:0:0:
476,121,128054,1,2,0:0:0:0:
459,80,128238,6,0,P|355:80|222:53,1,220.000006713867,2|8,1:2|1:2,0:0:0:0:
154,71,129342,1,2,1:2:0:0:
110,79,129526,1,0,0:0:0:0:
66,87,129710,6,0,L|103:262,1,165.0000050354,6|0,1:2|0:0,0:0:0:0:
92,291,130446,1,8,0:0:0:0:
166,338,130814,2,0,L|230:342,1,55.0000016784668,2|0,1:2|1:0,0:0:0:0:
258,318,131182,2,0,P|278:268|249:156,1,165.0000050354,2|0,1:2|0:0,0:0:0:0:
215,141,131919,1,8,1:2:0:0:
251,60,132287,1,2,1:2:0:0:
294,54,132471,1,2,0:0:0:0:
337,47,132655,6,0,P|393:61|448:45,2,110.000003356934,2|0|8,1:2|0:0|0:0,0:0:0:0:
259,5,133759,1,2,1:2:0:0:
190,60,134127,2,0,P|146:81|84:76,1,110.000003356934,2|0,1:2|1:0,0:0:0:0:
13,126,134863,1,8,1:2:0:0:
185,159,135600,1,0,1:0:0:0:
