osu file format v14

[General]
AudioFilename: audio.mp3
AudioLeadIn: 0
PreviewTime: 93
Countdown: 0
SampleSet: Soft
StackLeniency: 0.4
Mode: 0
LetterboxInBreaks: 0
WidescreenStoryboard: 1

[Editor]
Bookmarks: 140,6029,35477,53146,64925,67870,106152,135600
DistanceSpacing: 0.9
BeatDivisor: 4
GridSize: 16
TimelineZoom: 2.1

[Metadata]
Title:Fell In Luv (feat. Bryson Tiller)
TitleUnicode:Fell In Luv (feat. Bryson Tiller)
Artist:Playboi Carti
ArtistUnicode:Playboi Carti
Creator:-Tochi
Version:Hard Luv
Source:
Tags:hip hop pierre pi'erre bourne die lit
BeatmapID:1761346
BeatmapSetID:841693

[Difficulty]
HPDrainRate:6
CircleSize:3.8
OverallDifficulty:8
ApproachRate:8
SliderMultiplier:1.8
SliderTickRate:1

[Events]
//Background and Video events
0,0,"bg2.jpg",0,0
//Break Periods
//Storyboard Layer 0 (Background)
//Storyboard Layer 1 (Fail)
//Storyboard Layer 2 (Pass)
//Storyboard Layer 3 (Foreground)
//Storyboard Layer 4 (Overlay)
//Storyboard Sound Samples

[TimingPoints]
140,368.098159509202,4,2,1,60,1,0
140,-90.9090909090909,4,2,1,60,0,0
3084,-125,4,2,1,60,0,0
4189,-90.9090909090909,4,2,1,60,0,0
8974,-125,4,2,1,60,0,0
10078,-90.9090909090909,4,2,1,60,0,0
14863,-125,4,2,1,60,0,0
15968,-90.9090909090909,4,2,1,60,0,0
20753,-125,4,2,1,60,0,0
21857,-90.9090909090909,4,2,1,60,0,0
50201,-125,4,2,1,60,0,0
51305,-90.9090909090909,4,2,1,60,0,0
64189,-142.857142857143,4,2,1,60,0,0
64925,-86.9565217391304,4,2,1,70,0,1
65661,-76.9230769230769,4,2,1,70,0,1
65937,-76.9230769230769,4,2,1,5,0,1
66029,-100,4,2,1,70,0,1
66305,-100,4,2,1,5,0,1
66397,-83.3333333333333,4,2,1,70,0,1
66673,-83.3333333333333,4,2,1,5,0,1
66765,-83.3333333333333,4,2,1,70,0,1
67870,-125,4,2,1,60,0,0
68974,-90.9090909090909,4,2,1,60,0,0
73759,-125,4,2,1,60,0,0
74863,-90.9090909090909,4,2,1,60,0,0
79649,-125,4,2,1,60,0,0
80753,-90.9090909090909,4,2,1,60,0,0
85538,-125,4,2,1,60,0,0
86643,-90.9090909090909,4,2,1,60,0,0
103207,-125,4,2,1,60,0,0
104311,-90.9090909090909,4,2,1,60,0,0
109097,-125,4,2,1,60,0,0
110201,-90.9090909090909,4,2,1,60,0,0
114986,-125,4,2,1,60,0,0
116090,-90.9090909090909,4,2,1,60,0,0
120876,-125,4,2,1,60,0,0
121980,-90.9090909090909,4,2,1,60,0,0

[Colours]
Combo1 : 231,194,223
Combo2 : 176,182,189
Combo3 : 183,166,164
Combo4 : 211,233,235

[HitObjects]
423,267,140,6,0,P|377:284|325:263,1,99.0000030212403,2|0,1:2|0:0,0:0:0:0:
264,209,508,2,0,P|191:191|103:279,1,198.000006042481,2|8,1:2|0:0,0:0:0:0:
105,266,1060,1,0,0:0:0:0:
148,351,1244,2,0,P|101:364|55:346,1,99.0000030212403,0|2,1:0|1:2,0:0:0:0:
105,266,1612,2,0,P|150:248|197:261,1,99.0000030212403,2|0,0:0|0:0,0:0:0:0:
260,323,1980,2,0,P|331:362|443:335,1,198.000006042481,2|8,1:2|0:0,0:0:0:0:
488,262,2532,1,2,1:2:0:0:
421,202,2716,2,0,P|395:156|393:104,1,99.0000030212403,0|0,1:0|0:0,0:0:0:0:
391,110,3084,6,0,P|391:182|352:244,1,144,2|0,1:2|0:0,0:0:0:0:
269,249,3636,1,2,1:2:0:0:
269,249,3820,2,0,P|230:231|194:234,1,72,8|0,0:0|0:0,0:0:0:0:
117,338,4189,6,0,L|216:324,2,99.0000030212403,2|2|2,1:2|1:2|0:0,0:0:0:0:
37,297,4741,1,0,0:0:0:0:
89,224,4925,2,0,B|70:153|70:153|64:183,1,99.0000030212403,2|0,1:2|0:0,0:0:0:0:
117,338,5293,5,8,0:0:0:0:
215,323,5477,1,2,1:2:0:0:
175,245,5661,5,2,0:0:0:0:
273,232,5845,1,0,0:0:0:0:
233,152,6029,6,0,P|300:195|326:310,1,198.000006042481,6|0,1:2|1:0,0:0:0:0:
327,304,6581,1,0,1:0:0:0:
430,258,6765,2,0,P|435:310|410:352,1,99.0000030212403,8|0,0:0|0:0,0:0:0:0:
264,364,7133,2,0,P|241:320|247:272,1,99.0000030212403,2|0,1:2|1:0,0:0:0:0:
386,185,7501,6,0,P|438:238|387:366,1,198.000006042481,2|0,0:0|1:0,0:0:0:0:
331,309,8054,1,0,1:0:0:0:
264,364,8238,2,0,P|220:386|172:380,1,99.0000030212403,8|0,0:0|0:0,0:0:0:0:
115,291,8606,1,2,0:0:0:0:
115,291,8790,1,2,1:2:0:0:
35,335,8974,6,0,P|2:281|22:197,1,144,2|0,1:2|0:0,0:0:0:0:
16,204,9526,2,0,P|35:235|31:285,2,72,0|8|0,0:0|0:0|1:0,0:0:0:0:
75,135,10078,6,0,P|127:125|186:116,1,99.0000030212403,2|0,1:2|0:0,0:0:0:0:
75,135,10446,2,0,P|165:171|251:129,1,198.000006042481,2|0,1:2|1:0,0:0:0:0:
282,45,10998,1,0,0:0:0:0:
345,107,11182,2,0,B|371:165|371:165|358:211,1,99.0000030212403,8|0,0:0|1:0,0:0:0:0:
442,237,11551,2,0,B|468:179|468:179|455:133,1,99.0000030212403,2|2,1:2|0:0,0:0:0:0:
289,38,11919,6,0,P|205:15|97:65,1,198.000006042481,6|0,1:2|0:0,0:0:0:0:
76,139,12471,1,2,0:0:0:0:
76,139,12563,1,2,0:0:0:0:
76,139,12655,2,0,P|106:175|112:236,1,99.0000030212403,8|0,0:0|0:0,0:0:0:0:
72,306,13023,1,2,1:2:0:0:
72,306,13207,1,2,0:0:0:0:
203,207,13391,6,0,P|267:253|398:255,1,198.000006042481,2|0,1:2|1:0,0:0:0:0:
383,259,13943,1,0,0:0:0:0:
445,195,14127,2,0,P|401:172|353:177,1,99.0000030212403,8|0,0:0|0:0,0:0:0:0:
354,346,14495,2,0,P|402:351|445:328,1,99.0000030212403,2|0,1:2|0:0,0:0:0:0:
445,195,14863,6,0,P|391:153|311:162,1,144,2|0,1:2|0:0,0:0:0:0:
318,157,15416,2,0,P|351:182|397:180,2,72,0|8|0,1:0|0:0|0:0,0:0:0:0:
268,84,15968,6,0,L|161:68,1,99.0000030212403,2|2,1:2|0:0,0:0:0:0:
170,69,16336,2,0,L|372:54,1,198.000006042481,2|0,1:2|1:0,0:0:0:0:
439,1,16888,1,0,0:0:0:0:
488,75,17072,1,8,0:0:0:0:
367,231,17256,1,0,1:0:0:0:
318,157,17440,1,2,1:2:0:0:
247,210,17624,1,2,0:0:0:0:
247,210,17808,6,0,P|148:222|49:225,1,198.000006042481,6|0,1:2|0:0,0:0:0:0:
49,225,18360,1,0,1:0:0:0:
79,308,18544,2,0,P|129:315|182:326,1,99.0000030212403,8|0,0:0|1:0,0:0:0:0:
247,210,18913,2,0,P|198:219|149:226,1,99.0000030212403,2|2,1:2|0:0,0:0:0:0:
269,309,19281,6,0,P|343:284|458:320,1,198.000006042481,2|0,1:2|1:0,0:0:0:0:
454,317,19833,1,0,1:0:0:0:
398,248,20017,2,0,P|376:197|384:148,1,99.0000030212403,8|0,0:0|1:0,0:0:0:0:
381,154,20385,1,2,1:2:0:0:
381,154,20569,1,2,0:0:0:0:
398,248,20753,6,0,P|340:286|264:275,1,144,2|0,1:2|0:0,0:0:0:0:
268,277,21305,2,0,P|297:252|339:248,2,72,0|8|0,0:0|0:0|1:0,0:0:0:0:
293,366,21857,6,0,P|330:382|392:371,1,99.0000030212403,2|0,1:2|0:0,0:0:0:0:
386,373,22225,2,0,P|316:357|185:361,1,198.000006042481,2|0,1:2|1:0,0:0:0:0:
191,359,22778,1,0,0:0:0:0:
132,291,22962,2,0,P|112:241|127:191,1,99.0000030212403,8|0,0:0|1:0,0:0:0:0:
122,198,23330,1,2,0:0:0:0:
78,276,23514,1,2,0:0:0:0:
39,356,23698,6,0,P|11:272|17:139,1,198.000006042481,6|0,1:2|1:0,0:0:0:0:
57,87,24250,1,0,1:0:0:0:
119,149,24434,2,0,P|162:169|219:161,1,99.0000030212403,8|0,0:0|0:0,0:0:0:0:
174,83,24802,1,2,1:2:0:0:
174,83,24986,1,2,0:0:0:0:
222,157,25170,6,0,P|291:203|412:194,1,198.000006042481,2|0,1:2|1:0,0:0:0:0:
475,146,25722,1,0,1:0:0:0:
402,198,25906,2,0,P|371:158|369:109,1,99.0000030212403,8|0,1:2|0:0,0:0:0:0:
485,230,26274,2,0,P|481:278|451:316,1,99.0000030212403,2|2,1:2|0:0,0:0:0:0:
364,337,26643,6,0,P|292:303|166:301,1,198.000006042481,2|0,1:2|0:0,0:0:0:0:
96,341,27195,1,0,0:0:0:0:
165,213,27379,2,0,L|261:171,1,99.0000030212403,8|0,0:0|0:0,0:0:0:0:
255,173,27747,1,2,1:2:0:0:
165,213,27931,1,2,0:0:0:0:
74,173,28115,6,0,P|33:87|55:-17,1,198.000006042481,2|0,1:2|1:0,0:0:0:0:
125,38,28667,1,0,1:0:0:0:
74,173,28851,2,0,L|39:272,1,99.0000030212403,8|0,1:2|0:0,0:0:0:0:
132,306,29219,2,0,L|164:212,1,99.0000030212403,2|0,1:2|0:0,0:0:0:0:
243,89,29587,6,0,P|257:166|342:274,1,198.000006042481,6|0,1:2|1:0,0:0:0:0:
404,303,30139,1,0,0:0:0:0:
325,261,30324,2,0,P|276:256|222:284,1,99.0000030212403,8|0,0:0|1:0,0:0:0:0:
196,357,30692,2,0,P|240:376|289:371,1,99.0000030212403,2|0,1:2|1:0,0:0:0:0:
404,303,31060,6,0,P|439:221|426:114,1,198.000006042481,2|0,1:2|1:0,0:0:0:0:
350,69,31612,1,0,0:0:0:0:
306,146,31796,2,0,P|264:178|198:177,1,99.0000030212403,8|0,1:2|0:0,0:0:0:0:
219,182,32164,1,2,1:2:0:0:
138,145,32348,1,2,0:0:0:0:
65,196,32532,6,0,P|108:98|98:9,1,198.000006042481,2|0,1:2|0:0,0:0:0:0:
98,9,33084,1,0,1:0:0:0:
189,79,33268,2,0,P|228:100|301:93,1,99.0000030212403,8|0,0:0|0:0,0:0:0:0:
349,42,33636,2,0,L|459:13,1,99.0000030212403,2|2,1:2|0:0,0:0:0:0:
435,116,34005,6,0,P|500:167|510:291,1,198.000006042481,2|0,1:2|1:0,0:0:0:0:
448,334,34557,1,0,0:0:0:0:
366,298,34741,1,8,1:2:0:0:
366,298,34925,2,0,P|318:289|261:282,1,99.0000030212403,2|2,0:0|0:0,0:0:0:0:
268,282,35293,1,0,1:0:0:0:
407,218,35477,6,0,P|372:168|218:154,1,198.000006042481,6|0,1:2|1:0,0:0:0:0:
171,193,36029,1,0,0:0:0:0:
244,141,36213,2,0,P|268:100|266:38,1,99.0000030212403,8|0,0:0|0:0,0:0:0:0:
171,193,36581,2,0,P|147:234|149:296,1,99.0000030212403,2|2,1:2|0:0,0:0:0:0:
145,284,36949,6,0,P|171:217|125:95,1,198.000006042481,2|0,1:2|1:0,0:0:0:0:
51,64,37501,1,0,0:0:0:0:
68,151,37686,2,0,P|89:194|70:254,1,99.0000030212403,8|0,1:2|0:0,0:0:0:0:
156,375,38054,2,0,P|134:331|145:283,1,99.0000030212403,2|2,0:0|0:0,0:0:0:0:
234,283,38422,6,0,P|309:246|439:261,1,198.000006042481,2|0,1:2|0:0,0:0:0:0:
504,153,38974,1,0,1:0:0:0:
444,86,39158,2,0,P|369:49|239:64,1,198.000006042481,8|2,1:2|1:2,0:0:0:0:
285,140,39710,1,2,0:0:0:0:
248,58,39894,6,0,P|162:98|54:76,1,198.000006042481,2|0,1:2|1:0,0:0:0:0:
63,81,40446,1,0,0:0:0:0:
18,158,40630,2,0,B|-9:219|-9:219|5:266,1,99.0000030212403,8|0,0:0|1:0,0:0:0:0:
86,229,40998,1,2,0:0:0:0:
86,229,41182,1,2,1:2:0:0:
141,308,41366,6,0,P|183:334|233:332,1,99.0000030212403,2|0,1:2|0:0,0:0:0:0:
306,283,41735,2,0,P|342:198|298:91,1,198.000006042481,0|8,1:0|0:0,0:0:0:0:
308,102,42287,1,2,1:2:0:0:
418,139,42471,2,0,P|447:181|447:237,1,99.0000030212403,2|0,1:2|0:0,0:0:0:0:
449,227,42839,6,0,P|478:185|478:129,1,99.0000030212403,2|0,1:2|0:0,0:0:0:0:
480,138,43207,2,0,P|509:180|487:333,1,198.000006042481,0|8,1:0|1:2,0:0:0:0:
417,360,43759,1,0,0:0:0:0:
340,314,43943,2,0,P|320:274|330:217,1,99.0000030212403,2|2,1:2|0:0,0:0:0:0:
190,175,44311,6,0,P|178:254|235:361,1,198.000006042481,6|0,1:2|0:0,0:0:0:0:
229,356,44863,1,0,1:0:0:0:
294,295,45047,1,8,0:0:0:0:
190,175,45232,1,0,0:0:0:0:
107,142,45416,1,2,1:2:0:0:
107,142,45600,1,2,0:0:0:0:
107,142,45784,6,0,P|58:226|68:324,1,198.000006042481,2|0,1:2|1:0,0:0:0:0:
139,376,46336,1,0,0:0:0:0:
68,324,46520,2,0,P|100:294|164:292,1,99.0000030212403,8|0,0:0|1:0,0:0:0:0:
264,240,46888,2,0,P|232:210|168:208,1,99.0000030212403,2|0,1:2|0:0,0:0:0:0:
178,204,47256,6,0,P|242:173|384:192,1,198.000006042481,2|0,1:2|1:0,0:0:0:0:
430,244,47808,1,0,0:0:0:0:
470,323,47992,2,0,L|361:328,1,99.0000030212403,8|0,0:0|0:0,0:0:0:0:
430,244,48360,1,2,1:2:0:0:
470,323,48544,1,2,0:0:0:0:
371,327,48728,6,0,P|286:351|175:320,1,198.000006042481,2|0,1:2|1:0,0:0:0:0:
118,260,49281,2,0,L|46:180,1,99.0000030212403,0|8,0:0|0:0,0:0:0:0:
51,186,49649,1,2,1:2:0:0:
118,260,49833,2,0,L|198:188,1,99.0000030212403,2|0,1:2|0:0,0:0:0:0:
191,193,50201,6,0,P|246:226|332:226,1,144,2|2,1:2|1:2,0:0:0:0:
325,227,50753,2,0,P|296:207|257:201,2,72,0|8|0,0:0|0:0|1:0,0:0:0:0:
374,302,51305,6,0,L|473:327,1,99.0000030212403,2|2,1:2|0:0,0:0:0:0:
469,326,51673,2,0,P|511:259|473:142,1,198.000006042481,2|0,1:2|1:0,0:0:0:0:
398,116,52225,1,0,0:0:0:0:
325,227,52409,2,0,L|437:212,1,99.0000030212403,8|2,1:2|0:0,0:0:0:0:
398,116,52778,2,0,L|299:102,1,99.0000030212403,2|0,1:2|0:0,0:0:0:0:
394,295,53146,6,0,P|431:205|397:115,1,198.000006042481,2|0,1:2|1:0,0:0:0:0:
299,102,53698,1,0,0:0:0:0:
236,165,53882,2,0,P|189:184|123:174,1,99.0000030212403,8|0,0:0|0:0,0:0:0:0:
41,132,54250,1,2,1:2:0:0:
41,132,54618,6,0,B|18:202|18:202|7:169,1,99.0000030212403,2|0,1:2|0:0,0:0:0:0:
80,44,54986,2,0,P|154:1|265:16,1,198.000006042481,2|8,1:2|1:2,0:0:0:0:
299,102,55538,1,0,0:0:0:0:
182,93,55722,1,2,1:2:0:0:
182,93,56090,6,0,P|236:194|218:301,1,198.000006042481,2|2,1:2|0:2,0:0:0:0:
178,347,56643,1,0,1:0:0:0:
229,274,56827,2,0,P|156:241|42:260,1,198.000006042481,8|2,0:0|1:2,0:0:0:0:
42,259,57379,1,0,1:0:0:0:
6,341,57563,6,0,P|54:348|99:329,1,99.0000030212403,2|0,1:2|0:0,0:0:0:0:
102,193,57931,2,0,P|57:173|8:181,2,99.0000030212403,2|0|8,1:2|0:0|0:0,0:0:0:0:
156,263,58483,1,2,1:2:0:0:
47,264,58667,1,2,1:2:0:0:
47,264,59035,6,0,P|19:152|59:80,1,198.000006042481,2|2,1:2|1:2,0:0:0:0:
139,54,59587,1,0,1:0:0:0:
211,106,59771,2,0,B|253:134|253:134|303:129,1,99.0000030212403,8|0,0:0|0:0,0:0:0:0:
429,196,60139,2,0,B|380:191|380:191|338:219,1,99.0000030212403,2|2,1:2|0:0,0:0:0:0:
502,109,60508,6,0,P|425:105|334:31,1,198.000006042481,2|2,1:2|1:2,0:0:0:0:
334,31,61060,1,0,0:0:0:0:
263,100,61244,2,0,B|234:48|234:48|247:11,1,99.0000030212403,8|0,2:0|0:0,0:0:0:0:
338,35,61612,2,0,B|367:87|367:87|354:124,1,99.0000030212403,2|2,1:2|1:2,0:0:0:0:
255,218,61980,6,0,P|174:263|67:247,1,198.000006042481,2|2,1:2|0:0,0:0:0:0:
29,172,62532,1,0,1:0:0:0:
29,172,62716,2,0,P|77:161|131:144,1,99.0000030212403,8|0,0:0|0:0,0:0:0:0:
255,218,63084,2,0,P|302:232|350:243,1,99.0000030212403,2|2,1:2|0:0,0:0:0:0:
321,331,63452,2,0,P|273:345|225:356,1,99.0000030212403,2|0,1:2|0:0,0:0:0:0:
210,135,63820,2,0,P|257:120|305:109,1,99.0000030212403,2|0,1:2|0:0,0:0:0:0:
306,109,64189,6,0,P|233:98|181:87,1,125.999996154785,2|0,0:0|3:0,0:0:0:0:
306,109,64925,6,0,P|236:53|128:79,1,207.000003948212,4|0,3:2|0:0,0:0:0:0:
67,264,65477,1,0,3:0:0:0:
128,334,65661,2,0,P|209:358|279:310,1,175.499991966248,12|0,3:2|0:0,0:0:0:0:
299,231,66029,2,0,P|258:177|191:176,1,135,0|0,3:0|0:0,0:0:0:0:
119,137,66397,6,0,P|195:157|260:112,1,161.999995056153,0|0,3:0|0:0,0:0:0:0:
269,70,66765,2,0,P|225:40|174:53,1,107.999996704102,0|0,3:0|0:0,0:0:0:0:
107,255,67133,2,0,P|160:261|214:270,1,107.999996704102,12|0,3:2|1:0,1:1:0:0:
296,208,67501,1,0,0:0:0:0:
233,278,67686,1,0,0:0:0:0:
322,296,67870,6,0,P|383:323|474:293,1,144,2|2,3:1|1:0,0:0:0:0:
456,306,68422,2,0,P|423:289|390:290,1,72,2|8,0:0|0:0,0:0:0:0:
296,208,68790,1,2,1:2:0:0:
296,208,68974,2,0,P|369:209|437:166,1,148.50000453186,2|2,1:2|1:2,0:0:0:0:
455,146,69342,5,2,1:2:0:0:
237,272,69618,1,2,1:2:0:0:
215,245,69710,2,0,P|150:209|76:211,1,148.50000453186,2|0,1:2|0:0,0:0:0:0:
78,212,70078,1,10,0:0:0:0:
6,266,70262,1,0,1:0:0:0:
1,176,70446,1,2,1:2:0:0:
1,176,70814,6,0,P|55:244|50:363,1,198.000006042481,6|0,1:2|1:0,0:0:0:0:
55,351,71366,1,0,0:0:0:0:
139,322,71551,2,0,P|187:309|239:311,1,99.0000030212403,8|0,0:0|0:0,0:0:0:0:
311,264,71919,2,0,P|323:216|322:166,1,99.0000030212403,2|0,1:2|0:0,0:0:0:0:
162,128,72287,6,0,P|136:223|138:321,1,198.000006042481,2|0,1:2|1:0,0:0:0:0:
52,300,72839,1,0,0:0:0:0:
138,321,73023,1,8,0:0:0:0:
51,308,73207,1,2,1:2:0:0:
137,329,73391,2,0,B|95:354|95:354|29:335,1,99.0000030212403,2|0,1:2|0:0,0:0:0:0:
15,216,73759,6,0,P|78:174|160:182,1,144,2|2,1:2|0:0,0:0:0:0:
144,175,74311,2,0,P|114:195|79:195,2,72,0|8|0,0:0|0:0|0:0,0:0:0:0:
208,113,74863,2,0,L|322:90,1,99.0000030212403,2|0,1:2|0:0,0:0:0:0:
357,218,75232,2,0,L|261:198,1,99.0000030212403,2|0,1:2|0:0,0:0:0:0:
347,357,75600,6,0,P|265:286|159:288,1,198.000006042481,2|8,1:2|0:0,0:0:0:0:
104,330,76152,1,0,1:0:0:0:
101,239,76336,1,2,0:0:0:0:
26,286,76520,1,0,1:0:0:0:
179,282,76704,6,0,P|275:290|357:237,1,198.000006042481,2|2,1:2|1:2,0:0:0:0:
357,237,77256,1,0,0:0:0:0:
410,165,77440,2,0,P|365:147|317:157,1,99.0000030212403,8|0,0:0|0:0,0:0:0:0:
307,307,77808,2,0,P|352:324|400:315,1,99.0000030212403,2|0,1:2|0:0,0:0:0:0:
468,257,78176,6,0,P|499:165|468:70,1,198.000006042481,2|2,1:2|0:0,0:0:0:0:
392,26,78728,1,0,1:0:0:0:
341,100,78913,1,8,0:0:0:0:
341,100,79097,2,0,L|232:88,1,99.0000030212403,2|2,1:2|0:0,0:0:0:0:
274,195,79465,1,0,1:0:0:0:
274,195,79649,6,0,P|226:224|124:211,1,144,2|2,1:2|0:0,0:0:0:0:
140,219,80201,2,0,P|163:204|214:210,2,72,0|8|0,0:0|0:0|0:0,0:0:0:0:
111,303,80753,1,2,1:2:0:0:
111,303,80937,1,0,0:0:0:0:
111,303,81121,6,0,P|127:228|56:100,1,198.000006042481,2|2,1:2|1:2,0:0:0:0:
28,192,81673,1,0,0:0:0:0:
80,119,81857,2,0,P|132:96|205:93,1,99.0000030212403,8|0,0:0|1:0,0:0:0:0:
301,205,82225,2,0,P|249:182|176:179,1,99.0000030212403,2|0,1:2|0:0,0:0:0:0:
80,315,82593,6,0,P|134:275|274:293,1,198.000006042481,6|2,1:2|1:2,0:0:0:0:
259,283,83146,1,0,0:0:0:0:
328,338,83330,2,0,B|393:346|393:346|431:318,1,99.0000030212403,8|0,0:0|1:0,0:0:0:0:
482,225,83698,2,0,B|417:217|417:217|390:236,1,99.0000030212403,2|0,1:2|0:0,0:0:0:0:
301,205,84066,6,0,P|256:138|271:8,1,198.000006042481,2|2,1:2|1:2,0:0:0:0:
262,24,84618,1,0,0:0:0:0:
197,85,84802,2,0,P|179:129|174:200,1,99.0000030212403,8|0,0:0|0:0,0:0:0:0:
197,301,85170,2,0,P|178:255|172:206,1,99.0000030212403,2|2,1:2|1:2,0:0:0:0:
109,75,85538,6,0,P|91:158|100:243,1,144,2|2,1:2|0:2,0:0:0:0:
117,321,86090,1,0,0:0:0:0:
117,321,86274,2,0,P|105:287|99:252,1,72,10|0,0:0|0:0,0:0:0:0:
197,85,86643,2,0,P|206:132|197:183,1,99.0000030212403,2|0,1:2|0:0,0:0:0:0:
13,290,87011,6,0,P|-10:202|7:94,1,198.000006042481,2|2,1:2|1:2,0:0:0:0:
84,55,87563,1,0,1:0:0:0:
161,99,87747,2,0,L|271:120,1,99.0000030212403,8|0,0:0|0:0,0:0:0:0:
380,229,88115,2,0,L|282:210,1,99.0000030212403,2|0,1:2|0:0,0:0:0:0:
161,321,88483,6,0,L|271:300,1,99.0000030212403,6|0,1:2|0:0,0:0:0:0:
258,302,88851,1,2,1:2:0:0:
282,209,89035,2,0,L|380:191,1,99.0000030212403,2|8,1:2|0:0,0:0:0:0:
469,103,89403,1,2,0:0:0:0:
469,103,89495,1,2,0:0:0:0:
469,103,89587,2,0,L|356:85,1,99.0000030212403,2|0,1:2|0:0,0:0:0:0:
284,65,89955,6,0,P|227:27|93:28,1,198.000006042481,2|2,1:2|1:2,0:0:0:0:
47,96,90508,1,0,0:0:0:0:
170,161,90692,2,0,P|125:180|76:180,1,99.0000030212403,8|0,0:0|1:0,0:0:0:0:
76,180,91060,1,2,0:0:0:0:
14,244,91244,1,0,1:0:0:0:
14,244,91428,6,0,P|57:288|189:292,1,198.000006042481,2|2,1:2|1:2,0:0:0:0:
186,293,91980,1,0,0:0:0:0:
268,328,92164,2,0,P|272:279|251:235,1,99.0000030212403,8|2,0:0|0:0,0:0:0:0:
219,204,92440,1,2,0:0:0:0:
218,204,92532,2,0,P|197:159|201:111,1,99.0000030212403,2|0,1:2|0:0,0:0:0:0:
263,28,92900,6,0,L|481:-2,1,198.000006042481,2|2,1:2|1:2,0:0:0:0:
508,75,93452,1,0,1:0:0:0:
508,75,93636,2,0,P|518:129|489:193,1,99.0000030212403,8|0,0:0|0:0,0:0:0:0:
431,220,94005,1,2,1:2:0:0:
349,183,94189,1,0,0:0:0:0:
431,220,94373,6,0,P|350:218|266:302,1,198.000006042481,2|2,1:2|1:2,0:0:0:0:
347,335,94925,1,0,0:0:0:0:
432,308,95109,2,0,P|462:215|428:102,1,198.000006042481,8|2,0:0|1:2,0:0:0:0:
439,119,95661,1,0,1:0:0:0:
366,68,95845,6,0,B|332:44|332:44|254:56,1,99.0000030212403,2|0,1:2|0:0,0:0:0:0:
210,158,96213,2,0,B|266:166|266:166|300:142,1,99.0000030212403,2|0,1:2|0:0,0:0:0:0:
275,52,96581,2,0,L|154:37,1,99.0000030212403,8|0,0:0|0:0,0:0:0:0:
111,171,96949,2,0,L|209:158,1,99.0000030212403,2|0,1:2|0:0,0:0:0:0:
211,246,97317,6,0,P|129:272|26:215,1,198.000006042481,2|2,1:2|1:2,0:0:0:0:
33,224,97870,1,0,0:0:0:0:
41,135,98054,2,0,P|90:111|154:125,1,99.0000030212403,10|2,0:0|0:0,0:0:0:0:
283,99,98422,2,0,P|247:65|199:55,1,99.0000030212403,2|0,1:2|0:0,0:0:0:0:
371,95,98790,6,0,P|403:139|373:283,1,198.000006042481,2|2,1:2|1:2,0:0:0:0:
382,273,99342,1,0,0:0:0:0:
297,301,99526,2,0,L|190:280,1,99.0000030212403,8|0,3:2|0:0,0:0:0:0:
199,281,99894,1,2,1:2:0:0:
17,42,100262,6,0,L|124:21,1,99.0000030212403,0|0,3:0|0:0,0:0:0:0:
114,22,100630,1,2,1:2:0:0:
402,177,100998,6,0,L|295:198,1,99.0000030212403,8|0,3:2|0:0,0:0:0:0:
304,196,101366,2,0,P|240:154|121:171,1,198.000006042481,2|2,1:2|1:2,0:0:0:0:
67,237,101919,1,0,0:0:0:0:
108,315,102103,2,0,P|156:336|213:330,1,99.0000030212403,2|0,3:2|0:0,0:0:0:0:
279,288,102471,2,0,P|323:268|372:270,1,99.0000030212403,10|0,3:2|0:0,0:0:0:0:
453,308,102839,1,2,1:2:0:0:
453,308,103023,1,2,0:0:0:0:
512,238,103207,6,0,P|531:170|499:96,1,144,2|2,1:2|0:0,0:0:0:0:
505,103,103759,2,0,P|492:136|501:170,2,72,0|8|2,0:0|0:0|0:0,0:0:0:0:
454,29,104311,2,0,L|348:8,1,99.0000030212403,2|0,1:2|0:0,0:0:0:0:
325,93,104679,2,0,P|263:129|144:98,1,198.000006042481,2|2,0:0|1:2,0:0:0:0:
37,324,105416,5,8,0:0:0:0:
124,337,105600,1,2,1:2:0:0:
117,246,105784,5,2,0:0:0:0:
204,260,105968,1,0,0:0:0:0:
197,169,106152,6,0,P|241:222|232:349,1,198.000006042481,6|0,1:2|1:0,0:0:0:0:
234,345,106704,1,0,1:0:0:0:
345,322,106888,2,0,P|369:288|375:221,1,99.0000030212403,8|0,0:0|0:0,0:0:0:0:
441,158,107256,2,0,P|467:199|473:247,1,99.0000030212403,2|0,1:2|1:0,0:0:0:0:
345,322,107624,6,0,P|301:266|312:141,1,198.000006042481,2|0,0:0|1:0,0:0:0:0:
377,86,108176,1,0,1:0:0:0:
377,86,108360,2,0,P|335:52|259:56,1,99.0000030212403,8|0,0:0|0:0,0:0:0:0:
349,230,108728,2,0,P|338:176|277:131,1,99.0000030212403,2|2,0:0|1:2,0:0:0:0:
207,354,109097,6,0,P|254:301|258:230,1,144,2|0,1:2|0:0,0:0:0:0:
258,230,109649,2,0,P|231:256|224:299,2,72,0|8|0,0:0|0:0|1:0,0:0:0:0:
349,230,110201,2,0,L|468:253,1,99.0000030212403,2|0,1:2|0:0,0:0:0:0:
504,181,110569,6,0,P|466:128|322:110,1,198.000006042481,2|0,1:2|1:0,0:0:0:0:
271,157,111121,1,0,0:0:0:0:
319,82,111305,2,0,P|273:59|204:63,1,99.0000030212403,8|0,0:0|1:0,0:0:0:0:
143,91,111673,1,2,1:2:0:0:
143,91,111857,1,2,0:0:0:0:
166,196,112041,6,0,P|208:280|202:381,1,198.000006042481,6|0,1:2|0:0,0:0:0:0:
201,381,112593,1,2,0:0:0:0:
101,372,112778,2,0,P|97:323|118:279,1,99.0000030212403,8|0,0:0|0:0,0:0:0:0:
290,234,113146,1,2,1:2:0:0:
323,316,113330,1,2,0:0:0:0:
234,305,113514,6,0,P|315:362|437:342,1,198.000006042481,2|0,1:2|1:0,0:0:0:0:
477,298,114066,1,0,0:0:0:0:
424,226,114250,2,0,P|406:181|401:112,1,99.0000030212403,8|0,0:0|0:0,0:0:0:0:
304,71,114618,2,0,P|298:120|279:165,1,99.0000030212403,2|0,1:2|0:0,0:0:0:0:
167,240,114986,6,0,P|99:249|30:214,1,144,2|0,1:2|0:0,0:0:0:0:
33,216,115538,2,0,P|64:200|100:204,2,72,0|8|0,1:0|0:0|0:0,0:0:0:0:
88,335,116090,2,0,P|145:343|206:307,1,99.0000030212403,2|2,1:2|0:0,0:0:0:0:
248,267,116459,6,0,P|297:229|436:249,1,198.000006042481,2|0,1:2|1:0,0:0:0:0:
425,241,117011,1,0,0:0:0:0:
501,288,117195,1,8,0:0:0:0:
429,245,117379,1,0,1:0:0:0:
418,156,117563,1,2,1:2:0:0:
473,86,117747,1,2,0:0:0:0:
473,86,117931,6,0,P|388:41|264:55,1,198.000006042481,6|0,1:2|0:0,0:0:0:0:
288,45,118483,1,0,1:0:0:0:
237,118,118667,2,0,L|347:155,1,99.0000030212403,8|0,0:0|1:0,0:0:0:0:
339,268,119035,2,0,P|298:292|239:290,1,99.0000030212403,2|2,1:2|0:0,0:0:0:0:
247,292,119403,6,0,P|316:246|431:245,1,198.000006042481,2|0,1:2|1:0,0:0:0:0:
503,291,119955,1,0,1:0:0:0:
420,140,120139,1,8,0:0:0:0:
330,149,120324,1,0,1:0:0:0:
484,198,120508,2,0,P|505:154|499:106,1,99.0000030212403,2|2,1:2|0:0,0:0:0:0:
358,34,120876,6,0,P|288:7|210:21,1,144,2|0,1:2|0:0,0:0:0:0:
221,16,121428,2,0,P|254:29|289:24,2,72,0|8|0,0:0|0:0|1:0,0:0:0:0:
141,55,121980,2,0,B|131:112|131:112|156:150,1,99.0000030212403,2|0,1:2|0:0,0:0:0:0:
186,261,122348,6,0,P|140:182|5:140,1,198.000006042481,2|0,1:2|1:0,0:0:0:0:
47,228,122900,1,0,0:0:0:0:
95,302,123084,2,0,L|190:275,1,99.0000030212403,8|0,0:0|1:0,0:0:0:0:
371,302,123452,2,0,L|275:275,1,99.0000030212403,2|2,0:0|0:0,0:0:0:0:
231,198,123820,6,0,P|200:151|243:14,1,198.000006042481,6|0,1:2|1:0,0:0:0:0:
321,10,124373,1,0,1:0:0:0:
402,46,124557,2,0,P|426:88|422:137,1,99.0000030212403,8|0,0:0|0:0,0:0:0:0:
337,111,124925,1,2,1:2:0:0:
337,111,125109,1,2,0:0:0:0:
405,166,125293,6,0,P|408:215|384:258,1,99.0000030212403,2|0,1:2|0:0,0:0:0:0:
306,299,125661,2,0,P|405:301|488:371,1,198.000006042481,0|8,1:0|1:2,0:0:0:0:
509,275,126213,1,0,0:0:0:0:
480,359,126397,2,0,L|365:379,1,99.0000030212403,2|2,1:2|0:0,0:0:0:0:
238,359,126765,6,0,P|200:287|214:174,1,198.000006042481,2|0,1:2|0:0,0:0:0:0:
253,94,127317,1,0,0:0:0:0:
73,81,127501,2,0,P|116:103|165:107,1,99.0000030212403,8|0,0:0|0:0,0:0:0:0:
246,60,127870,2,0,P|289:37|338:33,1,99.0000030212403,2|2,1:2|0:0,0:0:0:0:
343,159,128238,6,0,P|245:160|164:107,1,198.000006042481,2|0,1:2|1:0,0:0:0:0:
163,106,128790,1,0,1:0:0:0:
84,67,128974,2,0,P|75:123|107:177,1,99.0000030212403,8|0,1:2|0:0,0:0:0:0:
228,251,129342,2,0,P|245:205|235:157,1,99.0000030212403,2|0,1:2|0:0,0:0:0:0:
235,157,129710,6,0,P|195:232|219:353,1,198.000006042481,6|0,1:2|1:0,0:0:0:0:
296,365,130262,1,0,0:0:0:0:
378,330,130446,2,0,B|438:308|438:308|494:314,1,99.0000030212403,8|0,0:0|1:0,0:0:0:0:
472,311,130814,2,0,L|366:284,1,99.0000030212403,2|0,1:2|1:0,0:0:0:0:
377,286,131182,6,0,P|446:240|492:128,1,198.000006042481,2|0,1:2|1:0,0:0:0:0:
491,137,131735,1,0,0:0:0:0:
459,54,131919,2,0,P|419:83|401:128,1,99.0000030212403,8|0,1:2|0:0,0:0:0:0:
377,286,132287,1,2,1:2:0:0:
310,226,132471,1,2,0:0:0:0:
245,287,132655,6,0,P|163:320|49:276,1,198.000006042481,2|0,1:2|0:0,0:0:0:0:
62,288,133207,1,0,1:0:0:0:
115,216,133391,2,0,L|211:193,1,99.0000030212403,8|0,0:0|0:0,0:0:0:0:
211,193,133759,2,0,L|92:165,1,99.0000030212403,2|2,1:2|0:0,0:0:0:0:
114,170,134127,6,0,L|308:124,1,198.000006042481,2|0,1:2|1:0,0:0:0:0:
395,136,134679,1,0,0:0:0:0:
407,266,134863,1,8,1:2:0:0:
340,206,135047,1,2,0:0:0:0:
395,136,135232,2,0,B|453:120|453:120|507:138,1,99.0000030212403,0|0,0:0|1:0,0:0:0:0:
322,292,135600,5,0,1:0:0:0:
