osu file format v14

[General]
AudioFilename: audio.mp3
AudioLeadIn: 0
PreviewTime: 93
Countdown: 0
SampleSet: Soft
StackLeniency: 0.6
Mode: 0
LetterboxInBreaks: 0
WidescreenStoryboard: 1

[Editor]
Bookmarks: 140,6029,35477,53146,64925,67870,106152,135600
DistanceSpacing: 1
BeatDivisor: 4
GridSize: 16
TimelineZoom: 2.1

[Metadata]
Title:Fell In Luv (feat. Bryson Tiller)
TitleUnicode:Fell In Luv (feat. Bryson Tiller)
Artist:Playboi Carti
ArtistUnicode:Playboi Carti
Creator:-Tochi
Version:Easy Luv
Source:
Tags:hip hop pierre pi'erre bourne die lit
BeatmapID:2168508
BeatmapSetID:841693

[Difficulty]
HPDrainRate:3
CircleSize:3
OverallDifficulty:5
ApproachRate:4
SliderMultiplier:0.500000005960464
SliderTickRate:1

[Events]
//Background and Video events
0,0,"bg.jpg",0,0
//Break Periods
//Storyboard Layer 0 (Background)
//Storyboard Layer 1 (Fail)
//Storyboard Layer 2 (Pass)
//Storyboard Layer 3 (Foreground)
//Storyboard Layer 4 (Overlay)
//Storyboard Sound Samples

[TimingPoints]
140,368.098159509202,4,2,1,60,1,0
140,-100,4,2,1,60,0,0
3084,-100,4,2,1,60,0,0
4189,-100,4,2,1,60,0,0
8974,-100,4,2,1,60,0,0
10078,-100,4,2,1,60,0,0
14863,-100,4,2,1,60,0,0
15968,-100,4,2,1,60,0,0
20753,-100,4,2,1,60,0,0
21857,-100,4,2,1,60,0,0
50201,-100,4,2,1,60,0,0
51305,-100,4,2,1,60,0,0
64189,-100,4,2,1,60,0,0
64925,-83.3333333333333,4,2,1,70,0,1
65661,-83.3333333333333,4,2,1,70,0,1
65937,-83.3333333333333,4,2,1,5,0,1
66029,-83.3333333333333,4,2,1,70,0,1
66305,-83.3333333333333,4,2,1,5,0,1
66397,-83.3333333333333,4,2,1,70,0,1
66673,-83.3333333333333,4,2,1,5,0,1
66765,-83.3333333333333,4,2,1,70,0,1
67870,-100,4,2,1,60,0,0
68974,-100,4,2,1,60,0,0
73759,-100,4,2,1,60,0,0
74863,-100,4,2,1,60,0,0
79649,-100,4,2,1,60,0,0
80753,-100,4,2,1,60,0,0
85538,-100,4,2,1,60,0,0
86643,-100,4,2,1,60,0,0
103207,-100,4,2,1,60,0,0
104311,-100,4,2,1,60,0,0
109097,-100,4,2,1,60,0,0
110201,-100,4,2,1,60,0,0
114986,-100,4,2,1,60,0,0
116090,-100,4,2,1,60,0,0
120876,-100,4,2,1,60,0,0
121980,-100,4,2,1,60,0,0

[Colours]
Combo1 : 185,140,165
Combo2 : 213,125,113
Combo3 : 135,157,190
Combo4 : 215,181,100

[HitObjects]
473,88,140,6,0,L|373:74,1,100.000001192093,2|8,1:2|0:0,0:0:0:0:
327,92,1244,1,0,1:0:0:0:
284,118,1612,2,0,P|235:125|178:104,2,100.000001192093,2|8|2,0:0|0:0|1:2,0:0:0:0:
373,73,3820,2,0,L|425:79,1,50.0000005960464,8|2,0:0|1:2,0:0:0:0:
459,112,4557,2,0,L|465:164,1,50.0000005960464,2|2,0:0|1:2,0:0:0:0:
436,231,5477,1,2,1:2:0:0:
408,300,6029,6,0,L|308:284,1,100.000001192093,6|8,1:2|0:0,0:0:0:0:
250,203,7501,2,0,L|350:187,1,100.000001192093,2|8,0:0|0:0,0:0:0:0:
287,108,8974,2,0,P|237:99|188:73,1,100.000001192093,2|8,1:2|0:0,0:0:0:0:
153,46,10078,1,2,1:2:0:0:
114,78,10446,2,0,P|93:93|64:106,1,50.0000005960464,2|0,1:2|1:0,0:0:0:0:
49,175,11366,1,0,1:0:0:0:
27,246,11919,6,0,L|127:260,1,100.000001192093,6|8,1:2|0:0,0:0:0:0:
187,338,13391,2,0,L|287:324,1,100.000001192093,2|8,1:2|0:0,0:0:0:0:
379,359,14863,2,0,P|399:313|402:264,1,100.000001192093,2|8,1:2|0:0,0:0:0:0:
393,214,15968,1,2,1:2:0:0:
383,164,16336,2,0,P|384:139|391:112,1,50.0000005960464,2|0,1:2|1:0,0:0:0:0:
446,64,17256,1,0,1:0:0:0:
502,14,17808,5,6,1:2:0:0:
410,54,18544,1,8,0:0:0:0:
314,23,19281,2,0,L|210:13,1,100.000001192093,2|8,1:2|0:0,0:0:0:0:
133,72,20753,2,0,B|140:113|140:113|132:129|132:129|141:177,1,100.000001192093,2|8,1:2|0:0,0:0:0:0:
234,199,22225,2,0,B|237:178|237:178|233:170|233:170|238:146,1,50.0000005960464,2|0,1:2|1:0,0:0:0:0:
295,103,23146,1,0,1:0:0:0:
353,56,23698,6,0,L|463:72,1,100.000001192093,6|8,1:2|0:0,0:0:0:0:
486,106,24802,1,2,1:2:0:0:
451,141,25170,2,0,L|353:156,1,100.000001192093,2|8,1:2|1:2,0:0:0:0:
288,232,26643,2,0,P|242:252|193:248,1,100.000001192093,2|8,1:2|0:0,0:0:0:0:
147,227,27747,1,2,1:2:0:0:
113,189,28115,2,0,L|103:81,1,100.000001192093,2|8,1:2|1:2,0:0:0:0:
147,65,29219,1,2,1:2:0:0:
192,85,29587,6,0,P|230:97|290:84,1,100.000001192093,6|8,1:2|0:0,0:0:0:0:
330,59,30692,1,2,1:2:0:0:
372,33,31060,2,0,P|419:20|467:33,1,100.000001192093,2|8,1:2|1:2,0:0:0:0:
509,123,32532,6,0,L|493:224,1,100.000001192093,2|8,1:2|0:0,0:0:0:0:
482,270,33636,1,2,1:2:0:0:
435,287,34005,2,0,B|387:302|387:302|331:280,1,100.000001192093,2|8,1:2|1:2,0:0:0:0:
288,198,35477,6,0,P|263:157|189:79,1,150.000001788139,6|2,1:2|1:2,0:0:0:0:
143,83,36949,2,0,P|89:135|48:198,1,150.000001788139,2|2,1:2|0:0,0:0:0:0:
63,246,38422,2,0,P|137:253|211:246,1,150.000001788139,2|2,1:2|1:2,0:0:0:0:
259,230,39894,1,2,1:2:0:0:
295,195,40262,1,0,1:0:0:0:
304,145,40630,1,8,0:0:0:0:
280,100,40998,1,2,0:0:0:0:
233,82,41366,6,0,L|129:71,1,100.000001192093,2|8,1:2|0:0,0:0:0:0:
89,95,42471,1,2,1:2:0:0:
67,140,42839,5,2,1:2:0:0:
140,207,43575,1,8,1:2:0:0:
68,276,44311,1,6,1:2:0:0:
113,335,44863,2,0,L|146:341,1,25.0000002980232,0|8,1:0|0:0,0:0:0:0:
185,326,45416,2,0,L|218:320,1,25.0000002980232,2|2,1:2|0:0,0:0:0:0:
284,329,46152,2,0,L|388:341,1,100.000001192093,0|2,1:0|1:2,0:0:0:0:
425,314,47256,6,0,P|440:268|429:211,1,100.000001192093,2|8,1:2|0:0,0:0:0:0:
403,176,48360,1,2,1:2:0:0:
377,132,48728,2,0,P|369:83|384:35,2,100.000001192093,2|8|2,1:2|0:0|1:2,0:0:0:0:
445,205,50937,1,8,0:0:0:0:
366,267,51673,2,0,P|336:272|309:262,2,50.0000005960464,2|0|8,1:2|1:0|1:2,0:0:0:0:
330,360,53146,6,0,L|226:365,1,100.000001192093,2|8,1:2|0:0,0:0:0:0:
186,341,54250,1,2,1:2:0:0:
155,301,54618,1,2,1:2:0:0:
163,251,54986,1,2,1:2:0:0:
199,216,55354,1,8,1:2:0:0:
185,116,56090,6,0,L|174:10,1,100.000001192093,2|8,1:2|0:0,0:0:0:0:
126,31,57195,1,2,1:2:0:0:
78,46,57563,1,2,1:2:0:0:
30,61,57931,2,0,L|40:165,1,100.000001192093,2|2,1:2|1:2,0:0:0:0:
72,198,59035,6,0,L|178:213,1,100.000001192093,2|8,1:2|0:0,0:0:0:0:
220,204,60139,1,2,1:2:0:0:
269,196,60508,1,2,1:2:0:0:
318,188,60876,1,2,1:2:0:0:
367,181,61244,1,8,2:0:0:0:
440,248,61980,5,2,1:2:0:0:
462,150,62716,1,8,0:0:0:0:
367,181,63452,1,2,1:2:0:0:
318,188,63820,1,2,1:2:0:0:
269,196,64188,1,2,0:0:0:0:
220,204,64557,1,0,3:0:0:0:
172,272,64925,6,0,L|101:382,1,119.999997768402,4|12,3:2|3:2,0:0:0:0:
31,335,66029,1,0,3:0:0:0:
76,264,66397,2,0,L|108:213,1,59.999998884201,0|0,3:0|3:0,0:0:0:0:
189,189,67133,2,0,L|288:174,1,89.9999983263015,12|0,3:2|0:0,1:1:0:0:
319,170,67870,5,2,3:1:0:0:
273,80,68606,2,0,L|214:75,1,50.0000005960464,8|2,0:0|1:2,0:0:0:0:
174,85,69342,2,0,L|77:118,1,100.000001192093,2|10,1:2|0:0,0:0:0:0:
36,142,70446,1,2,1:2:0:0:
36,142,70814,6,0,P|26:191|49:245,1,100.000001192093,6|8,1:2|0:0,0:0:0:0:
82,267,71919,1,2,1:2:0:0:
82,267,72287,1,2,1:2:0:0:
166,213,73023,1,8,0:0:0:0:
238,281,73759,6,0,L|345:298,1,100.000001192093,2|8,1:2|0:0,0:0:0:0:
367,257,74863,1,2,1:2:0:0:
358,207,75232,2,0,L|251:190,1,100.000001192093,2|8,1:2|0:0,0:0:0:0:
209,184,76336,1,2,0:0:0:0:
168,155,76704,6,0,P|151:119|160:57,1,100.000001192093,2|8,1:2|0:0,0:0:0:0:
197,30,77808,1,2,1:2:0:0:
245,18,78176,2,0,L|346:12,1,100.000001192093,2|8,1:2|0:0,0:0:0:0:
365,57,79281,1,2,0:0:0:0:
383,103,79649,6,0,L|482:108,1,100.000001192093,2|8,1:2|0:0,0:0:0:0:
492,158,80753,1,2,1:2:0:0:
496,207,81121,2,0,L|396:212,1,100.000001192093,2|8,1:2|0:0,0:0:0:0:
361,249,82225,1,2,1:2:0:0:
333,290,82593,5,6,1:2:0:0:
250,233,83330,1,8,0:0:0:0:
165,286,84066,1,2,1:2:0:0:
82,229,84802,2,0,P|53:233|28:241,1,50.0000005960464,8|2,0:0|1:2,0:0:0:0:
14,285,85538,6,0,P|48:308|109:311,1,100.000001192093,2|10,1:2|0:0,0:0:0:0:
152,295,86643,1,2,1:2:0:0:
186,259,87011,2,0,L|246:249,1,50.0000005960464,2|2,1:2|1:2,0:0:0:0:
270,214,87747,2,0,L|330:204,1,50.0000005960464,8|2,0:0|1:2,0:0:0:0:
360,177,88483,5,6,1:2:0:0:
312,88,89219,1,8,0:0:0:0:
262,79,89587,1,2,1:2:0:0:
212,70,89955,2,0,B|171:81|171:81|154:76|154:76|108:88,1,100.000001192093,2|8,1:2|0:0,0:0:0:0:
67,101,91060,1,2,0:0:0:0:
33,138,91428,6,0,P|35:188|46:243,1,100.000001192093,2|8,1:2|0:0,0:0:0:0:
63,283,92532,1,2,1:2:0:0:
112,288,92900,1,2,1:2:0:0:
161,293,93268,1,2,1:2:0:0:
254,256,94005,1,2,1:2:0:0:
254,256,94373,2,0,L|362:274,1,100.000001192093,2|8,1:2|0:0,0:0:0:0:
395,246,95477,1,2,1:2:0:0:
426,206,95845,6,0,P|434:157|420:109,1,100.000001192093,2|8,1:2|0:0,0:0:0:0:
371,98,96949,1,2,1:2:0:0:
321,94,97317,1,2,1:2:0:0:
239,152,98054,1,10,0:0:0:0:
158,210,98790,1,2,1:2:0:0:
98,129,99526,1,8,3:2:0:0:
38,48,100262,6,0,P|82:30|133:34,1,100.000001192093,0|8,3:0|3:2,0:0:0:0:
180,51,101366,1,2,1:2:0:0:
230,49,101735,1,2,1:2:0:0:
279,47,102103,1,2,3:2:0:0:
367,93,102839,1,2,1:2:0:0:
367,93,103207,6,0,P|383:141|378:198,1,100.000001192093,2|8,1:2|0:0,0:0:0:0:
356,233,104311,1,2,1:2:0:0:
310,253,104679,2,0,L|259:245,1,50.0000005960464,2|2,0:0|1:2,0:0:0:0:
190,273,105600,1,2,1:2:0:0:
120,300,106152,6,0,L|12:291,1,100.000001192093,6|8,1:2|0:0,0:0:0:0:
67,203,107624,2,0,L|171:192,1,100.000001192093,2|8,0:0|0:0,0:0:0:0:
239,123,109097,6,0,B|273:88|273:88|322:120,1,100.000001192093,2|8,1:2|0:0,0:0:0:0:
354,147,110201,1,2,1:2:0:0:
396,173,110569,2,0,B|449:165,1,50.0000005960464,2|0,1:2|1:0,0:0:0:0:
472,95,111489,1,0,1:0:0:0:
500,25,112041,6,0,L|396:14,1,100.000001192093,6|8,1:2|0:0,0:0:0:0:
338,93,113514,2,0,L|238:103,1,100.000001192093,2|8,1:2|0:0,0:0:0:0:
160,165,114986,2,0,P|148:214|168:268,1,100.000001192093,2|8,1:2|0:0,0:0:0:0:
196,297,116090,1,2,1:2:0:0:
242,316,116459,2,0,L|297:306,1,50.0000005960464,2|0,1:2|1:0,0:0:0:0:
364,290,117379,1,0,1:0:0:0:
437,274,117931,6,0,P|448:230|451:174,1,100.000001192093,6|8,1:2|0:0,0:0:0:0:
353,154,119403,2,0,P|340:202|338:252,1,100.000001192093,2|8,1:2|0:0,0:0:0:0:
368,347,120876,2,0,L|260:334,1,100.000001192093,2|8,1:2|0:0,0:0:0:0:
220,347,121980,1,2,1:2:0:0:
171,360,122348,2,0,L|116:353,1,50.0000005960464,2|0,1:2|1:0,0:0:0:0:
89,286,123268,1,0,1:0:0:0:
56,218,123820,6,0,B|61:184|61:184|56:166|56:166|63:117,1,100.000001192093,6|8,1:2|0:0,0:0:0:0:
154,80,125293,2,0,B|160:126|160:126|155:144|155:144|160:178,1,100.000001192093,2|8,1:2|1:2,0:0:0:0:
239,239,126765,2,0,P|287:253|344:237,1,100.000001192093,2|8,1:2|0:0,0:0:0:0:
376,215,127870,1,2,1:2:0:0:
403,173,128238,2,0,L|417:72,1,100.000001192093,2|8,1:2|1:2,0:0:0:0:
316,77,129710,6,0,P|266:77|213:62,1,100.000001192093,6|8,1:2|0:0,0:0:0:0:
171,44,130814,1,2,1:2:0:0:
124,64,131182,2,0,P|75:77|26:77,1,100.000001192093,2|8,1:2|1:2,0:0:0:0:
26,177,132655,2,0,P|75:176|124:189,1,100.000001192093,2|8,1:2|0:0,0:0:0:0:
165,217,133759,1,2,1:2:0:0:
190,260,134127,1,2,1:2:0:0:
163,356,134863,1,8,1:2:0:0:
93,284,135600,1,0,1:0:0:0:
