osu file format v14

[General]
AudioFilename: Have a Nice Audio o3o.mp3
AudioLeadIn: 0
PreviewTime: 60958
Countdown: 0
SampleSet: None
StackLeniency: 0.7
Mode: 0
LetterboxInBreaks: 0
WidescreenStoryboard: 0

[Editor]
DistanceSpacing: 0.8
BeatDivisor: 2
GridSize: 32
TimelineZoom: 1

[Metadata]
Title:Have a nice MUSIC!!(TVedit)
TitleUnicode:Have a nice MUSIC!!(TVedit)
Artist:Plasmagica
ArtistUnicode:プラズマジカ
Creator:ErunamoJAZZ
Version:Advanced
Source:SHOW BY ROCK!!
Tags:ショウ・バイ・ロック!! Ending Neku Okazaki pkhg IamKwaN
BeatmapID:821881
BeatmapSetID:375264

[Difficulty]
HPDrainRate:4
CircleSize:3
OverallDifficulty:4
ApproachRate:5
SliderMultiplier:1.2
SliderTickRate:1

[Events]
//Background and Video events
Video,0,"plasmagica720p.avi"
0,0,"Show by rock new BG.jpg",0,0
//Break Periods
//Storyboard Layer 0 (Background)
//Storyboard Layer 1 (Fail)
//Storyboard Layer 2 (Pass)
//Storyboard Layer 3 (Foreground)
//Storyboard Sound Samples

[TimingPoints]
610,348.837209302326,4,3,10,70,1,0
62005,-100,4,3,10,70,0,1
84330,-100,4,3,10,70,0,0

[Colours]
Combo1 : 248,230,99
Combo2 : 255,164,255
Combo3 : 53,53,255
Combo4 : 142,119,255

[HitObjects]
37,103,610,6,0,P|53:219|146:290,1,240,4|0,0:1|0:0,0:0:0:0:
188,140,1656,1,0,1:0:0:0:
296,28,2005,2,0,P|330:76|343:134,1,120,2|0,0:2|1:0,0:0:0:0:
316,208,2528,2,0,B|292:272|336:324|336:324|404:284,1,180,0|0,0:0|1:0,0:0:0:0:
500,192,3400,5,4,0:1:0:0:
412,64,3749,2,0,P|367:42|284:56,1,120,0|8,1:0|0:3,0:0:0:0:
256,200,4447,1,0,1:0:0:0:
104,236,4796,1,8,0:0:0:0:
104,236,5144,2,0,P|49:212|13:165,1,120,2|2,0:2|3:2,0:0:0:0:
148,88,5842,1,2,0:2:0:0:
256,200,6191,6,0,P|296:172|380:176,1,120,4|0,0:2|1:0,0:0:0:0:
397,241,6714,1,0,0:0:0:0:
400,320,6889,2,0,P|360:348|276:344,1,120,2|0,0:2|1:0,0:0:0:0:
252,280,7412,1,0,0:0:0:0:
188,232,7586,6,0,P|136:212|68:228,1,120,2|0,0:2|1:0,0:0:0:0:
28,160,8110,2,0,P|64:112|68:44,1,120,2|2,0:2|0:2,0:0:0:0:
140,16,8633,1,2,1:2:0:0:
208,52,8807,1,2,0:2:0:0:
280,84,8982,6,0,P|336:104|416:96,1,120,4|0,0:1|1:0,0:0:0:0:
460,148,9505,1,0,0:0:0:0:
503,212,9679,2,0,P|511:277|466:326,1,120,2|0,0:2|1:0,0:0:0:0:
436,252,10203,1,0,0:0:0:0:
392,187,10377,6,0,P|359:235|370:294,1,120,2|0,0:2|1:0,0:0:0:0:
304,337,10900,1,2,0:2:0:0:
229,313,11075,2,0,L|169:293,1,60,2|0,0:2|0:0,0:0:0:0:
101,265,11423,1,0,1:0:0:0:
27,237,11598,1,0,0:0:0:0:
16,160,11772,22,0,L|132:92,1,120,6|8,0:2|0:2,0:0:0:0:
336,104,12470,2,0,L|212:180,1,120,2|10,0:2|0:2,0:0:0:0:
382,323,13168,6,0,L|437:291,1,60,2|2,0:2|0:2,0:0:0:0:
485,234,13516,1,10,0:2:0:0:
492,156,13691,2,0,P|464:104|404:76,1,120,2|2,0:2|0:2,0:0:0:0:
336,104,14214,2,0,L|300:168,1,60,8|2,0:2|0:2,0:0:0:0:
312,236,14563,6,0,P|320:296|304:356,1,120,4|8,0:2|1:2,0:0:0:0:
164,288,15261,1,2,0:2:0:0:
164,288,15610,1,8,1:2:0:0:
19,343,15958,6,0,P|11:284|26:227,1,120,4|2,0:2|0:2,0:0:0:0:
89,179,16482,1,0,0:0:0:0:
112,104,16656,2,0,L|56:76,2,60,0|0|0,1:0|1:0|1:0,1:1:0:0:
256,160,17354,6,0,P|312:176|372:160,1,120,4|2,0:2|0:0,0:0:0:0:
504,84,18051,2,0,L|492:24,2,60,2|2|0,0:0|0:2|0:0,0:0:0:0:
512,164,18575,6,0,P|504:228|452:280,1,120,2|2,0:2|0:2,0:0:0:0:
392,256,19098,1,8,1:2:0:0:
320,285,19272,1,2,0:2:0:0:
297,360,19447,2,0,P|251:324|250:251,1,120,2|8,0:2|1:2,0:0:0:0:
256,188,19970,1,0,0:0:0:0:
256,188,20144,22,0,P|212:152|144:148,1,120,4|8,0:2|0:2,0:0:0:0:
40,260,20842,2,0,L|84:316,1,60,2|2,0:0|0:2,0:0:0:0:
134,360,21191,1,0,0:0:0:0:
212,352,21365,6,0,P|276:356|340:324,1,120,2|2,0:2|0:2,0:0:0:0:
384,280,21889,1,8,1:2:0:0:
356,208,22063,1,2,0:2:0:0:
404,144,22237,2,0,P|348:128|296:156,1,120,2|0,0:2|1:2,0:0:0:0:
256,192,22935,12,2,26947,0:2:0:0:
32,132,28516,38,0,P|56:84|124:48,1,120,4|0,0:1|1:0,0:0:0:0:
188,64,29040,1,0,0:0:0:0:
188,64,29214,2,0,L|240:104,1,60,2|0,0:2|0:0,0:0:0:0:
300,56,29563,2,0,L|360:100,1,60,2|0,1:2|0:0,0:0:0:0:
426,81,29912,5,2,0:2:0:0:
496,220,30261,1,2,1:2:0:0:
388,332,30610,2,0,L|440:371,2,60,2|2|2,0:2|0:2|1:2,0:0:0:0:
360,180,31307,22,0,P|344:128|288:96,1,120,2|0,0:2|1:0,0:0:0:0:
280,176,31830,2,0,L|236:216,1,60,0|2,0:0|0:2,0:0:0:0:
176,164,32179,1,2,0:2:0:0:
112,120,32354,2,0,L|60:168,1,60,2|0,1:2|0:0,0:0:0:0:
48,236,32703,5,2,0:2:0:0:
156,352,33051,1,2,1:2:0:0:
260,236,33400,2,0,L|313:192,2,60,2|0|2,0:2|0:0|1:2,0:0:0:0:
320,288,33923,1,2,0:2:0:0:
380,236,34098,6,0,L|481:156,1,120,4|8,0:2|1:0,0:0:0:0:
507,90,34621,1,2,0:2:0:0:
444,44,34796,2,0,L|350:119,1,120,2|8,0:2|1:0,0:0:0:0:
274,100,35319,1,2,0:2:0:0:
204,68,35493,6,0,L|106:147,1,120,2|8,0:2|1:0,0:0:0:0:
64,208,36016,1,2,0:2:0:0:
60,288,36191,2,0,P|108:320|176:312,1,120,0|8,0:0|1:0,0:0:0:0:
300,232,36889,6,0,P|340:180|408:172,1,120,4|2,0:2|1:2,0:0:0:0:
416,320,37586,2,0,P|440:340|488:348,2,60,2|0|2,0:2|0:0|1:2,0:0:0:0:
380,248,38110,1,2,0:2:0:0:
390,168,38284,6,0,B|360:129|277:152|277:152|322:78|293:40,1,240,0|2,0:0|1:2,0:0:0:0:
140,56,39330,1,0,1:0:0:0:
68,196,39679,5,4,0:2:0:0:
104,348,40028,2,0,P|156:364|228:336,1,120,0|2,1:0|0:2,0:0:0:0:
256,276,40551,1,0,0:0:0:0:
332,256,40726,2,0,L|384:296,1,60,2|2,1:2|0:2,0:0:0:0:
436,236,41075,6,0,P|436:180|472:124,2,120,2|2|0,0:2|1:2|0:2,0:0:0:0:
462,309,41947,2,0,L|429:359,1,60,2|2,0:2|1:2,0:0:0:0:
275,340,42470,6,0,P|207:344|159:312,1,120,0|0,0:0|1:2,0:0:0:0:
128,248,42993,1,2,0:2:0:0:
120,170,43168,2,0,P|105:109|38:81,1,120,2|2,0:2|1:2,0:0:0:0:
44,158,43691,1,2,0:2:0:0:
52,235,43865,5,2,0:2:0:0:
204,192,44214,1,2,1:2:0:0:
316,304,44563,2,0,P|356:268|372:200,1,120,2|2,0:2|1:2,0:0:0:0:
284,76,45261,6,0,L|159:38,1,120,6|8,0:2|1:0,0:0:0:0:
106,85,45784,1,0,0:0:0:0:
174,124,45958,2,0,L|181:243,1,120,0|8,0:0|0:1,0:0:0:0:
227,307,46482,1,0,0:0:0:0:
259,234,46656,6,0,L|338:129,1,120,0|8,0:0|1:0,0:0:0:0:
361,64,47179,1,0,0:0:0:0:
284,76,47354,1,0,0:0:0:0:
428,132,47703,1,8,1:0:0:0:
356,268,48051,6,0,P|416:284|496:272,2,120,6|2|2,0:2|1:2|0:2,0:0:0:0:
288,232,48923,1,2,0:2:0:0:
228,184,49098,1,2,1:2:0:0:
180,36,49447,6,0,P|124:68|84:136,1,120,2|2,0:2|1:2,0:0:0:0:
76,268,50144,1,2,0:2:0:0:
228,240,50493,1,2,1:2:0:0:
368,312,50842,6,0,P|417:245|423:146,2,180,6|2|2,0:2|0:2|1:2,0:0:0:0:
276,186,52237,1,2,0:2:0:0:
353,47,52586,1,2,1:2:0:0:
199,51,52935,1,2,0:2:0:0:
115,183,53284,1,2,1:2:0:0:
183,325,53633,6,0,P|243:355|320:347,2,120,2|0|2,0:2|1:2|0:2,0:0:0:0:
80,208,54679,1,2,1:2:0:0:
68,52,55028,2,0,P|132:20|196:20,1,120,2|2,0:2|1:2,0:0:0:0:
255,39,55551,1,2,0:2:0:0:
332,20,55726,2,0,P|391:25|443:54,1,120,2|2,0:2|1:2,0:0:0:0:
340,172,56423,6,0,P|348:234|389:272,1,120,4|2,0:2|1:2,0:0:0:0:
335,330,56947,2,0,P|272:338|234:379,1,120,4|2,0:2|0:2,0:0:0:0:
175,327,57470,2,0,P|166:264|125:226,1,120,4|2,1:2|0:2,0:0:0:0:
184,172,57993,2,0,P|246:163|284:122,1,120,4|0,0:2|0:0,0:0:0:0:
344,76,58516,2,0,L|408:96,1,60,2|2,0:2|0:2,0:0:0:0:
408,172,58865,2,0,L|465:189,1,60,2|2,1:2|0:2,0:0:0:0:
470,267,59214,1,4,2:0:0:0:
256,192,59389,12,4,60610,0:0:0:0:
464,312,62005,6,0,P|432:344|352:356,1,120,6|0,0:2|1:0,0:0:0:0:
292,320,62528,1,2,0:2:0:0:
240,260,62703,2,0,P|196:220|128:208,1,120,2|2,0:2|1:2,0:0:0:0:
60,204,63226,1,2,0:2:0:0:
100,136,63400,6,0,P|128:96|208:64,1,120,2|0,0:2|1:2,0:0:0:0:
268,76,63923,2,0,P|314:105|396:104,1,120,2|2,0:2|0:2,0:0:0:0:
448,148,64447,1,2,1:2:0:0:
436,224,64621,1,2,0:2:0:0:
392,288,64796,6,0,P|346:333|288:362,1,120,6|0,0:2|1:0,0:0:0:0:
220,344,65319,1,2,0:2:0:0:
176,280,65493,2,0,P|221:234|279:205,1,120,2|0,0:2|1:0,0:0:0:0:
344,180,66016,1,2,0:2:0:0:
377,109,66191,6,0,P|348:48|296:20,1,120,2|2,0:2|1:2,0:0:0:0:
228,40,66714,1,2,0:2:0:0:
88,112,67063,2,0,L|60:52,2,60,2|2|2,0:2|1:2|0:2,0:0:0:0:
112,188,67586,22,0,L|48:332,1,120,6|8,0:2|1:0,0:0:0:0:
140,316,68110,1,2,0:2:0:0:
172,244,68284,2,0,L|275:305,1,120,2|8,0:2|1:0,0:0:0:0:
320,240,68807,1,2,0:2:0:0:
253,198,68982,6,0,L|193:164,2,60,2|2|8,0:2|0:2|1:0,0:0:0:0:
322,161,69505,1,2,0:2:0:0:
439,58,69854,2,0,L|387:30,2,60,2|8|2,0:2|1:0|0:2,0:0:0:0:
481,124,70377,6,0,L|413:245,1,120,2|4,0:2|1:2,0:0:0:0:
320,352,71075,1,2,0:2:0:0:
256,212,71423,1,4,1:2:0:0:
284,140,71598,1,2,0:2:0:0:
256,68,71772,6,0,P|196:65|142:88,1,120,2|4,0:2|1:2,0:0:0:0:
180,240,72470,2,0,L|220:300,1,60,8|8,3:3|0:3,0:0:0:0:
140,324,72819,2,0,L|176:380,1,60,8|8,1:3|0:3,0:0:0:0:
68,352,73168,6,0,P|28:304|24:228,1,120,6|2,0:2|1:2,0:0:0:0:
40,172,73691,1,2,0:2:0:0:
96,116,73865,2,0,P|154:94|227:117,1,120,2|0,0:2|1:0,0:0:0:0:
280,139,74389,1,2,0:2:0:0:
288,216,74563,6,0,P|291:278|340:336,1,120,2|2,0:2|1:2,0:0:0:0:
400,340,75086,2,0,P|452:305|478:234,1,120,2|2,0:2|0:2,0:0:0:0:
428,192,75610,1,2,1:2:0:0:
352,168,75784,1,2,0:2:0:0:
412,112,75958,22,0,B|381:78|330:88|330:88|278:73,1,120,6|0,0:2|1:0,0:0:0:0:
148,40,76656,1,2,0:2:0:0:
28,136,77005,1,0,1:0:0:0:
28,136,77179,1,0,0:0:0:0:
28,136,77354,6,0,P|56:188|100:229,1,120,2|2,0:2|1:2,0:0:0:0:
176,252,77877,1,2,0:2:0:0:
252,272,78051,2,0,P|223:324|179:365,1,120,2|2,0:2|1:2,0:0:0:0:
100,229,78749,38,0,B|121:205|129:168|129:168|191:141,1,120,4|8,0:2|1:0,0:0:0:0:
333,148,79447,2,0,B|380:168|380:168|388:205|410:228,1,120,2|8,0:2|1:0,0:0:0:0:
256,259,80144,6,0,B|256:199,1,60,2|2,0:2|0:2,0:0:0:0:
256,119,80493,1,8,1:0:0:0:
256,40,80668,1,2,0:2:0:0:
412,60,81016,6,0,P|388:120|404:172,1,120,2|2,0:2|0:2,0:0:0:0:
428,244,81540,2,0,P|444:308|416:368,2,120,6|8|2,0:2|1:1|0:2,0:0:0:0:
284,304,82586,1,8,1:1:0:0:
144,368,82935,5,4,0:2:0:0:
144,368,83110,2,0,P|125:312|141:255,1,120,2|2,0:2|0:2,0:0:0:0:
184,189,83633,2,0,L|140:113,1,60,2|0,0:2|1:0,0:0:0:0:
112,72,83982,1,8,1:0:0:0:
256,192,84330,12,4,88342,0:2:0:0:
