osu file format v14

[General]
AudioFilename: audio.mp3
AudioLeadIn: 0
PreviewTime: -1
Countdown: 1
SampleSet: None
StackLeniency: 0.7
Mode: 0
LetterboxInBreaks: 0
WidescreenStoryboard: 0

[Editor]
Bookmarks: 28516,67586,73168,78749
DistanceSpacing: 1
BeatDivisor: 4
GridSize: 16
TimelineZoom: 1

[Metadata]
Title:Have a Nice MUSIC! (TV edit)
TitleUnicode:Have a Nice MUSIC! (TV edit)
Artist:Plasmagica
ArtistUnicode:Plasmagica
Creator:Y33ZY69
Version:pretty hard
Source:
Tags:
BeatmapID:1771679
BeatmapSetID:847127

[Difficulty]
HPDrainRate:6
CircleSize:4
OverallDifficulty:9
ApproachRate:9.5
SliderMultiplier:1.4
SliderTickRate:1

[Events]
//Background and Video events
//Break Periods
//Storyboard Layer 0 (Background)
//Storyboard Layer 1 (Fail)
//Storyboard Layer 2 (Pass)
//Storyboard Layer 3 (Foreground)
//Storyboard Sound Samples

[TimingPoints]
610,348.837209302326,4,1,0,100,1,0
5493,-80,4,1,0,100,0,0
5842,-66.6666666666667,4,1,0,100,0,0
6191,-66.6666666666667,4,1,0,100,0,1
17354,-100,4,1,0,100,0,0
61307,-80,4,1,0,100,0,0
61656,-66.6666666666667,4,1,0,100,0,0
62005,-66.6666666666667,4,1,0,100,0,1
84330,-100,4,1,0,100,0,0

[Colours]
Combo1 : 128,255,128
Combo2 : 255,255,128
Combo3 : 255,128,192
Combo4 : 208,139,254
Combo5 : 91,173,255

[HitObjects]
398,52,610,5,0,0:0:0:0:
398,52,958,5,0,0:0:0:0:
296,194,1133,1,0,0:0:0:0:
436,173,1307,1,0,0:0:0:0:
260,85,1482,1,0,0:0:0:0:
383,274,1656,1,0,0:0:0:0:
383,274,2005,5,0,0:0:0:0:
303,348,2179,1,0,0:0:0:0:
234,208,2354,5,0,0:0:0:0:
154,282,2528,1,0,0:0:0:0:
154,282,2877,5,0,0:0:0:0:
234,208,3051,1,0,0:0:0:0:
127,165,3226,1,0,0:0:0:0:
271,319,3400,1,0,0:0:0:0:
271,319,3749,5,0,0:0:0:0:
351,245,3923,1,0,0:0:0:0:
262,46,4098,5,0,0:0:0:0:
271,79,4185,1,0,0:0:0:0:
273,114,4272,1,0,0:0:0:0:
269,149,4359,1,0,0:0:0:0:
260,183,4446,1,0,0:0:0:0:
252,217,4534,1,0,0:0:0:0:
249,251,4621,1,0,0:0:0:0:
255,286,4708,1,0,0:0:0:0:
270,318,4795,1,0,0:0:0:0:
270,318,5144,6,0,L|365:311,1,70
460,131,5493,6,0,L|366:125,1,87.5
182,117,5842,6,0,P|165:173|159:230,1,105
175,323,6191,5,0,0:0:0:0:
326,198,6365,1,0,0:0:0:0:
159,218,6540,5,0,0:0:0:0:
284,369,6714,1,0,0:0:0:0:
231,157,6889,5,0,0:0:0:0:
80,282,7063,1,0,0:0:0:0:
294,231,7237,5,0,0:0:0:0:
169,80,7411,1,0,0:0:0:0:
226,287,7586,6,0,P|288:320|352:300,1,105.000004005432
419,281,7935,1,0,0:0:0:0:
483,197,8110,1,0,0:0:0:0:
483,197,8458,5,0,0:0:0:0:
390,213,8633,1,0,0:0:0:0:
294,231,8808,1,0,0:0:0:0:
260,42,8982,5,0,0:0:0:0:
390,213,9156,1,0,0:0:0:0:
201,247,9330,5,0,0:0:0:0:
374,119,9505,1,0,0:0:0:0:
408,308,9679,5,0,0:0:0:0:
279,136,9854,1,0,0:0:0:0:
468,102,10028,5,0,0:0:0:0:
297,231,10203,1,0,0:0:0:0:
263,42,10377,6,0,P|321:52|365:100,1,105.000004005432
392,179,10726,1,0,0:0:0:0:
395,283,10900,1,0,0:0:0:0:
395,283,11249,5,0,0:0:0:0:
395,283,11423,2,0,P|340:265|296:214,1,105.000004005432
92,83,11772,5,0,0:0:0:0:
392,179,11947,1,0,0:0:0:0:
77,161,12121,5,0,0:0:0:0:
392,85,12296,1,0,0:0:0:0:
59,238,12470,5,0,0:0:0:0:
317,38,12644,1,0,0:0:0:0:
44,318,12819,5,0,0:0:0:0:
392,179,12993,1,0,0:0:0:0:
116,350,13168,6,0,L|216:310,1,105.000004005432
330,130,13516,2,0,L|232:168,1,105.000004005432
242,178,14040,5,0,0:0:0:0:
242,178,14127,1,0,0:0:0:0:
242,178,14214,2,0,L|280:216,1,52.5000020027161
253,338,14389,2,0,L|215:300,1,52.5000020027161
113,181,14563,5,0,0:0:0:0:
333,103,14737,1,0,0:0:0:0:
156,293,14912,5,0,0:0:0:0:
70,50,15086,1,0,0:0:0:0:
290,246,15261,5,0,0:0:0:0:
23,341,15435,1,0,0:0:0:0:
235,91,15610,5,0,0:0:0:0:
339,384,15784,1,0,0:0:0:0:
74,148,15958,1,0,0:0:0:0:
397,34,16133,5,0,0:0:0:0:
397,34,16220,1,0,0:0:0:0:
397,34,16307,2,0,L|404:143,1,105.000004005432
411,243,16656,1,0,0:0:0:0:
308,145,16830,1,0,0:0:0:0:
495,132,17005,1,0,0:0:0:0:
184,242,17354,6,0,L|98:216,1,70
308,145,17703,2,0,L|394:171,1,70
442,184,18051,1,0,0:0:0:0:
342,275,18226,1,0,0:0:0:0:
342,275,18575,6,0,L|321:342,1,70
245,151,18924,2,0,L|265:83,1,70
354,153,19272,1,0,0:0:0:0:
213,267,19447,1,0,0:0:0:0:
171,89,19621,1,0,0:0:0:0:
318,247,19796,1,0,0:0:0:0:
318,247,20144,6,0,L|414:273,1,70
422,116,20493,2,0,L|354:134,1,70
286,152,20842,1,0,0:0:0:0:
385,265,21016,1,0,0:0:0:0:
385,265,21365,6,0,L|424:197,1,70
453,142,21714,1,0,0:0:0:0:
278,213,21889,1,0,0:0:0:0:
462,223,22063,1,0,0:0:0:0:
299,135,22237,1,0,0:0:0:0:
480,301,22412,1,0,0:0:0:0:
356,84,22586,1,0,0:0:0:0:
356,84,22935,6,0,L|387:167,1,70
331,314,23284,2,0,L|300:231,1,70
278,168,23633,1,0,0:0:0:0:
421,253,23807,1,0,0:0:0:0:
421,253,24156,5,0,0:0:0:0:
421,253,24330,1,0,0:0:0:0:
211,194,24505,1,0,0:0:0:0:
394,149,24679,1,0,0:0:0:0:
244,313,24854,1,0,0:0:0:0:
286,97,25028,1,0,0:0:0:0:
384,298,25203,1,0,0:0:0:0:
157,265,25377,1,0,0:0:0:0:
157,265,25726,6,0,L|228:229,1,70
387,88,26075,2,0,L|316:124,1,70
236,161,26423,1,0,0:0:0:0:
413,251,26598,1,0,0:0:0:0:
282,57,26772,1,0,0:0:0:0:
169,303,26947,1,0,0:0:0:0:
169,303,27296,5,0,0:0:0:0:
198,216,27470,1,0,0:0:0:0:
266,157,27644,1,0,0:0:0:0:
354,132,27819,5,0,0:0:0:0:
346,166,27906,1,0,0:0:0:0:
338,200,27993,1,0,0:0:0:0:
330,234,28080,1,0,0:0:0:0:
322,268,28168,2,0,B|342:192|342:192|388:155,1,105
404,150,28516,6,0,L|381:243,1,70
279,147,28865,2,0,L|296:80,1,70
422,81,29214,1,0,0:0:0:0:
387,217,29389,1,0,0:0:0:0:
209,146,29563,2,0,L|297:148,1,70
239,237,29912,6,0,L|169:235,1,70
319,67,30261,2,0,L|249:65,1,70
150,62,30610,1,0,0:0:0:0:
141,97,30784,1,0,0:0:0:0:
132,131,30958,2,0,L|221:134,1,70
239,237,31307,6,0,L|150:234,1,70
201,133,31656,1,0,0:0:0:0:
312,153,31830,1,0,0:0:0:0:
239,235,32005,1,0,0:0:0:0:
272,62,32179,1,0,0:0:0:0:
345,252,32354,1,0,0:0:0:0:
137,207,32528,1,0,0:0:0:0:
216,114,32703,6,0,P|254:139|299:132,1,70
333,87,33051,2,0,P|306:66|272:62,1,70
220,110,33400,1,0,0:0:0:0:
195,175,33575,1,0,0:0:0:0:
208,243,33749,1,0,0:0:0:0:
339,178,33923,1,0,0:0:0:0:
98,231,34098,5,0,0:0:0:0:
291,325,34272,1,0,0:0:0:0:
291,325,34360,1,0,0:0:0:0:
291,325,34447,1,0,0:0:0:0:
219,210,34621,5,0,0:0:0:0:
185,300,34796,1,0,0:0:0:0:
372,220,34970,1,0,0:0:0:0:
372,220,35057,1,0,0:0:0:0:
372,220,35144,1,0,0:0:0:0:
205,89,35319,5,0,0:0:0:0:
205,89,35493,1,0,0:0:0:0:
141,263,35842,5,0,0:0:0:0:
141,263,36016,1,0,0:0:0:0:
232,272,36365,2,0,P|216:208|151:170,1,140
86,157,36889,2,0,P|80:197|80:229,1,70
253,187,37237,2,0,P|259:147|259:115,1,70
176,219,37586,1,0,0:0:0:0:
247,263,37761,1,0,0:0:0:0:
322,223,37935,1,0,0:0:0:0:
326,147,38110,1,0,0:0:0:0:
259,117,38284,5,0,0:0:0:0:
366,293,38458,1,0,0:0:0:0:
395,114,38633,5,0,0:0:0:0:
276,281,38807,1,0,0:0:0:0:
263,155,38982,5,0,0:0:0:0:
288,178,39156,1,0,0:0:0:0:
314,202,39330,1,0,0:0:0:0:
339,226,39505,1,0,0:0:0:0:
366,251,39679,6,0,L|277:293,1,70
239,309,40028,1,0,0:0:0:0:
251,239,40203,1,0,0:0:0:0:
296,353,40377,1,0,0:0:0:0:
185,263,40551,1,0,0:0:0:0:
319,217,40726,1,0,0:0:0:0:
212,338,40900,1,0,0:0:0:0:
237,197,41075,6,0,P|255:164|300:136,1,70
319,217,41423,2,0,P|352:200|405:203,1,70,0|0,2:0|2:0,2:0:0:0:
376,283,41772,1,0,0:0:0:0:
381,317,41947,1,0,0:0:0:0:
387,351,42121,1,0,0:0:0:0:
286,270,42296,1,0,0:0:0:0:
425,219,42470,5,0,0:0:0:0:
312,117,42644,1,0,0:0:0:0:
312,117,42732,1,0,0:0:0:0:
312,117,42819,1,0,0:0:0:0:
356,242,42993,1,0,0:0:0:0:
393,90,43168,1,0,0:0:0:0:
235,142,43342,1,0,0:0:0:0:
420,170,43516,1,0,0:0:0:0:
368,12,43690,1,0,0:0:0:0:
345,184,43865,6,0,P|364:220|411:247,1,70
473,72,44214,2,0,P|454:36|407:9,1,70
240,101,44563,1,0,0:0:0:0:
205,103,44737,1,0,0:0:0:0:
170,105,44912,1,0,0:0:0:0:
284,28,45086,1,0,0:0:0:0:
286,176,45261,5,0,0:0:0:0:
102,60,45435,1,0,0:0:0:0:
102,60,45522,1,0,0:0:0:0:
102,60,45610,1,0,0:0:0:0:
370,109,45784,5,0,0:0:0:0:
395,209,45958,1,0,0:0:0:0:
284,28,46133,1,0,0:0:0:0:
284,28,46220,1,0,0:0:0:0:
284,28,46307,1,0,0:0:0:0:
266,224,46482,5,0,0:0:0:0:
266,224,46656,1,0,0:0:0:0:
449,151,47005,5,0,0:0:0:0:
449,151,47179,1,0,0:0:0:0:
449,151,47703,2,0,L|458:232,1,70
464,290,48051,6,0,L|456:220,1,70
342,103,48400,2,0,L|334:172,1,70
233,264,48749,1,0,0:0:0:0:
229,229,48923,1,0,0:0:0:0:
225,194,49098,1,0,0:0:0:0:
167,100,49447,6,0,L|106:172,1,70
180,247,49796,2,0,L|241:175,1,70
281,101,50144,1,0,0:0:0:0:
143,172,50319,1,0,0:0:0:0:
280,252,50493,1,0,0:0:0:0:
184,79,50668,1,0,0:0:0:0:
199,257,50842,6,0,P|247:179|325:186,1,175
336,193,51365,2,0,P|398:221|500:197,1,175
511,185,51889,2,0,P|453:231|433:284,1,105
436,274,52237,5,0,0:0:0:0:
375,102,52412,1,0,0:0:0:0:
364,253,52586,5,0,0:0:0:0:
321,151,52761,1,0,0:0:0:0:
290,253,52935,5,0,0:0:0:0:
262,188,53110,1,0,0:0:0:0:
218,257,53284,5,0,0:0:0:0:
208,235,53458,1,0,0:0:0:0:
193,207,53633,6,0,P|174:158|188:96,1,105
189,91,53982,2,0,L|263:188,1,105
263,188,54330,2,0,P|249:250|216:275,1,105
201,279,54679,2,0,L|311:284,1,105
323,286,55028,2,0,P|358:253|346:121,1,175
346,119,55551,1,0,0:0:0:0:
417,220,55726,2,0,L|280:190,1,140
94,166,56423,6,0,L|114:325,1,140
280,190,56947,6,0,L|262:328,1,140
177,105,57470,6,0,L|197:264,1,140
341,53,57993,6,0,L|321:212,1,140
313,261,58516,1,0,0:0:0:0:
245,126,58691,1,0,0:0:0:0:
419,160,58865,1,0,0:0:0:0:
229,223,59040,1,0,0:0:0:0:
394,297,59214,6,0,L|388:367,1,70
313,261,59563,2,0,L|307:331,1,70
223,293,59912,6,0,L|229:223,1,70
147,263,60261,2,0,L|153:193,1,70
82,161,60610,5,0,0:0:0:0:
284,129,60958,5,0,0:0:0:0:
296,160,61045,1,0,0:0:0:0:
279,189,61132,1,0,0:0:0:0:
246,194,61219,1,0,0:0:0:0:
208,172,61307,1,0,0:0:0:0:
187,133,61394,1,0,0:0:0:0:
190,90,61481,1,0,0:0:0:0:
215,55,61568,1,0,0:0:0:0:
263,32,61656,2,0,L|280:96,1,52.5000020027161
365,35,61830,2,0,L|385:107,1,52.5000020027161
470,62,62005,6,0,P|484:121|485:193,1,105.000004005432
466,268,62354,5,0,0:0:0:0:
196,151,62528,1,0,0:0:0:0:
379,86,62703,5,0,0:0:0:0:
233,248,62877,1,0,0:0:0:0:
165,56,63052,5,0,0:0:0:0:
339,211,63226,1,0,0:0:0:0:
138,283,63400,6,0,P|136:230|160:183,1,105.000004005432
244,122,63749,1,0,0:0:0:0:
351,98,63923,1,0,0:0:0:0:
351,98,64272,5,0,0:0:0:0:
243,101,64446,1,0,0:0:0:0:
143,103,64621,1,0,0:0:0:0:
311,276,64796,5,0,0:0:0:0:
243,101,64970,1,0,0:0:0:0:
221,312,65144,5,0,0:0:0:0:
404,240,65318,1,0,0:0:0:0:
165,194,65493,5,0,0:0:0:0:
346,327,65668,1,0,0:0:0:0:
364,116,65842,5,0,0:0:0:0:
221,312,66016,1,0,0:0:0:0:
407,198,66191,6,0,P|347:204|274:151,1,105.000004005432
239,106,66540,1,0,0:0:0:0:
207,5,66714,1,0,0:0:0:0:
207,5,67063,5,0,0:0:0:0:
207,5,67237,2,0,L|240:112,1,105.000004005432
323,330,67586,5,0,0:0:0:0:
376,32,67761,1,0,0:0:0:0:
255,294,67935,5,0,0:0:0:0:
238,32,68110,1,0,0:0:0:0:
381,283,68284,5,0,0:0:0:0:
308,30,68458,1,0,0:0:0:0:
190,257,68633,5,0,0:0:0:0:
362,79,68807,1,0,0:0:0:0:
136,199,68982,5,0,0:0:0:0:
442,232,69156,1,0,0:0:0:0:
130,310,69330,5,0,0:0:0:0:
442,156,69505,1,0,0:0:0:0:
102,96,69679,5,0,0:0:0:0:
449,306,69854,1,0,0:0:0:0:
271,57,70028,5,0,0:0:0:0:
130,310,70203,1,0,0:0:0:0:
368,180,70377,6,0,P|303:203|237:199,1,105.000004005432
271,57,70726,2,0,P|218:61|170:81,1,105.000004005432
103,162,71075,1,0,0:0:0:0:
74,262,71249,1,0,0:0:0:0:
154,340,71423,2,0,L|181:221,1,105.000004005432
244,158,71772,2,0,L|271:277,1,105.000004005432
177,237,72121,5,0,0:0:0:0:
147,194,72208,1,0,0:0:0:0:
141,142,72295,1,0,0:0:0:0:
162,95,72382,1,0,0:0:0:0:
197,50,72469,1,0,0:0:0:0:
253,41,72557,1,0,0:0:0:0:
307,61,72644,1,0,0:0:0:0:
344,104,72731,1,0,0:0:0:0:
366,161,72819,2,0,P|353:194|316:213,1,52.5000020027161
321,277,72993,2,0,P|290:274|255:247,1,52.5000020027161
193,269,73168,5,0,0:0:0:0:
266,114,73342,1,0,0:0:0:0:
272,304,73516,5,0,0:0:0:0:
117,231,73690,1,0,0:0:0:0:
307,229,73865,5,0,0:0:0:0:
234,384,74039,1,0,0:0:0:0:
230,193,74214,5,0,0:0:0:0:
385,266,74388,1,0,0:0:0:0:
194,272,74563,6,0,P|159:244|147:182,1,105.000004005432
218,110,74912,1,0,0:0:0:0:
319,135,75086,1,0,0:0:0:0:
319,135,75435,5,0,0:0:0:0:
223,95,75609,1,0,0:0:0:0:
137,57,75784,1,0,0:0:0:0:
369,62,75958,5,0,0:0:0:0:
269,205,76133,1,0,0:0:0:0:
300,10,76307,5,0,0:0:0:0:
443,110,76482,1,0,0:0:0:0:
227,99,76656,5,0,0:0:0:0:
412,23,76830,1,0,0:0:0:0:
385,204,77005,5,0,0:0:0:0:
300,10,77179,1,0,0:0:0:0:
461,149,77354,6,0,P|477:224|435:278,1,105.000004005432
399,328,77703,1,0,0:0:0:0:
303,370,77877,1,0,0:0:0:0:
303,370,78226,5,0,0:0:0:0:
303,370,78400,2,0,L|278:263,1,105.000004005432
216,1,78749,5,0,0:0:0:0:
171,336,78923,1,0,0:0:0:0:
306,8,79098,5,0,0:0:0:0:
364,384,79272,1,0,0:0:0:0:
387,20,79447,5,0,0:0:0:0:
118,274,79621,1,0,0:0:0:0:
453,68,79796,5,0,0:0:0:0:
74,199,79970,1,0,0:0:0:0:
478,147,80144,5,0,0:0:0:0:
197,22,80319,1,0,0:0:0:0:
171,336,80493,5,0,0:0:0:0:
357,49,80668,1,0,0:0:0:0:
357,49,81016,5,0,0:0:0:0:
357,49,81191,2,0,L|337:160,1,105.000004005432
322,234,81540,5,0,0:0:0:0:
147,199,81714,1,0,0:0:0:0:
338,152,81889,5,0,0:0:0:0:
303,327,82063,1,0,0:0:0:0:
228,130,82237,5,0,0:0:0:0:
438,172,82411,1,0,0:0:0:0:
208,233,82586,5,0,0:0:0:0:
251,23,82760,1,0,0:0:0:0:
313,251,82935,5,0,0:0:0:0:
113,218,83110,2,0,P|145:162|195:137,1,105.000004005432
283,136,83458,1,0,0:0:0:0:
381,171,83633,2,0,P|357:221|304:260,2,105.000004005432
384,170,84330,6,0,L|395:73,1,70
227,217,84679,2,0,L|216:314,1,70
348,313,85028,1,0,0:0:0:0:
292,155,85203,1,0,0:0:0:0:
292,155,85551,5,0,0:0:0:0:
292,155,85726,1,0,0:0:0:0:
255,282,85900,1,0,0:0:0:0:
420,232,86075,1,0,0:0:0:0:
207,197,86249,1,0,0:0:0:0:
358,340,86423,1,0,0:0:0:0:
388,138,86598,1,0,0:0:0:0:
182,267,86772,1,0,0:0:0:0:
182,267,87121,6,0,L|133:209,1,70
269,175,87470,2,0,L|314:228,1,70
362,279,87819,1,0,0:0:0:0:
136,213,87993,1,0,0:0:0:0:
389,202,88168,1,0,0:0:0:0:
227,324,88342,1,0,0:0:0:0:
