osu file format v14

[General]
AudioFilename: audio.mp3
AudioLeadIn: 0
PreviewTime: 60823
Countdown: 0
SampleSet: Soft
StackLeniency: 0.7
Mode: 3
LetterboxInBreaks: 0
SpecialStyle: 0
WidescreenStoryboard: 1

[Editor]
Bookmarks: 6056,17219,28381,39544,50707,61870,73033
DistanceSpacing: 1.2
BeatDivisor: 2
GridSize: 32
TimelineZoom: 0.8

[Metadata]
Title:Have a Nice MUSIC!! (TV Size)
TitleUnicode:Have a Nice MUSIC!! (TV Size)
Artist:Plasmagica
ArtistUnicode:プラズマジカ
Creator:Drum-Hitnormal
Version:Normal
Source:SHOW BY ROCK!!
Tags:dudehacker Muse Dash Japanese Anime チュチュ Chuchu 上坂すみれ Uesaka Sumire シアン Cyan 稲川英里 Inagawa Eri レトリー Retoree 沼倉愛美 Numakura Manami モア Moa 佐倉綾音 Sakura Ayane ed ending video mobile game ショウ・バイ・ロック!! ショウバイロック!! Fes A Live Sanrio Square Enix pop jpop
BeatmapID:2361385
BeatmapSetID:1129916

[Difficulty]
HPDrainRate:7.5
CircleSize:4
OverallDifficulty:7.5
ApproachRate:5
SliderMultiplier:1.4
SliderTickRate:1

[Events]
//Background and Video events
0,0,"78123592_p1.jpg",0,0
//Break Periods
//Storyboard Layer 0 (Background)
//Storyboard Layer 1 (Fail)
//Storyboard Layer 2 (Pass)
//Storyboard Layer 3 (Foreground)
//Storyboard Layer 4 (Overlay)
//Storyboard Sound Samples

[TimingPoints]
475,348.837209302326,4,2,1,70,1,0
61870,-100,4,2,1,70,0,1
84195,-100,4,2,1,70,0,0

[HitObjects]
64,192,475,5,2,0:0:0:0:
448,192,475,1,4,0:0:0:0:
320,192,823,1,8,0:0:0:0:
448,192,823,1,0,0:0:0:0:
320,192,998,1,8,0:0:0:0:
448,192,998,1,0,0:0:0:0:
192,192,1172,1,2,0:0:0:0:
192,192,1347,1,2,0:0:0:0:
64,192,1521,1,8,0:0:0:0:
448,192,1521,1,0,0:0:0:0:
64,192,1870,1,2,0:0:0:0:
320,192,1870,1,4,0:0:0:30:
320,192,2044,1,2,0:0:0:0:
192,192,2219,1,8,0:0:0:0:
448,192,2219,1,0,0:0:0:0:
320,192,2393,1,2,0:0:0:0:
64,192,2742,1,2,0:0:0:0:
192,192,2916,1,8,0:0:0:0:
448,192,2916,1,0,0:0:0:0:
64,192,3091,1,2,0:0:0:0:
320,192,3265,1,2,0:0:0:0:
448,192,3265,1,4,0:0:0:0:
64,192,3614,1,8,0:0:0:0:
192,192,3614,1,0,0:0:0:0:
64,192,3788,1,8,0:0:0:0:
192,192,3788,1,0,0:0:0:0:
448,192,3963,128,0,4312:0:0:0:70:Tom1.wav
320,192,4312,1,8,0:0:0:0:
192,192,4486,1,0,0:0:0:70:Tom2.wav
64,192,4661,1,0,0:0:0:70:Tom3.wav
448,192,4661,1,0,0:0:0:0:
320,192,5009,128,0,5358:0:0:0:0:
192,192,5358,128,8,5707:0:0:0:0:
64,192,5707,128,0,6056:0:0:0:70:Tom1.wav
320,192,6056,1,2,0:0:0:0:
448,192,6056,1,4,0:0:0:0:
64,192,6405,1,8,0:0:0:0:
448,192,6405,1,2,0:0:0:0:
192,192,6754,1,2,0:0:0:0:
320,192,7102,1,8,0:0:0:0:
448,192,7102,1,2,0:0:0:0:
64,192,7451,1,2,0:0:0:0:
192,192,7800,1,8,0:0:0:0:
320,192,7800,1,2,0:0:0:0:
448,192,8149,1,2,0:0:0:0:
448,192,8323,1,2,0:0:0:0:
64,192,8498,1,8,0:0:0:0:
192,192,8498,1,0,0:0:0:0:
320,192,8672,1,2,0:0:0:0:
192,192,8847,1,2,0:0:0:0:
448,192,8847,1,4,0:0:0:0:
64,192,9195,1,8,0:0:0:0:
320,192,9195,1,2,0:0:0:0:
448,192,9544,1,2,0:0:0:0:
192,192,9893,1,8,0:0:0:0:
320,192,9893,1,2,0:0:0:0:
64,192,10242,1,2,0:0:0:0:
192,192,10591,1,8,0:0:0:0:
448,192,10591,1,2,0:0:0:0:
320,192,10940,1,2,0:0:0:0:
320,192,11114,1,2,0:0:0:0:
64,192,11288,1,8,0:0:0:0:
192,192,11288,1,0,0:0:0:0:
320,192,11463,1,2,0:0:0:0:
448,192,11463,1,0,0:0:0:0:
64,192,11637,1,2,0:0:0:0:
192,192,11637,1,4,0:0:0:0:
64,192,11986,1,8,0:0:0:0:
448,192,11986,1,2,0:0:0:0:
192,192,12335,1,2,0:0:0:0:
448,192,12335,1,0,0:0:0:0:
192,192,12684,1,8,0:0:0:0:
320,192,12684,1,2,0:0:0:0:
64,192,13033,1,2,0:0:0:0:
192,192,13207,1,0,0:0:0:0:
320,192,13381,1,8,0:0:0:0:
448,192,13381,1,2,0:0:0:0:
192,192,13556,1,0,0:0:0:0:
448,192,13730,1,2,0:0:0:0:
448,192,13905,1,2,0:0:0:0:
64,192,14079,1,8,0:0:0:0:
320,192,14079,1,0,0:0:0:0:
192,192,14254,1,2,0:0:0:0:
320,192,14428,1,2,0:0:0:0:
448,192,14428,1,4,0:0:0:0:
64,192,14777,1,8,0:0:0:0:
192,192,14777,1,2,0:0:0:0:
320,192,15126,1,2,0:0:0:0:
64,192,15475,1,8,0:0:0:0:
448,192,15475,1,2,0:0:0:0:
64,192,15823,1,2,0:0:0:0:
192,192,15823,1,4,0:0:0:0:
320,192,16172,1,8,0:0:0:0:
448,192,16172,1,2,0:0:0:0:
64,192,16521,1,0,0:0:0:70:Tom1.wav
192,192,16695,1,8,0:0:0:0:
320,192,16870,1,8,0:0:0:0:
64,192,17044,1,0,0:0:0:70:Tom1.wav
192,192,17219,1,2,0:0:0:0:
448,192,17219,1,4,0:0:0:0:
192,192,17568,1,8,0:0:0:0:
448,192,17568,1,2,0:0:0:0:
64,192,17916,1,2,0:0:0:0:
192,192,17916,1,0,0:0:0:0:
320,192,18091,1,0,0:0:0:0:
448,192,18091,1,0,0:0:0:0:
64,192,18440,1,0,0:0:0:0:
192,192,18440,1,0,0:0:0:0:
448,192,18788,1,0,0:0:0:0:
320,192,18963,1,10,0:0:0:0:
192,192,19137,1,0,0:0:0:0:
64,192,19312,1,2,0:0:0:0:
448,192,19312,1,0,0:0:0:0:
192,192,19661,1,8,0:0:0:0:
320,192,19661,1,0,0:0:0:0:
64,192,20009,1,2,0:0:0:0:
320,192,20009,1,4,0:0:0:0:
64,192,20358,1,8,0:0:0:0:
320,192,20358,1,2,0:0:0:0:
320,192,20707,1,2,0:0:0:0:
448,192,20707,1,0,0:0:0:0:
64,192,20881,1,0,0:0:0:0:
192,192,20881,1,0,0:0:0:0:
320,192,21230,1,0,0:0:0:0:
448,192,21230,1,0,0:0:0:0:
64,192,21579,1,0,0:0:0:0:
192,192,21754,1,10,0:0:0:0:
320,192,21928,1,0,0:0:0:0:
64,192,22102,1,2,0:0:0:0:
448,192,22102,1,0,0:0:0:0:
192,192,22451,1,8,0:0:0:0:
320,192,22451,1,0,0:0:0:0:
192,192,22800,1,2,0:0:0:0:
448,192,22800,1,4,0:0:0:0:
192,192,23149,1,8,0:0:0:0:
448,192,23149,1,2,0:0:0:0:
64,192,23498,1,2,0:0:0:0:
192,192,23498,1,0,0:0:0:0:
320,192,23672,1,0,0:0:0:0:
448,192,23672,1,0,0:0:0:0:
64,192,24021,1,8,0:0:0:0:
192,192,24021,1,0,0:0:0:0:
448,192,24370,1,0,0:0:0:0:
320,192,24544,1,10,0:0:0:0:
192,192,24719,1,0,0:0:0:0:
64,192,24893,1,2,0:0:0:0:
448,192,24893,1,0,0:0:0:0:
192,192,25242,1,8,0:0:0:0:
320,192,25242,1,0,0:0:0:0:
64,192,25591,1,2,0:0:0:0:
320,192,25591,1,4,0:0:0:0:
64,192,25940,1,8,0:0:0:0:
320,192,25940,1,2,0:0:0:0:
320,192,26288,1,8,0:0:0:0:
448,192,26288,1,0,0:0:0:0:
64,192,26463,1,2,0:0:0:0:
192,192,26463,1,0,0:0:0:0:
320,192,26637,1,2,0:0:0:0:
448,192,26637,1,0,0:0:0:0:
64,192,26812,1,2,0:0:0:0:
192,192,26812,1,0,0:0:0:0:
64,192,27161,1,0,0:0:0:0:
192,192,27335,1,0,0:0:0:0:
320,192,27509,1,0,0:0:0:0:
448,192,27684,1,8,0:0:0:0:
192,192,27858,1,8,0:0:0:0:
64,192,28033,128,0,28381:0:0:0:70:Tom1.wav
320,192,28207,1,0,0:0:0:70:Tom2.wav
192,192,28381,1,2,0:0:0:0:
448,192,28381,1,4,0:0:0:0:
320,192,28730,1,8,0:0:0:0:
448,192,28730,1,0,0:0:0:0:
192,192,29079,1,2,0:0:0:0:
192,192,29254,1,2,0:0:0:0:
64,192,29428,1,8,0:0:0:0:
320,192,29428,1,0,0:0:0:0:
448,192,29777,1,2,0:0:0:0:
64,192,30126,1,8,0:0:0:0:
192,192,30126,1,0,0:0:0:0:
320,192,30475,1,2,0:0:0:0:
320,192,30649,1,2,0:0:0:0:
192,192,30823,1,8,0:0:0:0:
448,192,30823,1,0,0:0:0:0:
64,192,30998,1,2,0:0:0:0:
320,192,31172,1,2,0:0:0:0:
192,192,31521,1,8,0:0:0:0:
448,192,31521,1,0,0:0:0:0:
64,192,31870,1,2,0:0:0:0:
64,192,32044,1,2,0:0:0:0:
320,192,32219,1,8,0:0:0:0:
448,192,32219,1,0,0:0:0:0:
192,192,32393,1,2,0:0:0:0:
448,192,32568,1,2,0:0:0:0:
64,192,32916,1,8,0:0:0:0:
320,192,32916,1,0,0:0:0:0:
448,192,33265,1,2,0:0:0:0:
448,192,33440,1,2,0:0:0:0:
192,192,33614,1,8,0:0:0:0:
320,192,33614,1,0,0:0:0:0:
192,192,33788,1,8,0:0:0:0:
320,192,33788,1,0,0:0:0:0:
64,192,33963,1,2,0:0:0:0:
448,192,33963,1,4,0:0:0:0:
320,192,34312,1,8,0:0:0:0:
448,192,34312,1,0,0:0:0:0:
64,192,34486,1,2,0:0:0:0:
192,192,34661,1,2,0:0:0:0:
320,192,35009,1,8,0:0:0:0:
448,192,35009,1,0,0:0:0:0:
64,192,35184,1,2,0:0:0:0:
192,192,35358,1,2,0:0:0:0:
64,192,35707,1,8,0:0:0:0:
192,192,35707,1,0,0:0:0:0:
448,192,35881,1,2,0:0:0:0:
320,192,36056,1,2,0:0:0:0:
64,192,36405,1,8,0:0:0:0:
192,192,36405,1,0,0:0:0:0:
448,192,36579,1,2,0:0:0:0:
64,192,36754,1,2,0:0:0:0:
320,192,36754,1,4,0:0:0:0:
320,192,37102,1,8,0:0:0:0:
448,192,37102,1,0,0:0:0:0:
64,192,37277,1,2,0:0:0:0:
192,192,37451,1,2,0:0:0:0:
320,192,37800,1,8,0:0:0:0:
448,192,37800,1,0,0:0:0:0:
64,192,37975,1,0,0:0:0:0:
192,192,38149,1,2,0:0:0:0:
448,192,38323,1,2,0:0:0:0:
448,192,38498,1,8,0:0:0:0:
64,192,38672,1,2,0:0:0:0:
64,192,38847,1,8,0:0:0:0:
320,192,39021,1,0,0:0:0:70:Tom1.wav
192,192,39195,1,8,0:0:0:0:
64,192,39370,1,0,0:0:0:70:Tom3.wav
320,192,39544,1,2,0:0:0:0:
448,192,39544,1,4,0:0:0:0:
64,192,39893,1,8,0:0:0:0:
192,192,39893,1,0,0:0:0:0:
320,192,40242,1,2,0:0:0:0:
320,192,40416,1,2,0:0:0:0:
192,192,40591,1,8,0:0:0:0:
448,192,40591,1,0,0:0:0:0:
64,192,40940,1,2,0:0:0:0:
320,192,41288,1,8,0:0:0:0:
448,192,41288,1,0,0:0:0:0:
192,192,41637,1,2,0:0:0:0:
192,192,41812,1,2,0:0:0:0:
64,192,41986,1,8,0:0:0:0:
320,192,41986,1,0,0:0:0:0:
448,192,42161,1,2,0:0:0:0:
192,192,42335,1,2,0:0:0:0:
192,192,42684,1,8,0:0:0:0:
320,192,42684,1,0,0:0:0:0:
448,192,42858,1,2,0:0:0:0:
448,192,43033,1,2,0:0:0:0:
64,192,43381,1,8,0:0:0:0:
192,192,43381,1,0,0:0:0:0:
320,192,43556,1,2,0:0:0:0:
64,192,43730,1,2,0:0:0:0:
192,192,44079,1,8,0:0:0:0:
448,192,44079,1,0,0:0:0:0:
64,192,44254,1,2,0:0:0:0:
64,192,44428,1,2,0:0:0:0:
64,192,44777,1,8,0:0:0:0:
192,192,44777,1,0,0:0:0:0:
320,192,44951,1,8,0:0:0:70:Tom1.wav
448,192,44951,1,0,0:0:0:0:
64,192,45126,1,2,0:0:0:0:
192,192,45126,1,4,0:0:0:0:
320,192,45475,1,8,0:0:0:0:
448,192,45475,1,0,0:0:0:0:
192,192,45649,1,2,0:0:0:0:
448,192,45823,1,2,0:0:0:0:
64,192,46172,1,8,0:0:0:0:
320,192,46172,1,0,0:0:0:0:
448,192,46347,1,2,0:0:0:0:
192,192,46521,1,2,0:0:0:0:
320,192,46870,1,8,0:0:0:0:
448,192,46870,1,0,0:0:0:0:
64,192,47044,1,2,0:0:0:0:
192,192,47219,1,2,0:0:0:0:
64,192,47568,1,8,0:0:0:0:
320,192,47568,1,0,0:0:0:0:
192,192,47742,1,2,0:0:0:0:
320,192,47916,1,2,0:0:0:0:
448,192,47916,1,4,0:0:0:0:
64,192,48265,1,8,0:0:0:0:
192,192,48265,1,0,0:0:0:0:
320,192,48440,1,2,0:0:0:0:
64,192,48614,1,2,0:0:0:0:
320,192,48963,1,8,0:0:0:0:
448,192,48963,1,0,0:0:0:0:
64,192,49312,1,2,0:0:0:0:
320,192,49312,128,0,49661:0:0:0:0:
192,192,49661,128,8,50009:0:0:0:0:
448,192,49661,1,0,0:0:0:0:
64,192,50009,128,0,50358:0:0:0:0:
448,192,50009,1,0,0:0:0:0:
448,192,50184,1,0,0:0:0:70:Tom1.wav
192,192,50358,1,8,0:0:0:0:
320,192,50358,1,0,0:0:0:0:
64,192,50707,1,4,0:0:0:0:
192,192,50707,1,2,0:0:0:0:
448,192,51056,1,8,0:0:0:0:
320,192,51230,1,8,0:0:0:0:
192,192,51405,1,2,0:0:0:0:
448,192,51579,1,2,0:0:0:0:
64,192,51754,1,8,0:0:0:0:
320,192,51754,1,0,0:0:0:0:
192,192,52102,1,2,0:0:0:0:
448,192,52102,1,0,0:0:0:0:
64,192,52451,1,8,0:0:0:0:
192,192,52626,1,8,0:0:0:0:
320,192,52800,1,2,0:0:0:0:
64,192,52975,1,2,0:0:0:0:
192,192,53149,1,8,0:0:0:0:
448,192,53149,1,0,0:0:0:0:
64,192,53498,1,2,0:0:0:0:
320,192,53498,1,0,0:0:0:0:
448,192,53847,1,8,0:0:0:0:
320,192,54021,1,8,0:0:0:0:
192,192,54195,1,2,0:0:0:0:
448,192,54370,1,2,0:0:0:0:
64,192,54544,1,8,0:0:0:0:
320,192,54544,1,0,0:0:0:0:
320,192,54893,1,2,0:0:0:0:
448,192,54893,1,0,0:0:0:0:
64,192,55242,1,8,0:0:0:0:
192,192,55416,1,8,0:0:0:0:
320,192,55591,1,2,0:0:0:0:
64,192,55765,1,2,0:0:0:0:
192,192,55940,1,8,0:0:0:0:
448,192,55940,1,0,0:0:0:0:
64,192,56288,1,4,0:0:0:0:
192,192,56288,1,2,0:0:0:0:
64,192,56637,1,8,0:0:0:0:
320,192,56812,1,4,0:0:0:0:
448,192,56812,1,2,0:0:0:0:
448,192,57161,1,8,0:0:0:0:
64,192,57335,1,4,0:0:0:0:
192,192,57335,1,2,0:0:0:0:
64,192,57684,1,8,0:0:0:0:
320,192,57858,1,4,0:0:0:0:
448,192,57858,1,2,0:0:0:0:
448,192,58207,1,8,0:0:0:0:
64,192,58381,1,2,0:0:0:0:
192,192,58381,1,8,0:0:0:0:
320,192,58556,1,2,0:0:0:0:
448,192,58556,1,8,0:0:0:0:
64,192,58730,1,2,0:0:0:0:
192,192,58730,1,8,0:0:0:0:
320,192,58905,1,2,0:0:0:0:
448,192,58905,1,8,0:0:0:0:
64,192,59079,1,4,0:0:0:0:
192,192,59079,1,2,0:0:0:0:
64,192,59254,1,0,0:0:0:0:
448,192,59428,1,8,0:0:0:0:
448,192,59602,1,8,0:0:0:0:
192,192,59777,1,0,0:0:0:70:Tom2.wav
192,192,59951,1,0,0:0:0:0:
320,192,60126,1,8,0:0:0:0:
320,192,60300,1,0,0:0:0:70:Tom1.wav
64,192,60475,1,4,0:0:0:0:
448,192,60475,1,2,0:0:0:0:
320,192,60823,128,0,61172:0:0:0:0:
192,192,61172,128,8,61521:0:0:0:0:
64,192,61521,128,0,61870:0:0:0:70:Tom1.wav
320,192,61870,1,2,0:0:0:0:
448,192,61870,1,4,0:0:0:0:
64,192,62219,1,8,0:0:0:0:
448,192,62219,1,2,0:0:0:0:
320,192,62393,1,0,0:0:0:0:
64,192,62568,1,2,0:0:0:0:
192,192,62568,1,0,0:0:0:0:
192,192,62916,1,8,0:0:0:0:
448,192,62916,1,2,0:0:0:0:
64,192,63091,1,0,0:0:0:0:
320,192,63265,1,2,0:0:0:0:
448,192,63265,1,0,0:0:0:0:
64,192,63614,1,8,0:0:0:0:
448,192,63614,1,2,0:0:0:0:
192,192,63788,1,0,0:0:0:0:
320,192,63963,1,2,0:0:0:0:
64,192,64137,1,2,0:0:0:0:
192,192,64137,1,0,0:0:0:0:
320,192,64312,1,8,0:0:0:0:
448,192,64312,1,0,0:0:0:0:
64,192,64486,1,2,0:0:0:0:
192,192,64661,1,2,0:0:0:0:
448,192,64661,1,4,0:0:0:0:
64,192,65009,1,8,0:0:0:0:
320,192,65009,1,2,0:0:0:0:
448,192,65184,1,0,0:0:0:0:
192,192,65358,1,2,0:0:0:0:
320,192,65358,1,0,0:0:0:0:
64,192,65707,1,8,0:0:0:0:
448,192,65707,1,2,0:0:0:0:
192,192,65881,1,0,0:0:0:0:
320,192,66056,1,2,0:0:0:0:
448,192,66056,1,0,0:0:0:0:
192,192,66405,1,8,0:0:0:0:
448,192,66405,1,2,0:0:0:0:
64,192,66579,1,0,0:0:0:0:
320,192,66754,1,2,0:0:0:0:
320,192,66928,1,2,0:0:0:0:
64,192,67102,1,8,0:0:0:0:
192,192,67102,1,0,0:0:0:0:
448,192,67277,1,2,0:0:0:0:
192,192,67451,1,2,0:0:0:0:
320,192,67451,1,4,0:0:0:0:
192,192,67800,1,2,0:0:0:0:
320,192,67800,1,8,0:0:0:0:
64,192,68149,1,2,0:0:0:0:
192,192,68149,1,0,0:0:0:0:
64,192,68498,1,2,0:0:0:0:
192,192,68498,1,8,0:0:0:0:
320,192,68847,1,2,0:0:0:0:
448,192,68847,1,0,0:0:0:0:
320,192,69195,1,2,0:0:0:0:
448,192,69195,1,8,0:0:0:0:
64,192,69544,1,2,0:0:0:0:
448,192,69544,1,0,0:0:0:0:
64,192,69893,1,8,0:0:0:0:
448,192,69893,1,0,0:0:0:0:
64,192,70068,1,8,0:0:0:0:
448,192,70068,1,0,0:0:0:0:
320,192,70242,1,2,0:0:0:0:
320,192,70416,1,2,0:0:0:0:
64,192,70591,1,8,0:0:0:0:
192,192,70591,1,4,0:0:0:0:
192,192,70940,1,2,0:0:0:0:
192,192,71114,1,2,0:0:0:0:
320,192,71288,1,8,0:0:0:0:
448,192,71288,1,4,0:0:0:0:
64,192,71637,1,2,0:0:0:0:
64,192,71812,1,2,0:0:0:0:
320,192,71986,1,8,0:0:0:0:
448,192,71986,1,4,0:0:0:0:
64,192,72335,1,0,0:0:0:70:Tom1.wav
192,192,72335,1,0,0:0:0:0:
320,192,72509,1,8,0:0:0:0:
448,192,72509,1,0,0:0:0:0:
64,192,72684,1,8,0:0:0:0:
192,192,72684,1,0,0:0:0:0:
320,192,72858,1,2,0:0:0:0:
448,192,72858,1,0,0:0:0:0:
64,192,73033,1,2,0:0:0:0:
192,192,73033,1,4,0:0:0:0:
64,192,73381,1,8,0:0:0:0:
448,192,73381,1,2,0:0:0:0:
192,192,73556,1,0,0:0:0:0:
320,192,73730,1,2,0:0:0:0:
448,192,73730,1,0,0:0:0:0:
64,192,74079,1,8,0:0:0:0:
320,192,74079,1,2,0:0:0:0:
448,192,74254,1,0,0:0:0:0:
64,192,74428,1,2,0:0:0:0:
192,192,74428,1,0,0:0:0:0:
64,192,74777,1,8,0:0:0:0:
448,192,74777,1,2,0:0:0:0:
320,192,74951,1,0,0:0:0:0:
192,192,75126,1,2,0:0:0:0:
320,192,75300,1,2,0:0:0:0:
448,192,75300,1,0,0:0:0:0:
64,192,75475,1,8,0:0:0:0:
192,192,75475,1,0,0:0:0:0:
448,192,75649,1,2,0:0:0:0:
64,192,75823,1,2,0:0:0:0:
320,192,75823,1,4,0:0:0:0:
192,192,76172,1,8,0:0:0:0:
448,192,76172,1,2,0:0:0:0:
64,192,76347,1,0,0:0:0:0:
192,192,76521,1,2,0:0:0:0:
320,192,76521,1,0,0:0:0:0:
64,192,76870,1,8,0:0:0:0:
448,192,76870,1,2,0:0:0:0:
320,192,77044,1,0,0:0:0:0:
64,192,77219,1,2,0:0:0:0:
192,192,77219,1,0,0:0:0:0:
64,192,77568,1,8,0:0:0:0:
320,192,77568,1,2,0:0:0:0:
448,192,77742,1,0,0:0:0:0:
192,192,77916,1,2,0:0:0:0:
192,192,78091,1,2,0:0:0:0:
320,192,78265,1,8,0:0:0:0:
448,192,78265,1,0,0:0:0:0:
64,192,78440,1,2,0:0:0:0:
192,192,78614,1,2,0:0:0:0:
320,192,78614,1,4,0:0:0:0:
192,192,78963,1,2,0:0:0:0:
320,192,78963,1,8,0:0:0:0:
320,192,79312,1,2,0:0:0:0:
448,192,79312,1,0,0:0:0:0:
320,192,79661,1,2,0:0:0:0:
448,192,79661,1,8,0:0:0:0:
64,192,80009,1,2,0:0:0:0:
192,192,80009,1,0,0:0:0:0:
320,192,80184,1,0,0:0:0:0:
64,192,80358,1,2,0:0:0:0:
192,192,80358,1,8,0:0:0:0:
448,192,80533,1,0,0:0:0:0:
320,192,80707,1,2,0:0:0:0:
320,192,80881,1,2,0:0:0:0:
64,192,81056,1,8,0:0:0:0:
448,192,81056,1,0,0:0:0:0:
192,192,81230,1,2,0:0:0:0:
320,192,81405,1,2,0:0:0:0:
448,192,81405,1,4,0:0:0:0:
64,192,81754,1,8,0:0:0:0:
192,192,81754,1,2,0:0:0:0:
448,192,82102,1,2,0:0:0:0:
192,192,82451,1,8,0:0:0:0:
320,192,82451,1,2,0:0:0:0:
64,192,82800,1,2,0:0:0:0:
448,192,82800,1,4,0:0:0:0:
192,192,83149,1,8,0:0:0:0:
448,192,83149,1,2,0:0:0:0:
64,192,83498,1,0,0:0:0:70:Tom1.wav
320,192,83498,1,0,0:0:0:0:
192,192,83672,1,8,0:0:0:0:
64,192,83847,1,8,0:0:0:0:
448,192,83847,1,0,0:0:0:0:
320,192,84021,1,0,0:0:0:70:Tom3.wav
192,192,84195,1,2,0:0:0:0:
448,192,84195,1,4,0:0:0:0:
192,192,84544,1,8,0:0:0:0:
448,192,84544,1,2,0:0:0:0:
64,192,84893,1,2,0:0:0:0:
192,192,84893,1,0,0:0:0:0:
320,192,85068,1,0,0:0:0:0:
448,192,85068,1,0,0:0:0:0:
64,192,85416,1,8,0:0:0:0:
192,192,85416,1,0,0:0:0:0:
448,192,85765,1,0,0:0:0:0:
320,192,85940,1,10,0:0:0:0:
192,192,86114,1,0,0:0:0:0:
64,192,86288,1,2,0:0:0:0:
448,192,86288,1,0,0:0:0:0:
192,192,86637,1,8,0:0:0:0:
320,192,86637,1,0,0:0:0:0:
64,192,86986,1,2,0:0:0:0:
320,192,86986,1,4,0:0:0:0:
64,192,87335,1,8,0:0:0:0:
320,192,87335,1,2,0:0:0:0:
320,192,87684,1,8,0:0:0:0:
448,192,87684,1,0,0:0:0:0:
64,192,87858,1,2,0:0:0:0:
192,192,87858,1,0,0:0:0:0:
320,192,88033,1,2,0:0:0:0:
448,192,88033,1,0,0:0:0:0:
64,192,88207,1,2,0:0:0:0:
192,192,88207,1,4,0:0:0:0:
