osu file format v14

[General]
AudioFilename: clock plaid edit.ogg
AudioLeadIn: 1500
PreviewTime: 127058
Countdown: 0
SampleSet: Soft
StackLeniency: 0.7
Mode: 3
LetterboxInBreaks: 0
SpecialStyle: 0
WidescreenStoryboard: 0

[Editor]
DistanceSpacing: 1
BeatDivisor: 12
GridSize: 16
TimelineZoom: 4.199998

[Metadata]
Title:Clock (Agka Edit)
TitleUnicode:Clock (Agka Edit)
Artist:Plaid
ArtistUnicode:Plaid
Creator:Agka
Version:abstract
Source:
Tags:
BeatmapID:1769713
BeatmapSetID:846178

[Difficulty]
HPDrainRate:8
CircleSize:7
OverallDifficulty:9
ApproachRate:9
SliderMultiplier:1.4
SliderTickRate:1

[Events]
//Background and Video events
0,0,"230363.jpg",0,0
//Break Periods
//Storyboard Layer 0 (Background)
//Storyboard Layer 1 (Fail)
//Storyboard Layer 2 (Pass)
//Storyboard Layer 3 (Foreground)
//Storyboard Sound Samples

[TimingPoints]
0,441.1765,4,1,0,15,1,0
0,-200,4,2,0,15,0,0
55,-199.996060553366,4,2,0,15,0,0
109,-199.974077800411,4,2,0,15,0,0
164,-199.921976692922,4,2,0,15,0,0
219,-199.829532266717,4,2,0,15,0,0
274,-199.687563143914,4,2,0,15,0,0
328,-199.487652991286,4,2,0,15,0,0
383,-199.222024759488,4,2,0,15,0,0
438,-198.883482338824,4,2,0,15,0,0
492,-198.465387854589,4,2,0,15,0,0
547,-197.961659680621,4,2,0,15,0,0
602,-197.366782970527,4,2,0,15,0,0
657,-196.675827613429,4,2,0,15,0,0
711,-195.884470120453,4,2,0,15,0,0
766,-194.989016849121,4,2,0,15,0,0
821,-193.986426527986,4,2,0,15,0,0
876,-192.874330421779,4,2,0,15,0,0
930,-191.651048764293,4,2,0,15,0,0
985,-190.315602328331,4,2,0,15,0,0
1040,-188.867718224233,4,2,0,15,0,0
1094,-187.307829233711,4,2,0,15,0,0
1149,-185.63706619959,4,2,0,15,0,0
1204,-183.857243205635,4,2,0,15,0,0
1259,-181.970835492034,4,2,0,15,0,0
1313,-179.980950257522,4,2,0,15,0,0
1368,-177.891290693669,4,2,0,15,0,0
1423,-175.706113775455,4,2,0,15,0,0
1477,-173.430182489659,4,2,0,15,0,0
1532,-171.068713314495,4,2,0,15,0,0
1587,-168.627319866697,4,2,0,15,0,0
1642,-166.111953703605,4,2,0,15,0,0
1696,-163.528843306598,4,2,0,15,0,0
1751,-160.884432278932,4,2,0,15,0,0
1806,-158.185317767102,4,2,0,15,0,0
1860,-155.438190063165,4,2,0,15,0,0
1915,-152.649774269675,4,2,0,15,0,0
1970,-149.826774813447,4,2,0,15,0,0
2025,-146.975823484108,4,2,0,15,0,0
2079,-144.103431553353,4,2,0,15,0,0
2134,-141.215946405862,4,2,0,15,0,0
2189,-138.319512987597,4,2,0,15,0,0
2243,-135.420040255781,4,2,0,15,0,0
2298,-132.523172700671,4,2,0,15,0,0
2353,-129.634266905154,4,2,0,15,0,0
2408,-126.758373016191,4,2,0,15,0,0
2462,-123.900220923488,4,2,0,15,0,0
2517,-121.06421087629,4,2,0,15,0,0
2572,-118.254408218681,4,2,0,15,0,0
2627,-115.474541887048,4,2,0,15,0,0
2681,-112.728006289287,4,2,0,15,0,0
2736,-110.017866172991,4,2,0,15,0,0
2791,-107.34686408765,4,2,0,15,0,0
2845,-104.717430052542,4,2,0,15,0,0
2900,-102.131693055802,4,2,0,15,0,0
2955,-99.5914940297606,4,2,0,15,0,0
3010,-97.0983999715493,4,2,0,15,0,0
3064,-94.6537189049099,4,2,0,15,0,0
3119,-92.2585154079799,4,2,0,15,0,0
3174,-89.9136264614992,4,2,0,15,0,0
3228,-87.6196774016068,4,2,0,15,0,0
3283,-85.3770977904416,4,2,0,15,0,0
3338,-83.1861370456054,4,2,0,15,0,0
3393,-81.0468796957742,4,2,0,15,0,0
3447,-78.9592601540736,4,2,0,15,0,0
3502,-76.9230769230769,4,2,0,15,0,0
3556,-76.9266044825856,4,2,0,15,0,0
3611,-76.946297332825,4,2,0,15,0,0
3665,-76.9930287766282,4,2,0,15,0,0
3719,-77.0761456635228,4,2,0,15,0,0
3774,-77.204290759169,4,2,0,15,0,0
3828,-77.3857703174903,4,2,0,15,0,0
3882,-77.6288016152068,4,2,0,15,0,0
3936,-77.9417172296915,4,2,0,15,0,0
3991,-78.3331560492997,4,2,0,15,0,0
4045,-78.8122570983738,4,2,0,15,0,0
4099,-79.3888675943839,4,2,0,15,0,0
4154,-80.0737755430063,4,2,0,15,0,0
4208,-80.8789779048914,4,2,0,15,0,0
4262,-81.8179974344597,4,2,0,15,0,0
4317,-82.9062646914775,4,2,0,15,0,0
4371,-84.1615867567109,4,2,0,15,0,0
4425,-85.6047314255581,4,2,0,15,0,0
4479,-87.2601660587511,4,2,0,15,0,0
4534,-89.1570053359578,4,2,0,15,0,0
4588,-91.3302442537777,4,2,0,15,0,0
4642,-93.8223856248083,4,2,0,15,0,0
4697,-96.6856212561225,4,2,0,15,0,0
4751,-99.9848032414531,4,2,0,15,0,0
4805,-103.801564073962,4,2,0,15,0,0
4860,-108.240142717516,4,2,0,15,0,0
4914,-113.435804970077,4,2,0,15,0,0
4968,-119.567317020822,4,2,0,15,0,0
5022,-126.87595004018,4,2,0,15,0,0
5077,-135.695389876163,4,2,0,15,0,0
5131,-146.500627498063,4,2,0,15,0,0
5185,-159.991548401106,4,2,0,15,0,0
5240,-177.243810408197,4,2,0,15,0,0
5294,-200,4,2,0,15,0,0
5349,-199.996060553366,4,2,0,15,0,0
5403,-199.974077800411,4,2,0,15,0,0
5458,-199.921976692922,4,2,0,15,0,0
5512,-199.829532266717,4,2,0,15,0,0
5567,-199.687563143914,4,2,0,15,0,0
5621,-199.487652991286,4,2,0,15,0,0
5676,-199.222024759488,4,2,0,15,0,0
5731,-198.883482338824,4,2,0,15,0,0
5785,-198.465387854589,4,2,0,15,0,0
5840,-197.961659680621,4,2,0,15,0,0
5894,-197.366782970527,4,2,0,15,0,0
5949,-196.675827613429,4,2,0,15,0,0
6004,-195.884470120453,4,2,0,15,0,0
6058,-194.989016849121,4,2,0,15,0,0
6113,-193.986426527986,4,2,0,15,0,0
6167,-192.874330421779,4,2,0,15,0,0
6222,-191.651048764293,4,2,0,15,0,0
6276,-190.315602328331,4,2,0,15,0,0
6331,-188.867718224233,4,2,0,15,0,0
6386,-187.307829233711,4,2,0,15,0,0
6440,-185.63706619959,4,2,0,15,0,0
6495,-183.857243205635,4,2,0,15,0,0
6549,-181.970835492034,4,2,0,15,0,0
6604,-179.980950257522,4,2,0,15,0,0
6658,-177.891290693669,4,2,0,15,0,0
6713,-175.706113775455,4,2,0,15,0,0
6768,-173.430182489659,4,2,0,15,0,0
6822,-171.068713314495,4,2,0,15,0,0
6877,-168.627319866697,4,2,0,15,0,0
6931,-166.111953703605,4,2,0,15,0,0
6986,-163.528843306598,4,2,0,15,0,0
7041,-160.884432278932,4,2,0,15,0,0
7095,-158.185317767102,4,2,0,15,0,0
7150,-155.438190063165,4,2,0,15,0,0
7204,-152.649774269675,4,2,0,15,0,0
7259,-149.826774813447,4,2,0,15,0,0
7313,-146.975823484108,4,2,0,15,0,0
7368,-144.103431553353,4,2,0,15,0,0
7423,-141.215946405862,4,2,0,15,0,0
7477,-138.319512987597,4,2,0,15,0,0
7532,-135.420040255781,4,2,0,15,0,0
7586,-132.523172700671,4,2,0,15,0,0
7641,-129.634266905154,4,2,0,15,0,0
7695,-126.758373016191,4,2,0,15,0,0
7750,-123.900220923488,4,2,0,15,0,0
7805,-121.06421087629,4,2,0,15,0,0
7859,-118.254408218681,4,2,0,15,0,0
7914,-115.474541887048,4,2,0,15,0,0
7968,-112.728006289287,4,2,0,15,0,0
8023,-110.017866172991,4,2,0,15,0,0
8077,-107.34686408765,4,2,0,15,0,0
8132,-104.717430052542,4,2,0,15,0,0
8187,-102.131693055802,4,2,0,15,0,0
8241,-99.5914940297606,4,2,0,15,0,0
8296,-97.0983999715493,4,2,0,15,0,0
8350,-94.6537189049099,4,2,0,15,0,0
8405,-92.2585154079799,4,2,0,15,0,0
8460,-89.9136264614992,4,2,0,15,0,0
8514,-87.6196774016068,4,2,0,15,0,0
8569,-85.3770977904416,4,2,0,15,0,0
8623,-83.1861370456054,4,2,0,15,0,0
8678,-81.0468796957742,4,2,0,15,0,0
8732,-78.9592601540736,4,2,0,15,0,0
8787,-76.9230769230769,4,2,0,15,0,0
8842,-76.9269122562807,4,2,0,15,0,0
8897,-76.9483238388162,4,2,0,15,0,0
8952,-76.9991376895864,4,2,0,15,0,0
9008,-77.0895288875881,4,2,0,15,0,0
9063,-77.2289225228579,4,2,0,15,0,0
9118,-77.426401664899,4,2,0,15,0,0
9173,-77.6909864948207,4,2,0,15,0,0
9228,-78.0318684712019,4,2,0,15,0,0
9283,-78.4586327434892,4,2,0,15,0,0
9338,-78.9814871688947,4,2,0,15,0,0
9393,-79.611511557507,4,2,0,15,0,0
9449,-80.3609400229246,4,2,0,15,0,0
9504,-81.2434907496447,4,2,0,15,0,0
9559,-82.274760648428,4,2,0,15,0,0
9614,-83.4727073874494,4,2,0,15,0,0
9669,-84.8582486925216,4,2,0,15,0,0
9724,-86.4560195681591,4,2,0,15,0,0
9779,-88.2953437685743,4,2,0,15,0,0
9834,-90.4114989455832,4,2,0,15,0,0
9890,-92.8473894510133,4,2,0,15,0,0
9945,-95.6557933902186,4,2,0,15,0,0
10000,-98.9024323107171,4,2,0,15,0,0
10055,-102.670241973329,4,2,0,15,0,0
10110,-107.06543484509,4,2,0,15,0,0
10165,-112.226301216103,4,2,0,15,0,0
10220,-118.336313707395,4,2,0,15,0,0
10275,-125.644211776527,4,2,0,15,0,0
10331,-134.495830204988,4,2,0,15,0,0
10386,-145.386552224012,4,2,0,15,0,0
10441,-159.051871365669,4,2,0,15,0,0
10496,-176.6328183964,4,2,0,15,0,0
10551,-200,4,2,0,15,0,0
10606,-199.997639437869,4,2,0,15,0,0
10661,-199.984466432937,4,2,0,15,0,0
10716,-199.953240587086,4,2,0,15,0,0
10771,-199.897819656738,4,2,0,15,0,0
10825,-199.812668397984,4,2,0,15,0,0
10880,-199.69268262071,4,2,0,15,0,0
10935,-199.533103981894,4,2,0,15,0,0
10990,-199.329474668776,4,2,0,15,0,0
11045,-199.07761323094,4,2,0,15,0,0
11100,-198.773602930054,4,2,0,15,0,0
11155,-198.413788015103,4,2,0,15,0,0
11210,-197.994775201745,4,2,0,15,0,0
11264,-197.513438595197,4,2,0,15,0,0
11319,-196.966926829599,4,2,0,15,0,0
11374,-196.352671512759,4,2,0,15,0,0
11429,-195.668396263549,4,2,0,15,0,0
11484,-194.912125761465,4,2,0,15,0,0
11539,-194.082194322021,4,2,0,15,0,0
11594,-193.17725358364,4,2,0,15,0,0
11649,-192.196278951222,4,2,0,15,0,0
11703,-191.138574494122,4,2,0,15,0,0
11758,-190.003776045457,4,2,0,15,0,0
11813,-188.791852297407,4,2,0,15,0,0
11868,-187.503103734517,4,2,0,15,0,0
11923,-186.138159294439,4,2,0,15,0,0
11978,-184.697970692797,4,2,0,15,0,0
12033,-183.183804395799,4,2,0,15,0,0
12088,-181.597231270008,4,2,0,15,0,0
12142,-179.940113982731,4,2,0,15,0,0
12197,-178.214592267971,4,2,0,15,0,0
12252,-176.423066210961,4,2,0,15,0,0
12307,-174.568177738262,4,2,0,15,0,0
12362,-172.652790529601,4,2,0,15,0,0
12417,-170.679968591445,4,2,0,15,0,0
12472,-168.652953750446,4,2,0,15,0,0
12527,-166.575142337092,4,2,0,15,0,0
12581,-164.450061336047,4,2,0,15,0,0
12636,-162.281344280021,4,2,0,15,0,0
12691,-160.072707158683,4,2,0,15,0,0
12746,-157.827924603676,4,2,0,15,0,0
12801,-155.550806595682,4,2,0,15,0,0
12856,-153.245175920407,4,2,0,15,0,0
12911,-150.914846577978,4,2,0,15,0,0
12966,-148.563603325358,4,2,0,15,0,0
13020,-146.195182504755,4,2,0,15,0,0
13075,-143.813254283338,4,2,0,15,0,0
13130,-141.421406401662,4,2,0,15,0,0
13185,-139.023129500621,4,2,0,15,0,0
13240,-136.621804070162,4,2,0,15,0,0
13295,-134.220689037819,4,2,0,15,0,0
13350,-131.822911991869,4,2,0,15,0,0
13405,-129.431461012783,4,2,0,15,0,0
13459,-127.049178067985,4,2,0,15,0,0
13514,-124.678753908758,4,2,0,15,0,0
13569,-122.322724394636,4,2,0,15,0,0
13624,-119.983468159652,4,2,0,15,0,0
13679,-117.663205526377,4,2,0,15,0,0
13734,-115.363998567675,4,2,0,15,0,0
13789,-113.087752212227,4,2,0,15,0,0
13844,-110.836216288122,4,2,0,15,0,0
13898,-108.61098839875,4,2,0,15,0,0
13953,-106.413517526875,4,2,0,15,0,0
14008,-104.24510826559,4,2,0,15,0,0
14063,-102.10692557896,4,2,0,15,0,0
14117,-100,4,2,0,15,0,0
19412,-100,4,2,0,15,0,0
19467,-100.004051032825,4,2,0,15,0,0
19522,-100.026665413777,4,2,0,15,0,0
19577,-100.080324292653,4,2,0,15,0,0
19633,-100.175743583657,4,2,0,15,0,0
19688,-100.322808761273,4,2,0,15,0,0
19743,-100.530985317058,4,2,0,15,0,0
19798,-100.809589112784,4,2,0,15,0,0
19853,-101.168004331463,4,2,0,15,0,0
19908,-101.615882719904,4,2,0,15,0,0
19963,-102.163341526509,4,2,0,15,0,0
20018,-102.821171776328,4,2,0,15,0,0
20074,-103.601066711692,4,2,0,15,0,0
20129,-104.515880329266,4,2,0,15,0,0
20184,-105.579927295049,4,2,0,15,0,0
20239,-106.809337974853,4,2,0,15,0,0
20294,-108.222486011719,4,2,0,15,0,0
20349,-109.840511161888,4,2,0,15,0,0
20404,-111.687967558536,4,2,0,15,0,0
20459,-113.793638131195,4,2,0,15,0,0
20515,-116.19157099291,4,2,0,15,0,0
20570,-118.922415425988,4,2,0,15,0,0
20625,-122.03516712795,4,2,0,15,0,0
20680,-125.589480194657,4,2,0,15,0,0
20735,-129.65877603813,4,2,0,15,0,0
20790,-134.334492341931,4,2,0,15,0,0
20845,-139.731994517341,4,2,0,15,0,0
20900,-145.998964425972,4,2,0,15,0,0
20956,-153.327571329966,4,2,0,15,0,0
21011,-161.972579077634,4,2,0,15,0,0
21066,-172.279069149148,4,2,0,15,0,0
21121,-184.726318583863,4,2,0,15,0,0
21176,-200,4,2,0,15,0,0
21231,-199.997537827667,4,2,0,15,0,0
21285,-199.983797837765,4,2,0,15,0,0
21340,-199.951228298083,4,2,0,15,0,0
21394,-199.893423602004,4,2,0,15,0,0
21449,-199.804612503218,4,2,0,15,0,0
21503,-199.679475207206,4,2,0,15,0,0
21558,-199.51305516651,4,2,0,15,0,0
21613,-199.300712523983,4,2,0,15,0,0
21667,-199.038099639162,4,2,0,15,0,0
21722,-198.721149677561,4,2,0,15,0,0
21776,-198.346073454934,4,2,0,15,0,0
21831,-197.909361679313,4,2,0,15,0,0
21886,-197.407790735252,4,2,0,15,0,0
21940,-196.838430711132,4,2,0,15,0,0
21995,-196.198654700142,4,2,0,15,0,0
22049,-195.486148613286,4,2,0,15,0,0
22104,-194.698920881958,4,2,0,15,0,0
22158,-193.835311527667,4,2,0,15,0,0
22213,-192.894000154051,4,2,0,15,0,0
22268,-191.874012481258,4,2,0,15,0,0
22322,-190.774725100997,4,2,0,15,0,0
22377,-189.595868185642,4,2,0,15,0,0
22431,-188.337525938604,4,2,0,15,0,0
22486,-187.000134626792,4,2,0,15,0,0
22540,-185.58447808964,4,2,0,15,0,0
22595,-184.091680672603,4,2,0,15,0,0
22650,-182.523197585768,4,2,0,15,0,0
22704,-180.880802739417,4,2,0,15,0,0
22759,-179.166574157224,4,2,0,15,0,0
22813,-177.382877113232,4,2,0,15,0,0
22868,-175.532345180012,4,2,0,15,0,0
22923,-173.617859411556,4,2,0,15,0,0
22977,-171.642525914814,4,2,0,15,0,0
23032,-169.609652087767,4,2,0,15,0,0
23086,-167.522721819236,4,2,0,15,0,0
23141,-165.385369956005,4,2,0,15,0,0
23195,-163.201356346377,4,2,0,15,0,0
23250,-160.97453976625,4,2,0,15,0,0
23305,-158.708852024497,4,2,0,15,0,0
23359,-156.408272529585,4,2,0,15,0,0
23414,-154.076803579568,4,2,0,15,0,0
23468,-151.718446613685,4,2,0,15,0,0
23523,-149.337179636618,4,2,0,15,0,0
23577,-146.93693599701,4,2,0,15,0,0
23632,-144.521584670805,4,2,0,15,0,0
23687,-142.09491216844,4,2,0,15,0,0
23741,-139.660606153468,4,2,0,15,0,0
23796,-137.222240829704,4,2,0,15,0,0
23850,-134.783264124954,4,2,0,15,0,0
23905,-132.346986672413,4,2,0,15,0,0
23959,-129.916572566237,4,2,0,15,0,0
24014,-127.495031845944,4,2,0,15,0,0
24069,-125.085214645349,4,2,0,15,0,0
24123,-122.689806925744,4,2,0,15,0,0
24178,-120.311327700086,4,2,0,15,0,0
24232,-117.952127644858,4,2,0,15,0,0
24287,-115.614388988992,4,2,0,15,0,0
24342,-113.300126564512,4,2,0,15,0,0
24396,-111.011189901228,4,2,0,15,0,0
24451,-108.749266247541,4,2,0,15,0,0
24505,-106.515884401018,4,2,0,15,0,0
24560,-104.31241923556,4,2,0,15,0,0
24614,-102.140096816443,4,2,0,15,0,0
24705,-100,4,2,0,15,0,0
26471,-83.3333333333333,4,2,0,15,0,0
26526,-83.3344585898395,4,2,0,15,0,0
26581,-83.3407390762012,4,2,0,15,0,0
26636,-83.3556336951095,4,2,0,15,0,0
26692,-83.3820938664548,4,2,0,15,0,0
26747,-83.4228098749433,4,2,0,15,0,0
26802,-83.4803089753526,4,2,0,15,0,0
26857,-83.5570119461973,4,2,0,15,0,0
26912,-83.6552721414794,4,2,0,15,0,0
26967,-83.7774058503732,4,2,0,15,0,0
27022,-83.9257179994884,4,2,0,15,0,0
27077,-84.1025253415305,4,2,0,15,0,0
27133,-84.3101784134662,4,2,0,15,0,0
27188,-84.5510831205082,4,2,0,15,0,0
27243,-84.8277225818006,4,2,0,15,0,0
27298,-85.1426797618245,4,2,0,15,0,0
27353,-85.4986613626011,4,2,0,15,0,0
27408,-85.898523443347,4,2,0,15,0,0
27463,-86.3452992552627,4,2,0,15,0,0
27518,-86.842229824617,4,2,0,15,0,0
27574,-87.3927978858408,4,2,0,15,0,0
27629,-88.0007658590556,4,2,0,15,0,0
27684,-88.670218686441,4,2,0,15,0,0
27739,-89.4056124941465,4,2,0,15,0,0
27794,-90.211830238265,4,2,0,15,0,0
27849,-91.0942457345065,4,2,0,15,0,0
27904,-92.0587977747276,4,2,0,15,0,0
27959,-93.1120764168089,4,2,0,15,0,0
28015,-94.2614240207625,4,2,0,15,0,0
28070,-95.5150542244855,4,2,0,15,0,0
28125,-96.8821928491779,4,2,0,15,0,0
28180,-98.3732457540035,4,2,0,15,0,0
28235,-100,4,2,0,15,0,0

[HitObjects]
36,192,0,5,0,0:0:0:0:
109,192,0,1,0,0:0:0:0:
329,192,0,1,0,0:0:0:0:
402,192,0,1,0,0:0:0:0:
36,192,331,1,0,0:0:0:0:
109,192,331,1,0,0:0:0:0:
329,192,331,1,0,0:0:0:0:
402,192,331,1,0,0:0:0:0:
36,192,625,1,0,0:0:0:0:
109,192,625,1,0,0:0:0:0:
329,192,625,1,0,0:0:0:0:
402,192,625,1,0,0:0:0:0:
36,192,956,1,0,0:0:0:0:
109,192,956,1,0,0:0:0:0:
329,192,956,1,0,0:0:0:0:
402,192,956,1,0,0:0:0:0:
36,192,1250,1,0,0:0:0:0:
109,192,1250,1,0,0:0:0:0:
329,192,1250,1,0,0:0:0:0:
402,192,1250,1,0,0:0:0:0:
36,192,1544,1,0,0:0:0:0:
109,192,1544,1,0,0:0:0:0:
329,192,1544,1,0,0:0:0:0:
402,192,1544,1,0,0:0:0:0:
109,192,1765,1,0,0:0:0:0:
182,192,1765,1,0,0:0:0:0:
402,192,1765,1,0,0:0:0:0:
475,192,1765,1,0,0:0:0:0:
109,192,1985,1,0,0:0:0:0:
182,192,1985,1,0,0:0:0:0:
402,192,1985,1,0,0:0:0:0:
475,192,1985,1,0,0:0:0:0:
109,192,2206,1,0,0:0:0:0:
182,192,2206,1,0,0:0:0:0:
402,192,2206,1,0,0:0:0:0:
475,192,2206,1,0,0:0:0:0:
109,192,2371,1,0,0:0:0:0:
182,192,2371,1,0,0:0:0:0:
402,192,2371,1,0,0:0:0:0:
475,192,2371,1,0,0:0:0:0:
109,192,2537,1,0,0:0:0:0:
182,192,2537,1,0,0:0:0:0:
402,192,2537,1,0,0:0:0:0:
475,192,2537,1,0,0:0:0:0:
109,192,2702,1,0,0:0:0:0:
182,192,2702,1,0,0:0:0:0:
402,192,2702,1,0,0:0:0:0:
475,192,2702,1,0,0:0:0:0:
109,192,2868,1,0,0:0:0:0:
182,192,2868,1,0,0:0:0:0:
402,192,2868,1,0,0:0:0:0:
475,192,2868,1,0,0:0:0:0:
109,192,3033,1,0,0:0:0:0:
182,192,3033,1,0,0:0:0:0:
402,192,3033,1,0,0:0:0:0:
475,192,3033,1,0,0:0:0:0:
109,192,3162,1,0,0:0:0:0:
182,192,3162,1,0,0:0:0:0:
402,192,3162,1,0,0:0:0:0:
475,192,3162,1,0,0:0:0:0:
109,192,3309,1,0,0:0:0:0:
182,192,3309,1,0,0:0:0:0:
402,192,3309,1,0,0:0:0:0:
475,192,3309,1,0,0:0:0:0:
109,192,3474,1,0,0:0:0:0:
182,192,3474,1,0,0:0:0:0:
402,192,3474,1,0,0:0:0:0:
475,192,3474,1,0,0:0:0:0:
109,192,3529,1,0,0:0:0:0:
182,192,3529,1,0,0:0:0:0:
329,192,3529,1,0,0:0:0:0:
402,192,3529,1,0,0:0:0:0:
109,192,3640,1,0,0:0:0:0:
182,192,3640,1,0,0:0:0:0:
329,192,3640,1,0,0:0:0:0:
402,192,3640,1,0,0:0:0:0:
109,192,3805,1,0,0:0:0:0:
182,192,3805,1,0,0:0:0:0:
329,192,3805,1,0,0:0:0:0:
402,192,3805,1,0,0:0:0:0:
109,192,4007,1,0,0:0:0:0:
182,192,4007,1,0,0:0:0:0:
329,192,4007,1,0,0:0:0:0:
402,192,4007,1,0,0:0:0:0:
109,192,4219,1,0,0:0:0:0:
182,192,4219,1,0,0:0:0:0:
329,192,4219,1,0,0:0:0:0:
402,192,4219,1,0,0:0:0:0:
109,192,4439,1,0,0:0:0:0:
182,192,4439,1,0,0:0:0:0:
329,192,4439,1,0,0:0:0:0:
402,192,4439,1,0,0:0:0:0:
182,192,4733,1,0,0:0:0:0:
109,192,4733,1,0,0:0:0:0:
329,192,4733,1,0,0:0:0:0:
402,192,4733,1,0,0:0:0:0:
109,192,5059,1,0,0:0:0:0:
182,192,5059,1,0,0:0:0:0:
329,192,5059,1,0,0:0:0:0:
402,192,5059,1,0,0:0:0:0:
109,192,5294,1,0,0:0:0:0:
182,192,5294,1,0,0:0:0:0:
329,192,5294,1,0,0:0:0:0:
475,192,5294,1,0,0:0:0:0:
109,192,5735,1,0,0:0:0:0:
182,192,5735,1,0,0:0:0:0:
329,192,5735,1,0,0:0:0:0:
475,192,5735,1,0,0:0:0:0:
109,192,6066,1,0,0:0:0:0:
182,192,6066,1,0,0:0:0:0:
329,192,6066,1,0,0:0:0:0:
475,192,6066,1,0,0:0:0:0:
109,192,6360,1,0,0:0:0:0:
182,192,6360,1,0,0:0:0:0:
329,192,6360,1,0,0:0:0:0:
475,192,6360,1,0,0:0:0:0:
109,192,6580,1,0,0:0:0:0:
182,192,6580,1,0,0:0:0:0:
329,192,6580,1,0,0:0:0:0:
475,192,6580,1,0,0:0:0:0:
109,192,6746,1,0,0:0:0:0:
182,192,6746,1,0,0:0:0:0:
329,192,6746,1,0,0:0:0:0:
475,192,6746,1,0,0:0:0:0:
109,192,6893,1,0,0:0:0:0:
182,192,6893,1,0,0:0:0:0:
329,192,6893,1,0,0:0:0:0:
475,192,6893,1,0,0:0:0:0:
182,192,7041,1,0,0:0:0:0:
475,192,7041,1,0,0:0:0:0:
36,192,7059,1,0,0:0:0:0:
109,192,7059,1,0,0:0:0:0:
329,192,7169,1,0,0:0:0:0:
402,192,7169,1,0,0:0:0:0:
36,192,7279,1,0,0:0:0:0:
109,192,7279,1,0,0:0:0:0:
329,192,7389,1,0,0:0:0:0:
402,192,7389,1,0,0:0:0:0:
36,192,7500,1,0,0:0:0:0:
109,192,7500,1,0,0:0:0:0:
329,192,7610,1,0,0:0:0:0:
402,192,7610,1,0,0:0:0:0:
36,192,7693,1,0,0:0:0:0:
109,192,7693,1,0,0:0:0:0:
329,192,7775,1,0,0:0:0:0:
402,192,7775,1,0,0:0:0:0:
36,192,7858,1,0,0:0:0:0:
109,192,7858,1,0,0:0:0:0:
329,192,7941,1,0,0:0:0:0:
402,192,7941,1,0,0:0:0:0:
36,192,8023,1,0,0:0:0:0:
109,192,8023,1,0,0:0:0:0:
329,192,8106,1,0,0:0:0:0:
402,192,8106,1,0,0:0:0:0:
36,192,8189,1,0,0:0:0:0:
109,192,8189,1,0,0:0:0:0:
329,192,8272,1,0,0:0:0:0:
402,192,8272,1,0,0:0:0:0:
36,192,8354,1,0,0:0:0:0:
109,192,8354,1,0,0:0:0:0:
329,192,8437,1,0,0:0:0:0:
402,192,8437,1,0,0:0:0:0:
36,192,8520,1,0,0:0:0:0:
109,192,8520,1,0,0:0:0:0:
329,192,8594,1,0,0:0:0:0:
402,192,8594,1,0,0:0:0:0:
36,192,8665,1,0,0:0:0:0:
109,192,8665,1,0,0:0:0:0:
329,192,8740,1,0,0:0:0:0:
402,192,8740,1,0,0:0:0:0:
109,192,8815,1,0,0:0:0:0:
182,192,8815,1,0,0:0:0:0:
402,192,8897,1,0,0:0:0:0:
475,192,8897,1,0,0:0:0:0:
109,192,8980,1,0,0:0:0:0:
182,192,8980,1,0,0:0:0:0:
402,192,9063,1,0,0:0:0:0:
475,192,9063,1,0,0:0:0:0:
109,192,9161,1,0,0:0:0:0:
182,192,9161,1,0,0:0:0:0:
402,192,9273,1,0,0:0:0:0:
475,192,9273,1,0,0:0:0:0:
109,192,9411,1,0,0:0:0:0:
182,192,9411,1,0,0:0:0:0:
402,192,9558,1,0,0:0:0:0:
475,192,9558,1,0,0:0:0:0:
109,192,9706,1,0,0:0:0:0:
182,192,9706,1,0,0:0:0:0:
402,192,9706,1,0,0:0:0:0:
475,192,9706,1,0,0:0:0:0:
109,192,9926,1,0,0:0:0:0:
182,192,9926,1,0,0:0:0:0:
402,192,9926,1,0,0:0:0:0:
475,192,9926,1,0,0:0:0:0:
109,192,10246,1,0,0:0:0:0:
182,192,10246,1,0,0:0:0:0:
402,192,10246,1,0,0:0:0:0:
475,192,10246,1,0,0:0:0:0:
36,192,10588,1,0,0:0:0:0:
182,192,10588,1,0,0:0:0:0:
329,192,10588,1,0,0:0:0:0:
402,192,10588,1,0,0:0:0:0:
36,192,11066,1,0,0:0:0:0:
182,192,11066,1,0,0:0:0:0:
329,192,11066,1,0,0:0:0:0:
402,192,11066,1,0,0:0:0:0:
36,192,11507,1,0,0:0:0:0:
182,192,11507,1,0,0:0:0:0:
329,192,11507,1,0,0:0:0:0:
402,192,11507,1,0,0:0:0:0:
36,192,11838,1,0,0:0:0:0:
182,192,11838,1,0,0:0:0:0:
329,192,11838,1,0,0:0:0:0:
402,192,11838,1,0,0:0:0:0:
36,192,12169,1,0,0:0:0:0:
182,192,12169,1,0,0:0:0:0:
329,192,12169,1,0,0:0:0:0:
402,192,12169,1,0,0:0:0:0:
109,192,12316,1,0,0:0:0:0:
182,192,12316,1,0,0:0:0:0:
402,192,12316,1,0,0:0:0:0:
475,192,12316,1,0,0:0:0:0:
109,192,12610,1,0,0:0:0:0:
182,192,12610,1,0,0:0:0:0:
402,192,12610,1,0,0:0:0:0:
475,192,12610,1,0,0:0:0:0:
109,192,12868,1,0,0:0:0:0:
182,192,12868,1,0,0:0:0:0:
402,192,12868,1,0,0:0:0:0:
475,192,12868,1,0,0:0:0:0:
109,192,13088,1,0,0:0:0:0:
182,192,13088,1,0,0:0:0:0:
402,192,13088,1,0,0:0:0:0:
475,192,13088,1,0,0:0:0:0:
109,192,13309,1,0,0:0:0:0:
182,192,13309,1,0,0:0:0:0:
402,192,13309,1,0,0:0:0:0:
475,192,13309,1,0,0:0:0:0:
109,192,13483,1,0,0:0:0:0:
182,192,13483,1,0,0:0:0:0:
402,192,13483,1,0,0:0:0:0:
475,192,13483,1,0,0:0:0:0:
109,192,13649,1,0,0:0:0:0:
182,192,13649,1,0,0:0:0:0:
402,192,13649,1,0,0:0:0:0:
475,192,13649,1,0,0:0:0:0:
109,192,13814,1,0,0:0:0:0:
182,192,13814,1,0,0:0:0:0:
402,192,13814,1,0,0:0:0:0:
475,192,13814,1,0,0:0:0:0:
109,192,13952,1,0,0:0:0:0:
182,192,13952,1,0,0:0:0:0:
402,192,13952,1,0,0:0:0:0:
475,192,13952,1,0,0:0:0:0:
36,192,14118,1,0,0:0:0:0:
109,192,14118,1,0,0:0:0:0:
329,192,14118,1,0,0:0:0:0:
402,192,14118,1,0,0:0:0:0:
36,192,14265,1,0,0:0:0:0:
109,192,14265,1,0,0:0:0:0:
329,192,14265,1,0,0:0:0:0:
402,192,14265,1,0,0:0:0:0:
36,192,14412,1,0,0:0:0:0:
109,192,14412,1,0,0:0:0:0:
329,192,14412,1,0,0:0:0:0:
402,192,14412,1,0,0:0:0:0:
36,192,14559,1,0,0:0:0:0:
109,192,14559,1,0,0:0:0:0:
329,192,14559,1,0,0:0:0:0:
402,192,14559,1,0,0:0:0:0:
36,192,14706,1,0,0:0:0:0:
109,192,14706,1,0,0:0:0:0:
329,192,14706,1,0,0:0:0:0:
402,192,14706,1,0,0:0:0:0:
36,192,14853,1,0,0:0:0:0:
109,192,14853,1,0,0:0:0:0:
329,192,14853,1,0,0:0:0:0:
402,192,14853,1,0,0:0:0:0:
36,192,15000,1,0,0:0:0:0:
109,192,15000,1,0,0:0:0:0:
329,192,15000,1,0,0:0:0:0:
402,192,15000,1,0,0:0:0:0:
36,192,15147,1,0,0:0:0:0:
109,192,15147,1,0,0:0:0:0:
329,192,15147,1,0,0:0:0:0:
402,192,15147,1,0,0:0:0:0:
36,192,15294,1,0,0:0:0:0:
109,192,15294,1,0,0:0:0:0:
329,192,15294,1,0,0:0:0:0:
402,192,15294,1,0,0:0:0:0:
36,192,15441,1,0,0:0:0:0:
109,192,15441,1,0,0:0:0:0:
329,192,15441,1,0,0:0:0:0:
402,192,15441,1,0,0:0:0:0:
36,192,15588,1,0,0:0:0:0:
109,192,15588,1,0,0:0:0:0:
329,192,15588,1,0,0:0:0:0:
402,192,15588,1,0,0:0:0:0:
36,192,15735,1,0,0:0:0:0:
109,192,15735,1,0,0:0:0:0:
329,192,15735,1,0,0:0:0:0:
402,192,15735,1,0,0:0:0:0:
109,192,15882,1,0,0:0:0:0:
182,192,15882,1,0,0:0:0:0:
402,192,15882,1,0,0:0:0:0:
475,192,15882,1,0,0:0:0:0:
109,192,16029,1,0,0:0:0:0:
182,192,16029,1,0,0:0:0:0:
402,192,16029,1,0,0:0:0:0:
475,192,16029,1,0,0:0:0:0:
109,192,16176,1,0,0:0:0:0:
182,192,16176,1,0,0:0:0:0:
402,192,16176,1,0,0:0:0:0:
475,192,16176,1,0,0:0:0:0:
109,192,16324,1,0,0:0:0:0:
182,192,16324,1,0,0:0:0:0:
402,192,16324,1,0,0:0:0:0:
475,192,16324,1,0,0:0:0:0:
109,192,16471,1,0,0:0:0:0:
182,192,16471,1,0,0:0:0:0:
402,192,16471,1,0,0:0:0:0:
475,192,16471,1,0,0:0:0:0:
109,192,16618,1,0,0:0:0:0:
182,192,16618,1,0,0:0:0:0:
402,192,16618,1,0,0:0:0:0:
475,192,16618,1,0,0:0:0:0:
109,192,16765,1,0,0:0:0:0:
182,192,16765,1,0,0:0:0:0:
402,192,16765,1,0,0:0:0:0:
475,192,16765,1,0,0:0:0:0:
109,192,16912,1,0,0:0:0:0:
182,192,16912,1,0,0:0:0:0:
402,192,16912,1,0,0:0:0:0:
475,192,16912,1,0,0:0:0:0:
109,192,17059,1,0,0:0:0:0:
182,192,17059,1,0,0:0:0:0:
402,192,17059,1,0,0:0:0:0:
475,192,17059,1,0,0:0:0:0:
109,192,17206,1,0,0:0:0:0:
182,192,17206,1,0,0:0:0:0:
402,192,17206,1,0,0:0:0:0:
475,192,17206,1,0,0:0:0:0:
109,192,17353,1,0,0:0:0:0:
182,192,17353,1,0,0:0:0:0:
402,192,17353,1,0,0:0:0:0:
475,192,17353,1,0,0:0:0:0:
109,192,17500,1,0,0:0:0:0:
182,192,17500,1,0,0:0:0:0:
402,192,17500,1,0,0:0:0:0:
475,192,17500,1,0,0:0:0:0:
109,192,17647,1,0,0:0:0:0:
182,192,17647,1,0,0:0:0:0:
329,192,17647,1,0,0:0:0:0:
402,192,17647,1,0,0:0:0:0:
109,192,17794,1,0,0:0:0:0:
182,192,17794,1,0,0:0:0:0:
329,192,17794,1,0,0:0:0:0:
402,192,17794,1,0,0:0:0:0:
109,192,17941,1,0,0:0:0:0:
182,192,17941,1,0,0:0:0:0:
329,192,17941,1,0,0:0:0:0:
402,192,17941,1,0,0:0:0:0:
109,192,18088,1,0,0:0:0:0:
182,192,18088,1,0,0:0:0:0:
329,192,18088,1,0,0:0:0:0:
402,192,18088,1,0,0:0:0:0:
109,192,18235,1,0,0:0:0:0:
182,192,18235,1,0,0:0:0:0:
329,192,18235,1,0,0:0:0:0:
402,192,18235,1,0,0:0:0:0:
109,192,18382,1,0,0:0:0:0:
182,192,18382,1,0,0:0:0:0:
329,192,18382,1,0,0:0:0:0:
402,192,18382,1,0,0:0:0:0:
109,192,18529,1,0,0:0:0:0:
182,192,18529,1,0,0:0:0:0:
329,192,18529,1,0,0:0:0:0:
402,192,18529,1,0,0:0:0:0:
109,192,18676,1,0,0:0:0:0:
182,192,18676,1,0,0:0:0:0:
329,192,18676,1,0,0:0:0:0:
402,192,18676,1,0,0:0:0:0:
109,192,18824,1,0,0:0:0:0:
182,192,18824,1,0,0:0:0:0:
329,192,18824,1,0,0:0:0:0:
402,192,18824,1,0,0:0:0:0:
109,192,18971,1,0,0:0:0:0:
182,192,18971,1,0,0:0:0:0:
329,192,18971,1,0,0:0:0:0:
402,192,18971,1,0,0:0:0:0:
109,192,19118,1,0,0:0:0:0:
182,192,19118,1,0,0:0:0:0:
329,192,19118,1,0,0:0:0:0:
402,192,19118,1,0,0:0:0:0:
109,192,19265,1,0,0:0:0:0:
182,192,19265,1,0,0:0:0:0:
329,192,19265,1,0,0:0:0:0:
402,192,19265,1,0,0:0:0:0:
109,192,19412,1,0,0:0:0:0:
182,192,19412,1,0,0:0:0:0:
329,192,19412,1,0,0:0:0:0:
475,192,19412,1,0,0:0:0:0:
109,192,19577,1,0,0:0:0:0:
182,192,19577,1,0,0:0:0:0:
329,192,19577,1,0,0:0:0:0:
475,192,19577,1,0,0:0:0:0:
109,192,19743,1,0,0:0:0:0:
182,192,19743,1,0,0:0:0:0:
329,192,19743,1,0,0:0:0:0:
475,192,19743,1,0,0:0:0:0:
109,192,19908,1,0,0:0:0:0:
182,192,19908,1,0,0:0:0:0:
329,192,19908,1,0,0:0:0:0:
475,192,19908,1,0,0:0:0:0:
109,192,20074,1,0,0:0:0:0:
182,192,20074,1,0,0:0:0:0:
329,192,20074,1,0,0:0:0:0:
475,192,20074,1,0,0:0:0:0:
109,192,20294,1,0,0:0:0:0:
182,192,20294,1,0,0:0:0:0:
329,192,20294,1,0,0:0:0:0:
475,192,20294,1,0,0:0:0:0:
109,192,20515,1,0,0:0:0:0:
182,192,20515,1,0,0:0:0:0:
329,192,20515,1,0,0:0:0:0:
475,192,20515,1,0,0:0:0:0:
109,192,20735,1,0,0:0:0:0:
182,192,20735,1,0,0:0:0:0:
329,192,20735,1,0,0:0:0:0:
475,192,20735,1,0,0:0:0:0:
109,192,20992,1,0,0:0:0:0:
182,192,20992,1,0,0:0:0:0:
329,192,20992,1,0,0:0:0:0:
475,192,20992,1,0,0:0:0:0:
36,192,21176,1,0,0:0:0:0:
109,192,21176,1,0,0:0:0:0:
329,192,21176,1,0,0:0:0:0:
402,192,21176,1,0,0:0:0:0:
36,192,21470,1,0,0:0:0:0:
109,192,21470,1,0,0:0:0:0:
329,192,21470,1,0,0:0:0:0:
402,192,21470,1,0,0:0:0:0:
36,192,21764,1,0,0:0:0:0:
109,192,21764,1,0,0:0:0:0:
329,192,21764,1,0,0:0:0:0:
402,192,21764,1,0,0:0:0:0:
36,192,22058,1,0,0:0:0:0:
109,192,22058,1,0,0:0:0:0:
329,192,22058,1,0,0:0:0:0:
402,192,22058,1,0,0:0:0:0:
36,192,22279,1,0,0:0:0:0:
109,192,22279,1,0,0:0:0:0:
329,192,22279,1,0,0:0:0:0:
402,192,22279,1,0,0:0:0:0:
36,192,22494,1,0,0:0:0:0:
109,192,22494,1,0,0:0:0:0:
329,192,22494,1,0,0:0:0:0:
402,192,22494,1,0,0:0:0:0:
36,192,22721,1,0,0:0:0:0:
109,192,22721,1,0,0:0:0:0:
329,192,22721,1,0,0:0:0:0:
402,192,22721,1,0,0:0:0:0:
109,192,22941,1,0,0:0:0:0:
182,192,22941,1,0,0:0:0:0:
402,192,22941,1,0,0:0:0:0:
475,192,22941,1,0,0:0:0:0:
109,192,23162,1,0,0:0:0:0:
182,192,23162,1,0,0:0:0:0:
402,192,23162,1,0,0:0:0:0:
475,192,23162,1,0,0:0:0:0:
109,192,23382,1,0,0:0:0:0:
182,192,23382,1,0,0:0:0:0:
402,192,23382,1,0,0:0:0:0:
475,192,23382,1,0,0:0:0:0:
109,192,23547,1,0,0:0:0:0:
182,192,23547,1,0,0:0:0:0:
402,192,23547,1,0,0:0:0:0:
475,192,23547,1,0,0:0:0:0:
109,192,23713,1,0,0:0:0:0:
182,192,23713,1,0,0:0:0:0:
402,192,23713,1,0,0:0:0:0:
475,192,23713,1,0,0:0:0:0:
109,192,23878,1,0,0:0:0:0:
182,192,23878,1,0,0:0:0:0:
402,192,23878,1,0,0:0:0:0:
475,192,23878,1,0,0:0:0:0:
109,192,24044,1,0,0:0:0:0:
182,192,24044,1,0,0:0:0:0:
402,192,24044,1,0,0:0:0:0:
475,192,24044,1,0,0:0:0:0:
109,192,24210,1,0,0:0:0:0:
182,192,24210,1,0,0:0:0:0:
402,192,24210,1,0,0:0:0:0:
475,192,24210,1,0,0:0:0:0:
109,192,24375,1,0,0:0:0:0:
182,192,24375,1,0,0:0:0:0:
402,192,24375,1,0,0:0:0:0:
475,192,24375,1,0,0:0:0:0:
109,192,24540,1,0,0:0:0:0:
182,192,24540,1,0,0:0:0:0:
402,192,24540,1,0,0:0:0:0:
475,192,24540,1,0,0:0:0:0:
36,192,24669,1,0,0:0:0:0:
182,192,24669,1,0,0:0:0:0:
329,192,24669,1,0,0:0:0:0:
402,192,24669,1,0,0:0:0:0:
36,192,24853,1,0,0:0:0:0:
182,192,24853,1,0,0:0:0:0:
329,192,24853,1,0,0:0:0:0:
402,192,24853,1,0,0:0:0:0:
36,192,25000,1,0,0:0:0:0:
182,192,25000,1,0,0:0:0:0:
329,192,25000,1,0,0:0:0:0:
402,192,25000,1,0,0:0:0:0:
36,192,25147,1,0,0:0:0:0:
182,192,25147,1,0,0:0:0:0:
329,192,25147,1,0,0:0:0:0:
402,192,25147,1,0,0:0:0:0:
36,192,25312,1,0,0:0:0:0:
182,192,25312,1,0,0:0:0:0:
329,192,25312,1,0,0:0:0:0:
402,192,25312,1,0,0:0:0:0:
36,192,25477,1,0,0:0:0:0:
182,192,25477,1,0,0:0:0:0:
329,192,25477,1,0,0:0:0:0:
402,192,25477,1,0,0:0:0:0:
402,192,25643,1,0,0:0:0:0:
36,192,25643,1,0,0:0:0:0:
182,192,25643,1,0,0:0:0:0:
329,192,25643,1,0,0:0:0:0:
36,192,25809,1,0,0:0:0:0:
182,192,25809,1,0,0:0:0:0:
329,192,25809,1,0,0:0:0:0:
402,192,25809,1,0,0:0:0:0:
36,192,25974,1,0,0:0:0:0:
182,192,25974,1,0,0:0:0:0:
329,192,25974,1,0,0:0:0:0:
402,192,25974,1,0,0:0:0:0:
36,192,26140,1,0,0:0:0:0:
182,192,26140,1,0,0:0:0:0:
329,192,26140,1,0,0:0:0:0:
402,192,26140,1,0,0:0:0:0:
36,192,26305,1,0,0:0:0:0:
182,192,26305,1,0,0:0:0:0:
329,192,26305,1,0,0:0:0:0:
402,192,26305,1,0,0:0:0:0:
109,192,26471,1,0,0:0:0:0:
182,192,26471,1,0,0:0:0:0:
402,192,26471,1,0,0:0:0:0:
475,192,26471,1,0,0:0:0:0:
109,192,26691,1,0,0:0:0:0:
182,192,26691,1,0,0:0:0:0:
402,192,26691,1,0,0:0:0:0:
475,192,26691,1,0,0:0:0:0:
109,192,26912,1,0,0:0:0:0:
182,192,26912,1,0,0:0:0:0:
402,192,26912,1,0,0:0:0:0:
475,192,26912,1,0,0:0:0:0:
109,192,27132,1,0,0:0:0:0:
182,192,27132,1,0,0:0:0:0:
402,192,27132,1,0,0:0:0:0:
475,192,27132,1,0,0:0:0:0:
109,192,27353,1,0,0:0:0:0:
182,192,27353,1,0,0:0:0:0:
402,192,27353,1,0,0:0:0:0:
475,192,27353,1,0,0:0:0:0:
109,192,27647,1,0,0:0:0:0:
182,192,27647,1,0,0:0:0:0:
402,192,27647,1,0,0:0:0:0:
475,192,27647,1,0,0:0:0:0:
109,192,27941,1,0,0:0:0:0:
182,192,27941,1,0,0:0:0:0:
402,192,27941,1,0,0:0:0:0:
475,192,27941,1,0,0:0:0:0:
36,192,28235,1,0,0:0:0:0:
109,192,28235,1,0,0:0:0:0:
182,192,28235,1,0,0:0:0:0:
256,192,28235,1,0,0:0:0:0:
329,192,28235,1,0,0:0:0:0:
402,192,28235,1,0,0:0:0:0:
475,192,28382,1,0,0:0:0:0:
256,192,28529,1,0,0:0:0:0:
329,192,28529,1,0,0:0:0:0:
36,192,28676,1,0,0:0:0:0:
182,192,28676,1,0,0:0:0:0:
475,192,28676,1,0,0:0:0:0:
256,192,28824,1,0,0:0:0:0:
329,192,28824,1,0,0:0:0:0:
475,192,28971,1,0,0:0:0:0:
256,192,29118,1,0,0:0:0:0:
329,192,29118,1,0,0:0:0:0:
475,192,29265,1,0,0:0:0:0:
256,192,29412,1,0,0:0:0:0:
329,192,29412,1,0,0:0:0:0:
109,192,29449,1,0,0:0:0:0:
475,192,29559,1,0,0:0:0:0:
256,192,29706,1,0,0:0:0:0:
329,192,29706,1,0,0:0:0:0:
475,192,29853,1,0,0:0:0:0:
36,192,30000,1,0,0:0:0:0:
109,192,30000,1,0,0:0:0:0:
182,192,30000,1,0,0:0:0:0:
256,192,30000,1,0,0:0:0:0:
402,192,30000,1,0,0:0:0:0:
475,192,30147,1,0,0:0:0:0:
256,192,30294,1,0,0:0:0:0:
402,192,30294,1,0,0:0:0:0:
36,192,30441,1,0,0:0:0:0:
182,192,30441,1,0,0:0:0:0:
475,192,30441,1,0,0:0:0:0:
256,192,30588,1,0,0:0:0:0:
402,192,30588,1,0,0:0:0:0:
475,192,30735,1,0,0:0:0:0:
256,192,30882,1,0,0:0:0:0:
402,192,30882,1,0,0:0:0:0:
475,192,31029,1,0,0:0:0:0:
256,192,31176,1,0,0:0:0:0:
402,192,31176,1,0,0:0:0:0:
109,192,31213,1,0,0:0:0:0:
475,192,31324,1,0,0:0:0:0:
256,192,31471,1,0,0:0:0:0:
402,192,31471,1,0,0:0:0:0:
475,192,31618,1,0,0:0:0:0:
36,192,31765,1,0,0:0:0:0:
109,192,31765,1,0,0:0:0:0:
182,192,31765,1,0,0:0:0:0:
256,192,31765,1,0,0:0:0:0:
329,192,31765,1,0,0:0:0:0:
402,192,31912,1,0,0:0:0:0:
256,192,32059,1,0,0:0:0:0:
329,192,32059,1,0,0:0:0:0:
36,192,32206,1,0,0:0:0:0:
182,192,32206,1,0,0:0:0:0:
402,192,32206,1,0,0:0:0:0:
256,192,32353,1,0,0:0:0:0:
329,192,32353,1,0,0:0:0:0:
402,192,32500,1,0,0:0:0:0:
256,192,32647,1,0,0:0:0:0:
329,192,32647,1,0,0:0:0:0:
402,192,32794,1,0,0:0:0:0:
256,192,32941,1,0,0:0:0:0:
329,192,32941,1,0,0:0:0:0:
109,192,32978,1,0,0:0:0:0:
402,192,33088,1,0,0:0:0:0:
256,192,33235,1,0,0:0:0:0:
329,192,33235,1,0,0:0:0:0:
402,192,33382,1,0,0:0:0:0:
36,192,33529,1,0,0:0:0:0:
109,192,33529,1,0,0:0:0:0:
182,192,33529,1,0,0:0:0:0:
329,192,33529,1,0,0:0:0:0:
475,192,33529,1,0,0:0:0:0:
256,192,33676,1,0,0:0:0:0:
329,192,33824,1,0,0:0:0:0:
402,192,33824,1,0,0:0:0:0:
36,192,33971,1,0,0:0:0:0:
182,192,33971,1,0,0:0:0:0:
475,192,33971,1,0,0:0:0:0:
256,192,34118,1,0,0:0:0:0:
329,192,34118,1,0,0:0:0:0:
402,192,34265,1,0,0:0:0:0:
475,192,34265,1,0,0:0:0:0:
256,192,34412,1,0,0:0:0:0:
329,192,34412,1,0,0:0:0:0:
402,192,34559,1,0,0:0:0:0:
475,192,34559,1,0,0:0:0:0:
256,192,34706,1,0,0:0:0:0:
329,192,34706,1,0,0:0:0:0:
109,192,34743,1,0,0:0:0:0:
402,192,34853,1,0,0:0:0:0:
475,192,34853,1,0,0:0:0:0:
256,192,35000,1,0,0:0:0:0:
329,192,35000,1,0,0:0:0:0:
402,192,35147,1,0,0:0:0:0:
475,192,35147,1,0,0:0:0:0:
36,192,35294,1,0,0:0:0:0:
109,192,35294,1,0,0:0:0:0:
182,192,35294,1,0,0:0:0:0:
256,192,35294,1,0,0:0:0:0:
329,192,35294,1,0,0:0:0:0:
475,192,35441,1,0,0:0:0:0:
256,192,35588,1,0,0:0:0:0:
329,192,35588,1,0,0:0:0:0:
36,192,35735,1,0,0:0:0:0:
182,192,35735,1,0,0:0:0:0:
475,192,35735,1,0,0:0:0:0:
256,192,35882,1,0,0:0:0:0:
329,192,35882,1,0,0:0:0:0:
475,192,36029,1,0,0:0:0:0:
256,192,36176,1,0,0:0:0:0:
329,192,36176,1,0,0:0:0:0:
475,192,36324,1,0,0:0:0:0:
256,192,36471,1,0,0:0:0:0:
329,192,36471,1,0,0:0:0:0:
109,192,36507,1,0,0:0:0:0:
475,192,36618,1,0,0:0:0:0:
256,192,36765,1,0,0:0:0:0:
329,192,36765,1,0,0:0:0:0:
475,192,36912,1,0,0:0:0:0:
36,192,37059,1,0,0:0:0:0:
109,192,37059,1,0,0:0:0:0:
182,192,37059,1,0,0:0:0:0:
329,192,37059,1,0,0:0:0:0:
402,192,37059,1,0,0:0:0:0:
182,192,37206,1,0,0:0:0:0:
329,192,37353,1,0,0:0:0:0:
402,192,37353,1,0,0:0:0:0:
36,192,37500,1,0,0:0:0:0:
182,192,37500,1,0,0:0:0:0:
475,192,37500,1,0,0:0:0:0:
329,192,37647,1,0,0:0:0:0:
402,192,37647,1,0,0:0:0:0:
182,192,37721,1,0,0:0:0:0:
402,192,37794,1,0,0:0:0:0:
182,192,37941,1,0,0:0:0:0:
329,192,38051,1,0,0:0:0:0:
402,192,38051,1,0,0:0:0:0:
182,192,38162,1,0,0:0:0:0:
36,192,38272,1,0,0:0:0:0:
182,192,38382,1,0,0:0:0:0:
329,192,38382,1,0,0:0:0:0:
402,192,38382,1,0,0:0:0:0:
182,192,38603,1,0,0:0:0:0:
329,192,38713,1,0,0:0:0:0:
402,192,38713,1,0,0:0:0:0:
36,192,38824,1,0,0:0:0:0:
109,192,38824,1,0,0:0:0:0:
182,192,38824,1,0,0:0:0:0:
256,192,38824,1,0,0:0:0:0:
475,192,38824,1,0,0:0:0:0:
182,192,39044,1,0,0:0:0:0:
256,192,39154,1,0,0:0:0:0:
329,192,39154,1,0,0:0:0:0:
475,192,39154,1,0,0:0:0:0:
36,192,39265,1,0,0:0:0:0:
182,192,39265,1,0,0:0:0:0:
182,192,39485,1,0,0:0:0:0:
256,192,39485,1,0,0:0:0:0:
475,192,39485,1,0,0:0:0:0:
182,192,39706,1,0,0:0:0:0:
256,192,39816,1,0,0:0:0:0:
475,192,39816,1,0,0:0:0:0:
182,192,39926,1,0,0:0:0:0:
36,192,40037,1,0,0:0:0:0:
109,192,40037,1,0,0:0:0:0:
182,192,40147,1,0,0:0:0:0:
256,192,40147,1,0,0:0:0:0:
475,192,40147,1,0,0:0:0:0:
182,192,40368,1,0,0:0:0:0:
256,192,40478,1,0,0:0:0:0:
475,192,40478,1,0,0:0:0:0:
36,192,40588,1,0,0:0:0:0:
109,192,40588,1,0,0:0:0:0:
182,192,40588,1,0,0:0:0:0:
329,192,40588,1,0,0:0:0:0:
402,192,40588,1,0,0:0:0:0:
402,192,40809,1,0,0:0:0:0:
182,192,40919,1,0,0:0:0:0:
329,192,40919,1,0,0:0:0:0:
36,192,41029,1,0,0:0:0:0:
109,192,41029,1,0,0:0:0:0:
402,192,41029,1,0,0:0:0:0:
182,192,41250,1,0,0:0:0:0:
329,192,41250,1,0,0:0:0:0:
402,192,41250,1,0,0:0:0:0:
402,192,41471,1,0,0:0:0:0:
182,192,41581,1,0,0:0:0:0:
329,192,41581,1,0,0:0:0:0:
402,192,41691,1,0,0:0:0:0:
182,192,41912,1,0,0:0:0:0:
329,192,41912,1,0,0:0:0:0:
402,192,41912,1,0,0:0:0:0:
402,192,42132,1,0,0:0:0:0:
182,192,42243,1,0,0:0:0:0:
329,192,42243,1,0,0:0:0:0:
36,192,42353,1,0,0:0:0:0:
109,192,42353,1,0,0:0:0:0:
256,192,42353,1,0,0:0:0:0:
402,192,42353,1,0,0:0:0:0:
182,192,42574,1,0,0:0:0:0:
329,192,42684,1,0,0:0:0:0:
402,192,42684,1,0,0:0:0:0:
109,192,42794,1,0,0:0:0:0:
182,192,42794,1,0,0:0:0:0:
329,192,43015,1,0,0:0:0:0:
402,192,43015,1,0,0:0:0:0:
182,192,43235,1,0,0:0:0:0:
475,192,43235,1,0,0:0:0:0:
329,192,43346,1,0,0:0:0:0:
402,192,43346,1,0,0:0:0:0:
475,192,43456,1,0,0:0:0:0:
109,192,43676,1,0,0:0:0:0:
475,192,43676,1,0,0:0:0:0:
475,192,43897,1,0,0:0:0:0:
329,192,44007,1,0,0:0:0:0:
402,192,44007,1,0,0:0:0:0:
109,192,44118,1,0,0:0:0:0:
182,192,44118,1,0,0:0:0:0:
475,192,44118,1,0,0:0:0:0:
475,192,44338,1,0,0:0:0:0:
402,192,44393,1,0,0:0:0:0:
329,192,44449,1,0,0:0:0:0:
256,192,44504,1,0,0:0:0:0:
36,192,44559,1,0,0:0:0:0:
329,192,44779,1,0,0:0:0:0:
402,192,44779,1,0,0:0:0:0:
109,192,45000,1,0,0:0:0:0:
182,192,45000,1,0,0:0:0:0:
329,192,45110,1,0,0:0:0:0:
36,192,45221,1,0,0:0:0:0:
182,192,45221,1,0,0:0:0:0:
256,192,45331,1,0,0:0:0:0:
329,192,45441,1,0,0:0:0:0:
475,192,45441,1,0,0:0:0:0:
182,192,45662,1,0,0:0:0:0:
329,192,45772,1,0,0:0:0:0:
402,192,45772,1,0,0:0:0:0:
36,192,45882,1,0,0:0:0:0:
109,192,45882,1,0,0:0:0:0:
182,192,45882,1,0,0:0:0:0:
475,192,45882,1,0,0:0:0:0:
329,192,46103,1,0,0:0:0:0:
475,192,46103,1,0,0:0:0:0:
109,192,46213,1,0,0:0:0:0:
182,192,46213,1,0,0:0:0:0:
402,192,46324,1,0,0:0:0:0:
475,192,46324,1,0,0:0:0:0:
109,192,46544,1,0,0:0:0:0:
182,192,46544,1,0,0:0:0:0:
475,192,46544,1,0,0:0:0:0:
329,192,46765,1,0,0:0:0:0:
402,192,46765,1,0,0:0:0:0:
475,192,46765,1,0,0:0:0:0:
109,192,46875,1,0,0:0:0:0:
182,192,46875,1,0,0:0:0:0:
475,192,46985,1,0,0:0:0:0:
256,192,47096,1,0,0:0:0:0:
109,192,47206,1,0,0:0:0:0:
182,192,47206,1,0,0:0:0:0:
475,192,47206,1,0,0:0:0:0:
475,192,47426,1,0,0:0:0:0:
109,192,47537,1,0,0:0:0:0:
182,192,47537,1,0,0:0:0:0:
36,192,47647,1,0,0:0:0:0:
329,192,47647,1,0,0:0:0:0:
402,192,47647,1,0,0:0:0:0:
475,192,47647,1,0,0:0:0:0:
36,192,47868,1,0,0:0:0:0:
109,192,47868,1,0,0:0:0:0:
329,192,47868,1,0,0:0:0:0:
402,192,47978,1,0,0:0:0:0:
475,192,47978,1,0,0:0:0:0:
109,192,48088,1,0,0:0:0:0:
182,192,48088,1,0,0:0:0:0:
329,192,48088,1,0,0:0:0:0:
329,192,48309,1,0,0:0:0:0:
402,192,48309,1,0,0:0:0:0:
475,192,48309,1,0,0:0:0:0:
182,192,48529,1,0,0:0:0:0:
329,192,48529,1,0,0:0:0:0:
402,192,48640,1,0,0:0:0:0:
475,192,48640,1,0,0:0:0:0:
329,192,48750,1,0,0:0:0:0:
182,192,48860,1,0,0:0:0:0:
109,192,48971,1,0,0:0:0:0:
329,192,48971,1,0,0:0:0:0:
402,192,48971,1,0,0:0:0:0:
475,192,48971,1,0,0:0:0:0:
329,192,49191,1,0,0:0:0:0:
402,192,49301,1,0,0:0:0:0:
475,192,49301,1,0,0:0:0:0:
36,192,49412,1,0,0:0:0:0:
109,192,49412,1,0,0:0:0:0:
182,192,49412,1,0,0:0:0:0:
256,192,49412,1,0,0:0:0:0:
329,192,49412,1,0,0:0:0:0:
182,192,49632,1,0,0:0:0:0:
256,192,49743,1,0,0:0:0:0:
329,192,49743,1,0,0:0:0:0:
36,192,49853,1,0,0:0:0:0:
182,192,49853,1,0,0:0:0:0:
182,192,50074,1,0,0:0:0:0:
256,192,50074,1,0,0:0:0:0:
329,192,50074,1,0,0:0:0:0:
182,192,50294,1,0,0:0:0:0:
256,192,50404,1,0,0:0:0:0:
329,192,50404,1,0,0:0:0:0:
182,192,50515,1,0,0:0:0:0:
402,192,50625,1,0,0:0:0:0:
182,192,50735,1,0,0:0:0:0:
256,192,50735,1,0,0:0:0:0:
329,192,50735,1,0,0:0:0:0:
182,192,50956,1,0,0:0:0:0:
256,192,51066,1,0,0:0:0:0:
329,192,51066,1,0,0:0:0:0:
36,192,51176,1,0,0:0:0:0:
109,192,51176,1,0,0:0:0:0:
182,192,51176,1,0,0:0:0:0:
402,192,51176,1,0,0:0:0:0:
475,192,51176,1,0,0:0:0:0:
109,192,51397,1,0,0:0:0:0:
402,192,51507,1,0,0:0:0:0:
475,192,51507,1,0,0:0:0:0:
109,192,51618,1,0,0:0:0:0:
182,192,51618,1,0,0:0:0:0:
256,192,51618,1,0,0:0:0:0:
109,192,51838,1,0,0:0:0:0:
402,192,51838,1,0,0:0:0:0:
475,192,51838,1,0,0:0:0:0:
109,192,52059,1,0,0:0:0:0:
402,192,52169,1,0,0:0:0:0:
475,192,52169,1,0,0:0:0:0:
109,192,52279,1,0,0:0:0:0:
256,192,52390,1,0,0:0:0:0:
109,192,52500,1,0,0:0:0:0:
402,192,52500,1,0,0:0:0:0:
475,192,52500,1,0,0:0:0:0:
109,192,52721,1,0,0:0:0:0:
402,192,52831,1,0,0:0:0:0:
475,192,52831,1,0,0:0:0:0:
36,192,52941,1,0,0:0:0:0:
109,192,52941,1,0,0:0:0:0:
182,192,52941,1,0,0:0:0:0:
256,192,52941,1,0,0:0:0:0:
329,192,52941,1,0,0:0:0:0:
329,192,53162,1,0,0:0:0:0:
109,192,53272,1,0,0:0:0:0:
182,192,53272,1,0,0:0:0:0:
36,192,53382,1,0,0:0:0:0:
329,192,53382,1,0,0:0:0:0:
402,192,53382,1,0,0:0:0:0:
109,192,53603,1,0,0:0:0:0:
182,192,53603,1,0,0:0:0:0:
329,192,53603,1,0,0:0:0:0:
329,192,53824,1,0,0:0:0:0:
402,192,53824,1,0,0:0:0:0:
109,192,53897,1,0,0:0:0:0:
182,192,53897,1,0,0:0:0:0:
329,192,54044,1,0,0:0:0:0:
109,192,54191,1,0,0:0:0:0:
182,192,54191,1,0,0:0:0:0:
329,192,54265,1,0,0:0:0:0:
109,192,54485,1,0,0:0:0:0:
182,192,54485,1,0,0:0:0:0:
329,192,54485,1,0,0:0:0:0:
109,192,54706,1,0,0:0:0:0:
182,192,54706,1,0,0:0:0:0:
402,192,54706,1,0,0:0:0:0:
475,192,54706,1,0,0:0:0:0:
109,192,54926,1,0,0:0:0:0:
182,192,54926,1,0,0:0:0:0:
402,192,54926,1,0,0:0:0:0:
475,192,54926,1,0,0:0:0:0:
329,192,55037,1,0,0:0:0:0:
256,192,55092,1,0,0:0:0:0:
109,192,55147,1,0,0:0:0:0:
182,192,55147,1,0,0:0:0:0:
402,192,55147,1,0,0:0:0:0:
475,192,55147,1,0,0:0:0:0:
109,192,55313,1,0,0:0:0:0:
182,192,55313,1,0,0:0:0:0:
402,192,55313,1,0,0:0:0:0:
475,192,55313,1,0,0:0:0:0:
109,192,55478,1,0,0:0:0:0:
182,192,55478,1,0,0:0:0:0:
402,192,55478,1,0,0:0:0:0:
475,192,55478,1,0,0:0:0:0:
182,192,55561,1,0,0:0:0:0:
402,192,55561,1,0,0:0:0:0:
109,192,55616,1,0,0:0:0:0:
475,192,55616,1,0,0:0:0:0:
109,192,55754,1,0,0:0:0:0:
182,192,55754,1,0,0:0:0:0:
402,192,55754,1,0,0:0:0:0:
475,192,55754,1,0,0:0:0:0:
109,192,55919,1,0,0:0:0:0:
182,192,55919,1,0,0:0:0:0:
402,192,55919,1,0,0:0:0:0:
475,192,55919,1,0,0:0:0:0:
109,192,56085,1,0,0:0:0:0:
182,192,56085,1,0,0:0:0:0:
402,192,56085,1,0,0:0:0:0:
475,192,56085,1,0,0:0:0:0:
109,192,56250,1,0,0:0:0:0:
182,192,56250,1,0,0:0:0:0:
402,192,56250,1,0,0:0:0:0:
475,192,56250,1,0,0:0:0:0:
109,192,56388,1,0,0:0:0:0:
182,192,56388,1,0,0:0:0:0:
402,192,56388,1,0,0:0:0:0:
475,192,56388,1,0,0:0:0:0:
36,192,56471,1,0,0:0:0:0:
109,192,56471,1,0,0:0:0:0:
182,192,56471,1,0,0:0:0:0:
256,192,56471,1,0,0:0:0:0:
329,192,56471,1,0,0:0:0:0:
402,192,56471,1,0,0:0:0:0:
36,192,56618,1,0,0:0:0:0:
182,192,56618,1,0,0:0:0:0:
256,192,56618,1,0,0:0:0:0:
402,192,56618,1,0,0:0:0:0:
36,192,56765,1,0,0:0:0:0:
182,192,56765,1,0,0:0:0:0:
256,192,56765,1,0,0:0:0:0:
402,192,56765,1,0,0:0:0:0:
36,192,56912,1,0,0:0:0:0:
109,192,56912,1,0,0:0:0:0:
182,192,56912,1,0,0:0:0:0:
256,192,56912,1,0,0:0:0:0:
402,192,56912,1,0,0:0:0:0:
36,192,57059,1,0,0:0:0:0:
182,192,57059,1,0,0:0:0:0:
256,192,57059,1,0,0:0:0:0:
402,192,57059,1,0,0:0:0:0:
36,192,57206,1,0,0:0:0:0:
182,192,57206,1,0,0:0:0:0:
256,192,57206,1,0,0:0:0:0:
402,192,57206,1,0,0:0:0:0:
36,192,57353,1,0,0:0:0:0:
182,192,57353,1,0,0:0:0:0:
256,192,57353,1,0,0:0:0:0:
329,192,57353,1,0,0:0:0:0:
402,192,57353,1,0,0:0:0:0:
36,192,57500,1,0,0:0:0:0:
182,192,57500,1,0,0:0:0:0:
256,192,57500,1,0,0:0:0:0:
402,192,57500,1,0,0:0:0:0:
36,192,57647,1,0,0:0:0:0:
182,192,57647,1,0,0:0:0:0:
256,192,57647,1,0,0:0:0:0:
402,192,57647,1,0,0:0:0:0:
109,192,57684,1,0,0:0:0:0:
36,192,57794,1,0,0:0:0:0:
182,192,57794,1,0,0:0:0:0:
256,192,57794,1,0,0:0:0:0:
402,192,57794,1,0,0:0:0:0:
36,192,57941,1,0,0:0:0:0:
182,192,57941,1,0,0:0:0:0:
256,192,57941,1,0,0:0:0:0:
402,192,57941,1,0,0:0:0:0:
36,192,58088,1,0,0:0:0:0:
182,192,58088,1,0,0:0:0:0:
256,192,58088,1,0,0:0:0:0:
402,192,58088,1,0,0:0:0:0:
109,192,58235,1,0,0:0:0:0:
182,192,58235,1,0,0:0:0:0:
256,192,58235,1,0,0:0:0:0:
329,192,58235,1,0,0:0:0:0:
402,192,58235,1,0,0:0:0:0:
475,192,58235,1,0,0:0:0:0:
109,192,58382,1,0,0:0:0:0:
182,192,58382,1,0,0:0:0:0:
402,192,58382,1,0,0:0:0:0:
475,192,58382,1,0,0:0:0:0:
109,192,58529,1,0,0:0:0:0:
182,192,58529,1,0,0:0:0:0:
402,192,58529,1,0,0:0:0:0:
475,192,58529,1,0,0:0:0:0:
109,192,58676,1,0,0:0:0:0:
182,192,58676,1,0,0:0:0:0:
256,192,58676,1,0,0:0:0:0:
329,192,58676,1,0,0:0:0:0:
402,192,58676,1,0,0:0:0:0:
475,192,58676,1,0,0:0:0:0:
109,192,58824,1,0,0:0:0:0:
182,192,58824,1,0,0:0:0:0:
402,192,58824,1,0,0:0:0:0:
475,192,58824,1,0,0:0:0:0:
109,192,58971,1,0,0:0:0:0:
182,192,58971,1,0,0:0:0:0:
402,192,58971,1,0,0:0:0:0:
475,192,58971,1,0,0:0:0:0:
109,192,59118,1,0,0:0:0:0:
182,192,59118,1,0,0:0:0:0:
329,192,59118,1,0,0:0:0:0:
402,192,59118,1,0,0:0:0:0:
475,192,59118,1,0,0:0:0:0:
109,192,59265,1,0,0:0:0:0:
182,192,59265,1,0,0:0:0:0:
402,192,59265,1,0,0:0:0:0:
475,192,59265,1,0,0:0:0:0:
109,192,59412,1,0,0:0:0:0:
182,192,59412,1,0,0:0:0:0:
402,192,59412,1,0,0:0:0:0:
475,192,59412,1,0,0:0:0:0:
256,192,59449,1,0,0:0:0:0:
109,192,59559,1,0,0:0:0:0:
182,192,59559,1,0,0:0:0:0:
402,192,59559,1,0,0:0:0:0:
475,192,59559,1,0,0:0:0:0:
109,192,59706,1,0,0:0:0:0:
182,192,59706,1,0,0:0:0:0:
402,192,59706,1,0,0:0:0:0:
475,192,59706,1,0,0:0:0:0:
109,192,59853,1,0,0:0:0:0:
182,192,59853,1,0,0:0:0:0:
402,192,59853,1,0,0:0:0:0:
475,192,59853,1,0,0:0:0:0:
36,192,60000,1,0,0:0:0:0:
109,192,60000,1,0,0:0:0:0:
182,192,60000,1,0,0:0:0:0:
329,192,60000,1,0,0:0:0:0:
402,192,60000,1,0,0:0:0:0:
475,192,60000,1,0,0:0:0:0:
109,192,60147,1,0,0:0:0:0:
182,192,60147,1,0,0:0:0:0:
329,192,60147,1,0,0:0:0:0:
402,192,60147,1,0,0:0:0:0:
109,192,60294,1,0,0:0:0:0:
182,192,60294,1,0,0:0:0:0:
329,192,60294,1,0,0:0:0:0:
402,192,60294,1,0,0:0:0:0:
36,192,60441,1,0,0:0:0:0:
109,192,60441,1,0,0:0:0:0:
182,192,60441,1,0,0:0:0:0:
256,192,60441,1,0,0:0:0:0:
329,192,60441,1,0,0:0:0:0:
402,192,60441,1,0,0:0:0:0:
109,192,60588,1,0,0:0:0:0:
182,192,60588,1,0,0:0:0:0:
329,192,60588,1,0,0:0:0:0:
402,192,60588,1,0,0:0:0:0:
109,192,60735,1,0,0:0:0:0:
182,192,60735,1,0,0:0:0:0:
329,192,60735,1,0,0:0:0:0:
402,192,60735,1,0,0:0:0:0:
109,192,60882,1,0,0:0:0:0:
182,192,60882,1,0,0:0:0:0:
256,192,60882,1,0,0:0:0:0:
329,192,60882,1,0,0:0:0:0:
402,192,60882,1,0,0:0:0:0:
475,192,60882,1,0,0:0:0:0:
109,192,61029,1,0,0:0:0:0:
182,192,61029,1,0,0:0:0:0:
329,192,61029,1,0,0:0:0:0:
402,192,61029,1,0,0:0:0:0:
109,192,61176,1,0,0:0:0:0:
182,192,61176,1,0,0:0:0:0:
329,192,61176,1,0,0:0:0:0:
402,192,61176,1,0,0:0:0:0:
256,192,61213,1,0,0:0:0:0:
109,192,61324,1,0,0:0:0:0:
182,192,61324,1,0,0:0:0:0:
329,192,61324,1,0,0:0:0:0:
402,192,61324,1,0,0:0:0:0:
109,192,61471,1,0,0:0:0:0:
182,192,61471,1,0,0:0:0:0:
329,192,61471,1,0,0:0:0:0:
402,192,61471,1,0,0:0:0:0:
109,192,61618,1,0,0:0:0:0:
182,192,61618,1,0,0:0:0:0:
329,192,61618,1,0,0:0:0:0:
402,192,61618,1,0,0:0:0:0:
109,192,61765,1,0,0:0:0:0:
182,192,61765,1,0,0:0:0:0:
256,192,61765,1,0,0:0:0:0:
329,192,61765,1,0,0:0:0:0:
402,192,61765,1,0,0:0:0:0:
475,192,61765,1,0,0:0:0:0:
182,192,61912,1,0,0:0:0:0:
256,192,61912,1,0,0:0:0:0:
402,192,61912,1,0,0:0:0:0:
475,192,61912,1,0,0:0:0:0:
182,192,62059,1,0,0:0:0:0:
256,192,62059,1,0,0:0:0:0:
402,192,62059,1,0,0:0:0:0:
475,192,62059,1,0,0:0:0:0:
109,192,62206,1,0,0:0:0:0:
182,192,62206,1,0,0:0:0:0:
256,192,62206,1,0,0:0:0:0:
402,192,62206,1,0,0:0:0:0:
475,192,62206,1,0,0:0:0:0:
182,192,62353,1,0,0:0:0:0:
256,192,62353,1,0,0:0:0:0:
402,192,62353,1,0,0:0:0:0:
475,192,62353,1,0,0:0:0:0:
182,192,62500,1,0,0:0:0:0:
256,192,62500,1,0,0:0:0:0:
402,192,62500,1,0,0:0:0:0:
475,192,62500,1,0,0:0:0:0:
182,192,62647,1,0,0:0:0:0:
256,192,62647,1,0,0:0:0:0:
329,192,62647,1,0,0:0:0:0:
402,192,62647,1,0,0:0:0:0:
475,192,62647,1,0,0:0:0:0:
182,192,62794,1,0,0:0:0:0:
256,192,62794,1,0,0:0:0:0:
402,192,62794,1,0,0:0:0:0:
475,192,62794,1,0,0:0:0:0:
182,192,62941,1,0,0:0:0:0:
256,192,62941,1,0,0:0:0:0:
402,192,62941,1,0,0:0:0:0:
475,192,62941,1,0,0:0:0:0:
109,192,62978,1,0,0:0:0:0:
182,192,63088,1,0,0:0:0:0:
256,192,63088,1,0,0:0:0:0:
402,192,63088,1,0,0:0:0:0:
475,192,63088,1,0,0:0:0:0:
182,192,63235,1,0,0:0:0:0:
256,192,63235,1,0,0:0:0:0:
402,192,63235,1,0,0:0:0:0:
475,192,63235,1,0,0:0:0:0:
182,192,63382,1,0,0:0:0:0:
256,192,63382,1,0,0:0:0:0:
402,192,63382,1,0,0:0:0:0:
475,192,63382,1,0,0:0:0:0:
36,192,63529,1,0,0:0:0:0:
109,192,63529,1,0,0:0:0:0:
182,192,63529,1,0,0:0:0:0:
256,192,63529,1,0,0:0:0:0:
329,192,63529,1,0,0:0:0:0:
402,192,63529,1,0,0:0:0:0:
36,192,63676,1,0,0:0:0:0:
182,192,63676,1,0,0:0:0:0:
256,192,63676,1,0,0:0:0:0:
402,192,63676,1,0,0:0:0:0:
36,192,63824,1,0,0:0:0:0:
182,192,63824,1,0,0:0:0:0:
256,192,63824,1,0,0:0:0:0:
402,192,63824,1,0,0:0:0:0:
36,192,63971,1,0,0:0:0:0:
109,192,63971,1,0,0:0:0:0:
182,192,63971,1,0,0:0:0:0:
256,192,63971,1,0,0:0:0:0:
402,192,63971,1,0,0:0:0:0:
36,192,64118,1,0,0:0:0:0:
182,192,64118,1,0,0:0:0:0:
256,192,64118,1,0,0:0:0:0:
402,192,64118,1,0,0:0:0:0:
36,192,64265,1,0,0:0:0:0:
182,192,64265,1,0,0:0:0:0:
256,192,64265,1,0,0:0:0:0:
402,192,64265,1,0,0:0:0:0:
36,192,64412,1,0,0:0:0:0:
182,192,64412,1,0,0:0:0:0:
256,192,64412,1,0,0:0:0:0:
329,192,64412,1,0,0:0:0:0:
402,192,64412,1,0,0:0:0:0:
36,192,64559,1,0,0:0:0:0:
182,192,64559,1,0,0:0:0:0:
256,192,64559,1,0,0:0:0:0:
402,192,64559,1,0,0:0:0:0:
36,192,64706,1,0,0:0:0:0:
182,192,64706,1,0,0:0:0:0:
256,192,64706,1,0,0:0:0:0:
402,192,64706,1,0,0:0:0:0:
109,192,64743,1,0,0:0:0:0:
36,192,64853,1,0,0:0:0:0:
182,192,64853,1,0,0:0:0:0:
256,192,64853,1,0,0:0:0:0:
402,192,64853,1,0,0:0:0:0:
36,192,65000,1,0,0:0:0:0:
182,192,65000,1,0,0:0:0:0:
256,192,65000,1,0,0:0:0:0:
402,192,65000,1,0,0:0:0:0:
36,192,65147,1,0,0:0:0:0:
182,192,65147,1,0,0:0:0:0:
256,192,65147,1,0,0:0:0:0:
402,192,65147,1,0,0:0:0:0:
109,192,65294,1,0,0:0:0:0:
182,192,65294,1,0,0:0:0:0:
256,192,65294,1,0,0:0:0:0:
329,192,65294,1,0,0:0:0:0:
402,192,65294,1,0,0:0:0:0:
475,192,65294,1,0,0:0:0:0:
109,192,65441,1,0,0:0:0:0:
182,192,65441,1,0,0:0:0:0:
402,192,65441,1,0,0:0:0:0:
475,192,65441,1,0,0:0:0:0:
109,192,65588,1,0,0:0:0:0:
182,192,65588,1,0,0:0:0:0:
402,192,65588,1,0,0:0:0:0:
475,192,65588,1,0,0:0:0:0:
109,192,65735,1,0,0:0:0:0:
182,192,65735,1,0,0:0:0:0:
256,192,65735,1,0,0:0:0:0:
329,192,65735,1,0,0:0:0:0:
402,192,65735,1,0,0:0:0:0:
475,192,65735,1,0,0:0:0:0:
109,192,65882,1,0,0:0:0:0:
182,192,65882,1,0,0:0:0:0:
402,192,65882,1,0,0:0:0:0:
475,192,65882,1,0,0:0:0:0:
109,192,66029,1,0,0:0:0:0:
182,192,66029,1,0,0:0:0:0:
402,192,66029,1,0,0:0:0:0:
475,192,66029,1,0,0:0:0:0:
109,192,66176,1,0,0:0:0:0:
182,192,66176,1,0,0:0:0:0:
329,192,66176,1,0,0:0:0:0:
402,192,66176,1,0,0:0:0:0:
475,192,66176,1,0,0:0:0:0:
109,192,66324,1,0,0:0:0:0:
182,192,66324,1,0,0:0:0:0:
402,192,66324,1,0,0:0:0:0:
475,192,66324,1,0,0:0:0:0:
109,192,66471,1,0,0:0:0:0:
182,192,66471,1,0,0:0:0:0:
402,192,66471,1,0,0:0:0:0:
475,192,66471,1,0,0:0:0:0:
256,192,66507,1,0,0:0:0:0:
109,192,66618,1,0,0:0:0:0:
182,192,66618,1,0,0:0:0:0:
402,192,66618,1,0,0:0:0:0:
475,192,66618,1,0,0:0:0:0:
109,192,66765,1,0,0:0:0:0:
182,192,66765,1,0,0:0:0:0:
402,192,66765,1,0,0:0:0:0:
475,192,66765,1,0,0:0:0:0:
109,192,66912,1,0,0:0:0:0:
182,192,66912,1,0,0:0:0:0:
402,192,66912,1,0,0:0:0:0:
475,192,66912,1,0,0:0:0:0:
36,192,67059,1,0,0:0:0:0:
109,192,67059,1,0,0:0:0:0:
182,192,67059,1,0,0:0:0:0:
329,192,67059,1,0,0:0:0:0:
402,192,67059,1,0,0:0:0:0:
475,192,67059,1,0,0:0:0:0:
109,192,67206,1,0,0:0:0:0:
182,192,67206,1,0,0:0:0:0:
329,192,67206,1,0,0:0:0:0:
402,192,67206,1,0,0:0:0:0:
109,192,67353,1,0,0:0:0:0:
182,192,67353,1,0,0:0:0:0:
329,192,67353,1,0,0:0:0:0:
402,192,67353,1,0,0:0:0:0:
36,192,67500,1,0,0:0:0:0:
109,192,67500,1,0,0:0:0:0:
182,192,67500,1,0,0:0:0:0:
256,192,67500,1,0,0:0:0:0:
329,192,67500,1,0,0:0:0:0:
402,192,67500,1,0,0:0:0:0:
109,192,67647,1,0,0:0:0:0:
182,192,67647,1,0,0:0:0:0:
329,192,67647,1,0,0:0:0:0:
402,192,67647,1,0,0:0:0:0:
109,192,67794,1,0,0:0:0:0:
182,192,67794,1,0,0:0:0:0:
329,192,67794,1,0,0:0:0:0:
402,192,67794,1,0,0:0:0:0:
109,192,67941,1,0,0:0:0:0:
182,192,67941,1,0,0:0:0:0:
256,192,67941,1,0,0:0:0:0:
329,192,67941,1,0,0:0:0:0:
402,192,67941,1,0,0:0:0:0:
475,192,67941,1,0,0:0:0:0:
109,192,68088,1,0,0:0:0:0:
182,192,68088,1,0,0:0:0:0:
329,192,68088,1,0,0:0:0:0:
402,192,68088,1,0,0:0:0:0:
109,192,68235,1,0,0:0:0:0:
182,192,68235,1,0,0:0:0:0:
329,192,68235,1,0,0:0:0:0:
402,192,68235,1,0,0:0:0:0:
256,192,68272,1,0,0:0:0:0:
109,192,68382,1,0,0:0:0:0:
182,192,68382,1,0,0:0:0:0:
329,192,68382,1,0,0:0:0:0:
402,192,68382,1,0,0:0:0:0:
109,192,68529,1,0,0:0:0:0:
182,192,68529,1,0,0:0:0:0:
329,192,68529,1,0,0:0:0:0:
402,192,68529,1,0,0:0:0:0:
109,192,68676,1,0,0:0:0:0:
182,192,68676,1,0,0:0:0:0:
329,192,68676,1,0,0:0:0:0:
402,192,68676,1,0,0:0:0:0:
109,192,68824,1,0,0:0:0:0:
182,192,68824,1,0,0:0:0:0:
256,192,68824,1,0,0:0:0:0:
329,192,68824,1,0,0:0:0:0:
402,192,68824,1,0,0:0:0:0:
475,192,68824,1,0,0:0:0:0:
182,192,68971,1,0,0:0:0:0:
256,192,68971,1,0,0:0:0:0:
402,192,68971,1,0,0:0:0:0:
475,192,68971,1,0,0:0:0:0:
182,192,69118,1,0,0:0:0:0:
256,192,69118,1,0,0:0:0:0:
402,192,69118,1,0,0:0:0:0:
475,192,69118,1,0,0:0:0:0:
109,192,69265,1,0,0:0:0:0:
182,192,69265,1,0,0:0:0:0:
256,192,69265,1,0,0:0:0:0:
402,192,69265,1,0,0:0:0:0:
475,192,69265,1,0,0:0:0:0:
182,192,69412,1,0,0:0:0:0:
256,192,69412,1,0,0:0:0:0:
402,192,69412,1,0,0:0:0:0:
475,192,69412,1,0,0:0:0:0:
182,192,69559,1,0,0:0:0:0:
256,192,69559,1,0,0:0:0:0:
402,192,69559,1,0,0:0:0:0:
475,192,69559,1,0,0:0:0:0:
182,192,69706,1,0,0:0:0:0:
256,192,69706,1,0,0:0:0:0:
329,192,69706,1,0,0:0:0:0:
402,192,69706,1,0,0:0:0:0:
475,192,69706,1,0,0:0:0:0:
182,192,69853,1,0,0:0:0:0:
256,192,69853,1,0,0:0:0:0:
402,192,69853,1,0,0:0:0:0:
475,192,69853,1,0,0:0:0:0:
182,192,70000,1,0,0:0:0:0:
256,192,70000,1,0,0:0:0:0:
402,192,70000,1,0,0:0:0:0:
475,192,70000,1,0,0:0:0:0:
109,192,70037,1,0,0:0:0:0:
182,192,70147,1,0,0:0:0:0:
256,192,70147,1,0,0:0:0:0:
402,192,70147,1,0,0:0:0:0:
475,192,70147,1,0,0:0:0:0:
182,192,70294,1,0,0:0:0:0:
256,192,70294,1,0,0:0:0:0:
402,192,70294,1,0,0:0:0:0:
475,192,70294,1,0,0:0:0:0:
182,192,70441,1,0,0:0:0:0:
256,192,70441,1,0,0:0:0:0:
402,192,70441,1,0,0:0:0:0:
475,192,70441,1,0,0:0:0:0:
36,192,70588,1,0,0:0:0:0:
109,192,70588,1,0,0:0:0:0:
182,192,70588,1,0,0:0:0:0:
256,192,70588,1,0,0:0:0:0:
329,192,70588,1,0,0:0:0:0:
402,192,70588,1,0,0:0:0:0:
36,192,70735,1,0,0:0:0:0:
182,192,70735,1,0,0:0:0:0:
256,192,70735,1,0,0:0:0:0:
402,192,70735,1,0,0:0:0:0:
36,192,70882,1,0,0:0:0:0:
182,192,70882,1,0,0:0:0:0:
256,192,70882,1,0,0:0:0:0:
402,192,70882,1,0,0:0:0:0:
36,192,71029,1,0,0:0:0:0:
109,192,71029,1,0,0:0:0:0:
182,192,71029,1,0,0:0:0:0:
256,192,71029,1,0,0:0:0:0:
402,192,71029,1,0,0:0:0:0:
36,192,71176,1,0,0:0:0:0:
182,192,71176,1,0,0:0:0:0:
256,192,71176,1,0,0:0:0:0:
402,192,71176,1,0,0:0:0:0:
36,192,71324,1,0,0:0:0:0:
182,192,71324,1,0,0:0:0:0:
256,192,71324,1,0,0:0:0:0:
402,192,71324,1,0,0:0:0:0:
36,192,71471,1,0,0:0:0:0:
182,192,71471,1,0,0:0:0:0:
256,192,71471,1,0,0:0:0:0:
329,192,71471,1,0,0:0:0:0:
402,192,71471,1,0,0:0:0:0:
36,192,71618,1,0,0:0:0:0:
182,192,71618,1,0,0:0:0:0:
256,192,71618,1,0,0:0:0:0:
402,192,71618,1,0,0:0:0:0:
36,192,71765,1,0,0:0:0:0:
182,192,71765,1,0,0:0:0:0:
256,192,71765,1,0,0:0:0:0:
402,192,71765,1,0,0:0:0:0:
109,192,71801,1,0,0:0:0:0:
36,192,71912,1,0,0:0:0:0:
182,192,71912,1,0,0:0:0:0:
256,192,71912,1,0,0:0:0:0:
402,192,71912,1,0,0:0:0:0:
36,192,72059,1,0,0:0:0:0:
182,192,72059,1,0,0:0:0:0:
256,192,72059,1,0,0:0:0:0:
402,192,72059,1,0,0:0:0:0:
36,192,72206,1,0,0:0:0:0:
182,192,72206,1,0,0:0:0:0:
256,192,72206,1,0,0:0:0:0:
402,192,72206,1,0,0:0:0:0:
109,192,72353,1,0,0:0:0:0:
182,192,72353,1,0,0:0:0:0:
256,192,72353,1,0,0:0:0:0:
329,192,72353,1,0,0:0:0:0:
402,192,72353,1,0,0:0:0:0:
475,192,72353,1,0,0:0:0:0:
109,192,72500,1,0,0:0:0:0:
182,192,72500,1,0,0:0:0:0:
402,192,72500,1,0,0:0:0:0:
475,192,72500,1,0,0:0:0:0:
36,192,72629,1,0,0:0:0:0:
109,192,72684,1,0,0:0:0:0:
182,192,72739,1,0,0:0:0:0:
256,192,72794,1,0,0:0:0:0:
329,192,72794,1,0,0:0:0:0:
402,192,72794,1,0,0:0:0:0:
475,192,72794,1,0,0:0:0:0:
109,192,72941,1,0,0:0:0:0:
182,192,72941,1,0,0:0:0:0:
402,192,72941,1,0,0:0:0:0:
475,192,72941,1,0,0:0:0:0:
109,192,73088,1,0,0:0:0:0:
182,192,73088,1,0,0:0:0:0:
402,192,73088,1,0,0:0:0:0:
475,192,73088,1,0,0:0:0:0:
109,192,73235,1,0,0:0:0:0:
182,192,73235,1,0,0:0:0:0:
329,192,73235,1,0,0:0:0:0:
402,192,73235,1,0,0:0:0:0:
475,192,73235,1,0,0:0:0:0:
109,192,73382,1,0,0:0:0:0:
182,192,73382,1,0,0:0:0:0:
402,192,73382,1,0,0:0:0:0:
475,192,73382,1,0,0:0:0:0:
109,192,73529,1,0,0:0:0:0:
182,192,73529,1,0,0:0:0:0:
402,192,73529,1,0,0:0:0:0:
475,192,73529,1,0,0:0:0:0:
256,192,73566,1,0,0:0:0:0:
109,192,73676,1,0,0:0:0:0:
182,192,73676,1,0,0:0:0:0:
402,192,73676,1,0,0:0:0:0:
475,192,73676,1,0,0:0:0:0:
109,192,73824,1,0,0:0:0:0:
182,192,73824,1,0,0:0:0:0:
402,192,73824,1,0,0:0:0:0:
475,192,73824,1,0,0:0:0:0:
109,192,73971,1,0,0:0:0:0:
182,192,73971,1,0,0:0:0:0:
402,192,73971,1,0,0:0:0:0:
475,192,73971,1,0,0:0:0:0:
36,192,74118,1,0,0:0:0:0:
109,192,74118,1,0,0:0:0:0:
182,192,74118,1,0,0:0:0:0:
329,192,74118,1,0,0:0:0:0:
402,192,74118,1,0,0:0:0:0:
475,192,74118,1,0,0:0:0:0:
109,192,74265,1,0,0:0:0:0:
182,192,74265,1,0,0:0:0:0:
329,192,74265,1,0,0:0:0:0:
402,192,74265,1,0,0:0:0:0:
109,192,74412,1,0,0:0:0:0:
182,192,74412,1,0,0:0:0:0:
329,192,74412,1,0,0:0:0:0:
402,192,74412,1,0,0:0:0:0:
36,192,74559,1,0,0:0:0:0:
109,192,74559,1,0,0:0:0:0:
182,192,74559,1,0,0:0:0:0:
256,192,74559,1,0,0:0:0:0:
329,192,74559,1,0,0:0:0:0:
402,192,74559,1,0,0:0:0:0:
109,192,74706,1,0,0:0:0:0:
182,192,74706,1,0,0:0:0:0:
329,192,74706,1,0,0:0:0:0:
402,192,74706,1,0,0:0:0:0:
109,192,74853,1,0,0:0:0:0:
182,192,74853,1,0,0:0:0:0:
329,192,74853,1,0,0:0:0:0:
402,192,74853,1,0,0:0:0:0:
109,192,75000,1,0,0:0:0:0:
182,192,75000,1,0,0:0:0:0:
256,192,75000,1,0,0:0:0:0:
329,192,75000,1,0,0:0:0:0:
402,192,75000,1,0,0:0:0:0:
475,192,75000,1,0,0:0:0:0:
109,192,75147,1,0,0:0:0:0:
182,192,75147,1,0,0:0:0:0:
329,192,75147,1,0,0:0:0:0:
402,192,75147,1,0,0:0:0:0:
109,192,75294,1,0,0:0:0:0:
182,192,75294,1,0,0:0:0:0:
329,192,75294,1,0,0:0:0:0:
402,192,75294,1,0,0:0:0:0:
256,192,75331,1,0,0:0:0:0:
109,192,75441,1,0,0:0:0:0:
182,192,75441,1,0,0:0:0:0:
329,192,75441,1,0,0:0:0:0:
402,192,75441,1,0,0:0:0:0:
109,192,75588,1,0,0:0:0:0:
182,192,75588,1,0,0:0:0:0:
329,192,75588,1,0,0:0:0:0:
402,192,75588,1,0,0:0:0:0:
109,192,75735,1,0,0:0:0:0:
182,192,75735,1,0,0:0:0:0:
329,192,75735,1,0,0:0:0:0:
402,192,75735,1,0,0:0:0:0:
109,192,75882,1,0,0:0:0:0:
182,192,75882,1,0,0:0:0:0:
256,192,75882,1,0,0:0:0:0:
329,192,75882,1,0,0:0:0:0:
402,192,75882,1,0,0:0:0:0:
475,192,75882,1,0,0:0:0:0:
182,192,76029,1,0,0:0:0:0:
256,192,76029,1,0,0:0:0:0:
402,192,76029,1,0,0:0:0:0:
475,192,76029,1,0,0:0:0:0:
182,192,76176,1,0,0:0:0:0:
256,192,76176,1,0,0:0:0:0:
402,192,76176,1,0,0:0:0:0:
475,192,76176,1,0,0:0:0:0:
109,192,76324,1,0,0:0:0:0:
182,192,76324,1,0,0:0:0:0:
256,192,76324,1,0,0:0:0:0:
402,192,76324,1,0,0:0:0:0:
475,192,76324,1,0,0:0:0:0:
182,192,76471,1,0,0:0:0:0:
256,192,76471,1,0,0:0:0:0:
402,192,76471,1,0,0:0:0:0:
475,192,76471,1,0,0:0:0:0:
182,192,76618,1,0,0:0:0:0:
256,192,76618,1,0,0:0:0:0:
402,192,76618,1,0,0:0:0:0:
475,192,76618,1,0,0:0:0:0:
182,192,76765,1,0,0:0:0:0:
256,192,76765,1,0,0:0:0:0:
329,192,76765,1,0,0:0:0:0:
402,192,76765,1,0,0:0:0:0:
475,192,76765,1,0,0:0:0:0:
182,192,76912,1,0,0:0:0:0:
256,192,76912,1,0,0:0:0:0:
402,192,76912,1,0,0:0:0:0:
475,192,76912,1,0,0:0:0:0:
182,192,77059,1,0,0:0:0:0:
256,192,77059,1,0,0:0:0:0:
402,192,77059,1,0,0:0:0:0:
475,192,77059,1,0,0:0:0:0:
109,192,77096,1,0,0:0:0:0:
182,192,77206,1,0,0:0:0:0:
256,192,77206,1,0,0:0:0:0:
402,192,77206,1,0,0:0:0:0:
475,192,77206,1,0,0:0:0:0:
182,192,77353,1,0,0:0:0:0:
256,192,77353,1,0,0:0:0:0:
402,192,77353,1,0,0:0:0:0:
475,192,77353,1,0,0:0:0:0:
182,192,77500,1,0,0:0:0:0:
256,192,77500,1,0,0:0:0:0:
402,192,77500,1,0,0:0:0:0:
475,192,77500,1,0,0:0:0:0:
36,192,77647,1,0,0:0:0:0:
329,192,77647,1,0,0:0:0:0:
402,192,77647,1,0,0:0:0:0:
475,192,77647,1,0,0:0:0:0:
109,192,77757,1,0,0:0:0:0:
182,192,77757,1,0,0:0:0:0:
402,192,77868,1,0,0:0:0:0:
109,192,77978,1,0,0:0:0:0:
182,192,77978,1,0,0:0:0:0:
36,192,78088,1,0,0:0:0:0:
329,192,78088,1,0,0:0:0:0:
402,192,78088,1,0,0:0:0:0:
475,192,78088,1,0,0:0:0:0:
182,192,78199,1,0,0:0:0:0:
329,192,78309,1,0,0:0:0:0:
109,192,78419,1,0,0:0:0:0:
36,192,78529,1,0,0:0:0:0:
256,192,78529,1,0,0:0:0:0:
329,192,78529,1,0,0:0:0:0:
402,192,78529,1,0,0:0:0:0:
475,192,78529,1,0,0:0:0:0:
182,192,78640,1,0,0:0:0:0:
329,192,78750,1,0,0:0:0:0:
109,192,78860,1,0,0:0:0:0:
182,192,78860,1,0,0:0:0:0:
329,192,78971,1,0,0:0:0:0:
402,192,78971,1,0,0:0:0:0:
109,192,79081,1,0,0:0:0:0:
182,192,79081,1,0,0:0:0:0:
329,192,79191,1,0,0:0:0:0:
475,192,79191,1,0,0:0:0:0:
109,192,79301,1,0,0:0:0:0:
256,192,79301,1,0,0:0:0:0:
36,192,79412,1,0,0:0:0:0:
182,192,79412,1,0,0:0:0:0:
329,192,79412,1,0,0:0:0:0:
402,192,79412,1,0,0:0:0:0:
475,192,79467,1,0,0:0:0:0:
402,192,79522,1,0,0:0:0:0:
329,192,79577,1,0,0:0:0:0:
256,192,79632,1,0,0:0:0:0:
182,192,79688,1,0,0:0:0:0:
109,192,79743,1,0,0:0:0:0:
402,192,79743,1,0,0:0:0:0:
36,192,79798,1,0,0:0:0:0:
109,192,79853,1,0,0:0:0:0:
475,192,79853,1,0,0:0:0:0:
182,192,79908,1,0,0:0:0:0:
256,192,79963,1,0,0:0:0:0:
329,192,80018,1,0,0:0:0:0:
402,192,80074,1,0,0:0:0:0:
475,192,80129,1,0,0:0:0:0:
402,192,80184,1,0,0:0:0:0:
329,192,80239,1,0,0:0:0:0:
36,192,80294,1,0,0:0:0:0:
256,192,80294,1,0,0:0:0:0:
475,192,80294,1,0,0:0:0:0:
182,192,80349,1,0,0:0:0:0:
109,192,80404,1,0,0:0:0:0:
36,192,80460,1,0,0:0:0:0:
109,192,80515,1,0,0:0:0:0:
182,192,80570,1,0,0:0:0:0:
256,192,80625,1,0,0:0:0:0:
329,192,80680,1,0,0:0:0:0:
36,192,80735,1,0,0:0:0:0:
109,192,80735,1,0,0:0:0:0:
402,192,80735,1,0,0:0:0:0:
475,192,80790,1,0,0:0:0:0:
402,192,80846,1,0,0:0:0:0:
329,192,80901,1,0,0:0:0:0:
256,192,80956,1,0,0:0:0:0:
182,192,81011,1,0,0:0:0:0:
109,192,81066,1,0,0:0:0:0:
36,192,81121,1,0,0:0:0:0:
475,192,81176,1,0,0:0:0:0:
402,192,81213,1,0,0:0:0:0:
329,192,81250,1,0,0:0:0:0:
256,192,81287,1,0,0:0:0:0:
182,192,81324,1,0,0:0:0:0:
109,192,81360,1,0,0:0:0:0:
36,192,81397,1,0,0:0:0:0:
475,192,81434,1,0,0:0:0:0:
402,192,81471,1,0,0:0:0:0:
329,192,81507,1,0,0:0:0:0:
256,192,81544,1,0,0:0:0:0:
182,192,81581,1,0,0:0:0:0:
109,192,81618,1,0,0:0:0:0:
36,192,81654,1,0,0:0:0:0:
475,192,81691,1,0,0:0:0:0:
402,192,81728,1,0,0:0:0:0:
329,192,81765,1,0,0:0:0:0:
256,192,81801,1,0,0:0:0:0:
182,192,81838,1,0,0:0:0:0:
109,192,81875,1,0,0:0:0:0:
36,192,81912,1,0,0:0:0:0:
475,192,81949,1,0,0:0:0:0:
402,192,81985,1,0,0:0:0:0:
329,192,82022,1,0,0:0:0:0:
256,192,82059,1,0,0:0:0:0:
182,192,82096,1,0,0:0:0:0:
109,192,82132,1,0,0:0:0:0:
36,192,82169,1,0,0:0:0:0:
475,192,82206,1,0,0:0:0:0:
402,192,82243,1,0,0:0:0:0:
329,192,82279,1,0,0:0:0:0:
256,192,82316,1,0,0:0:0:0:
182,192,82353,1,0,0:0:0:0:
109,192,82390,1,0,0:0:0:0:
36,192,82426,1,0,0:0:0:0:
475,192,82463,1,0,0:0:0:0:
402,192,82500,1,0,0:0:0:0:
329,192,82537,1,0,0:0:0:0:
256,192,82574,1,0,0:0:0:0:
182,192,82610,1,0,0:0:0:0:
109,192,82647,1,0,0:0:0:0:
36,192,82684,1,0,0:0:0:0:
475,192,82693,1,0,0:0:0:0:
402,192,82721,1,0,0:0:0:0:
329,192,82748,1,0,0:0:0:0:
256,192,82776,1,0,0:0:0:0:
182,192,82803,1,0,0:0:0:0:
109,192,82831,1,0,0:0:0:0:
36,192,82858,1,0,0:0:0:0:
475,192,82886,1,0,0:0:0:0:
402,192,82914,1,0,0:0:0:0:
36,0,82941,128,0,84706:0:0:0:0:
109,0,82941,128,0,84706:0:0:0:0:
182,0,82941,128,0,84706:0:0:0:0:
475,192,83217,1,0,0:0:0:0:
402,192,83272,1,0,0:0:0:0:
329,192,83327,1,0,0:0:0:0:
256,192,83382,1,0,0:0:0:0:
402,192,83824,1,0,0:0:0:0:
475,192,83824,1,0,0:0:0:0:
329,192,84265,1,0,0:0:0:0:
475,192,84706,1,0,0:0:0:0:
475,0,84926,128,0,85147:0:0:0:0:
36,192,85037,1,0,0:0:0:0:
109,192,85368,1,0,0:0:0:0:
182,192,85368,1,0,0:0:0:0:
256,192,85588,1,0,0:0:0:0:
36,192,86029,1,0,0:0:0:0:
109,192,86250,1,0,0:0:0:0:
182,192,86250,1,0,0:0:0:0:
256,192,86471,1,0,0:0:0:0:
402,192,86471,1,0,0:0:0:0:
402,0,86691,128,0,86912:0:0:0:0:
36,192,86801,1,0,0:0:0:0:
109,192,87132,1,0,0:0:0:0:
182,192,87132,1,0,0:0:0:0:
256,192,87353,1,0,0:0:0:0:
36,192,87794,1,0,0:0:0:0:
109,192,88015,1,0,0:0:0:0:
182,192,88015,1,0,0:0:0:0:
182,192,88235,1,0,0:0:0:0:
329,192,88235,1,0,0:0:0:0:
329,0,88456,128,0,88676:0:0:0:0:
36,192,88566,1,0,0:0:0:0:
109,192,88897,1,0,0:0:0:0:
182,192,88897,1,0,0:0:0:0:
256,192,89118,1,0,0:0:0:0:
36,192,89559,1,0,0:0:0:0:
109,192,89779,1,0,0:0:0:0:
182,192,89779,1,0,0:0:0:0:
36,192,90000,1,0,0:0:0:0:
256,192,90000,1,0,0:0:0:0:
402,192,90000,1,0,0:0:0:0:
402,0,90221,128,0,90441:0:0:0:0:
109,192,90331,1,0,0:0:0:0:
109,192,90662,1,0,0:0:0:0:
182,192,90662,1,0,0:0:0:0:
256,192,90882,1,0,0:0:0:0:
36,192,91324,1,0,0:0:0:0:
109,192,91544,1,0,0:0:0:0:
182,192,91544,1,0,0:0:0:0:
256,192,91765,1,0,0:0:0:0:
475,192,91765,1,0,0:0:0:0:
475,0,91985,128,0,92206:0:0:0:0:
109,192,92426,1,0,0:0:0:0:
182,192,92426,1,0,0:0:0:0:
36,192,92647,1,0,0:0:0:0:
256,192,92647,1,0,0:0:0:0:
329,192,92647,1,0,0:0:0:0:
402,192,92647,1,0,0:0:0:0:
36,192,93088,1,0,0:0:0:0:
109,192,93309,1,0,0:0:0:0:
182,192,93309,1,0,0:0:0:0:
36,192,93529,1,0,0:0:0:0:
256,192,93529,1,0,0:0:0:0:
402,192,93529,1,0,0:0:0:0:
402,0,93750,128,0,93971:0:0:0:0:
36,192,93860,1,0,0:0:0:0:
109,192,94191,1,0,0:0:0:0:
182,192,94191,1,0,0:0:0:0:
256,192,94412,1,0,0:0:0:0:
329,192,94412,1,0,0:0:0:0:
402,192,94412,1,0,0:0:0:0:
475,192,94412,1,0,0:0:0:0:
36,192,94853,1,0,0:0:0:0:
109,192,95074,1,0,0:0:0:0:
182,192,95074,1,0,0:0:0:0:
36,192,95294,1,0,0:0:0:0:
256,192,95294,1,0,0:0:0:0:
329,192,95294,1,0,0:0:0:0:
329,0,95515,128,0,95735:0:0:0:0:
36,192,95625,1,0,0:0:0:0:
109,192,95956,1,0,0:0:0:0:
182,192,95956,1,0,0:0:0:0:
36,192,96176,1,0,0:0:0:0:
256,192,96176,1,0,0:0:0:0:
329,192,96176,1,0,0:0:0:0:
402,192,96176,1,0,0:0:0:0:
36,192,96618,1,0,0:0:0:0:
109,192,96838,1,0,0:0:0:0:
182,192,96838,1,0,0:0:0:0:
402,192,97059,1,0,0:0:0:0:
402,0,97279,128,0,97500:0:0:0:0:
109,192,97335,1,0,0:0:0:0:
182,192,97390,1,0,0:0:0:0:
256,192,97445,1,0,0:0:0:0:
329,192,97500,1,0,0:0:0:0:
109,192,97721,1,0,0:0:0:0:
182,192,97721,1,0,0:0:0:0:
256,192,97941,1,0,0:0:0:0:
36,192,98382,1,0,0:0:0:0:
109,192,98603,1,0,0:0:0:0:
182,192,98603,1,0,0:0:0:0:
36,192,98824,1,0,0:0:0:0:
109,192,98824,1,0,0:0:0:0:
182,192,98824,1,0,0:0:0:0:
475,192,98824,1,0,0:0:0:0:
329,192,98934,1,0,0:0:0:0:
256,192,99044,1,0,0:0:0:0:
182,192,99154,1,0,0:0:0:0:
475,192,99154,1,0,0:0:0:0:
36,192,99265,1,0,0:0:0:0:
109,192,99265,1,0,0:0:0:0:
329,192,99265,1,0,0:0:0:0:
256,192,99375,1,0,0:0:0:0:
475,192,99485,1,0,0:0:0:0:
329,192,99596,1,0,0:0:0:0:
36,192,99706,1,0,0:0:0:0:
109,192,99706,1,0,0:0:0:0:
182,192,99706,1,0,0:0:0:0:
256,192,99706,1,0,0:0:0:0:
402,192,99706,1,0,0:0:0:0:
475,192,99816,1,0,0:0:0:0:
329,192,99926,1,0,0:0:0:0:
256,192,100037,1,0,0:0:0:0:
36,192,100147,1,0,0:0:0:0:
109,192,100147,1,0,0:0:0:0:
182,192,100147,1,0,0:0:0:0:
475,192,100147,1,0,0:0:0:0:
329,192,100257,1,0,0:0:0:0:
256,192,100368,1,0,0:0:0:0:
475,192,100478,1,0,0:0:0:0:
109,192,100588,1,0,0:0:0:0:
182,192,100588,1,0,0:0:0:0:
256,192,100588,1,0,0:0:0:0:
402,192,100588,1,0,0:0:0:0:
329,192,100699,1,0,0:0:0:0:
475,192,100809,1,0,0:0:0:0:
109,192,100919,1,0,0:0:0:0:
402,192,100919,1,0,0:0:0:0:
182,192,101029,1,0,0:0:0:0:
256,192,101029,1,0,0:0:0:0:
329,192,101029,1,0,0:0:0:0:
475,192,101140,1,0,0:0:0:0:
402,192,101250,1,0,0:0:0:0:
329,192,101360,1,0,0:0:0:0:
36,192,101471,1,0,0:0:0:0:
109,192,101471,1,0,0:0:0:0:
182,192,101471,1,0,0:0:0:0:
256,192,101471,1,0,0:0:0:0:
475,192,101471,1,0,0:0:0:0:
402,192,101581,1,0,0:0:0:0:
329,192,101691,1,0,0:0:0:0:
475,192,101801,1,0,0:0:0:0:
109,192,101912,1,0,0:0:0:0:
182,192,101912,1,0,0:0:0:0:
256,192,101912,1,0,0:0:0:0:
402,192,101912,1,0,0:0:0:0:
329,192,102022,1,0,0:0:0:0:
475,192,102132,1,0,0:0:0:0:
402,192,102243,1,0,0:0:0:0:
36,192,102353,1,0,0:0:0:0:
109,192,102353,1,0,0:0:0:0:
182,192,102353,1,0,0:0:0:0:
329,192,102353,1,0,0:0:0:0:
475,192,102463,1,0,0:0:0:0:
402,192,102574,1,0,0:0:0:0:
256,192,102684,1,0,0:0:0:0:
329,192,102684,1,0,0:0:0:0:
109,192,102794,1,0,0:0:0:0:
182,192,102794,1,0,0:0:0:0:
475,192,102794,1,0,0:0:0:0:
329,192,102904,1,0,0:0:0:0:
256,192,103015,1,0,0:0:0:0:
475,192,103125,1,0,0:0:0:0:
36,192,103235,1,0,0:0:0:0:
109,192,103235,1,0,0:0:0:0:
182,192,103235,1,0,0:0:0:0:
329,192,103235,1,0,0:0:0:0:
402,192,103235,1,0,0:0:0:0:
256,192,103346,1,0,0:0:0:0:
475,192,103456,1,0,0:0:0:0:
329,192,103566,1,0,0:0:0:0:
109,192,103676,1,0,0:0:0:0:
182,192,103676,1,0,0:0:0:0:
256,192,103676,1,0,0:0:0:0:
475,192,103787,1,0,0:0:0:0:
402,192,103897,1,0,0:0:0:0:
256,192,104007,1,0,0:0:0:0:
36,192,104118,1,0,0:0:0:0:
109,192,104118,1,0,0:0:0:0:
182,192,104118,1,0,0:0:0:0:
475,192,104118,1,0,0:0:0:0:
402,192,104228,1,0,0:0:0:0:
329,192,104338,1,0,0:0:0:0:
256,192,104449,1,0,0:0:0:0:
475,192,104449,1,0,0:0:0:0:
36,192,104559,1,0,0:0:0:0:
182,192,104559,1,0,0:0:0:0:
402,192,104559,1,0,0:0:0:0:
256,192,104669,1,0,0:0:0:0:
475,192,104779,1,0,0:0:0:0:
329,192,104890,1,0,0:0:0:0:
36,192,105000,1,0,0:0:0:0:
109,192,105000,1,0,0:0:0:0:
182,192,105000,1,0,0:0:0:0:
256,192,105000,1,0,0:0:0:0:
402,192,105000,1,0,0:0:0:0:
475,192,105110,1,0,0:0:0:0:
402,192,105221,1,0,0:0:0:0:
36,192,105331,1,0,0:0:0:0:
182,192,105331,1,0,0:0:0:0:
256,192,105331,1,0,0:0:0:0:
109,192,105441,1,0,0:0:0:0:
329,192,105441,1,0,0:0:0:0:
475,192,105441,1,0,0:0:0:0:
402,192,105551,1,0,0:0:0:0:
36,192,105662,1,0,0:0:0:0:
182,192,105662,1,0,0:0:0:0:
329,192,105662,1,0,0:0:0:0:
475,192,105772,1,0,0:0:0:0:
36,192,105882,1,0,0:0:0:0:
109,192,105882,1,0,0:0:0:0:
182,192,105882,1,0,0:0:0:0:
402,192,105882,1,0,0:0:0:0:
329,192,105993,1,0,0:0:0:0:
256,192,106103,1,0,0:0:0:0:
36,192,106213,1,0,0:0:0:0:
109,192,106213,1,0,0:0:0:0:
475,192,106213,1,0,0:0:0:0:
182,192,106324,1,0,0:0:0:0:
402,192,106324,1,0,0:0:0:0:
329,192,106434,1,0,0:0:0:0:
36,192,106544,1,0,0:0:0:0:
109,192,106544,1,0,0:0:0:0:
402,192,106544,1,0,0:0:0:0:
329,192,106654,1,0,0:0:0:0:
182,192,106765,1,0,0:0:0:0:
256,192,106765,1,0,0:0:0:0:
402,192,106765,1,0,0:0:0:0:
36,192,106875,1,0,0:0:0:0:
109,192,106875,1,0,0:0:0:0:
475,192,106875,1,0,0:0:0:0:
402,192,106985,1,0,0:0:0:0:
329,192,107096,1,0,0:0:0:0:
36,192,107206,1,0,0:0:0:0:
109,192,107206,1,0,0:0:0:0:
402,192,107206,1,0,0:0:0:0:
329,192,107316,1,0,0:0:0:0:
256,192,107426,1,0,0:0:0:0:
36,192,107537,1,0,0:0:0:0:
109,192,107537,1,0,0:0:0:0:
475,192,107537,1,0,0:0:0:0:
182,192,107647,1,0,0:0:0:0:
256,192,107647,1,0,0:0:0:0:
402,192,107647,1,0,0:0:0:0:
329,192,107757,1,0,0:0:0:0:
36,192,107868,1,0,0:0:0:0:
475,192,107868,1,0,0:0:0:0:
109,192,107923,1,0,0:0:0:0:
182,192,107978,1,0,0:0:0:0:
402,192,107978,1,0,0:0:0:0:
256,192,108033,1,0,0:0:0:0:
329,192,108088,1,0,0:0:0:0:
475,192,108199,1,0,0:0:0:0:
182,192,108309,1,0,0:0:0:0:
256,192,108309,1,0,0:0:0:0:
402,192,108309,1,0,0:0:0:0:
329,192,108419,1,0,0:0:0:0:
36,192,108529,1,0,0:0:0:0:
109,192,108529,1,0,0:0:0:0:
475,192,108529,1,0,0:0:0:0:
182,192,108640,1,0,0:0:0:0:
256,192,108640,1,0,0:0:0:0:
402,192,108640,1,0,0:0:0:0:
329,192,108750,1,0,0:0:0:0:
475,192,108860,1,0,0:0:0:0:
182,192,108971,1,0,0:0:0:0:
256,192,108971,1,0,0:0:0:0:
402,192,108971,1,0,0:0:0:0:
329,192,109081,1,0,0:0:0:0:
475,192,109191,1,0,0:0:0:0:
182,192,109301,1,0,0:0:0:0:
256,192,109301,1,0,0:0:0:0:
402,192,109301,1,0,0:0:0:0:
36,192,109412,1,0,0:0:0:0:
109,192,109412,1,0,0:0:0:0:
329,192,109412,1,0,0:0:0:0:
402,192,109522,1,0,0:0:0:0:
329,192,109632,1,0,0:0:0:0:
36,192,109743,1,0,0:0:0:0:
109,192,109743,1,0,0:0:0:0:
256,192,109743,1,0,0:0:0:0:
402,192,109853,1,0,0:0:0:0:
329,192,109963,1,0,0:0:0:0:
36,192,110074,1,0,0:0:0:0:
109,192,110074,1,0,0:0:0:0:
256,192,110074,1,0,0:0:0:0:
402,192,110184,1,0,0:0:0:0:
182,192,110294,1,0,0:0:0:0:
329,192,110294,1,0,0:0:0:0:
475,192,110294,1,0,0:0:0:0:
36,192,110404,1,0,0:0:0:0:
109,192,110404,1,0,0:0:0:0:
256,192,110404,1,0,0:0:0:0:
402,192,110515,1,0,0:0:0:0:
329,192,110625,1,0,0:0:0:0:
36,192,110735,1,0,0:0:0:0:
109,192,110735,1,0,0:0:0:0:
256,192,110735,1,0,0:0:0:0:
402,192,110846,1,0,0:0:0:0:
329,192,110956,1,0,0:0:0:0:
36,192,111066,1,0,0:0:0:0:
182,192,111066,1,0,0:0:0:0:
475,192,111066,1,0,0:0:0:0:
109,192,111176,1,0,0:0:0:0:
256,192,111176,1,0,0:0:0:0:
402,192,111176,1,0,0:0:0:0:
329,192,111287,1,0,0:0:0:0:
36,192,111397,1,0,0:0:0:0:
109,192,111452,1,0,0:0:0:0:
256,192,111507,1,0,0:0:0:0:
402,192,111507,1,0,0:0:0:0:
182,192,111563,1,0,0:0:0:0:
329,192,111618,1,0,0:0:0:0:
475,192,111728,1,0,0:0:0:0:
109,192,111838,1,0,0:0:0:0:
256,192,111838,1,0,0:0:0:0:
402,192,111838,1,0,0:0:0:0:
329,192,111949,1,0,0:0:0:0:
36,192,112059,1,0,0:0:0:0:
182,192,112059,1,0,0:0:0:0:
475,192,112059,1,0,0:0:0:0:
109,192,112169,1,0,0:0:0:0:
256,192,112169,1,0,0:0:0:0:
402,192,112169,1,0,0:0:0:0:
329,192,112279,1,0,0:0:0:0:
475,192,112390,1,0,0:0:0:0:
109,192,112500,1,0,0:0:0:0:
256,192,112500,1,0,0:0:0:0:
402,192,112500,1,0,0:0:0:0:
329,192,112610,1,0,0:0:0:0:
475,192,112721,1,0,0:0:0:0:
109,192,112831,1,0,0:0:0:0:
256,192,112831,1,0,0:0:0:0:
402,192,112831,1,0,0:0:0:0:
36,192,112941,1,0,0:0:0:0:
182,192,112941,1,0,0:0:0:0:
475,192,112941,1,0,0:0:0:0:
402,192,113051,1,0,0:0:0:0:
36,192,113162,1,0,0:0:0:0:
329,192,113162,1,0,0:0:0:0:
109,192,113272,1,0,0:0:0:0:
182,192,113272,1,0,0:0:0:0:
475,192,113272,1,0,0:0:0:0:
36,192,113382,1,0,0:0:0:0:
402,192,113382,1,0,0:0:0:0:
329,192,113493,1,0,0:0:0:0:
36,192,113603,1,0,0:0:0:0:
109,192,113603,1,0,0:0:0:0:
182,192,113603,1,0,0:0:0:0:
475,192,113603,1,0,0:0:0:0:
402,192,113713,1,0,0:0:0:0:
36,192,113824,1,0,0:0:0:0:
256,192,113824,1,0,0:0:0:0:
329,192,113824,1,0,0:0:0:0:
109,192,113934,1,0,0:0:0:0:
182,192,113934,1,0,0:0:0:0:
475,192,113934,1,0,0:0:0:0:
36,192,114044,1,0,0:0:0:0:
402,192,114044,1,0,0:0:0:0:
329,192,114154,1,0,0:0:0:0:
36,192,114265,1,0,0:0:0:0:
109,192,114265,1,0,0:0:0:0:
182,192,114265,1,0,0:0:0:0:
475,192,114265,1,0,0:0:0:0:
402,192,114375,1,0,0:0:0:0:
36,192,114485,1,0,0:0:0:0:
329,192,114485,1,0,0:0:0:0:
109,192,114596,1,0,0:0:0:0:
182,192,114596,1,0,0:0:0:0:
256,192,114596,1,0,0:0:0:0:
36,192,114706,1,0,0:0:0:0:
329,192,114706,1,0,0:0:0:0:
402,192,114706,1,0,0:0:0:0:
475,192,114706,1,0,0:0:0:0:
109,192,114816,1,0,0:0:0:0:
182,192,114926,1,0,0:0:0:0:
475,192,114926,1,0,0:0:0:0:
36,192,115037,1,0,0:0:0:0:
329,192,115037,1,0,0:0:0:0:
402,192,115037,1,0,0:0:0:0:
109,192,115147,1,0,0:0:0:0:
475,192,115147,1,0,0:0:0:0:
182,192,115257,1,0,0:0:0:0:
36,192,115368,1,0,0:0:0:0:
329,192,115368,1,0,0:0:0:0:
402,192,115368,1,0,0:0:0:0:
475,192,115368,1,0,0:0:0:0:
109,192,115478,1,0,0:0:0:0:
182,192,115588,1,0,0:0:0:0:
256,192,115588,1,0,0:0:0:0:
475,192,115588,1,0,0:0:0:0:
36,192,115699,1,0,0:0:0:0:
329,192,115699,1,0,0:0:0:0:
402,192,115699,1,0,0:0:0:0:
109,192,115809,1,0,0:0:0:0:
475,192,115809,1,0,0:0:0:0:
182,192,115919,1,0,0:0:0:0:
36,192,116029,1,0,0:0:0:0:
329,192,116029,1,0,0:0:0:0:
402,192,116029,1,0,0:0:0:0:
475,192,116029,1,0,0:0:0:0:
109,192,116140,1,0,0:0:0:0:
182,192,116250,1,0,0:0:0:0:
475,192,116250,1,0,0:0:0:0:
256,192,116360,1,0,0:0:0:0:
329,192,116360,1,0,0:0:0:0:
402,192,116360,1,0,0:0:0:0:
36,192,116471,1,0,0:0:0:0:
109,192,116471,1,0,0:0:0:0:
182,192,116471,1,0,0:0:0:0:
475,192,116471,1,0,0:0:0:0:
402,192,116581,1,0,0:0:0:0:
182,192,116691,1,0,0:0:0:0:
329,192,116691,1,0,0:0:0:0:
36,192,116801,1,0,0:0:0:0:
109,192,116801,1,0,0:0:0:0:
475,192,116801,1,0,0:0:0:0:
182,192,116912,1,0,0:0:0:0:
402,192,116912,1,0,0:0:0:0:
329,192,117022,1,0,0:0:0:0:
36,192,117132,1,0,0:0:0:0:
109,192,117132,1,0,0:0:0:0:
182,192,117132,1,0,0:0:0:0:
475,192,117132,1,0,0:0:0:0:
402,192,117243,1,0,0:0:0:0:
182,192,117353,1,0,0:0:0:0:
256,192,117353,1,0,0:0:0:0:
329,192,117353,1,0,0:0:0:0:
36,192,117463,1,0,0:0:0:0:
109,192,117463,1,0,0:0:0:0:
475,192,117463,1,0,0:0:0:0:
182,192,117574,1,0,0:0:0:0:
402,192,117574,1,0,0:0:0:0:
329,192,117684,1,0,0:0:0:0:
36,192,117794,1,0,0:0:0:0:
109,192,117794,1,0,0:0:0:0:
182,192,117794,1,0,0:0:0:0:
475,192,117794,1,0,0:0:0:0:
402,192,117904,1,0,0:0:0:0:
182,192,118015,1,0,0:0:0:0:
329,192,118015,1,0,0:0:0:0:
36,192,118125,1,0,0:0:0:0:
109,192,118125,1,0,0:0:0:0:
256,192,118125,1,0,0:0:0:0:
182,192,118235,1,0,0:0:0:0:
329,192,118235,1,0,0:0:0:0:
402,192,118235,1,0,0:0:0:0:
475,192,118235,1,0,0:0:0:0:
109,192,118346,1,0,0:0:0:0:
36,192,118456,1,0,0:0:0:0:
329,192,118456,1,0,0:0:0:0:
182,192,118566,1,0,0:0:0:0:
402,192,118566,1,0,0:0:0:0:
475,192,118566,1,0,0:0:0:0:
109,192,118676,1,0,0:0:0:0:
329,192,118676,1,0,0:0:0:0:
36,192,118787,1,0,0:0:0:0:
182,192,118897,1,0,0:0:0:0:
329,192,118897,1,0,0:0:0:0:
402,192,118897,1,0,0:0:0:0:
475,192,118897,1,0,0:0:0:0:
109,192,119007,1,0,0:0:0:0:
36,192,119118,1,0,0:0:0:0:
256,192,119118,1,0,0:0:0:0:
329,192,119118,1,0,0:0:0:0:
182,192,119228,1,0,0:0:0:0:
402,192,119228,1,0,0:0:0:0:
475,192,119228,1,0,0:0:0:0:
109,192,119338,1,0,0:0:0:0:
329,192,119338,1,0,0:0:0:0:
36,192,119449,1,0,0:0:0:0:
182,192,119559,1,0,0:0:0:0:
329,192,119559,1,0,0:0:0:0:
402,192,119559,1,0,0:0:0:0:
475,192,119559,1,0,0:0:0:0:
109,192,119669,1,0,0:0:0:0:
36,192,119779,1,0,0:0:0:0:
329,192,119779,1,0,0:0:0:0:
256,192,119890,1,0,0:0:0:0:
402,192,119890,1,0,0:0:0:0:
475,192,119890,1,0,0:0:0:0:
36,192,120000,1,0,0:0:0:0:
109,192,120000,1,0,0:0:0:0:
182,192,120000,1,0,0:0:0:0:
329,192,120000,1,0,0:0:0:0:
402,192,120110,1,0,0:0:0:0:
36,192,120221,1,0,0:0:0:0:
475,192,120221,1,0,0:0:0:0:
109,192,120331,1,0,0:0:0:0:
182,192,120331,1,0,0:0:0:0:
329,192,120331,1,0,0:0:0:0:
36,192,120441,1,0,0:0:0:0:
402,192,120441,1,0,0:0:0:0:
475,192,120551,1,0,0:0:0:0:
36,192,120662,1,0,0:0:0:0:
109,192,120662,1,0,0:0:0:0:
182,192,120662,1,0,0:0:0:0:
329,192,120662,1,0,0:0:0:0:
402,192,120772,1,0,0:0:0:0:
36,192,120882,1,0,0:0:0:0:
256,192,120882,1,0,0:0:0:0:
475,192,120882,1,0,0:0:0:0:
109,192,120993,1,0,0:0:0:0:
182,192,120993,1,0,0:0:0:0:
329,192,120993,1,0,0:0:0:0:
36,192,121103,1,0,0:0:0:0:
402,192,121103,1,0,0:0:0:0:
475,192,121213,1,0,0:0:0:0:
36,192,121324,1,0,0:0:0:0:
109,192,121324,1,0,0:0:0:0:
182,192,121324,1,0,0:0:0:0:
329,192,121324,1,0,0:0:0:0:
402,192,121434,1,0,0:0:0:0:
36,192,121544,1,0,0:0:0:0:
475,192,121544,1,0,0:0:0:0:
109,192,121654,1,0,0:0:0:0:
182,192,121654,1,0,0:0:0:0:
256,192,121654,1,0,0:0:0:0:
36,192,121765,1,0,0:0:0:0:
329,192,121765,1,0,0:0:0:0:
402,192,121765,1,0,0:0:0:0:
475,192,121765,1,0,0:0:0:0:
109,192,121875,1,0,0:0:0:0:
182,192,121985,1,0,0:0:0:0:
475,192,121985,1,0,0:0:0:0:
36,192,122096,1,0,0:0:0:0:
329,192,122096,1,0,0:0:0:0:
402,192,122096,1,0,0:0:0:0:
109,192,122206,1,0,0:0:0:0:
475,192,122206,1,0,0:0:0:0:
182,192,122316,1,0,0:0:0:0:
36,192,122426,1,0,0:0:0:0:
329,192,122426,1,0,0:0:0:0:
402,192,122426,1,0,0:0:0:0:
475,192,122426,1,0,0:0:0:0:
109,192,122537,1,0,0:0:0:0:
182,192,122647,1,0,0:0:0:0:
256,192,122647,1,0,0:0:0:0:
475,192,122647,1,0,0:0:0:0:
36,192,122757,1,0,0:0:0:0:
329,192,122757,1,0,0:0:0:0:
402,192,122757,1,0,0:0:0:0:
109,192,122868,1,0,0:0:0:0:
475,192,122868,1,0,0:0:0:0:
182,192,122978,1,0,0:0:0:0:
36,192,123088,1,0,0:0:0:0:
329,192,123088,1,0,0:0:0:0:
402,192,123088,1,0,0:0:0:0:
475,192,123088,1,0,0:0:0:0:
109,192,123199,1,0,0:0:0:0:
182,192,123309,1,0,0:0:0:0:
475,192,123309,1,0,0:0:0:0:
256,192,123419,1,0,0:0:0:0:
329,192,123419,1,0,0:0:0:0:
402,192,123419,1,0,0:0:0:0:
36,192,123529,1,0,0:0:0:0:
109,192,123529,1,0,0:0:0:0:
182,192,123529,1,0,0:0:0:0:
475,192,123529,1,0,0:0:0:0:
402,192,123640,1,0,0:0:0:0:
109,192,123750,1,0,0:0:0:0:
329,192,123750,1,0,0:0:0:0:
36,192,123860,1,0,0:0:0:0:
182,192,123860,1,0,0:0:0:0:
475,192,123860,1,0,0:0:0:0:
109,192,123971,1,0,0:0:0:0:
402,192,123971,1,0,0:0:0:0:
329,192,124081,1,0,0:0:0:0:
36,192,124191,1,0,0:0:0:0:
109,192,124191,1,0,0:0:0:0:
182,192,124191,1,0,0:0:0:0:
475,192,124191,1,0,0:0:0:0:
402,192,124301,1,0,0:0:0:0:
109,192,124412,1,0,0:0:0:0:
256,192,124412,1,0,0:0:0:0:
329,192,124412,1,0,0:0:0:0:
36,192,124522,1,0,0:0:0:0:
182,192,124522,1,0,0:0:0:0:
475,192,124522,1,0,0:0:0:0:
109,192,124632,1,0,0:0:0:0:
402,192,124632,1,0,0:0:0:0:
329,192,124743,1,0,0:0:0:0:
36,192,124853,1,0,0:0:0:0:
109,192,124853,1,0,0:0:0:0:
182,192,124853,1,0,0:0:0:0:
475,192,124853,1,0,0:0:0:0:
402,192,124963,1,0,0:0:0:0:
109,192,125074,1,0,0:0:0:0:
182,192,125074,1,0,0:0:0:0:
256,192,125184,1,0,0:0:0:0:
329,192,125184,1,0,0:0:0:0:
475,192,125184,1,0,0:0:0:0:
36,192,125294,1,0,0:0:0:0:
182,192,125294,1,0,0:0:0:0:
402,192,125294,1,0,0:0:0:0:
109,192,125404,1,0,0:0:0:0:
256,192,125404,1,0,0:0:0:0:
182,192,125515,1,0,0:0:0:0:
329,192,125515,1,0,0:0:0:0:
475,192,125570,1,0,0:0:0:0:
402,192,125625,1,0,0:0:0:0:
329,192,125680,1,0,0:0:0:0:
109,192,125735,1,0,0:0:0:0:
182,192,125735,1,0,0:0:0:0:
256,192,125846,1,0,0:0:0:0:
329,192,125846,1,0,0:0:0:0:
402,192,125956,1,0,0:0:0:0:
475,192,125956,1,0,0:0:0:0:
36,192,126066,1,0,0:0:0:0:
109,192,126066,1,0,0:0:0:0:
182,192,126176,1,0,0:0:0:0:
329,192,126176,1,0,0:0:0:0:
475,192,126176,1,0,0:0:0:0:
256,192,126287,1,0,0:0:0:0:
402,192,126287,1,0,0:0:0:0:
182,192,126397,1,0,0:0:0:0:
329,192,126397,1,0,0:0:0:0:
109,192,126507,1,0,0:0:0:0:
256,192,126507,1,0,0:0:0:0:
36,192,126618,1,0,0:0:0:0:
182,192,126618,1,0,0:0:0:0:
329,192,126728,1,0,0:0:0:0:
475,192,126728,1,0,0:0:0:0:
109,192,126838,1,0,0:0:0:0:
182,192,126838,1,0,0:0:0:0:
329,192,126949,1,0,0:0:0:0:
402,192,126949,1,0,0:0:0:0:
36,192,127059,1,0,0:0:0:0:
109,192,127059,1,0,0:0:0:0:
182,192,127059,1,0,0:0:0:0:
256,192,127059,1,0,0:0:0:0:
475,192,127059,1,0,0:0:0:0:
402,192,127169,1,0,0:0:0:0:
256,192,127279,1,0,0:0:0:0:
475,192,127390,1,0,0:0:0:0:
182,192,127500,1,0,0:0:0:0:
256,192,127500,1,0,0:0:0:0:
329,192,127500,1,0,0:0:0:0:
402,192,127500,1,0,0:0:0:0:
109,192,127610,1,0,0:0:0:0:
36,192,127721,1,0,0:0:0:0:
475,192,127721,1,0,0:0:0:0:
256,192,127794,1,0,0:0:0:0:
109,192,127941,1,0,0:0:0:0:
182,192,127941,1,0,0:0:0:0:
329,192,127941,1,0,0:0:0:0:
402,192,127941,1,0,0:0:0:0:
36,192,128088,1,0,0:0:0:0:
109,192,128162,1,0,0:0:0:0:
329,192,128235,1,0,0:0:0:0:
475,192,128235,1,0,0:0:0:0:
256,192,128272,1,0,0:0:0:0:
109,192,128382,1,0,0:0:0:0:
182,192,128382,1,0,0:0:0:0:
329,192,128529,1,0,0:0:0:0:
182,192,128603,1,0,0:0:0:0:
402,192,128603,1,0,0:0:0:0:
256,192,128676,1,0,0:0:0:0:
329,192,128824,1,0,0:0:0:0:
475,192,128824,1,0,0:0:0:0:
182,192,128971,1,0,0:0:0:0:
256,192,128971,1,0,0:0:0:0:
402,192,129118,1,0,0:0:0:0:
475,192,129118,1,0,0:0:0:0:
109,192,129154,1,0,0:0:0:0:
182,192,129154,1,0,0:0:0:0:
256,192,129265,1,0,0:0:0:0:
182,192,129375,1,0,0:0:0:0:
402,192,129375,1,0,0:0:0:0:
475,192,129412,1,0,0:0:0:0:
329,192,129559,1,0,0:0:0:0:
36,192,129706,1,0,0:0:0:0:
182,192,129706,1,0,0:0:0:0:
256,192,129706,1,0,0:0:0:0:
402,192,129706,1,0,0:0:0:0:
475,192,129853,1,0,0:0:0:0:
109,192,129926,1,0,0:0:0:0:
182,192,129926,1,0,0:0:0:0:
329,192,130000,1,0,0:0:0:0:
402,192,130147,1,0,0:0:0:0:
475,192,130147,1,0,0:0:0:0:
182,192,130257,1,0,0:0:0:0:
256,192,130257,1,0,0:0:0:0:
329,192,130294,1,0,0:0:0:0:
402,192,130441,1,0,0:0:0:0:
475,192,130441,1,0,0:0:0:0:
36,192,130588,1,0,0:0:0:0:
109,192,130588,1,0,0:0:0:0:
256,192,130588,1,0,0:0:0:0:
329,192,130735,1,0,0:0:0:0:
182,192,130882,1,0,0:0:0:0:
475,192,130882,1,0,0:0:0:0:
109,192,130919,1,0,0:0:0:0:
36,192,131029,1,0,0:0:0:0:
402,192,131029,1,0,0:0:0:0:
182,192,131176,1,0,0:0:0:0:
475,192,131176,1,0,0:0:0:0:
109,192,131250,1,0,0:0:0:0:
329,192,131324,1,0,0:0:0:0:
36,192,131471,1,0,0:0:0:0:
109,192,131471,1,0,0:0:0:0:
182,192,131471,1,0,0:0:0:0:
475,192,131471,1,0,0:0:0:0:
402,192,131618,1,0,0:0:0:0:
182,192,131765,1,0,0:0:0:0:
475,192,131765,1,0,0:0:0:0:
329,192,131912,1,0,0:0:0:0:
256,192,132059,1,0,0:0:0:0:
475,192,132059,1,0,0:0:0:0:
109,192,132132,1,0,0:0:0:0:
182,192,132132,1,0,0:0:0:0:
402,192,132206,1,0,0:0:0:0:
36,192,132353,1,0,0:0:0:0:
109,192,132353,1,0,0:0:0:0:
256,192,132353,1,0,0:0:0:0:
329,192,132500,1,0,0:0:0:0:
402,192,132500,1,0,0:0:0:0:
36,192,132629,1,0,0:0:0:0:
256,192,132647,1,0,0:0:0:0:
109,192,132684,1,0,0:0:0:0:
182,192,132739,1,0,0:0:0:0:
329,192,132794,1,0,0:0:0:0:
402,192,132794,1,0,0:0:0:0:
256,192,132941,1,0,0:0:0:0:
109,192,133015,1,0,0:0:0:0:
182,192,133015,1,0,0:0:0:0:
329,192,133088,1,0,0:0:0:0:
402,192,133088,1,0,0:0:0:0:
36,192,133235,1,0,0:0:0:0:
109,192,133235,1,0,0:0:0:0:
182,192,133235,1,0,0:0:0:0:
256,192,133235,1,0,0:0:0:0:
329,192,133382,1,0,0:0:0:0:
402,192,133382,1,0,0:0:0:0:
256,192,133529,1,0,0:0:0:0:
329,192,133676,1,0,0:0:0:0:
402,192,133676,1,0,0:0:0:0:
256,192,133824,1,0,0:0:0:0:
109,192,133897,1,0,0:0:0:0:
182,192,133897,1,0,0:0:0:0:
329,192,133971,1,0,0:0:0:0:
402,192,133971,1,0,0:0:0:0:
36,192,134118,1,0,0:0:0:0:
182,192,134118,1,0,0:0:0:0:
256,192,134118,1,0,0:0:0:0:
329,192,134265,1,0,0:0:0:0:
402,192,134412,1,0,0:0:0:0:
36,192,134449,1,0,0:0:0:0:
182,192,134559,1,0,0:0:0:0:
329,192,134559,1,0,0:0:0:0:
256,192,134669,1,0,0:0:0:0:
402,192,134669,1,0,0:0:0:0:
109,192,134779,1,0,0:0:0:0:
182,192,134779,1,0,0:0:0:0:
475,192,134779,1,0,0:0:0:0:
329,192,134890,1,0,0:0:0:0:
36,192,135000,1,0,0:0:0:0:
109,192,135000,1,0,0:0:0:0:
182,192,135000,1,0,0:0:0:0:
402,192,135000,1,0,0:0:0:0:
329,192,135110,1,0,0:0:0:0:
475,192,135110,1,0,0:0:0:0:
256,192,135221,1,0,0:0:0:0:
402,192,135331,1,0,0:0:0:0:
182,192,135441,1,0,0:0:0:0:
329,192,135441,1,0,0:0:0:0:
475,192,135441,1,0,0:0:0:0:
256,192,135551,1,0,0:0:0:0:
109,192,135662,1,0,0:0:0:0:
182,192,135662,1,0,0:0:0:0:
402,192,135662,1,0,0:0:0:0:
329,192,135772,1,0,0:0:0:0:
36,192,135882,1,0,0:0:0:0:
182,192,135882,1,0,0:0:0:0:
256,192,135882,1,0,0:0:0:0:
402,192,135993,1,0,0:0:0:0:
182,192,136103,1,0,0:0:0:0:
36,192,136213,1,0,0:0:0:0:
329,192,136213,1,0,0:0:0:0:
402,192,136213,1,0,0:0:0:0:
109,192,136324,1,0,0:0:0:0:
256,192,136324,1,0,0:0:0:0:
475,192,136324,1,0,0:0:0:0:
329,192,136434,1,0,0:0:0:0:
109,192,136544,1,0,0:0:0:0:
182,192,136544,1,0,0:0:0:0:
402,192,136544,1,0,0:0:0:0:
475,192,136544,1,0,0:0:0:0:
329,192,136654,1,0,0:0:0:0:
36,192,136765,1,0,0:0:0:0:
109,192,136765,1,0,0:0:0:0:
182,192,136765,1,0,0:0:0:0:
256,192,136875,1,0,0:0:0:0:
402,192,136875,1,0,0:0:0:0:
475,192,136985,1,0,0:0:0:0:
402,192,137096,1,0,0:0:0:0:
109,192,137206,1,0,0:0:0:0:
256,192,137206,1,0,0:0:0:0:
329,192,137206,1,0,0:0:0:0:
475,192,137316,1,0,0:0:0:0:
182,192,137426,1,0,0:0:0:0:
256,192,137426,1,0,0:0:0:0:
402,192,137426,1,0,0:0:0:0:
329,192,137537,1,0,0:0:0:0:
475,192,137537,1,0,0:0:0:0:
36,192,137647,1,0,0:0:0:0:
109,192,137647,1,0,0:0:0:0:
182,192,137647,1,0,0:0:0:0:
329,192,137757,1,0,0:0:0:0:
256,192,137868,1,0,0:0:0:0:
109,192,137978,1,0,0:0:0:0:
329,192,137978,1,0,0:0:0:0:
402,192,137978,1,0,0:0:0:0:
36,192,138088,1,0,0:0:0:0:
256,192,138088,1,0,0:0:0:0:
329,192,138199,1,0,0:0:0:0:
402,192,138199,1,0,0:0:0:0:
475,192,138199,1,0,0:0:0:0:
109,192,138309,1,0,0:0:0:0:
182,192,138309,1,0,0:0:0:0:
256,192,138309,1,0,0:0:0:0:
475,192,138419,1,0,0:0:0:0:
36,192,138529,1,0,0:0:0:0:
109,192,138529,1,0,0:0:0:0:
182,192,138529,1,0,0:0:0:0:
402,192,138529,1,0,0:0:0:0:
256,192,138640,1,0,0:0:0:0:
329,192,138640,1,0,0:0:0:0:
402,192,138750,1,0,0:0:0:0:
256,192,138860,1,0,0:0:0:0:
475,192,138860,1,0,0:0:0:0:
36,192,138971,1,0,0:0:0:0:
182,192,138971,1,0,0:0:0:0:
329,192,138971,1,0,0:0:0:0:
109,192,139081,1,0,0:0:0:0:
256,192,139191,1,0,0:0:0:0:
402,192,139191,1,0,0:0:0:0:
109,192,139301,1,0,0:0:0:0:
182,192,139301,1,0,0:0:0:0:
36,192,139412,1,0,0:0:0:0:
256,192,139412,1,0,0:0:0:0:
329,192,139412,1,0,0:0:0:0:
402,192,139412,1,0,0:0:0:0:
109,192,139522,1,0,0:0:0:0:
182,192,139522,1,0,0:0:0:0:
256,192,139632,1,0,0:0:0:0:
329,192,139632,1,0,0:0:0:0:
109,192,139743,1,0,0:0:0:0:
402,192,139743,1,0,0:0:0:0:
475,192,139743,1,0,0:0:0:0:
36,192,139853,1,0,0:0:0:0:
182,192,139853,1,0,0:0:0:0:
109,192,139963,1,0,0:0:0:0:
256,192,139963,1,0,0:0:0:0:
182,192,140074,1,0,0:0:0:0:
329,192,140074,1,0,0:0:0:0:
402,192,140074,1,0,0:0:0:0:
256,192,140184,1,0,0:0:0:0:
475,192,140184,1,0,0:0:0:0:
36,192,140294,1,0,0:0:0:0:
109,192,140294,1,0,0:0:0:0:
182,192,140294,1,0,0:0:0:0:
329,192,140294,1,0,0:0:0:0:
256,192,140404,1,0,0:0:0:0:
402,192,140404,1,0,0:0:0:0:
182,192,140515,1,0,0:0:0:0:
329,192,140515,1,0,0:0:0:0:
256,192,140625,1,0,0:0:0:0:
402,192,140625,1,0,0:0:0:0:
36,192,140735,1,0,0:0:0:0:
182,192,140735,1,0,0:0:0:0:
329,192,140846,1,0,0:0:0:0:
475,192,140846,1,0,0:0:0:0:
109,192,140956,1,0,0:0:0:0:
182,192,140956,1,0,0:0:0:0:
329,192,141066,1,0,0:0:0:0:
402,192,141066,1,0,0:0:0:0:
36,192,141176,1,0,0:0:0:0:
109,192,141176,1,0,0:0:0:0:
182,192,141176,1,0,0:0:0:0:
475,192,141176,1,0,0:0:0:0:
402,192,141232,1,0,0:0:0:0:
329,192,141287,1,0,0:0:0:0:
256,192,141342,1,0,0:0:0:0:
182,192,141397,1,0,0:0:0:0:
109,192,141452,1,0,0:0:0:0:
402,192,141507,1,0,0:0:0:0:
475,192,141507,1,0,0:0:0:0:
329,192,141563,1,0,0:0:0:0:
256,192,141618,1,0,0:0:0:0:
182,192,141673,1,0,0:0:0:0:
109,192,141728,1,0,0:0:0:0:
36,192,141783,1,0,0:0:0:0:
182,192,141838,1,0,0:0:0:0:
475,192,141838,1,0,0:0:0:0:
402,192,141893,1,0,0:0:0:0:
329,192,141949,1,0,0:0:0:0:
256,192,142004,1,0,0:0:0:0:
182,192,142059,1,0,0:0:0:0:
109,192,142114,1,0,0:0:0:0:
402,192,142169,1,0,0:0:0:0:
475,192,142169,1,0,0:0:0:0:
329,192,142224,1,0,0:0:0:0:
256,192,142279,1,0,0:0:0:0:
182,192,142335,1,0,0:0:0:0:
109,192,142390,1,0,0:0:0:0:
36,192,142445,1,0,0:0:0:0:
182,192,142500,1,0,0:0:0:0:
475,192,142500,1,0,0:0:0:0:
402,192,142555,1,0,0:0:0:0:
329,192,142610,1,0,0:0:0:0:
256,192,142665,1,0,0:0:0:0:
182,192,142721,1,0,0:0:0:0:
109,192,142776,1,0,0:0:0:0:
36,192,142831,1,0,0:0:0:0:
329,192,142831,1,0,0:0:0:0:
475,192,142886,1,0,0:0:0:0:
36,192,142941,1,0,0:0:0:0:
109,192,142996,1,0,0:0:0:0:
182,192,143051,1,0,0:0:0:0:
256,192,143107,1,0,0:0:0:0:
109,192,143162,1,0,0:0:0:0:
329,192,143162,1,0,0:0:0:0:
402,192,143217,1,0,0:0:0:0:
475,192,143272,1,0,0:0:0:0:
36,192,143327,1,0,0:0:0:0:
109,192,143382,1,0,0:0:0:0:
182,192,143438,1,0,0:0:0:0:
256,192,143493,1,0,0:0:0:0:
475,192,143493,1,0,0:0:0:0:
329,192,143548,1,0,0:0:0:0:
402,192,143603,1,0,0:0:0:0:
475,192,143658,1,0,0:0:0:0:
36,192,143713,1,0,0:0:0:0:
109,192,143768,1,0,0:0:0:0:
182,192,143824,1,0,0:0:0:0:
402,192,143824,1,0,0:0:0:0:
256,192,143879,1,0,0:0:0:0:
329,192,143934,1,0,0:0:0:0:
402,192,143989,1,0,0:0:0:0:
475,192,144044,1,0,0:0:0:0:
36,192,144099,1,0,0:0:0:0:
109,192,144154,1,0,0:0:0:0:
402,192,144154,1,0,0:0:0:0:
182,192,144210,1,0,0:0:0:0:
256,192,144265,1,0,0:0:0:0:
329,192,144320,1,0,0:0:0:0:
402,192,144375,1,0,0:0:0:0:
475,192,144430,1,0,0:0:0:0:
36,192,144485,1,0,0:0:0:0:
256,192,144485,1,0,0:0:0:0:
109,192,144540,1,0,0:0:0:0:
182,192,144596,1,0,0:0:0:0:
256,192,144651,1,0,0:0:0:0:
329,192,144706,1,0,0:0:0:0:
256,192,144761,1,0,0:0:0:0:
182,192,144816,1,0,0:0:0:0:
475,192,144816,1,0,0:0:0:0:
109,192,144871,1,0,0:0:0:0:
36,192,144926,1,0,0:0:0:0:
402,192,144982,1,0,0:0:0:0:
329,192,145037,1,0,0:0:0:0:
256,192,145092,1,0,0:0:0:0:
182,192,145147,1,0,0:0:0:0:
402,192,145147,1,0,0:0:0:0:
109,192,145202,1,0,0:0:0:0:
475,192,145257,1,0,0:0:0:0:
402,192,145313,1,0,0:0:0:0:
329,192,145368,1,0,0:0:0:0:
256,192,145423,1,0,0:0:0:0:
182,192,145478,1,0,0:0:0:0:
109,192,145533,1,0,0:0:0:0:
36,192,145588,1,0,0:0:0:0:
256,192,145588,1,0,0:0:0:0:
475,192,145643,1,0,0:0:0:0:
402,192,145699,1,0,0:0:0:0:
329,192,145754,1,0,0:0:0:0:
256,192,145809,1,0,0:0:0:0:
182,192,145864,1,0,0:0:0:0:
109,192,145919,1,0,0:0:0:0:
36,192,145974,1,0,0:0:0:0:
402,192,146029,1,0,0:0:0:0:
475,192,146029,1,0,0:0:0:0:
329,192,146085,1,0,0:0:0:0:
256,192,146140,1,0,0:0:0:0:
182,192,146195,1,0,0:0:0:0:
109,192,146250,1,0,0:0:0:0:
36,192,146305,1,0,0:0:0:0:
256,192,146360,1,0,0:0:0:0:
475,192,146360,1,0,0:0:0:0:
402,192,146415,1,0,0:0:0:0:
36,192,146471,1,0,0:0:0:0:
109,192,146526,1,0,0:0:0:0:
182,192,146581,1,0,0:0:0:0:
256,192,146636,1,0,0:0:0:0:
329,192,146691,1,0,0:0:0:0:
402,192,146746,1,0,0:0:0:0:
182,192,146801,1,0,0:0:0:0:
475,192,146801,1,0,0:0:0:0:
36,192,146857,1,0,0:0:0:0:
109,192,146912,1,0,0:0:0:0:
182,192,146967,1,0,0:0:0:0:
256,192,147022,1,0,0:0:0:0:
329,192,147077,1,0,0:0:0:0:
182,192,147132,1,0,0:0:0:0:
402,192,147132,1,0,0:0:0:0:
475,192,147188,1,0,0:0:0:0:
36,192,147243,1,0,0:0:0:0:
109,192,147298,1,0,0:0:0:0:
182,192,147353,1,0,0:0:0:0:
256,192,147408,1,0,0:0:0:0:
109,192,147463,1,0,0:0:0:0:
329,192,147463,1,0,0:0:0:0:
402,192,147518,1,0,0:0:0:0:
475,192,147574,1,0,0:0:0:0:
36,192,147629,1,0,0:0:0:0:
109,192,147684,1,0,0:0:0:0:
182,192,147739,1,0,0:0:0:0:
36,192,147794,1,0,0:0:0:0:
256,192,147794,1,0,0:0:0:0:
329,192,147849,1,0,0:0:0:0:
402,192,147904,1,0,0:0:0:0:
475,192,147960,1,0,0:0:0:0:
109,192,148015,1,0,0:0:0:0:
182,192,148070,1,0,0:0:0:0:
256,192,148125,1,0,0:0:0:0:
329,192,148180,1,0,0:0:0:0:
36,192,148235,1,0,0:0:0:0:
109,192,148235,1,0,0:0:0:0:
182,192,148235,1,0,0:0:0:0:
475,192,148235,1,0,0:0:0:0:
402,192,148290,1,0,0:0:0:0:
329,192,148346,1,0,0:0:0:0:
256,192,148401,1,0,0:0:0:0:
182,192,148456,1,0,0:0:0:0:
109,192,148511,1,0,0:0:0:0:
402,192,148566,1,0,0:0:0:0:
475,192,148566,1,0,0:0:0:0:
329,192,148621,1,0,0:0:0:0:
256,192,148676,1,0,0:0:0:0:
182,192,148732,1,0,0:0:0:0:
109,192,148787,1,0,0:0:0:0:
36,192,148842,1,0,0:0:0:0:
182,192,148897,1,0,0:0:0:0:
475,192,148897,1,0,0:0:0:0:
402,192,148952,1,0,0:0:0:0:
329,192,149007,1,0,0:0:0:0:
256,192,149063,1,0,0:0:0:0:
182,192,149118,1,0,0:0:0:0:
109,192,149173,1,0,0:0:0:0:
402,192,149228,1,0,0:0:0:0:
475,192,149228,1,0,0:0:0:0:
329,192,149283,1,0,0:0:0:0:
256,192,149338,1,0,0:0:0:0:
182,192,149393,1,0,0:0:0:0:
109,192,149449,1,0,0:0:0:0:
36,192,149504,1,0,0:0:0:0:
182,192,149559,1,0,0:0:0:0:
475,192,149559,1,0,0:0:0:0:
402,192,149614,1,0,0:0:0:0:
329,192,149669,1,0,0:0:0:0:
256,192,149724,1,0,0:0:0:0:
182,192,149779,1,0,0:0:0:0:
109,192,149835,1,0,0:0:0:0:
36,192,149890,1,0,0:0:0:0:
329,192,149890,1,0,0:0:0:0:
475,192,149945,1,0,0:0:0:0:
36,192,150000,1,0,0:0:0:0:
109,192,150055,1,0,0:0:0:0:
182,192,150110,1,0,0:0:0:0:
256,192,150165,1,0,0:0:0:0:
109,192,150221,1,0,0:0:0:0:
329,192,150221,1,0,0:0:0:0:
402,192,150276,1,0,0:0:0:0:
475,192,150331,1,0,0:0:0:0:
36,192,150386,1,0,0:0:0:0:
109,192,150441,1,0,0:0:0:0:
182,192,150496,1,0,0:0:0:0:
256,192,150551,1,0,0:0:0:0:
475,192,150551,1,0,0:0:0:0:
329,192,150607,1,0,0:0:0:0:
402,192,150662,1,0,0:0:0:0:
475,192,150717,1,0,0:0:0:0:
36,192,150772,1,0,0:0:0:0:
109,192,150827,1,0,0:0:0:0:
182,192,150882,1,0,0:0:0:0:
402,192,150882,1,0,0:0:0:0:
256,192,150938,1,0,0:0:0:0:
329,192,150993,1,0,0:0:0:0:
402,192,151048,1,0,0:0:0:0:
475,192,151103,1,0,0:0:0:0:
36,192,151158,1,0,0:0:0:0:
109,192,151213,1,0,0:0:0:0:
402,192,151213,1,0,0:0:0:0:
182,192,151268,1,0,0:0:0:0:
256,192,151324,1,0,0:0:0:0:
329,192,151379,1,0,0:0:0:0:
402,192,151434,1,0,0:0:0:0:
475,192,151489,1,0,0:0:0:0:
36,192,151544,1,0,0:0:0:0:
256,192,151544,1,0,0:0:0:0:
109,192,151599,1,0,0:0:0:0:
182,192,151654,1,0,0:0:0:0:
256,192,151710,1,0,0:0:0:0:
329,192,151765,1,0,0:0:0:0:
256,192,151820,1,0,0:0:0:0:
182,192,151875,1,0,0:0:0:0:
475,192,151875,1,0,0:0:0:0:
109,192,151930,1,0,0:0:0:0:
36,192,151985,1,0,0:0:0:0:
402,192,152040,1,0,0:0:0:0:
329,192,152096,1,0,0:0:0:0:
256,192,152151,1,0,0:0:0:0:
182,192,152206,1,0,0:0:0:0:
402,192,152206,1,0,0:0:0:0:
109,192,152261,1,0,0:0:0:0:
475,192,152316,1,0,0:0:0:0:
402,192,152371,1,0,0:0:0:0:
329,192,152426,1,0,0:0:0:0:
256,192,152482,1,0,0:0:0:0:
182,192,152537,1,0,0:0:0:0:
109,192,152592,1,0,0:0:0:0:
36,192,152647,1,0,0:0:0:0:
256,192,152647,1,0,0:0:0:0:
475,192,152702,1,0,0:0:0:0:
402,192,152757,1,0,0:0:0:0:
329,192,152813,1,0,0:0:0:0:
256,192,152868,1,0,0:0:0:0:
182,192,152923,1,0,0:0:0:0:
109,192,152978,1,0,0:0:0:0:
36,192,153033,1,0,0:0:0:0:
402,192,153088,1,0,0:0:0:0:
475,192,153088,1,0,0:0:0:0:
329,192,153143,1,0,0:0:0:0:
256,192,153199,1,0,0:0:0:0:
182,192,153254,1,0,0:0:0:0:
109,192,153309,1,0,0:0:0:0:
36,192,153364,1,0,0:0:0:0:
256,192,153419,1,0,0:0:0:0:
475,192,153419,1,0,0:0:0:0:
402,192,153474,1,0,0:0:0:0:
36,192,153529,1,0,0:0:0:0:
109,192,153585,1,0,0:0:0:0:
182,192,153640,1,0,0:0:0:0:
256,192,153695,1,0,0:0:0:0:
329,192,153750,1,0,0:0:0:0:
402,192,153805,1,0,0:0:0:0:
182,192,153860,1,0,0:0:0:0:
475,192,153860,1,0,0:0:0:0:
36,192,153915,1,0,0:0:0:0:
109,192,153971,1,0,0:0:0:0:
182,192,154026,1,0,0:0:0:0:
256,192,154081,1,0,0:0:0:0:
329,192,154136,1,0,0:0:0:0:
182,192,154191,1,0,0:0:0:0:
402,192,154191,1,0,0:0:0:0:
475,192,154246,1,0,0:0:0:0:
36,192,154301,1,0,0:0:0:0:
109,192,154357,1,0,0:0:0:0:
182,192,154412,1,0,0:0:0:0:
256,192,154467,1,0,0:0:0:0:
109,192,154522,1,0,0:0:0:0:
329,192,154522,1,0,0:0:0:0:
402,192,154577,1,0,0:0:0:0:
475,192,154632,1,0,0:0:0:0:
36,192,154688,1,0,0:0:0:0:
109,192,154743,1,0,0:0:0:0:
182,192,154798,1,0,0:0:0:0:
36,192,154853,1,0,0:0:0:0:
256,192,154853,1,0,0:0:0:0:
329,192,154908,1,0,0:0:0:0:
402,192,154963,1,0,0:0:0:0:
475,192,155018,1,0,0:0:0:0:
109,192,155074,1,0,0:0:0:0:
182,192,155129,1,0,0:0:0:0:
256,192,155184,1,0,0:0:0:0:
329,192,155239,1,0,0:0:0:0:
402,192,155294,1,0,0:0:0:0:
