osu file format v14

[General]
AudioFilename: audio.mp3
AudioLeadIn: 0
PreviewTime: 76096
Countdown: 0
SampleSet: Soft
StackLeniency: 0.7
Mode: 0
LetterboxInBreaks: 1
WidescreenStoryboard: 1

[Editor]
Bookmarks: 128263,199199,236884,274864
DistanceSpacing: 0.5
BeatDivisor: 4
GridSize: 32
TimelineZoom: 2.2

[Metadata]
Title:NOiSE
TitleUnicode:NOiSE -ノイズ-
Artist:Pizuya's Cell feat. Futoumeido
ArtistUnicode:ぴずやの独房 feat. 普透明度
Creator:SuperBox
Version:dahkjdas' Extra
Source:秘封ナイトメアダイアリー 〜 Violet Detector.
Tags:Hifuu Nightmare Diary ~ Violet Detector. th16.5 maribel hearn renko usami マエリベリー・ハーン 宇佐見 蓮子 非実在性プラネタリウム スタンドアローン Standalone pop j-pop 上海アリス幻樂団 Team Shanghai Alice ZUN video game バー・オールドアダム Dateless Bar "Old Adam" オールドバーアダム Japanese JPOP 東方Project TouHou Project めいど CoLouRed GlaZeE dahkjdas
BeatmapID:3158333
BeatmapSetID:1321114

[Difficulty]
HPDrainRate:6
CircleSize:4
OverallDifficulty:8.5
ApproachRate:9
SliderMultiplier:1.85
SliderTickRate:1

[Events]
//Background and Video events
0,0,"84843808_p0.jpg",0,0
//Break Periods
2,38611,40176
2,41419,44905
2,180483,189141
2,218315,219880
2,221123,224609
//Storyboard Layer 0 (Background)
//Storyboard Layer 1 (Fail)
//Storyboard Layer 2 (Pass)
//Storyboard Layer 3 (Foreground)
//Storyboard Layer 4 (Overlay)
//Storyboard Sound Samples

[TimingPoints]
579,295.566502463054,4,2,0,60,1,0
579,-133.333333333333,4,2,0,60,0,0
19199,-200,4,2,0,60,0,0
19495,-100,4,2,0,70,0,0
38411,-166.666666666667,4,2,0,70,0,0
47869,-133.333333333333,4,2,0,70,0,0
52598,-111.111111111111,4,2,0,70,0,0
54963,-100,4,2,0,70,0,0
56145,-133.333333333333,4,2,0,70,0,0
57327,-100,4,2,0,70,0,0
74913,-133.333333333333,4,2,0,70,0,0
76096,-94.3396226415094,4,2,0,80,0,1
95160,-94.3396226415094,4,2,0,90,0,1
98559,-80,4,2,0,90,0,1
99150,-133.333333333333,4,2,0,90,0,1
99889,-80,4,2,0,70,0,0
104175,-66.6666666666667,4,2,0,70,0,0
104618,-80,4,2,0,70,0,0
118805,-200,4,2,0,70,0,0
128263,-133.333333333333,4,2,0,70,0,0
132992,-111.111111111111,4,2,0,70,0,0
135357,-100,4,2,0,70,0,0
136539,-133.333333333333,4,2,0,70,0,0
137721,-100,4,2,0,70,0,0
155308,-133.333333333333,4,2,0,70,0,0
156490,-94.3396226415094,4,2,0,80,0,1
175554,-94.3396226415094,4,2,0,90,0,1
178953,-80,4,2,0,90,0,1
179544,-133.333333333333,4,2,0,90,0,1
180283,-133.333333333333,4,2,0,60,0,0
189741,-133.333333333333,4,2,0,60,0,0
199199,-100,4,2,0,70,0,0
218115,-166.666666666667,4,2,0,70,0,0
227574,-133.333333333333,4,2,0,80,0,0
232303,-111.111111111111,4,2,0,80,0,0
234667,-100,4,2,0,80,0,0
235698,-133.333333333333,4,2,0,80,0,0
235997,-111.111111111111,4,2,0,80,0,0
236293,-95.2380952380952,4,2,0,80,0,0
236884,-94.3396226415094,4,2,0,90,0,1
255800,-92.5925925925926,4,2,0,90,0,1
274864,-92.5925925925926,4,2,0,100,0,1
278263,-92.5925925925926,4,2,0,100,0,1
278854,-133.333333333333,4,2,0,100,0,1
279593,-100,4,2,0,70,0,0
298362,-133.333333333333,4,2,0,70,0,0
298583,-133.333333333333,4,2,0,30,0,0
299101,-133.333333333333,4,2,0,25,0,0
299692,-133.333333333333,4,2,0,20,0,0
300283,-133.333333333333,4,2,0,5,0,0

[Colours]
Combo1 : 196,0,98
Combo2 : 159,70,70
Combo3 : 128,51,221
Combo4 : 94,96,187
SliderBorder : 255,111,193

[HitObjects]
134,88,579,5,4,3:1:0:0:
74,183,874,1,2,0:0:0:0:
74,183,1022,2,0,P|139:175|229:163,2,138.750005292893,2|2|2,0:0|0:0|0:0,0:0:0:0:
426,111,2943,5,2,3:0:0:0:
324,166,3239,1,2,0:0:0:0:
324,166,3386,2,0,P|331:82|338:12,2,138.750005292893,2|2|2,0:0|0:0|0:0,0:0:0:0:
318,353,5308,5,2,3:0:0:0:
395,293,5603,1,2,0:0:0:0:
395,293,5751,2,0,P|359:264|258:277,2,138.750005292893,2|2|2,0:0|0:0|0:0,0:0:0:0:
141,271,7672,5,2,3:0:0:0:
64,211,7967,1,2,0:0:0:0:
64,211,8115,2,0,P|100:182|201:195,2,138.750005292893,2|2|2,0:0|0:0|0:0,0:0:0:0:
415,139,10037,6,0,P|379:108|283:130,1,138.750005292893,4|2,3:1|0:0,0:0:0:0:
245,55,10480,2,0,P|251:122|258:200,2,138.750005292893,2|2|2,0:0|0:0|0:0,0:0:0:0:
49,183,11367,5,0,0:0:0:0:
152,155,11514,1,2,0:0:0:0:
49,183,11662,2,0,L|52:98,1,69.3750026464463,2|0,0:0|0:0,0:0:0:0:
152,155,11958,5,2,0:0:0:0:
163,243,12106,1,2,0:0:0:0:
176,329,12253,1,2,0:0:0:0:
120,383,12401,6,0,P|193:368|268:363,1,138.750005292893,2|2,3:0|0:0,0:0:0:0:
340,349,12845,2,0,P|347:283|359:200,2,138.750005292893,2|2|2,0:0|0:0|0:0,0:0:0:0:
425,147,13731,5,0,0:0:0:0:
449,257,13879,1,2,0:0:0:0:
425,147,14027,2,0,P|462:152|499:156,1,69.3750026464463,2|0,0:0|0:0,0:0:0:0:
358,211,14322,5,2,0:0:0:0:
270,228,14470,1,2,0:0:0:0:
184,244,14618,1,2,0:0:0:0:
126,303,14766,6,0,P|136:242|149:163,1,138.750005292893,2|2,3:0|0:0,0:0:0:0:
114,79,15209,2,0,P|153:123|234:127,2,138.750005292893,2|2|2,0:0|0:0|0:0,0:0:0:0:
405,56,16096,5,2,0:0:0:0:
313,18,16244,1,2,0:0:0:0:
313,18,16391,2,0,L|307:105,1,69.3750026464463,2|0,0:0|0:0,0:0:0:0:
298,182,16687,5,2,0:0:0:0:
379,169,16835,1,2,0:0:0:0:
459,158,16982,1,2,0:0:0:0:
495,232,17130,6,0,P|499:173|506:83,1,138.750005292893,2|2,3:0|0:0,0:0:0:0:
443,30,17574,2,0,P|403:69|323:64,2,138.750005292893,2|2|2,0:0|0:0|0:0,0:0:0:0:
256,203,18460,5,0,0:0:0:0:
232,101,18608,1,2,0:0:0:0:
344,167,18756,2,0,L|335:274,1,104.06250396967,2|0,0:0|0:0,0:0:0:0:
333,295,19051,5,2,0:0:0:0:
421,311,19199,2,0,L|414:258,1,46.25
256,203,19495,6,0,P|208:184|102:265,1,185,4|8,1:0|1:0,0:0:0:0:
332,295,19938,2,0,P|343:200|359:106,1,185,0|0,1:0|1:0,0:0:0:0:
209,9,20381,2,0,P|220:89|228:138,1,92.5,8|2,1:0|0:0,0:0:0:0:
198,271,20677,5,0,1:0:0:0:
59,146,20825,1,2,3:0:0:0:
59,146,20899,1,2,3:0:0:0:
59,146,20973,2,0,P|125:162|170:171,1,92.5,8|2,1:0|0:0,0:0:0:0:
316,181,21268,5,4,3:0:0:0:
205,246,21416,1,0,1:0:0:0:
252,59,21564,1,8,1:0:0:0:
398,185,21712,1,0,1:0:0:0:
257,325,21859,6,0,P|203:341|109:241,1,185,0|8,1:0|1:0,0:0:0:0:
79,137,22303,2,0,P|90:74|97:28,1,92.5,0|0,1:0|0:0,0:0:0:0:
34,221,22599,1,0,1:0:0:0:
172,106,22747,1,8,1:0:0:0:
9,42,22894,1,0,1:0:0:0:
135,206,23042,5,0,1:0:0:0:
211,33,23189,1,4,3:0:0:0:
311,194,23337,2,0,P|248:183|202:175,1,92.5,8|2,1:0|3:0,0:0:0:0:
31,144,23633,5,4,3:0:0:0:
233,88,23780,1,2,3:0:0:0:
219,178,23928,1,8,1:0:0:0:
47,56,24076,1,0,1:0:0:0:
162,259,24224,6,0,B|227:270|227:270|275:254|275:254|368:275,1,185,0|8,1:0|1:0,0:0:0:0:
465,319,24667,2,0,B|411:329|411:329|373:366|373:366|335:358|284:351,1,185,0|0,1:0|1:0,0:0:0:0:
429,232,25111,2,0,P|422:173|418:131,1,92.5,8|2,1:0|0:0,0:0:0:0:
456,48,25406,5,4,3:0:0:0:
315,126,25554,1,0,1:0:0:0:
292,120,25628,1,0,1:0:0:0:
269,114,25702,1,8,1:0:0:0:
262,214,25849,2,0,P|211:203|107:282,1,185,2|2,3:2|1:2,0:0:0:0:
48,191,26293,1,8,1:0:0:0:
210,305,26441,1,0,1:0:0:0:
75,373,26588,6,0,L|45:172,1,185,0|8,1:0|1:0,0:0:0:0:
216,50,27032,1,2,0:0:0:0:
156,291,27179,2,0,P|146:222|138:172,1,92.5,4|2,3:0|0:0,0:0:0:0:
216,50,27475,2,0,P|225:113|234:174,1,92.5,8|4,1:0|3:0,0:0:0:0:
242,290,27771,5,0,1:0:0:0:
315,176,27918,1,2,3:0:0:0:
315,176,27992,1,2,3:0:0:0:
315,176,28066,1,8,1:0:0:0:
179,200,28214,1,2,0:0:0:0:
248,367,28362,5,4,3:0:0:0:
328,261,28510,1,0,1:0:0:0:
129,318,28657,5,8,1:0:0:0:
342,257,28805,1,0,1:0:0:0:
114,322,28953,6,0,L|56:335,2,46.25,4|4|4,3:0|3:0|3:0,0:0:0:0:
169,122,29248,1,8,1:0:0:0:
255,264,29396,2,0,B|290:274|321:277|321:277|346:305|346:305|388:309|440:328,1,185,8|0,3:0|1:0,0:0:0:0:
400,91,29840,1,8,1:0:0:0:
474,224,29987,1,2,0:0:0:0:
335,185,30135,6,0,L|397:169,4,46.25,0|2|2|2|8,1:0|0:0|0:0|0:0|1:0,0:0:0:0:
455,149,30578,6,0,B|395:140|395:140|360:106|360:106|279:94,1,185,4|2,3:0|3:0,0:0:0:0:
150,139,31022,1,8,1:0:0:0:
226,21,31170,1,4,3:0:0:0:
208,208,31317,6,0,P|151:226|62:147,1,185,0|8,1:0|1:0,0:0:0:0:
248,128,31761,2,0,P|306:98|341:82,1,92.5,0|4,1:0|3:0,0:0:0:0:
330,86,31982,1,4,3:0:0:0:
330,86,32056,1,4,3:0:0:0:
146,43,32204,2,0,L|156:109,1,46.25,8|2,1:0|0:0,0:0:0:0:
167,213,32352,2,0,L|178:152,1,46.25,2|2,0:0|0:0,0:0:0:0:
231,49,32500,5,4,3:0:0:0:
64,98,32647,1,2,0:0:0:0:
64,98,32721,1,2,0:0:0:0:
64,98,32795,2,0,P|57:165|52:217,1,92.5,8|2,1:0|0:0,0:0:0:0:
175,356,33091,1,8,3:0:0:0:
135,222,33239,1,4,3:0:0:0:
259,283,33386,1,8,1:0:0:0:
62,298,33534,1,4,3:0:0:0:
225,204,33682,6,0,L|236:130,4,46.25,0|2|2|2|8,1:0|0:0|0:0|0:0|1:0,0:0:0:0:
174,86,34125,2,0,P|240:127|367:140,1,185,0|0,1:0|1:0,0:0:0:0:
352,323,34569,1,8,1:0:0:0:
407,209,34716,1,4,3:0:0:0:
254,280,34864,6,0,P|261:339|267:387,1,92.5,4|2,3:0|3:0,0:0:0:0:
265,371,35086,1,2,3:0:0:0:
265,371,35160,1,8,1:0:0:0:
16,363,35308,2,0,P|51:322|181:342,1,185,0|0,1:0|1:0,0:0:0:0:
332,243,35751,2,0,P|298:204|211:204,1,138.75,8|0,1:0|0:0,0:0:0:0:
197,213,36046,6,0,B|177:154|177:133|177:133|179:104|179:104|171:72|160:29,1,185,0|8,1:0|1:0,0:0:0:0:
285,138,36490,2,0,P|288:89|290:32,1,92.5,0|0,1:0|0:0,0:0:0:0:
73,102,36785,5,0,1:0:0:0:
197,213,36933,1,8,1:0:0:0:
46,257,37081,1,4,3:0:0:0:
218,299,37229,5,4,3:0:0:0:
154,141,37377,1,2,3:0:0:0:
126,351,37524,1,8,1:0:0:0:
46,257,37672,1,2,3:0:0:0:
277,226,37820,5,4,3:0:0:0:
68,172,37968,1,8,3:0:0:0:
252,136,38115,1,8,1:0:0:0:
144,264,38263,1,4,3:0:0:0:
165,56,38411,1,4,0:1:0:0:
54,145,40776,5,2,0:0:0:0:
162,123,40923,1,2,0:0:0:0:
234,207,41071,1,2,0:0:0:0:
343,190,41219,1,2,0:0:0:0:
206,217,45505,5,2,0:0:0:0:
302,165,45652,1,2,0:0:0:0:
189,145,45800,5,2,0:0:0:0:
320,234,45948,1,2,0:0:0:0:
256,192,46096,12,0,47574,0:0:0:0:
421,266,47869,6,0,P|432:191|443:118,1,138.750005292893,4|0,1:0|1:0,0:0:0:0:
335,79,48312,1,0,0:0:0:0:
335,79,48460,2,0,P|339:131|346:170,1,69.3750026464463,0|0,1:0|0:0,0:0:0:0:
199,205,48756,1,0,1:0:0:0:
126,160,48904,6,0,P|164:125|258:146,1,138.750005292893,0|0,3:0|0:0,0:0:0:0:
147,294,49347,2,0,P|115:252|92:236,1,69.3750026464463,0|2,1:0|0:0,0:0:0:0:
308,185,49643,2,0,P|298:218|298:253,1,69.3750026464463,0|0,1:0|0:0,0:0:0:0:
211,229,49938,2,0,L|168:81,1,138.750005292893,0|0,1:0|1:0,0:0:0:0:
352,36,50529,5,0,1:0:0:0:
336,144,50677,1,0,0:0:0:0:
280,70,50825,1,0,1:0:0:0:
412,118,50973,2,0,P|457:112|488:107,1,69.3750026464463,0|2,0:0|1:2,0:0:0:0:
327,233,51268,6,0,B|251:216|283:179|208:164,1,138.750005292893,2|2,3:0|3:0,0:0:0:0:
31,179,51712,1,0,1:0:0:0:
142,235,51859,1,2,0:0:0:0:
84,111,52007,2,0,P|77:53|76:27,1,69.3750026464463,0|0,1:0|0:0,0:0:0:0:
219,95,52303,2,0,P|212:151|205:185,1,69.3750026464463,0|0,1:0|0:0,0:0:0:0:
347,138,52598,6,0,P|405:148|447:155,1,83.2499974594117,4|0,1:0|3:0,0:0:0:0:
429,152,52820,1,0,3:0:0:0:
429,152,52894,1,0,1:0:0:0:
284,231,53042,1,2,3:0:0:0:
302,54,53189,5,0,1:0:0:0:
282,252,53337,1,0,3:0:0:0:
303,34,53485,1,0,1:0:0:0:
275,271,53633,1,2,0:0:0:0:
132,134,53780,5,0,1:0:0:0:
104,304,53928,1,2,3:0:0:0:
104,304,54002,1,2,3:0:0:0:
104,304,54076,1,0,1:0:0:0:
222,122,54224,1,2,0:0:0:0:
43,101,54372,5,0,1:0:0:0:
196,206,54519,1,2,3:0:0:0:
184,0,54667,1,0,1:0:0:0:
26,103,54815,1,6,3:0:0:0:
212,218,54963,5,4,1:3:0:0:
234,215,55036,1,0,1:0:0:0:
258,216,55110,1,0,1:0:0:0:
280,222,55184,1,0,1:0:0:0:
301,232,55258,1,4,1:3:0:0:
322,241,55332,1,0,1:0:0:0:
345,245,55406,1,0,1:0:0:0:
368,245,55480,1,0,1:0:0:0:
390,238,55554,6,0,L|399:171,3,46.25,4|4|6|6,1:3|1:3|1:3|1:3,0:0:0:0:
327,98,55849,2,0,L|319:166,3,46.25,6|6|6|6,1:3|1:3|1:3|1:3,0:0:0:0:
239,191,56145,6,0,P|205:161|99:181,1,138.750005292893,2|2,1:2|0:0,0:0:0:0:
59,111,56588,2,0,P|81:192|94:267,1,138.750005292893,2|2,0:0|0:0,0:0:0:0:
142,367,57032,1,0,1:0:0:0:
43,348,57179,1,4,3:0:0:0:
193,279,57327,6,0,B|250:295|250:295|283:330|283:330|333:324|392:325,1,185,4|8,1:0|1:0,0:0:0:0:
450,174,57771,1,0,3:0:0:0:
450,174,57845,1,0,3:0:0:0:
450,174,57918,2,0,P|442:239|434:283,1,92.5,4|4,3:0|3:0,0:0:0:0:
470,358,58214,1,8,1:0:0:0:
326,244,58362,1,0,3:0:0:0:
326,244,58436,1,0,3:0:0:0:
326,244,58510,5,0,1:0:0:0:
512,289,58657,1,2,0:0:0:0:
339,331,58805,1,8,1:0:0:0:
381,174,58953,1,2,0:0:0:0:
381,174,59027,1,2,0:0:0:0:
381,174,59101,2,0,P|391:110|396:62,1,92.5,4|2,3:0|3:0,0:0:0:0:
468,45,59396,1,8,1:0:0:0:
306,109,59544,1,4,3:0:0:0:
464,231,59692,6,0,P|377:215|282:197,1,185,0|8,1:0|1:0,0:0:0:0:
52,222,60135,1,0,3:0:0:0:
52,222,60209,1,0,3:0:0:0:
52,222,60283,1,0,3:0:0:0:
190,161,60431,1,4,3:0:0:0:
61,119,60578,1,8,1:0:0:0:
107,298,60726,1,2,3:0:0:0:
107,298,60800,1,2,3:0:0:0:
107,298,60874,6,0,B|164:319|164:319|201:292|201:292|258:287|315:272,1,185,0|8,1:0|1:0,0:0:0:0:
367,194,61317,2,0,P|315:181|256:158,1,92.5,2|0,3:0|1:0,0:0:0:0:
148,209,61613,1,2,3:0:0:0:
256,86,61761,1,8,1:0:0:0:
275,278,61909,1,4,3:0:0:0:
177,128,62056,6,0,P|170:65|166:10,1,92.5,0|0,1:0|0:0,0:0:0:0:
336,24,62352,2,0,P|344:98|346:147,1,92.5,8|0,1:0|0:0,0:0:0:0:
202,219,62647,1,4,3:0:0:0:
344,203,62795,1,2,3:0:0:0:
184,220,62943,1,8,1:0:0:0:
359,202,63091,6,0,B|354:249|349:275|349:275|365:305|365:305|354:385,1,185,0|4,1:0|3:0,0:0:0:0:
442,251,63534,1,8,1:0:0:0:
270,328,63682,2,0,P|262:271|258:218,1,92.5,2|0,0:0|3:0,0:0:0:0:
306,140,63978,1,4,3:0:0:0:
156,94,64125,1,8,1:0:0:0:
323,49,64273,1,0,1:0:0:0:
323,49,64347,1,0,1:0:0:0:
323,49,64421,5,0,1:0:0:0:
177,8,64569,1,0,1:0:0:0:
316,158,64716,2,0,B|377:149|377:149|423:170|423:170|504:160,1,185,8|2,1:0|3:0,0:0:0:0:
365,239,65160,1,4,3:0:0:0:
329,64,65308,1,8,1:0:0:0:
268,237,65455,6,0,P|204:250|124:156,1,185,0|0,1:0|1:0,0:0:0:0:
213,61,65899,1,8,1:0:0:0:
219,162,66046,1,4,3:0:0:0:
99,94,66194,5,8,3:0:0:0:
287,104,66342,1,2,3:0:0:0:
126,181,66490,5,8,1:0:0:0:
213,61,66638,1,4,3:0:0:0:
213,61,66712,1,4,3:0:0:0:
213,61,66785,6,0,B|199:126|199:126|219:161|219:161|203:242,1,185,0|8,1:0|1:0,0:0:0:0:
324,344,67229,1,0,3:0:0:0:
324,344,67303,1,0,3:0:0:0:
324,344,67377,2,0,P|311:289|301:244,1,92.5,4|6,3:0|3:0,0:0:0:0:
404,274,67672,1,8,1:0:0:0:
232,356,67820,1,0,3:0:0:0:
419,264,67968,6,0,P|427:177|441:56,1,185,0|8,1:0|1:0,0:0:0:0:
246,133,68411,1,2,3:2:0:0:
246,133,68485,1,0,3:0:0:0:
246,133,68559,1,4,3:0:0:0:
329,208,68707,1,8,3:0:0:0:
286,25,68854,1,8,1:0:0:0:
338,226,69002,1,0,3:0:0:0:
153,169,69150,6,0,P|101:182|55:194,1,92.5,4|0,3:0|0:0,0:0:0:0:
53,313,69445,2,0,P|111:299|158:289,1,92.5,8|0,1:0|0:0,0:0:0:0:
359,169,69741,6,0,P|411:182|457:194,1,92.5,4|2,3:0|0:0,0:0:0:0:
459,313,70036,2,0,P|401:299|354:289,1,92.5,8|2,1:0|0:0,0:0:0:0:
258,366,70332,6,0,B|246:310|264:251|264:251|242:198|241:148,1,185,0|8,1:0|1:0,0:0:0:0:
350,68,70776,1,0,3:0:0:0:
350,68,70849,1,0,3:0:0:0:
350,68,70923,2,0,P|338:124|329:166,1,92.5,4|2,3:0|3:0,0:0:0:0:
435,128,71219,1,8,1:0:0:0:
245,74,71367,1,0,3:0:0:0:
223,83,71441,1,0,3:0:0:0:
202,92,71514,6,0,P|123:79|87:69,1,92.5,4|2,3:0|0:0,0:0:0:0:
58,272,71810,1,8,1:0:0:0:
88,171,71958,1,2,0:0:0:0:
140,294,72106,5,0,1:0:0:0:
168,208,72253,1,2,0:0:0:0:
210,345,72401,5,8,1:0:0:0:
251,209,72549,2,0,B|329:225|355:246|355:246|414:264|445:262,1,185,2|4,3:0|3:0,0:0:0:0:
466,76,72992,5,8,1:0:0:0:
439,176,73140,1,4,3:0:0:0:
384,65,73288,5,8,3:0:0:0:
364,147,73436,1,0,3:0:0:0:
315,20,73583,5,8,1:0:0:0:
274,150,73731,2,0,B|172:131|185:209|91:192|91:192|140:182|166:143,1,277.5,0|8,1:0|1:0,0:0:0:0:
204,68,74322,5,2,0:0:0:0:
206,45,74396,1,2,0:0:0:0:
209,22,74470,1,0,1:0:0:0:
110,74,74618,1,4,3:0:0:0:
296,56,74766,1,8,1:0:0:0:
95,76,74913,5,2,0:0:0:0:
113,160,75061,1,0,1:0:0:0:
135,245,75209,1,2,0:0:0:0:
54,221,75357,5,0,1:0:0:0:
196,183,75505,1,2,0:0:0:0:
37,227,75652,5,0,1:0:0:0:
209,178,75800,1,2,3:0:0:0:
450,319,76096,6,0,B|378:335|328:355|328:355|263:309,1,196.100000299225,4|0,1:0|1:0,0:0:0:0:
270,66,76539,1,8,1:0:0:0:
345,259,76687,1,4,3:0:0:0:
153,236,76835,1,0,1:0:0:0:
299,165,76982,1,6,3:0:0:0:
299,165,77056,1,4,3:0:0:0:
299,165,77130,1,8,1:0:0:0:
171,331,77278,6,0,P|92:310|70:205,1,196.100000299225,8|4,3:0|3:0,0:0:0:0:
297,245,77721,2,0,P|288:305|282:358,1,98.0500001496124,8|2,1:0|3:0,0:0:0:0:
169,126,78017,5,0,1:0:0:0:
214,275,78165,1,0,1:0:0:0:
244,86,78312,1,8,1:0:0:0:
130,301,78460,5,2,3:0:0:0:
89,164,78608,1,4,1:0:0:0:
214,275,78756,1,2,3:0:0:0:
50,362,78904,2,0,P|36:292|26:234,1,98.0500001496124,8|2,1:0|0:0,0:0:0:0:
194,178,79199,2,0,P|209:250|217:289,1,98.0500001496124,4|4,3:0|3:0,0:0:0:0:
115,232,79495,1,8,1:0:0:0:
268,100,79643,6,0,B|325:91|365:124|365:124|410:135|472:97,1,196.100000299225,0|0,1:0|1:0,0:0:0:0:
395,37,80086,1,8,1:0:0:0:
299,185,80234,2,0,L|288:256,2,49.0250000748062,0|2|2,1:0|3:0|3:0,0:0:0:0:
223,114,80529,1,0,1:0:0:0:
381,222,80677,1,8,1:0:0:0:
213,287,80825,6,0,B|152:278|94:316|94:316|50:303|18:280,1,196.100000299225,4|0,1:0|1:0,0:0:0:0:
76,84,81268,1,8,1:0:0:0:
190,156,81416,1,4,3:0:0:0:
14,195,81564,1,0,1:0:0:0:
174,59,81712,2,0,P|189:148|189:171,1,98.0500001496124,4|8,3:0|1:0,0:0:0:0:
185,283,82007,6,0,P|254:225|274:214,1,98.0500001496124,2|0,0:0|1:0,0:0:0:0:
376,156,82303,2,0,P|291:124|271:112,1,98.0500001496124,2|8,0:0|1:0,0:0:0:0:
75,125,82598,2,0,L|61:54,2,49.0250000748062,2|0|0,0:0|3:0|1:0,0:0:0:0:
181,273,82894,2,0,L|176:332,2,49.0250000748062,2|0|8,1:2|3:0|1:0,0:0:0:0:
34,208,83189,6,0,B|136:235|118:164|225:187,1,196.100000299225,4|0,1:0|0:0,0:0:0:0:
429,185,83633,1,8,1:0:0:0:
299,117,83780,1,4,3:0:0:0:
484,103,83928,1,0,1:0:0:0:
330,220,84076,5,2,3:0:0:0:
503,96,84224,1,8,1:0:0:0:
309,10,84372,1,4,3:0:0:0:
386,111,84519,5,4,1:0:0:0:
152,203,84667,2,0,L|140:97,1,98.0500001496124,0|0,1:0|1:0,0:0:0:0:
209,48,84963,2,0,P|256:85|265:131,1,98.0500001496124,4|0,1:3|1:0,0:0:0:0:
94,271,85258,2,0,P|47:234|38:188,1,98.0500001496124,4|0,1:3|1:0,0:0:0:0:
26,90,85554,6,0,B|85:107|85:107|128:155|128:155|181:167|224:184,1,196.100000299225,4|4,1:0|3:0,0:0:0:0:
406,143,85997,1,8,1:0:0:0:
297,266,86145,1,2,0:0:0:0:
284,83,86293,1,0,1:0:0:0:
402,312,86441,1,2,0:0:0:0:
402,312,86514,1,2,0:0:0:0:
402,312,86588,1,8,1:0:0:0:
317,168,86736,6,0,B|248:185|248:185|205:228|205:228|147:210|103:207,1,196.100000299225,2|2,0:0|0:0,0:0:0:0:
297,266,87179,2,0,P|288:326|282:379,1,98.0500001496124,8|2,1:0|0:0,0:0:0:0:
390,234,87475,5,2,3:0:0:0:
315,75,87623,1,2,3:0:0:0:
486,210,87770,1,8,1:0:0:0:
297,266,87918,6,0,B|254:271|229:283|229:283|190:266|190:266|134:285|93:290,1,196.100000299225,4|0,1:0|1:0,0:0:0:0:
83,156,88362,1,8,1:0:0:0:
105,174,88435,1,2,0:0:0:0:
129,190,88509,1,2,0:0:0:0:
155,204,88583,1,2,0:0:0:0:
181,217,88657,1,4,3:0:0:0:
209,227,88731,1,2,0:0:0:0:
237,235,88805,1,2,0:0:0:0:
266,241,88879,1,2,0:0:0:0:
289,245,88953,2,0,L|349:228,3,49.0250000748062,8|2|2|2,1:0|0:0|3:0|3:0,0:0:0:0:
402,157,89248,1,2,3:0:0:0:
402,157,89322,1,2,3:0:0:0:
402,157,89396,6,0,P|343:129|237:217,1,196.100000299225,2|2,3:0|3:0,0:0:0:0:
140,229,89840,1,0,1:0:0:0:
336,232,89987,1,4,3:0:0:0:
187,103,90135,1,8,1:0:0:0:
204,307,90283,6,0,P|141:330|40:228,1,196.100000299225,4|2,1:0|0:0,0:0:0:0:
82,68,90726,1,8,1:0:0:0:
140,229,90874,1,2,0:0:0:0:
253,102,91022,1,0,1:0:0:0:
70,166,91170,2,0,P|130:145|185:140,1,98.0500001496124,2|8,0:0|1:0,0:0:0:0:
356,211,91465,6,0,P|292:210|239:196,1,98.0500001496124,0|0,1:0|0:0,0:0:0:0:
142,42,91761,2,0,P|200:69|242:105,1,98.0500001496124,4|8,3:0|1:0,0:0:0:0:
205,300,92056,2,0,P|196:270|186:227,2,49.0250000748062,2|0|0,3:0|3:0|1:0,0:0:0:0:
312,122,92352,2,0,P|314:97|319:73,2,49.0250000748062,8|0|8,3:0|3:0|1:0,0:0:0:0:
157,160,92647,1,0,1:0:0:0:
288,256,92795,6,0,B|348:239|348:239|400:281|400:281|483:295,2,196.100000299225,4|8|0,1:0|1:0|1:0,0:0:0:0:
90,103,93534,1,2,0:0:0:0:
236,184,93682,1,8,1:0:0:0:
56,255,93830,1,2,0:0:0:0:
259,178,93978,5,4,1:0:0:0:
142,281,94125,1,2,3:0:0:0:
175,81,94273,1,8,1:0:0:0:
230,308,94421,1,4,3:0:0:0:
352,184,94569,5,8,3:0:0:0:
118,177,94716,1,2,3:0:0:0:
316,108,94864,1,8,1:0:0:0:
148,254,95012,1,0,1:0:0:0:
234,58,95160,6,0,P|230:130|225:186,1,98.0500001496124,4|0,1:0|0:0,0:0:0:0:
81,351,95455,2,0,P|70:281|55:212,1,98.0500001496124,0|0,1:0|0:0,0:0:0:0:
227,234,95751,5,0,1:0:0:0:
44,179,95899,1,0,3:0:0:0:
161,308,96046,1,0,1:0:0:0:
160,94,96194,1,0,1:0:0:0:
160,94,96268,1,0,1:0:0:0:
160,94,96342,5,0,1:0:0:0:
345,144,96490,1,2,3:0:0:0:
173,175,96638,1,0,1:0:0:0:
331,60,96785,1,2,0:0:0:0:
158,183,96933,5,0,1:0:0:0:
236,30,97081,1,2,0:0:0:0:
341,228,97229,2,0,P|337:289|331:346,1,98.0500001496124,0|2,1:0|0:0,0:0:0:0:
243,269,97524,6,0,B|179:267|145:209|145:209|108:235|53:224,1,196.100000299225,0|0,1:0|1:0,0:0:0:0:
87,132,97968,1,0,1:0:0:0:
0,374,98115,1,0,1:0:0:0:
27,363,98189,1,2,1:2:0:0:
55,353,98263,1,2,1:2:0:0:
83,346,98337,1,2,1:2:0:0:
112,342,98411,1,2,1:2:0:0:
141,341,98485,1,2,1:2:0:0:
170,343,98559,6,0,B|230:357|230:357|278:341|278:341|372:359,1,173.4375,4|0,1:0|0:0,0:0:0:0:
360,363,98854,1,0,1:0:0:0:
271,154,99002,1,0,1:0:0:0:
366,230,99150,2,0,P|322:240|227:261,1,138.750005292893,0|2,1:0|0:0,0:0:0:0:
251,66,99593,1,2,1:2:0:0:
31,108,99889,5,4,1:0:0:0:
67,104,99963,1,0,1:0:0:0:
98,121,100037,1,0,1:0:0:0:
134,119,100111,1,0,1:0:0:0:
164,137,100184,2,0,L|223:128,3,57.8125,0|0|0|0,1:0|3:0|3:0|3:0,0:0:0:0:
294,175,100480,2,0,L|355:166,3,57.8125,8|2|2|2,1:0|3:0|3:0|3:0,0:0:0:0:
391,87,100776,2,2,P|373:179|359:298,1,173.4375,0|0,0:0|0:0,0:1:0:0:
417,317,101071,5,0,1:0:0:0:
392,292,101145,1,0,1:0:0:0:
358,283,101219,1,0,1:0:0:0:
324,291,101293,2,0,L|194:319,1,115.625,0|0,1:0|0:0,0:0:0:0:
182,322,101514,1,0,1:0:0:0:
276,156,101662,2,0,P|270:198|266:228,1,57.8125,8|0,1:0|0:0,0:0:0:0:
153,328,101810,2,0,P|143:283|132:226,1,57.8125,2|2,3:0|3:0,0:0:0:0:
234,88,101958,2,2,P|312:79|348:119,1,115.625,2|0,3:1|1:0,0:1:0:0:
344,121,102179,1,0,1:0:0:0:
350,143,102253,5,0,1:0:0:0:
356,165,102327,1,0,1:0:0:0:
363,187,102401,2,0,L|378:248,2,57.8125,0|0|0,1:0|3:0|3:0,0:0:0:0:
419,366,102697,1,0,1:1:0:0:
419,366,102771,1,0,1:0:0:0:
419,366,102845,2,0,L|432:293,1,57.8125,8|0,1:0|1:0,0:0:0:0:
468,226,102992,2,0,B|376:208|395:265|299:246,1,173.4375,0|0,1:0|0:0,0:0:0:0:
176,302,103288,1,0,1:0:0:0:
176,302,103362,1,0,1:0:0:0:
176,302,103436,5,0,1:0:0:0:
216,297,103510,1,0,1:0:0:0:
250,317,103583,1,0,1:0:0:0:
284,338,103657,1,0,1:0:0:0:
324,332,103731,1,0,1:0:0:0:
300,247,103879,2,0,L|309:177,1,57.8125,0|0,1:0|0:0,0:0:0:0:
140,32,104027,1,8,1:0:0:0:
140,32,104101,1,0,1:0:0:0:
140,32,104175,6,0,P|153:72|164:110,1,69.3750026464463,0|0,1:0|1:0,0:0:0:0:
307,102,104322,2,2,P|269:112|232:140,1,69.3750026464463,2|0,1:0|0:0,0:1:0:0:
103,175,104470,2,0,P|149:183|204:208,1,69.3750026464463,0|0,1:0|0:0,0:0:0:0:
249,232,104618,5,0,1:1:0:0:
110,266,104766,1,2,0:0:0:0:
262,251,104913,5,2,0:0:0:0:
109,288,105061,1,2,1:0:0:0:
246,336,105209,6,0,P|309:325|338:212,1,173.4375,8|0,1:0|0:0,0:0:0:0:
280,161,105505,2,2,P|318:142|374:151,1,57.8125,2|0,1:0|0:0,0:1:0:0:
416,174,105652,2,0,P|434:204|441:242,1,57.8125,0|0,1:0|0:0,0:0:0:0:
262,251,105800,6,0,L|112:232,1,115.625,0|0,1:0|1:0,0:0:0:0:
56,261,106022,1,2,1:1:0:0:
56,261,106096,2,0,L|38:175,1,57.8125,0|0,1:0|0:0,0:0:0:0:
147,237,106244,2,0,L|134:174,1,57.8125,2|0,1:1|0:0,0:0:0:0:
135,87,106391,2,0,B|198:94|218:140|218:140|271:149|310:116,1,173.4375,8|0,1:0|0:0,0:0:0:0:
312,120,106687,1,0,1:1:0:0:
254,42,106835,1,0,1:0:0:0:
135,180,106982,6,2,P|64:193|10:200,1,115.625,2|0,1:1|0:0,0:1:0:0:
222,310,107278,2,0,P|231:269|240:251,1,57.8125,2|0,1:2|0:0,0:0:0:0:
307,304,107426,1,2,1:0:0:0:
139,364,107574,2,0,B|128:320|118:296|118:296|137:257|137:257|119:180,1,173.4375,8|0,1:0|0:0,0:0:0:0:
47,153,107869,2,0,L|6:140,2,38.5416666666667,2|0|0,1:1|0:0|0:0,0:1:0:0:
37,195,108017,2,0,L|-1:205,2,38.5416666666667,2|0|0,1:0|0:0|0:0,0:0:0:0:
46,238,108165,6,2,B|102:228|102:228|190:258,1,115.625,0|0,1:1|0:0,0:1:0:0:
189,257,108386,2,0,L|178:124,1,115.625,0|0,1:0|0:0,0:0:0:0:
169,60,108608,1,0,1:0:0:0:
325,181,108756,2,0,L|393:172,3,57.8125,8|0|0|0,1:0|3:0|3:0|3:0,0:0:0:0:
380,91,109051,2,0,P|419:99|452:122,1,57.8125,0|0,1:0|0:0,0:0:0:0:
322,265,109199,2,0,P|283:257|250:234,1,57.8125,0|0,1:0|0:0,0:0:0:0:
154,110,109347,6,2,B|180:191|180:191|161:236|162:296,1,173.4375,2|0,1:1|0:0,0:1:0:0:
78,211,109643,2,0,P|69:172|65:128,1,57.8125,0|0,1:0|0:0,0:0:0:0:
259,108,109790,2,0,P|262:151|266:190,1,57.8125,0|0,1:0|1:0,0:0:0:0:
237,329,109938,2,0,B|121:301|121:301|62:346,1,173.4375,8|0,1:0|0:0,0:0:0:0:
20,260,110234,1,2,1:0:0:0:
63,243,110308,1,2,1:0:0:0:
108,246,110381,1,2,1:0:0:0:
146,271,110455,1,2,1:0:0:0:
168,311,110529,6,2,B|216:328|247:335|247:335|299:358,1,115.625,0|0,1:1|0:1,0:1:0:0:
306,337,110751,2,0,L|449:317,1,115.625,0|0,1:0|0:0,0:0:0:0:
453,351,110973,1,0,1:0:0:0:
500,225,111120,2,0,L|435:239,3,57.8125,8|0|0|0,1:0|3:0|3:0|3:0,0:0:0:0:
348,171,111416,2,0,L|338:101,1,57.8125,2|0,1:0|0:0,0:0:0:0:
507,88,111564,2,0,L|513:24,1,57.8125,2|0,1:0|0:0,0:0:0:0:
423,53,111712,6,0,B|418:109|418:109|438:143|449:164|449:164|437:199|434:236,1,173.4375,0|0,1:1|0:0,0:0:0:0:
432,301,112007,2,0,P|390:289|356:251,1,57.8125,2|0,1:0|0:0,0:0:0:0:
176,212,112155,2,0,P|218:201|266:217,1,57.8125,2|0,1:0|0:0,0:0:0:0:
328,175,112303,2,0,L|323:248,3,57.8125,8|0|0|0,1:0|3:0|3:0|3:0,0:0:0:0:
258,346,112598,2,0,L|247:280,1,57.8125,2|0,1:0|0:0,0:0:0:0:
183,154,112746,2,0,L|171:247,1,57.8125,0|0,1:0|0:0,0:0:0:0:
115,371,112894,6,0,L|93:246,1,115.625,0|0,1:0|0:1,0:0:0:0:
86,227,113115,2,0,P|147:248|206:255,1,115.625,0|0,1:0|0:0,0:0:0:0:
224,259,113337,1,0,1:0:0:0:
315,187,113485,2,2,L|328:110,3,57.8125,8|0|0|0,1:1|3:0|3:0|3:0,0:1:0:0:
305,41,113780,2,0,P|277:51|241:87,1,57.8125,0|0,1:0|0:0,0:0:0:0:
333,275,113928,2,0,P|361:265|397:229,1,57.8125,0|0,1:0|0:1,0:0:0:0:
417,162,114076,5,0,1:0:0:0:
216,165,114224,1,0,1:0:0:0:
383,83,114372,2,0,P|393:51|385:11,1,57.8125,2|0,1:0|0:0,0:0:0:0:
257,239,114519,2,0,P|247:271|255:311,1,57.8125,2|0,1:0|0:0,0:0:0:0:
289,155,114667,2,0,B|233:139|187:182|187:182|137:183|98:117,1,173.4375,10|0,1:0|0:0,0:0:0:0:
168,37,114963,2,0,L|179:113,1,57.8125,0|0,1:0|0:0,0:0:0:0:
370,120,115111,2,0,L|383:214,1,57.8125,0|0,1:0|0:0,0:0:0:0:
272,352,115258,6,0,B|251:294|251:294|272:224,1,115.625,0|0,1:0|1:0,0:0:0:0:
273,218,115480,1,0,1:0:0:0:
273,218,115554,2,2,L|189:233,1,57.8125,2|0,1:1|0:0,0:1:0:0:
134,251,115702,2,0,L|143:164,1,57.8125,0|0,1:1|0:0,0:0:0:0:
70,103,115849,2,0,B|115:92|115:92|151:109|151:109|189:102|189:102|244:126,1,173.4375,10|0,1:0|0:0,0:0:0:0:
262,134,116145,1,2,0:0:0:0:
56,182,116293,1,0,1:0:0:0:
297,213,116441,6,2,B|235:231|241:201|181:217,1,115.625,0|0,1:1|1:0,0:1:0:0:
100,263,116662,1,0,1:0:0:0:
85,276,116736,2,0,P|111:293|168:298,1,57.8125,0|0,1:0|0:0,0:0:0:0:
136,128,116884,2,0,P|103:137|70:166,1,57.8125,0|0,1:0|1:0,0:0:0:0:
260,268,117032,2,0,B|273:212|273:212|255:155|255:155|271:114|280:73,1,173.4375,8|0,1:0|0:0,0:0:0:0:
288,76,117327,1,0,1:1:0:0:
358,272,117475,1,0,1:0:0:0:
487,139,117623,6,0,P|427:134|379:163,1,115.625,0|0,1:0|0:0,0:0:0:0:
363,181,117845,2,0,L|375:49,1,115.625,0|0,1:0|0:0,0:0:0:0:
376,40,118066,1,0,1:0:0:0:
455,230,118214,2,2,L|472:306,3,57.8125,8|0|0|0,1:1|3:0|3:0|3:0,0:1:0:0:
482,378,118510,2,0,P|432:369|411:354,1,57.8125,0|0,1:0|0:0,0:0:0:0:
358,272,118657,2,0,P|321:279|289:295,1,57.8125,0|0,1:0|0:1,0:0:0:0:
230,369,118805,6,0,B|200:258|102:307|63:249|65:195|91:164|142:144|203:162|219:210|192:279|143:286|143:286|95:313|86:374|86:374|73:327|33:288,1,647.5,4|0,0:1|0:0,0:0:0:0:
0,198,121170,6,0,B|151:137|226:260|226:260|175:196|138:97|247:27|247:27|208:72|215:134,1,647.5,2|0,0:0|0:0,0:0:0:0:
314,107,123534,6,0,B|424:92|402:164|505:186|549:144|551:71|527:18|467:-13|401:21|381:90|398:167|456:234|456:234|424:275|429:339,1,647.5,2|0,0:0|0:0,0:0:0:0:
326,362,125899,6,0,B|257:317|178:355|178:355|121:206|39:193|-13:310|29:372|135:376|178:239|178:239|206:262|249:264,1,647.5,2|0,0:0|0:0,0:0:0:0:
315,267,128263,6,0,P|306:193|299:121,1,138.750005292893,0|0,1:0|1:0,0:0:0:0:
372,75,128707,1,0,0:0:0:0:
372,75,128854,2,0,P|411:85|452:91,1,69.3750026464463,0|0,1:0|0:0,0:0:0:0:
425,270,129150,1,0,1:0:0:0:
500,222,129298,6,0,P|462:187|368:208,1,138.750005292893,0|2,1:0|0:0,0:0:0:0:
258,115,129741,2,0,P|215:113|176:104,1,69.3750026464463,0|2,1:0|0:0,0:0:0:0:
194,294,130037,2,0,P|236:286|271:284,1,69.3750026464463,0|0,1:0|0:0,0:0:0:0:
296,200,130332,2,0,L|133:204,1,138.750005292893,0|0,1:0|1:0,0:0:0:0:
28,237,130923,5,0,1:0:0:0:
178,319,131071,1,2,0:0:0:0:
19,372,131219,1,0,1:0:0:0:
102,293,131367,2,0,P|111:261|114:215,1,69.3750026464463,2|0,0:0|1:0,0:0:0:0:
42,9,131662,6,0,P|51:75|71:169,1,138.750005292893,0|2,1:0|0:0,0:0:0:0:
114,225,132106,1,0,1:0:0:0:
26,266,132253,1,2,0:0:0:0:
157,138,132401,2,0,P|200:133|237:127,1,69.3750026464463,0|2,1:0|0:0,0:0:0:0:
304,173,132697,2,0,P|317:128|328:85,1,69.3750026464463,0|2,1:0|0:0,0:0:0:0:
402,161,132992,6,0,P|416:214|426:261,1,83.2499974594117,0|0,1:0|1:0,0:0:0:0:
422,241,133214,1,0,1:0:0:0:
422,241,133288,1,0,1:0:0:0:
338,296,133436,1,0,1:0:0:0:
454,331,133583,1,0,1:0:0:0:
325,203,133731,1,2,0:0:0:0:
280,363,133879,1,0,1:0:0:0:
454,331,134027,5,0,1:0:0:0:
304,285,134174,1,0,1:0:0:0:
418,151,134322,1,0,1:0:0:0:
418,151,134396,1,0,1:0:0:0:
418,151,134470,1,0,1:0:0:0:
382,347,134618,1,2,0:0:0:0:
224,256,134766,6,0,P|214:186|210:142,1,83.2499974594117,0|0,1:0|1:0,0:0:0:0:
395,265,135061,2,0,P|389:317|377:359,1,83.2499974594117,0|0,1:0|1:0,0:0:0:0:
196,349,135357,5,0,1:0:0:0:
174,346,135430,1,2,0:0:0:0:
147,347,135505,1,2,0:0:0:0:
128,353,135578,1,2,0:0:0:0:
107,363,135652,1,2,0:0:0:0:
86,372,135726,1,2,0:0:0:0:
63,376,135800,1,2,0:0:0:0:
40,376,135874,1,2,0:0:0:0:
18,369,135948,6,0,L|9:302,3,46.25,2|2|2|2,3:0|3:0|3:0|3:0,0:0:0:0:
81,229,136243,2,0,L|89:297,3,46.25,2|2|2|2,3:0|3:0|3:0|3:0,0:0:0:0:
163,327,136539,6,0,B|251:316|251:316|292:345,1,138.750005292893,2|0,0:0|0:0,0:0:0:0:
368,379,136982,2,0,P|420:347|388:257,1,138.750005292893,2|2,0:0|0:0,0:0:0:0:
363,139,137426,1,8,3:0:0:0:
472,210,137573,1,4,3:0:0:0:
303,207,137721,6,0,B|246:223|246:223|213:258|213:258|163:252|104:253,1,185,4|8,1:0|1:0,0:0:0:0:
187,69,138165,1,2,0:0:0:0:
187,69,138239,1,2,0:0:0:0:
187,69,138312,2,0,P|179:134|171:178,1,92.5,0|2,1:0|3:0,0:0:0:0:
86,106,138608,1,8,1:0:0:0:
285,52,138756,1,0,3:0:0:0:
285,52,138830,1,0,3:0:0:0:
285,52,138904,5,0,1:0:0:0:
277,216,139051,1,2,0:0:0:0:
98,189,139199,1,8,1:0:0:0:
233,131,139347,1,2,0:0:0:0:
233,131,139421,1,0,3:0:0:0:
233,131,139495,1,4,3:0:0:0:
133,276,139643,1,0,3:0:0:0:
34,128,139790,2,0,P|89:102|129:109,1,92.5,8|4,1:0|3:0,0:0:0:0:
281,58,140086,6,0,B|260:141|260:141|280:208|286:262,1,185,0|8,1:0|1:0,0:0:0:0:
359,142,140529,1,0,3:0:0:0:
359,142,140603,1,0,3:0:0:0:
359,142,140677,2,0,P|417:155|473:160,1,92.5,0|0,1:0|3:0,0:0:0:0:
186,214,140973,1,8,1:0:0:0:
347,300,141120,1,4,3:0:0:0:
347,300,141194,1,4,3:0:0:0:
347,300,141268,6,0,B|308:323|271:320|271:320|234:351|234:351|192:347|155:357,1,185,4|8,3:0|1:0,0:0:0:0:
11,304,141712,2,0,P|17:244|25:191,1,92.5,2|4,3:0|3:0,0:0:0:0:
135,141,142007,1,0,3:0:0:0:
209,268,142155,1,8,1:0:0:0:
104,236,142303,1,4,3:0:0:0:
242,170,142450,6,0,P|294:184|361:197,1,92.5,0|4,1:0|3:0,0:0:0:0:
468,288,142746,2,0,P|416:305|376:314,1,92.5,8|0,1:0|0:0,0:0:0:0:
283,336,143042,1,4,3:0:0:0:
424,206,143189,1,8,3:0:0:0:
270,347,143337,1,8,1:0:0:0:
440,195,143485,6,0,P|463:141|366:64,1,185,4|0,3:0|0:0,0:0:0:0:
247,200,143928,1,8,1:0:0:0:
354,242,144076,2,0,P|346:185|342:132,1,92.5,2|4,0:0|3:0,0:0:0:0:
197,41,144372,1,8,3:0:0:0:
171,222,144519,1,8,1:0:0:0:
121,97,144667,1,0,3:0:0:0:
121,97,144741,1,0,3:0:0:0:
121,97,144815,5,4,3:0:0:0:
280,23,144963,1,4,3:0:0:0:
244,178,145110,2,0,B|183:169|183:169|137:190|137:190|56:180,1,185,8|0,1:0|1:0,0:0:0:0:
211,83,145554,1,2,3:0:0:0:
198,262,145702,1,8,1:0:0:0:
318,124,145849,6,0,B|379:134|422:162|422:162|466:152|513:127,1,185,4|2,3:0|3:0,0:0:0:0:
414,342,146293,1,8,1:0:0:0:
347,225,146441,1,0,3:0:0:0:
482,284,146588,5,2,3:0:0:0:
312,371,146736,1,2,3:0:0:0:
482,284,146884,5,8,1:0:0:0:
269,275,147032,1,0,1:0:0:0:
269,275,147106,1,0,1:0:0:0:
269,275,147179,6,0,B|255:210|255:210|275:175|275:175|259:94,1,185,0|8,1:0|1:0,0:0:0:0:
85,124,147623,1,2,0:0:0:0:
85,124,147697,1,2,0:0:0:0:
85,124,147771,2,0,P|162:145|202:149,1,92.5,4|0,3:0|3:0,0:0:0:0:
339,31,148066,1,8,1:0:0:0:
381,203,148214,1,2,3:0:0:0:
473,120,148362,6,0,B|424:130|380:111|380:111|329:116|290:165,1,185,4|8,3:0|1:0,0:0:0:0:
192,141,148805,1,0,3:0:0:0:
192,141,148879,1,0,3:0:0:0:
192,141,148953,1,0,0:0:0:0:
267,224,149101,1,4,3:0:0:0:
80,283,149248,1,8,1:0:0:0:
285,233,149396,1,4,3:0:0:0:
107,192,149544,6,0,P|101:148|98:99,1,92.5,0|0,1:0|3:0,0:0:0:0:
282,46,149839,2,0,P|279:94|272:165,1,92.5,8|4,1:0|3:0,0:0:0:0:
92,370,150135,6,0,P|86:326|83:277,1,92.5,0|2,3:0|3:0,0:0:0:0:
313,226,150430,2,0,P|311:276|303:345,1,92.5,8|0,1:0|3:0,0:0:0:0:
43,191,150726,6,0,B|141:174|128:228|228:212,1,185,0|8,1:0|1:0,0:0:0:0:
411,241,151170,1,4,3:0:0:0:
411,241,151244,1,4,3:0:0:0:
411,241,151317,2,0,P|406:179|392:117,1,92.5,4|0,3:0|3:0,0:0:0:0:
184,121,151613,1,8,1:0:0:0:
272,340,151761,1,2,0:0:0:0:
283,319,151835,1,2,0:0:0:0:
294,298,151909,6,0,P|312:236|318:196,1,92.5,0|2,1:0|0:0,0:0:0:0:
104,47,152204,1,8,1:0:0:0:
208,31,152352,1,2,0:0:0:0:
118,130,152500,5,4,3:0:0:0:
208,119,152647,1,2,0:0:0:0:
105,216,152795,5,8,1:0:0:0:
243,199,152943,2,0,B|302:193|302:193|363:218|363:218|398:212|436:211,1,185,2|2,0:0|3:0,0:0:0:0:
498,362,153386,1,8,1:0:0:0:
394,378,153534,1,4,3:0:0:0:
484,279,153682,5,0,1:0:0:0:
394,290,153829,1,2,3:0:0:0:
497,193,153977,5,8,1:0:0:0:
353,212,154125,2,0,B|308:178|247:198|247:198|212:238|167:265|167:265|224:238|265:254,1,277.5,2|8,3:0|1:0,0:0:0:0:
308,303,154716,5,2,0:0:0:0:
310,326,154790,1,2,0:0:0:0:
313,349,154864,1,2,0:0:0:0:
220,337,155012,1,4,3:0:0:0:
403,307,155160,1,8,1:0:0:0:
204,341,155307,5,8,3:0:0:0:
214,254,155455,1,0,1:0:0:0:
225,167,155603,1,2,0:0:0:0:
340,240,155751,5,0,1:0:0:0:
312,102,155899,1,2,0:0:0:0:
343,257,156046,5,0,1:0:0:0:
309,87,156194,1,2,0:0:0:0:
135,156,156490,6,0,B|124:211|124:211|136:259|143:269|143:269|133:316|124:369,1,196.100000299225,4|0,1:0|1:0,0:0:0:0:
49,274,156933,1,8,1:0:0:0:
218,204,157081,1,0,1:0:0:0:
261,370,157229,1,0,1:0:0:0:
141,250,157377,1,4,3:0:0:0:
141,250,157450,1,4,3:0:0:0:
141,250,157524,1,8,1:0:0:0:
298,158,157672,6,0,B|367:171|367:171|399:210|399:210|490:225,1,196.100000299225,2|0,3:0|0:0,0:0:0:0:
312,31,158115,1,8,1:0:0:0:
453,133,158263,1,2,0:0:0:0:
312,253,158411,6,0,P|243:264|201:272,1,98.0500001496124,4|4,3:0|3:0,0:0:0:0:
52,92,158707,1,8,1:0:0:0:
32,248,158854,5,0,1:0:0:0:
54,72,159002,1,4,1:0:0:0:
27,267,159150,1,2,3:0:0:0:
240,189,159298,5,8,1:0:0:0:
82,162,159445,1,2,3:0:0:0:
218,110,159593,1,4,3:0:0:0:
108,236,159741,2,0,P|121:313|132:362,1,98.0500001496124,4|8,3:0|1:0,0:0:0:0:
394,217,160037,6,0,B|328:232|328:232|301:267|301:267|259:272|203:298,1,196.100000299225,0|4,1:0|3:0,0:0:0:0:
240,189,160480,1,8,1:0:0:0:
379,308,160628,2,0,L|368:379,2,49.0250000748062,2|2|2,3:0|3:0|3:0,0:0:0:0:
240,189,160923,1,4,3:0:0:0:
423,132,161071,1,8,1:0:0:0:
220,200,161219,6,0,B|205:131|205:131|229:80|229:80|217:45|214:7,1,196.100000299225,4|4,1:0|3:0,0:0:0:0:
125,66,161662,1,8,1:0:0:0:
301,146,161810,1,4,3:0:0:0:
127,189,161958,1,8,3:0:0:0:
322,152,162106,2,0,P|378:168|426:178,1,98.0500001496124,2|8,3:0|1:0,0:0:0:0:
171,271,162401,6,0,P|108:279|42:217,1,147.075000224419,0|0,1:0|0:0,0:0:0:0:
24,216,162697,2,0,P|12:274|0:329,1,98.0500001496124,4|8,3:0|1:0,0:0:0:0:
127,189,162992,2,0,L|122:130,2,49.0250000748062,2|0|0,3:0|3:0|1:0,0:0:0:0:
221,324,163288,2,0,L|217:398,2,49.0250000748062,2|2|8,3:0|3:0|1:0,0:0:0:0:
264,246,163583,6,0,B|225:247|198:239|198:239|151:272|151:272|120:264|80:264,1,196.100000299225,4|0,1:0|1:0,0:0:0:0:
19,136,164027,1,8,1:0:0:0:
199,90,164175,1,4,3:0:0:0:
33,24,164322,1,0,1:0:0:0:
198,180,164470,5,0,1:0:0:0:
218,9,164618,1,8,1:0:0:0:
193,203,164766,1,4,3:0:0:0:
94,101,164913,5,0,1:0:0:0:
288,185,165061,2,0,P|352:179|400:173,1,98.0500001496124,0|0,1:0|1:0,0:0:0:0:
476,156,165357,2,0,P|459:110|419:83,1,98.0500001496124,4|0,1:3|1:0,0:0:0:0:
193,203,165652,2,0,P|209:248|249:275,1,98.0500001496124,4|0,1:3|1:0,0:0:0:0:
503,324,165948,6,0,B|434:341|434:341|393:318|393:318|349:336|309:340,1,196.100000299225,4|4,1:0|3:0,0:0:0:0:
225,358,166391,1,8,1:0:0:0:
327,248,166539,1,8,3:0:0:0:
206,169,166687,1,0,1:0:0:0:
318,338,166835,1,2,3:0:0:0:
318,338,166908,1,2,3:0:0:0:
318,338,166982,1,8,1:0:0:0:
103,333,167130,6,0,B|123:242|123:242|102:197|105:117,1,196.100000299225,4|2,3:0|0:0,0:0:0:0:
302,129,167573,2,0,P|293:189|287:242,1,98.0500001496124,8|2,1:0|0:0,0:0:0:0:
389,176,167869,5,0,1:0:0:0:
231,75,168017,1,2,0:0:0:0:
407,27,168164,1,8,1:0:0:0:
209,78,168312,5,2,3:0:0:0:
427,18,168460,2,0,P|447:86|444:152,1,98.0500001496124,4|0,1:0|0:0,0:0:0:0:
451,242,168756,1,8,1:0:0:0:
430,222,168829,1,0,0:0:0:0:
408,204,168903,1,2,0:0:0:0:
383,187,168977,1,2,0:0:0:0:
358,172,169051,1,2,1:2:0:0:
331,160,169125,1,2,0:0:0:0:
304,149,169199,1,2,0:0:0:0:
276,141,169273,1,2,0:0:0:0:
251,139,169347,2,0,L|192:149,3,49.0250000748062,8|2|2|2,1:0|0:0|0:0|0:0,0:0:0:0:
106,171,169643,1,0,1:0:0:0:
106,171,169716,1,2,3:0:0:0:
106,171,169790,6,0,B|90:234|90:234|112:287|112:287|96:336|94:371,1,196.100000299225,2|2,3:0|3:0,0:0:0:0:
186,219,170234,1,4,3:0:0:0:
16,293,170381,1,8,3:0:0:0:
203,211,170529,1,8,1:0:0:0:
63,87,170677,6,0,B|123:76|170:99|170:99|200:68|270:61,1,196.100000299225,4|2,1:0|3:0,0:0:0:0:
387,141,171120,1,8,1:0:0:0:
341,30,171268,1,2,3:0:0:0:
306,211,171416,1,4,3:0:0:0:
471,173,171564,2,0,P|462:235|452:295,1,98.0500001496124,8|8,3:0|1:0,0:0:0:0:
246,298,171859,6,0,L|214:132,1,147.075000224419,2|0,3:0|0:0,0:0:0:0:
210,131,172155,2,0,P|277:143|324:150,1,98.0500001496124,2|8,3:0|1:0,0:0:0:0:
138,194,172450,2,0,L|84:208,2,49.0250000748062,4|0|8,3:0|3:0|3:0,0:0:0:0:
319,233,172746,2,0,L|370:239,2,49.0250000748062,0|0|8,1:0|3:0|1:0,0:0:0:0:
122,307,173042,1,4,3:0:0:0:
122,307,173115,1,4,3:0:0:0:
122,307,173189,6,0,P|198:287|280:364,2,196.100000299225,4|8|0,1:0|1:0|1:0,0:0:0:0:
70,98,173928,1,4,3:0:0:0:
176,208,174076,1,8,1:0:0:0:
194,10,174224,1,2,3:0:0:0:
88,195,174372,5,4,1:0:0:0:
283,157,174519,1,6,3:0:0:0:
68,198,174667,1,8,1:0:0:0:
235,89,174815,1,4,3:0:0:0:
309,285,174963,5,8,3:0:0:0:
68,198,175110,1,6,3:0:0:0:
283,157,175258,1,8,1:0:0:0:
85,312,175406,1,8,3:0:0:0:
297,382,175554,6,0,P|305:327|309:270,1,98.0500001496124,4|0,1:0|0:0,0:0:0:0:
141,129,175849,2,0,P|148:198|156:247,1,98.0500001496124,0|0,1:0|0:0,0:0:0:0:
169,328,176145,5,0,1:0:0:0:
44,179,176293,1,0,0:0:0:0:
161,308,176440,1,0,1:0:0:0:
232,115,176588,1,0,3:0:0:0:
232,115,176662,1,0,3:0:0:0:
232,115,176736,5,0,1:0:0:0:
30,183,176884,1,0,0:0:0:0:
256,228,177032,1,0,1:0:0:0:
15,188,177179,1,2,0:0:0:0:
137,75,177327,5,0,1:0:0:0:
93,271,177475,1,2,0:0:0:0:
277,228,177623,2,0,L|289:107,1,98.0500001496124,0|2,1:0|0:0,0:0:0:0:
429,13,177918,6,0,B|445:76|445:76|425:118|425:118|443:181|445:228,1,196.100000299225,0|0,1:0|1:0,0:0:0:0:
343,64,178362,1,2,3:0:0:0:
269,234,178510,1,0,1:0:0:0:
239,235,178583,1,2,1:2:0:0:
210,229,178657,1,2,1:2:0:0:
184,214,178731,1,2,1:2:0:0:
165,191,178805,1,2,1:2:0:0:
154,163,178879,1,2,1:2:0:0:
152,128,178953,6,0,B|148:61|165:5|165:5|199:71,1,173.4375,4|0,1:0|0:0,0:0:0:0:
230,115,179248,5,0,1:0:0:0:
74,98,179396,1,0,1:0:0:0:
206,199,179544,2,0,P|267:193|358:181,1,138.750005292893,0|0,1:0|1:0,0:0:0:0:
127,169,179987,2,0,P|122:204|130:242,1,69.3750026464463,4|8,3:0|3:0,0:0:0:0:
159,310,180283,1,12,3:0:0:0:
467,305,189741,6,0,P|417:301|311:292,1,138.750005292893,2|2,0:0|0:0,0:0:0:0:
305,221,190184,6,0,P|294:297|285:374,2,138.750005292893,2|0|2,0:0|0:0|0:0,0:0:0:0:
270,51,191071,5,0,0:0:0:0:
340,126,191219,1,2,0:0:0:0:
236,144,191367,2,0,P|179:138|142:133,1,69.3750026464463,2|0,0:0|0:0,0:0:0:0:
64,251,191662,5,2,0:0:0:0:
75,163,191810,1,2,0:0:0:0:
88,77,191957,1,2,0:0:0:0:
26,16,192106,6,0,P|86:37|178:51,1,138.750005292893,2|2,0:0|0:0,0:0:0:0:
217,141,192549,2,0,P|167:131|103:190,2,138.750005292893,2|0|2,0:0|0:0|0:0,0:0:0:0:
389,99,193435,5,0,0:0:0:0:
314,170,193583,1,2,0:0:0:0:
291,76,193731,2,0,P|280:33|272:-5,1,69.3750026464463,2|0,0:0|0:0,0:0:0:0:
430,22,194027,5,2,0:0:0:0:
413,106,194174,1,2,0:0:0:0:
399,189,194322,1,2,0:0:0:0:
460,249,194470,6,0,P|406:220|317:240,1,138.750005292893,2|2,0:0|0:0,0:0:0:0:
266,287,194913,2,0,P|213:296|111:312,2,138.750005292893,2|2|2,0:0|0:0|0:0,0:0:0:0:
409,161,195800,5,0,0:0:0:0:
298,183,195948,1,2,0:0:0:0:
376,268,196096,2,0,P|386:312|392:349,1,69.3750026464463,2|0,0:0|0:0,0:0:0:0:
241,348,196391,5,2,0:0:0:0:
158,332,196539,1,2,0:0:0:0:
75,316,196687,1,2,0:0:0:0:
26,380,196835,6,0,P|36:296|47:213,1,138.750005292893,2|2,0:0|0:0,0:0:0:0:
101,175,197278,2,0,B|152:186|152:186|179:208|179:208|251:221,2,138.750005292893,2|2|2,0:0|0:0|0:0,0:0:0:0:
309,98,198165,5,0,0:0:0:0:
219,126,198313,1,2,0:0:0:0:
309,98,198460,2,0,P|303:161|297:182,1,69.3750026464463,2|0,0:0|0:0,0:0:0:0:
469,309,198756,5,2,0:0:0:0:
376,223,198904,1,2,0:0:0:0:
494,183,199051,1,2,0:0:0:0:
375,308,199199,6,0,B|319:321|319:321|286:354|286:354|234:356|187:372,1,185,4|8,1:0|1:0,0:0:0:0:
83,319,199642,2,0,P|94:224|110:130,1,185,0|0,1:0|1:0,0:0:0:0:
236,172,200086,2,0,P|247:252|255:301,1,92.5,8|2,1:0|3:0,0:0:0:0:
120,232,200381,5,4,3:0:0:0:
293,98,200529,1,0,3:0:0:0:
293,98,200603,1,0,3:0:0:0:
293,98,200677,2,0,P|283:40|277:4,1,92.5,8|2,1:0|0:0,0:0:0:0:
326,180,200972,5,4,3:0:0:0:
196,92,201120,1,2,0:0:0:0:
375,37,201268,1,8,1:0:0:0:
218,177,201416,1,0,1:0:0:0:
378,276,201564,6,0,B|324:278|277:263|277:263|186:318,1,185,0|8,1:0|1:0,0:0:0:0:
50,143,202007,2,0,P|105:156|158:166,1,92.5,4|8,3:0|3:0,0:0:0:0:
225,109,202303,1,2,0:0:0:0:
122,251,202450,1,8,1:0:0:0:
103,62,202598,1,4,3:0:0:0:
125,271,202746,5,0,1:0:0:0:
0,209,202894,1,2,3:0:0:0:
217,217,203042,2,0,P|276:230|324:242,1,92.5,8|4,1:0|3:0,0:0:0:0:
505,243,203337,5,4,3:0:0:0:
366,309,203485,1,2,3:0:0:0:
425,177,203633,1,8,1:0:0:0:
452,369,203780,1,0,1:0:0:0:
501,130,203928,6,0,B|432:135|432:135|396:158|396:158|341:142|283:142,1,185,0|8,1:0|1:0,0:0:0:0:
80,202,204372,2,0,B|158:182|158:182|196:208|271:221,1,185,2|4,3:0|3:0,0:0:0:0:
220,22,204815,2,0,P|228:90|233:137,1,92.5,8|2,1:0|3:0,0:0:0:0:
351,259,205111,5,4,3:0:0:0:
133,320,205258,1,2,3:0:0:0:
139,297,205332,1,2,3:0:0:0:
145,274,205406,1,8,1:0:0:0:
290,185,205553,2,0,P|342:167|446:246,1,185,2|4,3:0|3:0,0:0:0:0:
212,364,205997,1,8,1:0:0:0:
352,251,206145,1,4,3:0:0:0:
212,364,206292,6,0,P|196:277|182:163,1,185,4|8,3:0|1:0,0:0:0:0:
304,70,206736,1,2,0:0:0:0:
154,261,206884,2,0,P|91:250|47:239,1,92.5,0|4,1:0|3:0,0:0:0:0:
276,159,207179,2,0,P|339:170|383:181,1,92.5,8|4,1:0|3:0,0:0:0:0:
444,235,207475,5,8,3:0:0:0:
394,59,207622,1,0,3:0:0:0:
394,59,207696,1,0,3:0:0:0:
394,59,207770,1,8,1:0:0:0:
193,188,207918,1,2,0:0:0:0:
366,176,208066,5,4,3:0:0:0:
241,271,208214,1,8,3:0:0:0:
272,64,208361,5,8,1:0:0:0:
236,288,208509,1,4,3:0:0:0:
142,130,208657,6,0,B|207:142|207:142|241:174|241:174|295:158|345:157,1,185,0|8,1:0|1:0,0:0:0:0:
497,131,209101,2,0,P|451:60|354:84,1,185,4|4,3:0|3:0,0:0:0:0:
272,77,209544,1,8,1:0:0:0:
416,137,209691,1,2,3:0:0:0:
324,274,209840,6,0,L|332:168,1,92.5,2|0,3:0|3:0,0:0:0:0:
330,181,210061,1,0,3:0:0:0:
330,181,210135,1,8,1:0:0:0:
161,102,210283,2,0,B|147:161|147:161|167:211|167:211|150:255|148:299,1,185,4|4,3:0|3:0,0:0:0:0:
242,149,210726,1,8,1:0:0:0:
72,100,210874,1,4,3:0:0:0:
260,164,211022,6,0,B|322:156|322:156|362:178|362:178|418:167|453:168,1,185,0|8,1:0|1:0,0:0:0:0:
493,83,211465,1,2,3:0:0:0:
352,118,211613,1,4,3:0:0:0:
512,75,211761,1,2,0:0:0:0:
330,124,211909,2,0,P|322:78|316:32,1,92.5,8|4,1:0|3:0,0:0:0:0:
129,162,212204,5,8,3:0:0:0:
167,28,212352,1,2,3:0:0:0:
202,222,212500,1,8,1:0:0:0:
42,179,212647,1,2,3:0:0:0:
42,179,212721,1,2,3:0:0:0:
42,179,212795,5,4,3:0:0:0:
220,125,212943,1,8,3:0:0:0:
16,181,213091,1,8,1:0:0:0:
178,297,213239,1,2,0:0:0:0:
139,110,213386,6,0,P|175:57|292:90,1,185,4|8,3:0|1:0,0:0:0:0:
456,196,213830,2,0,P|383:206|347:211,1,92.5,4|0,3:0|0:0,0:0:0:0:
121,196,214125,1,4,3:0:0:0:
261,285,214273,1,8,1:0:0:0:
102,333,214421,1,2,3:0:0:0:
208,216,214568,6,0,P|215:157|221:109,1,92.5,0|0,1:0|3:0,0:0:0:0:
219,125,214790,1,0,3:0:0:0:
219,125,214864,1,8,1:0:0:0:
119,249,215012,2,0,P|154:290|284:270,1,185,2|4,3:0|3:0,0:0:0:0:
145,78,215455,1,8,1:0:0:0:
304,194,215603,1,4,3:0:0:0:
68,152,215751,6,0,B|122:160|167:173|167:173|206:143|245:126,1,185,0|8,1:0|1:0,0:0:0:0:
346,72,216194,1,2,0:0:0:0:
239,40,216342,5,4,3:0:0:0:
393,145,216490,1,2,0:0:0:0:
255,228,216638,1,8,1:0:0:0:
234,18,216785,1,4,3:0:0:0:
257,251,216933,5,4,3:0:0:0:
154,65,217081,1,2,3:0:0:0:
270,122,217229,1,8,1:0:0:0:
72,166,217377,1,2,3:0:0:0:
293,119,217524,5,4,3:0:0:0:
53,169,217672,1,8,3:0:0:0:
197,265,217820,1,8,1:0:0:0:
148,44,217968,1,4,3:0:0:0:
202,287,218115,1,4,0:1:0:0:
478,169,220480,5,2,0:0:0:0:
369,152,220628,1,2,0:0:0:0:
297,236,220776,1,2,0:0:0:0:
189,214,220923,1,2,0:0:0:0:
212,157,225209,5,2,0:0:0:0:
299,222,225356,1,2,0:0:0:0:
270,111,225504,5,2,0:0:0:0:
244,267,225652,1,2,0:0:0:0:
256,192,225800,12,0,227278,0:0:0:0:
16,83,227574,6,0,P|57:127|158:110,1,138.750005292893,0|0,1:0|1:0,0:0:0:0:
220,174,228017,1,0,3:0:0:0:
220,174,228165,2,0,P|227:120|231:83,1,69.3750026464463,0|0,1:0|0:0,0:0:0:0:
161,36,228461,1,0,1:0:0:0:
306,65,228608,6,0,B|392:55|392:55|444:82,1,138.750005292893,0|0,1:0|0:0,0:0:0:0:
377,145,229051,2,0,L|291:153,1,69.3750026464463,0|2,1:0|3:0,0:0:0:0:
427,290,229347,2,0,P|438:238|430:202,1,69.3750026464463,0|0,1:0|0:0,0:0:0:0:
271,83,229643,2,0,L|262:227,1,138.750005292893,0|0,1:0|1:0,0:0:0:0:
61,185,230234,5,0,1:0:0:0:
154,171,230381,1,0,0:0:0:0:
59,110,230529,1,0,1:0:0:0:
146,239,230677,2,0,P|153:198|155:150,1,69.3750026464463,0|0,0:0|1:0,0:0:0:0:
132,81,230973,6,0,B|208:70|189:113|266:102,1,138.750005292893,2|2,0:0|0:0,0:0:0:0:
373,177,231416,1,0,1:0:0:0:
329,46,231564,1,2,0:0:0:0:
461,107,231712,2,0,P|406:102|382:99,1,69.3750026464463,0|0,1:0|0:0,0:0:0:0:
218,190,232007,2,0,P|273:185|297:182,1,69.3750026464463,0|0,1:0|0:0,0:0:0:0:
402,279,232303,6,0,L|385:186,1,83.2499974594117,0|0,1:0|1:0,0:0:0:0:
387,197,232524,1,0,1:0:0:0:
387,197,232598,1,0,1:0:0:0:
260,274,232747,1,4,3:0:0:0:
320,131,232894,5,0,1:0:0:0:
333,324,233042,1,4,3:0:0:0:
320,111,233189,1,0,1:0:0:0:
176,252,233337,1,2,0:0:0:0:
352,203,233485,5,0,1:0:0:0:
154,164,233633,1,0,3:0:0:0:
154,164,233707,1,0,3:0:0:0:
154,164,233781,1,0,1:0:0:0:
301,25,233929,1,8,3:0:0:0:
270,213,234076,5,0,1:0:0:0:
221,33,234224,1,2,3:0:0:0:
277,237,234372,1,0,1:0:0:0:
66,177,234519,1,2,3:0:0:0:
353,96,234667,5,4,1:3:0:0:
346,118,234740,1,0,1:0:0:0:
342,140,234814,1,0,1:0:0:0:
345,163,234888,1,0,1:0:0:0:
354,185,234962,1,4,1:3:0:0:
364,206,235036,1,0,1:0:0:0:
369,228,235110,1,0,1:0:0:0:
370,251,235184,1,0,1:0:0:0:
363,269,235258,2,0,L|354:320,3,46.25,4|4|6|6,1:3|1:3|1:3|1:3,0:0:0:0:
414,373,235554,1,6,1:3:0:0:
277,255,235702,6,0,P|268:174|265:125,1,104.06250396967,4|0,1:2|0:0,0:0:0:0:
243,144,235997,6,0,L|232:274,1,124.874996189118,4|0,1:2|0:0,0:0:0:0:
204,275,236293,6,0,L|192:125,1,145.68749555397,4|0,1:2|0:0,0:0:0:0:
204,50,236588,6,0,P|156:52|120:83,1,97.1249970359803,4|0,1:2|1:0,0:0:0:0:
283,207,236884,6,0,B|349:198|349:198|397:225|397:225|445:216|497:220,1,196.100000299225,4|0,1:0|1:0,0:0:0:0:
214,145,237327,1,8,1:0:0:0:
377,98,237475,1,4,3:0:0:0:
191,151,237623,1,4,3:0:0:0:
311,31,237771,1,8,3:0:0:0:
311,31,237845,1,4,3:0:0:0:
311,31,237918,1,8,1:0:0:0:
265,223,238066,6,0,B|217:249|217:249|163:228|163:228|113:246|64:250,1,196.100000299225,2|2,3:0|3:0,0:0:0:0:
82,15,238510,1,8,1:0:0:0:
113,152,238657,1,2,3:0:0:0:
235,81,238805,2,0,P|298:68|345:54,1,98.0500001496124,4|8,3:0|3:0,0:0:0:0:
208,158,239101,1,8,1:0:0:0:
181,1,239248,5,0,1:0:0:0:
216,176,239396,1,4,1:0:0:0:
80,76,239544,1,4,3:0:0:0:
226,199,239692,5,8,1:0:0:0:
261,43,239839,1,4,3:0:0:0:
121,156,239987,1,0,1:0:0:0:
311,259,240135,2,0,P|315:197|314:141,1,98.0500001496124,4|8,3:0|1:0,0:0:0:0:
70,219,240431,6,0,B|140:242|140:242|162:282|162:282|257:315,1,196.100000299225,0|2,1:0|0:0,0:0:0:0:
236,111,240874,1,8,1:0:0:0:
411,200,241022,2,0,L|400:271,2,49.0250000748062,2|2|0,1:2|3:0|1:0,0:0:0:0:
330,112,241317,1,4,3:0:0:0:
324,89,241391,1,4,3:0:0:0:
319,66,241465,1,8,1:0:0:0:
228,224,241613,6,0,B|162:263|92:258|92:258|152:204,1,196.100000299225,4|2,1:0|3:0,0:0:0:0:
220,133,242056,1,8,1:0:0:0:
32,85,242204,1,2,3:0:0:0:
201,29,242352,1,0,1:0:0:0:
51,181,242500,2,0,P|37:117|30:76,1,98.0500001496124,4|8,3:0|1:0,0:0:0:0:
312,103,242795,6,0,P|299:169|285:252,1,147.075000224419,0|0,1:0|0:0,0:0:0:0:
281,274,243091,2,0,P|215:289|178:301,1,98.0500001496124,2|8,1:2|1:0,0:0:0:0:
23,325,243386,2,0,L|18:266,2,49.0250000748062,4|0|8,3:0|3:0|3:0,0:0:0:0:
190,153,243682,2,0,L|186:227,2,49.0250000748062,0|0|8,1:0|3:0|1:0,0:0:0:0:
115,364,243978,6,0,B|101:307|101:307|106:272|117:249|117:249|100:215|96:152,1,196.100000299225,4|0,1:0|1:0,0:0:0:0:
304,108,244421,1,8,1:0:0:0:
142,62,244569,1,0,3:0:0:0:
307,187,244716,1,4,3:0:0:0:
124,54,244864,5,8,3:0:0:0:
221,238,245012,1,8,1:0:0:0:
260,0,245160,1,0,1:0:0:0:
219,255,245307,5,4,1:0:0:0:
91,153,245455,2,0,P|155:147|203:141,1,98.0500001496124,4|8,1:3|1:3,0:0:0:0:
462,189,245751,2,0,P|416:215|343:204,1,98.0500001496124,4|4,1:3|3:0,0:0:0:0:
205,63,246046,2,0,P|245:31|302:33,1,98.0500001496124,2|2,1:2|1:2,0:0:0:0:
462,106,246342,6,0,B|393:123|393:123|352:100|352:100|308:118|268:122,1,196.100000299225,4|0,1:0|1:0,0:0:0:0:
131,236,246785,1,8,1:0:0:0:
71,65,246933,1,2,3:0:0:0:
196,163,247081,1,4,3:0:0:0:
33,231,247229,1,8,3:0:0:0:
33,231,247303,1,4,3:0:0:0:
33,231,247377,1,8,1:0:0:0:
227,276,247524,6,0,B|298:269|298:269|346:291|346:291|428:282,1,196.100000299225,2|2,1:2|3:0,0:0:0:0:
381,100,247967,2,0,P|372:160|366:213,1,98.0500001496124,8|2,1:0|3:0,0:0:0:0:
286,154,248263,5,4,3:0:0:0:
476,109,248411,1,8,3:0:0:0:
320,16,248558,1,8,1:0:0:0:
435,236,248707,6,0,B|392:236|357:224|357:224|316:249|316:249|260:233|223:237,1,196.100000299225,4|4,1:0|3:0,0:0:0:0:
119,380,249150,1,8,1:0:0:0:
109,357,249223,1,2,1:2:0:0:
100,334,249297,1,2,1:2:0:0:
94,310,249371,1,2,1:2:0:0:
89,286,249445,1,2,1:2:0:0:
87,262,249519,1,2,1:2:0:0:
86,237,249593,1,2,1:2:0:0:
87,213,249667,1,2,1:2:0:0:
91,188,249741,2,0,L|103:121,3,49.0250000748062,8|2|2|2,1:0|1:2|1:2|1:2,0:0:0:0:
198,124,250037,1,2,1:2:0:0:
198,124,250111,1,2,1:2:0:0:
198,124,250184,6,0,B|244:137|285:156|285:156|343:146|396:130,1,196.100000299225,4|4,3:0|3:0,0:0:0:0:
202,219,250628,1,0,1:0:0:0:
280,51,250775,1,0,1:0:0:0:
194,237,250923,1,8,1:0:0:0:
399,295,251071,6,0,B|322:273|270:290|270:290|241:321|203:341,1,196.100000299225,4|4,1:0|1:3,0:0:0:0:
35,190,251514,1,8,1:0:0:0:
214,141,251662,1,4,3:0:0:0:
60,85,251810,1,8,3:0:0:0:
194,237,251958,2,0,P|209:169|216:120,1,98.0500001496124,4|8,3:0|1:0,0:0:0:0:
465,72,252253,6,0,P|375:79|331:133,1,147.075000224419,2|0,3:0|0:0,0:0:0:0:
323,132,252549,2,0,P|308:64|298:9,1,98.0500001496124,0|8,1:0|1:0,0:0:0:0:
487,205,252845,2,0,L|496:149,2,49.0250000748062,0|0|0,1:0|1:0|1:0,0:0:0:0:
300,265,253140,2,0,L|286:196,2,49.0250000748062,0|0|8,1:0|1:0|1:0,0:0:0:0:
407,325,253436,6,0,B|402:290|415:253|415:253|390:217|390:217|403:174|400:125,1,196.100000299225,4|4,1:0|3:0,0:0:0:0:
208,264,253879,1,8,1:0:0:0:
178,76,254027,1,2,3:0:0:0:
213,289,254175,1,4,3:0:0:0:
95,143,254322,5,8,3:0:0:0:
293,219,254470,1,8,1:0:0:0:
112,248,254618,1,0,1:0:0:0:
273,111,254766,6,0,P|349:123|449:135,1,147.075000224419,0|0,1:0|0:0,0:0:0:0:
441,139,255061,1,0,1:0:0:0:
250,207,255209,2,0,P|194:204|150:233,1,98.0500001496124,4|0,1:3|1:0,0:0:0:0:
366,289,255505,2,0,P|413:312|475:299,1,98.0500001496124,4|0,1:3|1:0,0:0:0:0:
203,129,255800,6,0,P|209:210|217:306,1,149.850003658447,4|0,1:0|0:0,0:0:0:0:
217,306,256096,1,0,1:0:0:0:
292,199,256244,1,8,1:0:0:0:
101,165,256391,5,4,3:0:0:0:
293,115,256539,1,4,3:0:0:0:
128,259,256687,2,0,P|77:247|13:215,1,99.9000024389649,8|8,3:0|1:0,0:0:0:0:
192,108,256982,5,2,1:2:0:0:
192,108,257056,1,2,1:2:0:0:
192,108,257130,1,2,1:2:0:0:
24,45,257278,1,2,3:0:0:0:
101,165,257426,1,8,1:0:0:0:
218,22,257574,1,2,3:0:0:0:
96,184,257721,5,0,1:0:0:0:
129,9,257869,1,4,3:0:0:0:
189,208,258017,1,8,1:0:0:0:
311,82,258165,1,4,1:3:0:0:
311,82,258239,1,4,1:3:0:0:
311,82,258312,6,0,P|302:146|297:205,1,99.9000024389649,4|4,1:0|3:0,0:0:0:0:
369,240,258608,1,8,1:0:0:0:
205,132,258756,1,4,3:0:0:0:
201,331,258904,5,8,3:0:0:0:
391,241,259051,1,4,3:0:0:0:
221,228,259199,1,8,1:0:0:0:
404,152,259347,1,2,3:0:0:0:
323,357,259495,5,0,1:0:0:0:
318,332,259569,1,2,1:2:0:0:
313,307,259643,1,2,1:2:0:0:
308,282,259716,1,2,1:2:0:0:
304,257,259790,1,8,1:0:0:0:
187,149,259938,1,0,1:0:0:0:
187,149,260012,1,0,1:0:0:0:
187,149,260086,5,0,1:0:0:0:
315,165,260234,1,4,3:0:0:0:
159,231,260381,1,8,1:0:0:0:
296,83,260529,6,0,B|378:70|357:119|442:107,1,149.850003658447,4|0,1:0|0:0,0:0:0:0:
467,100,260825,1,2,1:2:0:0:
392,192,260973,1,8,1:0:0:0:
418,13,261120,1,4,3:0:0:0:
389,216,261268,1,8,3:0:0:0:
218,131,261416,2,0,L|154:137,2,49.9500012194825,2|2|8,3:0|3:0|1:0,0:0:0:0:
297,190,261712,6,0,P|312:133|297:77,1,99.9000024389649,4|0,3:0|3:0,0:0:0:0:
150,292,262007,2,0,P|165:348|206:389,1,99.9000024389649,4|8,3:0|1:0,0:0:0:0:
218,131,262303,6,0,P|202:74|161:33,1,99.9000024389649,4|8,3:0|3:0,0:0:0:0:
248,300,262598,1,4,3:0:0:0:
269,312,262672,1,0,0:0:0:0:
292,319,262746,1,8,1:0:0:0:
276,209,262894,6,0,B|212:218|212:218|158:198|158:198|122:214|66:215,1,199.80000487793,4|0,3:0|0:0,0:0:0:0:
237,114,263337,1,8,1:0:0:0:
99,40,263485,1,2,3:0:0:0:
256,125,263633,5,4,3:0:0:0:
51,131,263780,1,8,3:0:0:0:
221,250,263928,1,8,1:0:0:0:
194,19,264076,1,0,1:0:0:0:
194,19,264150,1,0,1:0:0:0:
194,19,264224,5,4,1:0:0:0:
146,207,264372,2,0,P|133:139|129:99,1,99.9000024389649,0|0,1:0|1:0,0:0:0:0:
312,35,264667,2,0,P|325:93|334:162,1,99.9000024389649,4|0,1:3|1:0,0:0:0:0:
160,301,264963,2,0,P|93:282|37:244,1,99.9000024389649,4|0,1:3|1:0,0:0:0:0:
331,132,265258,6,0,P|395:122|460:210,1,149.850003658447,4|0,1:0|0:0,0:0:0:0:
476,261,265554,1,0,1:0:0:0:
470,285,265628,1,0,1:0:0:0:
465,309,265702,1,8,1:0:0:0:
235,312,265849,1,0,1:0:0:0:
373,208,265997,1,4,3:0:0:0:
328,370,266145,1,8,3:0:0:0:
253,160,266293,1,8,1:0:0:0:
127,322,266441,1,4,3:0:0:0:
127,322,266514,1,4,3:0:0:0:
127,322,266588,5,0,1:0:0:0:
251,247,266736,1,2,1:2:0:0:
275,252,266810,1,2,1:2:0:0:
299,257,266884,1,8,1:0:0:0:
146,136,267032,1,2,1:2:0:0:
43,198,267179,5,2,1:3:0:0:
242,163,267327,1,4,1:3:0:0:
108,22,267475,1,8,1:0:0:0:
148,237,267623,6,0,L|165:356,1,99.9000024389649,4|0,1:0|0:0,0:0:0:0:
75,104,267918,1,0,1:0:0:0:
271,215,268066,1,8,1:0:0:0:
268,239,268140,1,2,1:2:0:0:
265,263,268214,1,2,1:2:0:0:
262,287,268288,1,2,1:2:0:0:
259,311,268362,2,0,L|253:367,1,49.9500012194825,2|2,1:2|1:2,0:0:0:0:
357,260,268510,5,2,1:2:0:0:
376,264,268583,1,2,1:2:0:0:
395,269,268657,1,8,1:0:0:0:
185,168,268805,5,2,1:2:0:0:
166,172,268878,1,2,1:2:0:0:
147,177,268952,1,6,1:3:0:0:
359,77,269101,5,6,1:3:0:0:
377,83,269175,1,6,1:3:0:0:
396,92,269248,2,0,L|520:77,1,99.9000024389649,8|2,1:0|1:2,0:0:0:0:
495,80,269470,1,2,1:2:0:0:
495,80,269544,5,2,1:2:0:0:
327,214,269692,1,4,1:3:0:0:
273,4,269840,1,8,1:0:0:0:
417,243,269987,6,0,P|381:292|254:277,1,199.80000487793,4|0,1:0|1:0,0:0:0:0:
78,202,270431,1,8,1:0:0:0:
269,143,270578,1,4,3:0:0:0:
89,64,270726,1,0,1:0:0:0:
145,259,270874,1,0,1:0:0:0:
145,259,270948,1,0,1:0:0:0:
145,259,271022,1,8,1:0:0:0:
207,73,271170,6,0,P|276:51|327:65,1,99.9000024389649,2|0,1:2|1:0,0:0:0:0:
512,245,271465,2,0,P|441:229|404:191,1,99.9000024389649,2|8,1:2|1:0,0:0:0:0:
369,0,271761,6,0,P|422:48|435:99,1,99.9000024389649,2|4,1:2|1:3,0:0:0:0:
347,269,272056,1,4,1:3:0:0:
326,247,272130,1,0,1:0:0:0:
314,219,272204,1,8,1:0:0:0:
491,157,272352,1,0,1:0:0:0:
491,157,272426,1,0,1:0:0:0:
491,157,272500,6,0,B|477:216|477:216|502:265|502:265|477:304|470:365,1,199.80000487793,4|8,1:0|1:0,0:0:0:0:
202,245,272943,1,0,1:0:0:0:
202,245,273017,1,0,1:0:0:0:
202,245,273091,1,0,1:0:0:0:
314,130,273239,1,8,1:3:0:0:
318,272,273386,5,8,1:0:0:0:
197,98,273534,1,4,1:3:0:0:
384,207,273682,5,4,1:0:0:0:
126,297,273830,1,2,1:3:0:0:
126,297,273904,1,2,1:3:0:0:
126,297,273978,1,8,1:0:0:0:
404,203,274125,1,0,1:0:0:0:
164,213,274273,5,0,1:0:0:0:
298,103,274421,1,2,1:2:0:0:
326,346,274569,1,8,1:0:0:0:
145,203,274716,1,4,1:3:0:0:
343,361,274864,6,0,P|351:306|355:249,1,99.9000024389649,4|2,1:0|3:0,0:0:0:0:
124,191,275160,2,0,P|131:260|138:312,1,99.9000024389649,0|2,1:0|3:0,0:0:0:0:
225,191,275455,5,0,1:0:0:0:
28,268,275603,1,2,3:0:0:0:
245,354,275750,1,0,1:0:0:0:
183,128,275898,1,4,3:0:0:0:
183,128,275972,1,4,3:0:0:0:
183,128,276046,5,0,1:0:0:0:
15,175,276194,1,6,3:0:0:0:
198,117,276342,1,0,1:0:0:0:
0,183,276489,1,2,3:0:0:0:
223,236,276638,5,0,1:0:0:0:
145,27,276785,1,2,3:0:0:0:
98,265,276933,5,0,1:0:0:0:
147,6,277081,1,2,3:0:0:0:
293,171,277229,5,0,1:0:0:0:
104,121,277377,1,0,1:0:0:0:
270,81,277524,1,0,1:0:0:0:
128,218,277672,2,0,P|108:143|102:93,1,99.9000024389649,0|2,1:0|1:2,0:0:0:0:
163,74,277894,1,2,1:2:0:0:
125,86,277967,1,2,1:2:0:0:
85,84,278041,1,2,1:2:0:0:
49,68,278115,1,2,1:2:0:0:
21,39,278189,1,2,1:2:0:0:
5,3,278263,1,4,1:0:0:0:
296,51,278559,5,4,1:3:0:0:
212,345,278707,1,8,1:3:0:0:
405,130,279298,6,0,P|394:188|383:245,1,104.06250396967,0|0,1:0|0:0,0:0:0:0:
448,306,279593,6,0,P|406:259|279:282,1,185,4|8,1:0|1:0,0:0:0:0:
50,181,280037,2,0,B|114:197|114:197|163:174|163:174|206:190|259:190,1,185,0|4,1:0|3:0,0:0:0:0:
201,5,280480,2,0,P|212:85|219:133,1,92.5,8|4,1:0|3:0,0:0:0:0:
170,270,280775,5,4,3:0:0:0:
316,167,280923,1,2,3:0:0:0:
316,167,280997,1,2,3:0:0:0:
316,167,281071,2,0,P|250:183|205:192,1,92.5,8|2,1:0|0:0,0:0:0:0:
72,81,281366,5,0,1:0:0:0:
248,30,281514,1,2,0:0:0:0:
133,190,281662,1,8,1:0:0:0:
88,0,281810,1,4,3:0:0:0:
226,164,281958,6,0,B|210:231|210:231|227:270|227:270|211:316|211:355,1,185,4|8,3:0|1:0,0:0:0:0:
400,320,282401,2,0,L|384:210,1,92.5,2|2,0:0|3:0,0:0:0:0:
134,281,282697,1,4,3:0:0:0:
303,219,282845,1,8,1:0:0:0:
151,138,282992,1,4,3:0:0:0:
225,351,283140,5,0,1:0:0:0:
372,275,283288,1,4,3:0:0:0:
204,359,283435,2,0,L|223:250,1,92.5,8|2,1:0|0:0,0:0:0:0:
481,144,283731,5,4,3:0:0:0:
279,88,283878,1,4,3:0:0:0:
293,178,284026,1,8,1:0:0:0:
465,56,284174,1,0,0:0:0:0:
350,259,284322,6,0,B|285:270|285:270|237:254|237:254|144:275,1,185,0|8,1:0|1:0,0:0:0:0:
259,10,284765,2,0,B|269:64|269:64|306:102|306:102|298:140|291:191,1,185,2|4,0:0|3:0,0:0:0:0:
92,325,285209,2,0,P|85:266|81:224,1,92.5,8|2,1:0|0:0,0:0:0:0:
177,131,285504,5,0,1:0:0:0:
319,244,285652,2,0,L|302:310,2,46.25,4|4|8,3:0|3:0|1:0,0:0:0:0:
330,152,285948,2,0,B|228:156|269:217|159:222,1,185,2|2,3:0|3:0,0:0:0:0:
18,134,286391,1,8,1:0:0:0:
152,19,286539,1,4,3:0:0:0:
3,47,286687,6,0,B|68:57|68:57|99:93|99:93|182:107,1,185,4|8,3:0|1:0,0:0:0:0:
204,292,287131,1,4,3:0:0:0:
264,51,287279,2,0,P|273:114|282:175,1,92.5,2|4,0:0|3:0,0:0:0:0:
204,292,287574,2,0,P|194:223|186:173,1,92.5,8|4,1:0|3:0,0:0:0:0:
109,248,287869,5,4,3:0:0:0:
305,322,288016,1,0,3:0:0:0:
305,322,288091,1,0,3:0:0:0:
305,322,288164,1,8,1:0:0:0:
117,347,288312,1,2,0:0:0:0:
281,222,288460,5,4,3:0:0:0:
103,355,288608,1,4,3:0:0:0:
300,213,288755,5,8,1:0:0:0:
106,147,288903,1,4,3:0:0:0:
207,363,289051,6,0,L|216:288,2,46.25,4|4|4,3:0|3:0|3:0,0:0:0:0:
69,218,289346,1,8,1:0:0:0:
219,231,289495,2,0,B|122:247|162:297|60:319,1,185,8|4,3:0|3:0,0:0:0:0:
151,47,289938,1,8,1:0:0:0:
283,180,290085,1,4,3:0:0:0:
69,218,290234,6,0,L|77:156,4,46.25,2|2|2|2|8,1:2|0:0|0:0|0:0|1:0,0:0:0:0:
0,123,290677,2,0,B|58:143|58:143|93:137|119:124|119:124|168:139|205:144,1,185,4|0,3:0|1:0,0:0:0:0:
340,153,291120,1,8,1:0:0:0:
219,24,291268,1,4,3:0:0:0:
285,228,291416,6,0,P|342:246|431:167,1,185,4|8,3:0|1:0,0:0:0:0:
203,240,291859,1,4,3:0:0:0:
288,78,292007,1,4,3:0:0:0:
194,255,292155,1,4,3:0:0:0:
185,84,292303,2,0,L|196:149,1,46.25,8|0,1:0|0:0,0:0:0:0:
292,272,292450,2,0,L|296:198,1,46.25,0|2,0:0|0:0,0:0:0:0:
348,150,292598,5,0,1:0:0:0:
192,277,292745,1,2,3:0:0:0:
192,277,292819,1,2,3:0:0:0:
192,277,292894,2,0,P|146:281|99:286,1,92.5,8|2,1:0|0:0,0:0:0:0:
251,68,293189,1,4,3:0:0:0:
237,199,293337,1,2,0:0:0:0:
147,106,293484,1,8,1:0:0:0:
348,150,293632,1,4,3:0:0:0:
130,101,293780,6,0,L|119:175,4,46.25,0|2|2|2|8,1:0|0:0|0:0|0:0|1:0,0:0:0:0:
225,11,294224,2,0,B|214:69|214:69|240:116|240:116|225:168|222:216,1,185,4|4,3:0|3:0,0:0:0:0:
316,52,294667,1,8,1:0:0:0:
142,129,294814,1,4,3:0:0:0:
308,231,294963,6,0,P|367:224|415:218,1,92.5,0|4,1:0|3:0,0:0:0:0:
399,220,295184,1,4,3:0:0:0:
399,220,295258,1,8,1:0:0:0:
207,349,295406,2,0,P|144:335|129:205,1,185,2|2,0:0|0:0,0:0:0:0:
266,115,295849,2,0,P|318:162|305:245,1,138.75,8|0,1:0|0:0,0:0:0:0:
203,260,296145,6,0,B|227:145|157:195|182:80,1,185,4|8,3:0|1:0,0:0:0:0:
419,27,296588,2,0,P|410:96|406:140,1,92.5,2|4,3:0|3:0,0:0:0:0:
476,237,296884,1,8,3:0:0:0:
310,183,297032,1,8,1:0:0:0:
500,250,297179,1,4,3:0:0:0:
298,268,297327,5,4,1:0:0:0:
312,98,297475,1,4,3:0:0:0:
406,234,297623,1,8,1:0:0:0:
206,141,297771,1,2,3:0:0:0:
423,241,297918,5,4,3:0:0:0:
203,263,298066,1,8,3:0:0:0:
310,183,298214,1,8,1:0:0:0:
283,346,298362,2,0,L|277:383,3,34.6875013232232,0|0|0|0,1:0|0:0|0:0|0:0,0:0:0:0:
256,192,298657,12,0,300283,0:0:0:0:
