osu file format v14

[General]
AudioFilename: audio.mp3
AudioLeadIn: 0
PreviewTime: 76096
Countdown: 0
SampleSet: Soft
StackLeniency: 1
Mode: 0
LetterboxInBreaks: 1
WidescreenStoryboard: 1

[Editor]
Bookmarks: 128263,199199,236884,274864
DistanceSpacing: 1.1
BeatDivisor: 4
GridSize: 32
TimelineZoom: 2.2

[Metadata]
Title:NOiSE
TitleUnicode:NOiSE -ノイズ-
Artist:Pizuya's Cell feat. Futoumeido
ArtistUnicode:ぴずやの独房 feat. 普透明度
Creator:SuperBox
Version:Insane
Source:秘封ナイトメアダイアリー 〜 Violet Detector.
Tags:Hifuu Nightmare Diary ~ Violet Detector. th16.5 maribel hearn renko usami マエリベリー・ハーン 宇佐見 蓮子 非実在性プラネタリウム スタンドアローン Standalone pop j-pop 上海アリス幻樂団 Team Shanghai Alice ZUN video game バー・オールドアダム Dateless Bar "Old Adam" オールドバーアダム Japanese JPOP 東方Project TouHou Project めいど CoLouRed GlaZeE dahkjdas
BeatmapID:3152397
BeatmapSetID:1321114

[Difficulty]
HPDrainRate:5
CircleSize:4
OverallDifficulty:7
ApproachRate:8
SliderMultiplier:1.8
SliderTickRate:1

[Events]
//Background and Video events
0,0,"84843808_p0.jpg",0,0
//Break Periods
2,38611,40026
2,41419,44755
2,46148,47119
2,182847,188991
2,218315,219730
2,221123,224459
2,225852,226824
//Storyboard Layer 0 (Background)
//Storyboard Layer 1 (Fail)
//Storyboard Layer 2 (Pass)
//Storyboard Layer 3 (Foreground)
//Storyboard Layer 4 (Overlay)
//Storyboard Sound Samples

[TimingPoints]
579,295.566502463054,4,2,0,60,1,0
579,-166.666666666667,4,2,0,60,0,0
1613,-333.333333333333,4,2,0,60,0,0
3386,-166.666666666667,4,2,0,60,0,0
3978,-333.333333333333,4,2,0,60,0,0
5751,-166.666666666667,4,2,0,60,0,0
6342,-333.333333333333,4,2,0,60,0,0
8115,-166.666666666667,4,2,0,60,0,0
8707,-333.333333333333,4,2,0,60,0,0
10037,-133.333333333333,4,2,0,60,0,0
18756,-200,4,2,0,60,0,0
19495,-100,4,2,0,70,0,0
38411,-200,4,2,0,70,0,0
47869,-133.333333333333,4,2,0,70,0,0
52598,-100,4,2,0,70,0,0
55849,-133.333333333333,4,2,0,70,0,0
56588,-100,4,2,0,70,0,0
73731,-133.333333333333,4,2,0,70,0,0
74175,-100,4,2,0,70,0,0
76096,-100,4,2,0,80,0,1
95160,-83.3333333333333,4,2,0,90,0,1
99150,-133.333333333333,4,2,0,90,0,1
99889,-100,4,2,0,70,0,0
118510,-83.3333333333333,4,2,0,70,0,0
118805,-263.157894736842,4,2,0,70,0,0
128263,-133.333333333333,4,2,0,70,0,0
132992,-100,4,2,0,70,0,0
136244,-133.333333333333,4,2,0,70,0,0
136982,-100,4,2,0,70,0,0
154125,-133.333333333333,4,2,0,70,0,0
154716,-100,4,2,0,70,0,0
156490,-100,4,2,0,80,0,1
175554,-83.3333333333333,4,2,0,90,0,1
179544,-133.333333333333,4,2,0,90,0,1
180283,-100,4,2,0,60,0,0
189741,-166.666666666667,4,2,0,60,0,0
199199,-100,4,2,0,70,0,0
227574,-133.333333333333,4,2,0,80,0,0
232894,-100,4,2,0,80,0,0
235997,-83.3333333333333,4,2,0,80,0,0
236293,-66.6666666666667,4,2,0,80,0,0
236884,-100,4,2,0,90,0,1
274864,-83.3333333333333,4,2,0,100,0,1
278855,-133.333333333333,4,2,0,100,0,1
279593,-100,4,2,0,70,0,0
298362,-133.333333333333,4,2,0,70,0,0
298583,-133.333333333333,4,2,0,30,0,0
298805,-133.333333333333,4,2,0,30,0,0
299101,-133.333333333333,4,2,0,25,0,0
299396,-133.333333333333,4,2,0,25,0,0
299692,-133.333333333333,4,2,0,20,0,0
299987,-133.333333333333,4,2,0,20,0,0
300283,-133.333333333333,4,2,0,5,0,0

[Colours]
Combo1 : 196,0,98
Combo2 : 159,70,70
Combo3 : 128,51,221
Combo4 : 94,96,187
SliderBorder : 255,111,193

[HitObjects]
208,53,578,5,4,3:1:0:0:
287,28,874,1,2,0:0:0:0:
208,53,1022,2,0,P|157:50|87:28,1,107.999996704102,2|2,0:0|0:0,0:0:0:0:
9,122,1613,2,0,B|46:317,1,188.999994232178,2|0,0:0|0:0,0:0:0:0:
323,281,2943,5,2,3:0:0:0:
265,339,3238,1,2,0:0:0:0:
323,281,3386,2,0,L|298:157,1,107.999996704102,2|2,0:0|0:0,0:0:0:0:
382,109,3978,2,0,B|417:295,1,188.999994232178,2|0,0:0|0:0,0:0:0:0:
192,261,5308,5,2,3:0:0:0:
121,305,5603,1,2,0:0:0:0:
192,261,5751,2,0,P|256:289|309:293,1,107.999996704102,2|2,0:0|0:0,0:0:0:0:
383,211,6342,2,0,B|343:16,1,188.999994232178,2|0,0:0|0:0,0:0:0:0:
46,82,7672,5,2,3:0:0:0:
93,10,7968,1,2,0:0:0:0:
46,82,8115,2,0,P|98:118|155:122,1,107.999996704102,2|2,0:0|0:0,0:0:0:0:
220,205,8707,2,0,B|229:143|287:97|370:108,1,188.999994232178,2|0,0:0|0:0,0:0:0:0:
359,106,10037,6,0,B|218:107,1,135.000005149842,4|2,3:1|0:0,0:0:0:0:
104,180,10480,1,2,0:0:0:0:
104,180,10776,2,0,L|250:182,1,135.000005149842,2|2,0:0|0:0,0:0:0:0:
55,45,11367,2,0,P|63:92|83:127,1,67.5000025749208,0|2,0:0|0:0,0:0:0:0:
24,177,11662,2,0,P|70:184|167:235,1,135.000005149842,2|2,0:0|0:0,0:0:0:0:
164,294,12106,1,2,0:0:0:0:
235,277,12253,1,2,0:0:0:0:
312,305,12401,6,0,B|313:206|249:166,1,135.000005149842,2|2,3:0|0:0,0:0:0:0:
194,116,12845,2,0,B|293:117|333:53,1,135.000005149842,2|2,0:0|0:0,0:0:0:0:
397,75,13288,1,2,0:0:0:0:
370,154,13436,1,2,0:0:0:0:
370,154,13879,5,2,0:0:0:0:
453,160,14027,2,0,P|428:227|406:305,1,135.000005149842,2|2,0:0|0:0,0:0:0:0:
403,371,14470,1,2,0:0:0:0:
331,340,14618,1,2,0:0:0:0:
260,312,14766,6,0,B|199:349|109:325|109:325,1,135.000005149842,2|2,3:0|0:0,0:0:0:0:
50,335,15209,1,2,0:0:0:0:
50,335,15505,2,0,B|12:270|31:196|31:196,1,135.000005149842,2|2,0:0|0:0,0:0:0:0:
105,242,15948,2,0,P|136:211|172:186,1,67.5000025749208,0|2,0:0|0:0,0:0:0:0:
243,205,16244,1,2,0:0:0:0:
243,205,16391,2,0,P|291:193|346:122,1,135.000005149842,2|2,0:0|0:0,0:0:0:0:
267,108,16835,1,2,0:0:0:0:
250,30,16982,1,2,0:0:0:0:
146,115,17130,6,0,B|166:192|189:274|189:274,1,135.000005149842,2|2,3:0|0:0,0:0:0:0:
116,332,17574,2,0,P|104:283|78:195,1,135.000005149842,2|2,0:0|0:0,0:0:0:0:
28,145,18017,1,2,0:0:0:0:
90,94,18165,2,0,P|131:110|170:130,1,67.5000025749208,2|0,0:0|0:0,0:0:0:0:
249,141,18460,5,0,0:0:0:0:
187,214,18608,1,2,0:0:0:0:
281,239,18756,2,0,B|298:190|302:137|302:137,1,90,2|2,0:0|0:0,0:0:0:0:
300,151,19199,1,0,0:0:0:0:
300,151,19347,1,0,0:0:0:0:
347,238,19495,6,0,B|245:255|201:153,1,180,4|8,1:0|1:0,0:0:0:0:
388,166,19938,2,0,B|506:176|512:290,1,180,0|0,1:0|1:0,0:0:0:0:
408,314,20381,2,0,P|356:321|316:339,1,90,8|2,1:0|0:0,0:0:0:0:
214,346,20677,6,0,P|222:306|235:231,1,90,0|2,1:0|3:0,0:0:0:0:
119,360,20973,2,0,B|104:320|90:255|90:255,1,90,8|2,1:0|0:0,0:0:0:0:
19,199,21268,2,0,P|63:191|107:185,1,90,4|0,3:0|1:0,0:0:0:0:
151,82,21564,1,8,1:0:0:0:
230,97,21712,1,0,1:0:0:0:
297,57,21859,6,0,B|355:94|385:154|366:225,1,180,0|8,1:0|1:0,0:0:0:0:
306,322,22303,2,0,B|245:318|194:259|196:189,1,180,0|0,1:0|1:0,0:0:0:0:
239,104,22746,1,8,1:0:0:0:
327,108,22894,1,0,1:0:0:0:
340,200,23042,6,0,P|382:186|423:167,1,90,4|4,3:0|3:0,0:0:0:0:
512,254,23336,1,8,1:0:0:0:
512,254,23485,2,0,P|464:270|427:290,1,90,2|4,3:0|3:0,0:0:0:0:
317,313,23780,1,2,3:0:0:0:
233,283,23928,1,8,1:0:0:0:
220,375,24076,1,0,1:0:0:0:
150,337,24224,6,0,B|83:329|36:282|36:199,1,180,0|8,1:0|1:0,0:0:0:0:
126,205,24667,2,0,B|87:143|104:72|163:30,1,180,0|0,1:0|1:0,0:0:0:0:
191,150,25111,2,0,P|211:104|231:58,1,90,8|2,1:0|0:0,0:0:0:0:
264,191,25406,2,0,B|316:225|369:240,2,90,4|0|8,3:0|1:0|1:0,0:0:0:0:
193,242,25849,5,2,3:2:0:0:
304,73,26145,1,2,1:2:0:0:
377,71,26293,1,8,1:0:0:0:
442,110,26441,1,0,1:0:0:0:
486,174,26588,6,0,B|490:291|386:310,1,180,0|8,1:0|1:0,0:0:0:0:
299,380,27032,1,2,0:0:0:0:
227,337,27179,2,0,B|225:298|214:242,1,90,4|2,3:0|0:0,0:0:0:0:
291,216,27475,2,0,B|338:224|399:226,1,90,8|4,1:0|3:0,0:0:0:0:
303,133,27771,2,0,P|294:77|283:31,1,90,0|2,1:0|3:0,0:0:0:0:
88,137,28066,2,0,B|101:200|108:257,1,90,8|2,1:0|0:0,0:0:0:0:
174,106,28362,1,4,3:0:0:0:
195,187,28510,1,0,1:0:0:0:
215,265,28657,1,8,1:0:0:0:
233,340,28805,1,0,1:0:0:0:
319,324,28953,5,4,3:0:0:0:
319,324,29027,1,4,3:0:0:0:
319,324,29101,2,0,B|365:326|420:331|420:331,1,90,4|8,3:0|1:0,0:0:0:0:
485,308,29322,1,8,3:0:0:0:
485,308,29396,2,0,B|531:254|507:174|438:158,1,180,8|0,3:0|1:0,0:0:0:0:
362,165,29840,6,0,P|372:206|393:265,1,90,8|2,1:0|0:0,0:0:0:0:
401,348,30135,2,0,B|364:334|326:338|326:338|278:323|278:323|257:338|201:328,1,180,0|8,1:0|1:0,0:0:0:0:
138,348,30578,2,0,B|24:317|45:176,1,180,4|2,3:0|3:0,0:0:0:0:
16,134,31022,1,8,1:0:0:0:
84,93,31170,1,4,3:0:0:0:
140,166,31317,6,0,B|206:206|276:201|315:167,1,180,0|8,1:0|1:0,0:0:0:0:
260,104,31761,2,0,B|262:48|267:-4,2,90,0|4|4,1:0|3:0|3:0,0:0:0:0:
342,78,32204,6,0,B|345:135|321:184|330:227,1,135,8|2,1:0|0:0,0:0:0:0:
338,236,32500,1,4,3:0:0:0:
326,315,32647,2,0,P|272:312|218:305,1,90,2|8,0:0|1:0,0:0:0:0:
206,215,32943,2,0,B|197:214|254:219|310:223,1,90,2|8,0:0|3:0,0:0:0:0:
363,158,33239,1,4,3:0:0:0:
441,200,33386,6,0,B|455:169|448:134|435:94,1,90,8|4,1:0|3:0,0:0:0:0:
365,69,33682,2,0,B|315:86|287:84|238:61|238:61|217:68|178:63,1,180,0|8,1:0|1:0,0:0:0:0:
108,36,34125,2,0,B|58:48|13:123|30:185,1,180,0|0,1:0|1:0,0:0:0:0:
18,267,34569,1,8,1:0:0:0:
75,325,34716,1,4,3:0:0:0:
107,238,34864,6,0,B|114:186|133:118,1,90,4|2,3:0|3:0,0:0:0:0:
225,196,35160,1,8,1:0:0:0:
225,196,35308,2,0,B|263:162|306:126,1,90,0|2,1:0|0:0,0:0:0:0:
374,213,35603,1,0,1:0:0:0:
374,213,35751,6,0,B|354:251|359:306|407:348,1,135,8|0,1:0|0:0,0:0:0:0:
428,358,36046,2,0,B|439:271|461:170,1,180,0|8,1:0|1:0,0:0:0:0:
330,295,36490,2,0,B|276:279|216:265|216:265,1,90,0|0,1:0|1:0,0:0:0:0:
98,278,36785,1,0,1:0:0:0:
76,190,36933,1,8,1:0:0:0:
131,122,37081,1,4,3:0:0:0:
226,107,37229,6,0,P|246:167|255:211,1,90,4|2,3:0|3:0,0:0:0:0:
362,160,37524,2,0,P|376:201|385:254,1,90,8|2,1:0|3:0,0:0:0:0:
306,314,37820,5,4,3:0:0:0:
183,250,37968,1,8,3:0:0:0:
273,150,38115,1,8,1:0:0:0:
404,208,38263,1,4,3:0:0:0:
477,173,38411,5,4,0:1:0:0:
417,72,40776,5,2,0:0:0:0:
400,63,40923,1,2,0:0:0:0:
381,68,41071,1,2,0:0:0:0:
371,82,41219,1,2,0:0:0:0:
1,89,45505,5,2,0:0:0:0:
31,67,45652,1,2,0:0:0:0:
64,57,45800,1,2,0:0:0:0:
103,56,45948,1,2,0:0:0:0:
103,56,47869,6,0,B|161:60|254:65,1,135.000005149842,4|0,1:0|1:0,0:0:0:0:
321,71,48312,1,0,0:0:0:0:
412,57,48460,2,0,B|447:95|437:162|393:190,1,135.000005149842,0|0,1:0|1:0,0:0:0:0:
241,144,48904,5,0,3:0:0:0:
313,203,49051,2,0,B|333:274|343:357|343:357,1,135.000005149842,0|0,1:0|1:0,0:0:0:0:
254,307,49495,1,2,0:0:0:0:
254,307,49643,2,0,B|236:224,1,67.5000025749208,0|0,1:0|0:0,0:0:0:0:
182,359,49938,2,0,P|169:304|149:208,1,135.000005149842,0|0,1:0|1:0,0:0:0:0:
45,108,50529,5,0,1:0:0:0:
45,108,50825,2,0,P|121:82|180:73,1,135.000005149842,0|2,1:0|1:2,0:0:0:0:
200,147,51268,2,0,B|164:170|113:185|56:182,1,135.000005149842,2|2,3:0|3:0,0:0:0:0:
7,240,51712,1,0,1:0:0:0:
34,323,51859,1,2,0:0:0:0:
149,315,52007,2,0,B|125:225,1,67.5000025749208,0|0,1:0|0:0,0:0:0:0:
221,181,52303,2,0,L|242:258,1,67.5000025749208,0|0,1:0|0:0,0:0:0:0:
358,283,52598,6,0,P|403:298|465:304,1,90,4|0,1:0|1:0,0:0:0:0:
430,187,52894,1,0,1:0:0:0:
302,190,53042,1,2,3:0:0:0:
173,185,53189,2,0,P|85:182|-22:188,1,180,0|0,1:0|1:0,0:0:0:0:
18,272,53633,5,2,1:2:0:0:
106,260,53780,1,0,1:0:0:0:
95,100,53928,1,2,1:2:0:0:
0,113,54076,1,0,1:0:0:0:
192,226,54224,5,2,1:2:0:0:
175,136,54372,1,0,1:0:0:0:
175,136,54519,2,0,P|240:125|283:117,1,90,2|0,3:0|1:0,0:0:0:0:
285,201,54815,2,0,P|329:194|373:187,1,90,6|4,3:0|1:3,0:0:0:0:
424,216,55037,1,0,1:0:0:0:
424,216,55111,2,0,L|409:268,1,45,0|0,1:0|1:0,0:0:0:0:
342,299,55258,2,0,L|293:309,3,45,4|0|0|0,1:3|1:0|1:0|1:0,0:0:0:0:
232,262,55554,2,0,L|181:273,3,45,4|4|6|6,1:3|1:3|1:3|1:3,0:0:0:0:
89,284,55849,6,0,B|29:286|-63:155|47:47,1,270.000010299683,6|2,1:3|0:0,0:0:0:0:
29,66,56588,6,0,B|223:90,1,180,2|2,0:0|0:0,0:0:0:0:
269,36,57032,2,0,P|317:26|374:24,1,90,0|4,1:0|3:0,0:0:0:0:
473,127,57327,2,0,B|462:220|405:246|405:246|338:227,1,180,4|8,1:0|1:0,0:0:0:0:
316,137,57771,1,4,3:0:0:0:
354,313,57918,2,0,P|271:294|168:259,1,180,4|8,3:0|1:0,0:0:0:0:
6,236,58362,5,0,3:0:0:0:
6,236,58436,1,0,3:0:0:0:
6,236,58510,1,0,1:0:0:0:
19,326,58657,1,2,0:0:0:0:
112,354,58805,2,0,P|163:340|220:326,1,90,8|2,1:0|0:0,0:0:0:0:
185,229,59101,1,4,3:0:0:0:
104,253,59248,1,2,3:0:0:0:
266,281,59396,2,0,P|311:269|375:254,1,90,8|4,1:0|3:0,0:0:0:0:
452,102,59692,6,0,B|415:44|347:17|282:37,1,180,0|8,1:0|1:0,0:0:0:0:
196,74,60135,1,0,3:0:0:0:
196,74,60209,1,0,3:0:0:0:
196,74,60283,1,0,3:0:0:0:
263,151,60431,5,4,3:0:0:0:
346,128,60578,1,8,1:0:0:0:
340,217,60726,1,2,3:0:0:0:
253,326,60874,2,0,B|169:319|63:342,2,180,0|8|0,1:0|1:0|1:0,0:0:0:0:
365,353,61613,2,0,P|364:300|359:237,1,90,2|8,3:0|1:0,0:0:0:0:
151,251,61909,5,4,3:0:0:0:
215,195,62056,2,0,B|266:193|320:184,1,90,0|0,1:0|0:0,0:0:0:0:
63,231,62352,2,0,B|10:143|68:51,1,180,8|4,1:0|3:0,0:0:0:0:
173,33,62795,1,2,3:0:0:0:
173,33,62869,1,2,3:0:0:0:
173,33,62943,1,8,1:0:0:0:
263,114,63091,2,0,P|276:175|214:293,1,180,0|4,1:0|3:0,0:0:0:0:
231,279,63534,1,8,1:0:0:0:
143,224,63682,2,0,B|137:177|126:119,1,90,2|0,0:0|1:0,0:0:0:0:
39,213,63978,5,4,3:0:0:0:
225,182,64125,1,8,1:0:0:0:
336,169,64273,1,0,1:0:0:0:
336,169,64347,1,0,1:0:0:0:
336,169,64421,2,0,P|402:162|451:150,1,90,0|0,1:0|1:0,0:0:0:0:
455,68,64716,2,0,P|351:77|234:95,1,180,8|2,1:0|3:0,0:0:0:0:
171,40,65160,2,0,L|184:139,1,90,4|8,3:0|1:0,0:0:0:0:
126,271,65455,6,0,B|197:278|261:240|277:158,1,180,0|0,1:0|1:0,0:0:0:0:
56,156,65899,1,8,1:0:0:0:
146,105,66046,2,0,P|99:77|45:67,1,90,4|8,3:0|3:0,0:0:0:0:
21,263,66342,1,2,3:0:0:0:
116,224,66490,2,0,P|159:252|213:265,1,90,8|4,1:0|3:0,0:0:0:0:
319,280,66785,6,0,B|301:192|287:84,2,180,0|8|4,1:0|1:0|3:0,0:0:0:0:
229,214,67524,1,6,3:0:0:0:
391,230,67672,2,0,P|404:290|414:336,1,90,8|0,1:0|3:0,0:0:0:0:
224,353,67968,2,0,B|169:375|91:360|60:310,1,180,0|8,1:0|1:0,0:0:0:0:
47,216,68411,1,2,3:2:0:0:
47,216,68485,1,0,3:0:0:0:
47,216,68559,2,0,P|52:153|51:92,1,90,4|8,3:0|3:0,0:0:0:0:
130,70,68854,5,8,1:0:0:0:
134,162,69002,1,0,3:0:0:0:
212,118,69150,2,0,B|266:122|316:129,1,90,4|0,3:0|0:0,0:0:0:0:
288,268,69445,2,0,B|231:261|174:255,1,90,8|0,1:0|0:0,0:0:0:0:
352,219,69741,5,4,3:0:0:0:
377,315,69889,1,2,0:0:0:0:
440,245,70037,1,8,1:0:0:0:
440,245,70184,1,2,0:0:0:0:
509,115,70332,6,0,B|471:67|402:43|332:69,1,180,0|8,1:0|1:0,0:0:0:0:
238,144,70776,2,0,B|143:129,2,90,4|4|2,3:0|3:0|3:0,0:0:0:0:
255,63,71219,5,8,1:0:0:0:
334,159,71367,2,0,P|327:203|317:255,1,90,4|4,3:0|3:0,0:0:0:0:
213,230,71662,1,2,0:0:0:0:
121,266,71810,1,8,1:0:0:0:
202,326,71958,1,2,0:0:0:0:
329,336,72106,2,0,P|324:287|315:227,1,90,0|2,1:0|0:0,0:0:0:0:
279,153,72401,1,8,1:0:0:0:
374,51,72549,5,2,3:0:0:0:
362,159,72697,1,0,3:0:0:0:
473,105,72845,1,4,3:0:0:0:
404,241,72992,5,8,1:0:0:0:
404,241,73140,1,4,3:0:0:0:
234,282,73288,2,0,L|204:182,1,90,8|0,3:0|3:0,0:0:0:0:
208,195,73510,1,0,3:0:0:0:
208,195,73583,1,8,1:0:0:0:
106,191,73731,6,0,B|264:212|339:60,1,270.000010299683,0|2,1:0|0:0,0:0:0:0:
307,58,74396,1,2,0:0:0:0:
311,62,74470,2,0,B|379:60|472:66|472:66|473:119,1,180,0|8,1:0|1:0,0:0:0:0:
446,157,74913,5,2,0:0:0:0:
429,147,75061,1,0,1:0:0:0:
412,135,75209,1,2,0:0:0:0:
345,201,75357,5,0,1:0:0:0:
310,178,75505,1,2,0:0:0:0:
275,153,75652,1,0,1:0:0:0:
220,244,75800,5,2,3:0:0:0:
220,244,76096,6,0,B|161:216|81:227|39:292,1,180,4|0,1:0|1:0,0:0:0:0:
3,205,76540,2,0,P|2:160|-1:114,1,90,8|4,1:0|3:0,0:0:0:0:
59,30,76835,1,0,1:0:0:0:
121,108,76982,1,6,3:0:0:0:
162,16,77130,1,8,1:0:0:0:
224,155,77278,6,0,P|322:144|418:137,1,180,8|4,3:0|3:0,0:0:0:0:
351,64,77721,2,0,P|289:70|236:79,1,90,8|2,1:0|3:0,0:0:0:0:
282,227,78017,1,0,1:0:0:0:
377,215,78165,1,0,1:0:0:0:
469,201,78312,1,8,1:0:0:0:
429,318,78460,5,2,3:0:0:0:
429,318,78608,2,0,P|382:324|323:333,1,90,4|2,1:0|3:0,0:0:0:0:
200,330,78904,2,0,B|200:290|194:221,1,90,8|2,1:0|0:0,0:0:0:0:
297,134,79199,2,0,B|298:176|304:235,1,90,4|4,3:0|3:0,0:0:0:0:
140,179,79495,5,8,1:0:0:0:
57,203,79643,2,0,B|12:166|7:87|42:34,1,180,0|0,1:0|1:0,0:0:0:0:
129,5,80086,1,8,1:0:0:0:
114,90,80234,1,0,1:0:0:0:
227,166,80381,6,0,P|299:180|411:193,1,180,2|8,3:0|1:0,0:0:0:0:
426,268,80825,2,0,B|377:285|316:295,1,90,4|0,1:0|0:0,0:0:0:0:
195,240,81120,1,0,1:0:0:0:
134,171,81268,2,0,B|165:128|182:67,1,90,8|0,1:0|3:0,0:0:0:0:
290,123,81564,5,2,3:0:0:0:
334,215,81712,1,4,3:0:0:0:
244,244,81859,1,8,1:0:0:0:
194,142,82007,5,2,0:0:0:0:
114,259,82155,1,0,1:0:0:0:
204,232,82303,1,2,0:0:0:0:
87,158,82450,1,8,1:0:0:0:
0,127,82598,6,0,P|15:233|24:314,1,180,2|2,0:0|1:2,0:0:0:0:
23,305,82968,1,4,3:0:0:0:
23,305,83042,1,8,1:0:0:0:
136,348,83189,6,0,B|226:384|328:351|373:236,1,270,4|8,1:0|1:0,0:0:0:0:
325,126,83780,1,4,3:0:0:0:
351,44,83928,1,0,1:0:0:0:
413,109,84076,5,2,3:0:0:0:
269,71,84224,2,0,P|216:53|155:41,1,90,8|4,1:0|3:0,0:0:0:0:
99,57,84519,1,4,1:0:0:0:
98,146,84667,1,0,1:0:0:0:
97,235,84815,2,0,P|51:222|-18:206,2,90,0|4|0,1:0|1:3|1:0,0:0:0:0:
192,202,85258,2,0,B|192:265|190:293|187:312,1,90,4|0,1:3|1:0,0:0:0:0:
371,355,85554,6,0,B|423:260|379:153,1,180,4|4,1:0|3:0,0:0:0:0:
272,198,85997,1,8,1:0:0:0:
268,291,86144,1,2,0:0:0:0:
357,251,86293,1,0,1:0:0:0:
483,307,86441,2,0,L|495:200,1,90,2|8,0:0|1:0,0:0:0:0:
457,111,86736,5,2,0:0:0:0:
512,52,86884,2,0,B|446:10|313:3|219:53,1,270,4|4,3:0|3:0,0:0:0:0:
255,144,87475,1,2,3:0:0:0:
255,144,87549,1,2,3:0:0:0:
255,144,87623,2,0,P|308:137|368:139,1,90,2|8,3:0|1:0,0:0:0:0:
167,42,87918,6,0,B|132:97|131:162|166:223,1,180,4|0,1:0|1:0,0:0:0:0:
300,229,88362,2,0,L|348:213,3,45,8|2|2|2,1:0|0:0|0:0|0:0,0:0:0:0:
234,180,88657,2,0,L|218:132,3,45,4|2|2|2,3:0|0:0|0:0|0:0,0:0:0:0:
173,237,88953,5,8,1:0:0:0:
173,237,89027,1,2,0:0:0:0:
173,237,89101,2,0,L|154:282,3,45,2|2|2|2,3:0|3:0|3:0|3:0,0:0:0:0:
238,301,89396,2,0,P|333:312|428:287,1,180,2|2,3:0|3:0,0:0:0:0:
311,124,89840,2,0,B|318:228,1,90,0|0,1:0|0:0,0:0:0:0:
390,384,90135,5,8,1:0:0:0:
479,364,90283,2,0,B|525:293|516:154|466:87,1,270,4|8,1:0|1:0,0:0:0:0:
393,31,90874,1,2,0:0:0:0:
303,50,91022,2,0,P|260:57|198:45,1,90,0|2,1:0|0:0,0:0:0:0:
127,29,91317,1,8,1:0:0:0:
184,134,91465,6,0,B|189:182|189:240,1,90,0|0,1:0|0:0,0:0:0:0:
68,197,91761,2,0,B|64:155|60:106,1,90,4|8,3:0|1:0,0:0:0:0:
213,160,92056,2,0,B|218:208|218:266,1,90,2|0,3:0|1:0,0:0:0:0:
354,191,92352,2,0,B|350:149|346:100,1,90,8|8,3:0|1:0,0:0:0:0:
416,268,92647,5,0,1:0:0:0:
497,201,92795,1,4,1:0:0:0:
512,305,92943,1,2,0:0:0:0:
374,365,93091,2,0,B|332:346|271:344,1,90,8|2,1:0|0:0,0:0:0:0:
184,346,93386,2,0,P|200:282|215:161,1,180,0|8,1:0|1:0,0:0:0:0:
132,109,93830,1,2,0:0:0:0:
124,195,93978,2,0,P|170:221|212:261,1,90,4|2,1:0|3:0,0:0:0:0:
103,287,94273,6,0,P|40:254|11:222,1,90,8|4,1:0|3:0,0:0:0:0:
0,96,94569,1,8,3:0:0:0:
136,36,94716,5,2,3:0:0:0:
57,14,94864,1,8,1:0:0:0:
105,118,95012,1,0,1:0:0:0:
261,171,95160,5,4,1:0:0:0:
151,195,95455,5,0,1:0:0:0:
46,219,95751,5,0,1:0:0:0:
247,264,96046,5,0,1:0:0:0:
312,321,96194,1,0,1:0:0:0:
229,349,96342,1,0,1:0:0:0:
185,199,96490,5,2,3:0:0:0:
174,289,96638,1,0,1:0:0:0:
101,235,96785,1,2,0:0:0:0:
180,108,96933,5,0,1:0:0:0:
100,162,97081,1,2,0:0:0:0:
94,69,97229,1,0,1:0:0:0:
94,69,97377,1,2,0:0:0:0:
221,32,97524,6,0,P|278:49|349:60,1,107.999996704102,0|8,1:0|3:0,0:0:0:0:
470,42,97820,1,0,1:0:0:0:
488,121,97968,2,0,B|478:216|458:341,1,215.999993408203,0|2,1:0|1:2,0:0:0:0:
356,352,98337,1,2,1:2:0:0:
356,352,98411,1,2,1:2:0:0:
356,352,98485,1,2,1:2:0:0:
356,352,98559,2,0,P|266:279|193:282,1,161.999995056153,4|0,1:0|0:0,0:0:0:0:
137,293,98854,2,0,L|22:284,1,107.999996704102,0|0,1:0|1:0,0:0:0:0:
204,353,99150,6,0,B|277:362|339:297|291:210,1,202.500007724762,0|2,1:0|1:2,0:0:0:0:
297,222,99889,6,2,B|161:146|90:311|90:311|109:261|92:206,1,360,4|8,1:0|1:0,0:1:0:0:
66,147,100628,1,2,3:0:0:0:
22,262,100776,2,2,B|76:310|134:317|201:291,1,180,0|0,0:0|1:0,0:1:0:0:
245,361,101219,1,0,1:0:0:0:
245,361,101293,1,0,1:0:0:0:
245,361,101367,2,0,P|281:309|276:171,1,180,0|8,1:0|1:0,0:0:0:0:
208,200,101810,2,0,L|187:147,1,45,2|2,3:0|3:0,0:0:0:0:
173,152,101958,6,2,B|215:126|256:149|281:130|281:130|248:135|192:106,1,180,2|0,3:1|1:0,0:1:0:0:
236,41,102401,1,0,1:0:0:0:
293,96,102549,2,0,B|360:75|426:86|483:121,1,180,0|8,1:0|1:0,0:0:0:0:
478,188,102992,1,0,1:0:0:0:
424,271,103140,2,2,B|419:252|419:252|407:267|407:267|403:249|403:249|389:263|389:263|383:245|383:245|371:260|371:260|367:243|367:243|356:259|356:259|351:241|351:241|340:257,1,180,0|0,1:0|1:0,0:1:0:0:
281,203,103583,1,0,1:0:0:0:
281,203,103657,1,0,1:0:0:0:
281,203,103731,2,0,P|185:189|100:198,1,180,0|8,1:0|1:0,0:0:0:0:
18,218,104175,2,0,L|27:280,1,45,0|0,1:0|1:0,0:0:0:0:
38,275,104322,6,2,B|64:264|95:284|95:284|61:218|90:174|90:174|95:193,1,180,0|0,1:0|1:1,0:1:0:0:
168,155,104766,1,0,1:0:0:0:
187,264,104913,2,0,P|274:239|281:141,1,180,0|8,1:0|1:0,0:0:0:0:
232,100,105357,1,0,1:0:0:0:
209,184,105505,2,2,P|292:177|408:157,1,180,0|0,1:0|1:0,0:1:0:0:
492,122,105948,5,0,1:0:0:0:
492,122,106022,1,2,1:1:0:0:
492,122,106096,2,0,B|522:179|514:250|476:297,1,180,0|8,1:0|1:0,0:0:0:0:
415,334,106539,1,0,1:0:0:0:
313,300,106687,2,2,B|296:287|296:287|308:290|308:290|292:278|292:278|306:280|306:280|291:265|291:265|305:271|305:271|288:256|288:256|303:261|303:261|286:245|286:245|302:250|302:250|287:236,1,180,0|0,1:1|1:1,0:1:0:0:
435,199,107278,6,0,B|402:183|402:183|376:200|376:200|337:186,1,90,2|2,1:2|1:0,0:0:0:0:
355,192,107574,1,8,1:0:0:0:
225,257,107869,2,2,B|265:289|306:278|306:278|347:300|402:281,1,180,0|0,1:1|1:1,0:1:0:0:
475,268,108312,5,0,1:0:0:0:
422,205,108460,2,0,P|414:161|408:117,1,90,0|0,1:0|1:0,0:0:0:0:
407,116,108756,1,8,1:0:0:0:
242,165,109051,2,0,B|250:115|250:115|237:73|253:34|253:34|262:90,1,180,0|0,1:0|1:1,0:0:0:0:
281,242,109643,6,0,P|201:250|176:240,1,90,0|0,1:0|1:0,0:0:0:0:
194,248,109938,1,8,1:0:0:0:
330,172,110234,2,2,B|351:212|381:231|422:220|422:220|390:207|353:263,1,180,0|0,1:0|1:1,0:1:0:0:
297,281,110677,1,0,1:1:0:0:
297,281,110751,1,0,1:0:0:0:
297,281,110825,2,0,P|212:301|124:253,1,180,0|8,1:0|1:0,0:0:0:0:
128,174,111268,1,0,1:0:0:0:
248,173,111416,6,0,B|280:154|280:154|228:149|204:170|198:197|198:197|220:205|235:232,1,180,2|0,1:0|1:1,0:0:0:0:
327,214,111859,1,0,1:0:0:0:
369,134,112007,2,0,B|327:142|327:142|293:108|240:89|240:89|190:109,1,180,2|8,1:0|1:0,0:0:0:0:
129,91,112450,1,0,1:0:0:0:
163,179,112598,6,0,B|202:168|246:206|333:113,1,180,2|0,1:0|1:0,0:0:0:0:
291,54,113042,1,0,1:1:0:0:
291,54,113115,1,0,1:0:0:0:
291,54,113189,2,0,P|249:115|265:250,1,180,0|8,1:0|1:1,0:0:0:0:
321,247,113633,1,0,1:0:0:0:
389,191,113780,2,0,B|403:198|441:202|486:187|486:187|448:210|430:235|430:235|462:231,1,180,0|0,1:0|1:0,0:0:0:0:
463,153,114224,2,0,L|448:105,1,45,0|0,1:0|1:0,0:0:0:0:
461,97,114372,6,0,B|403:127|364:107|364:107|328:114|328:114|362:101|383:57,1,180,2|10,1:0|1:0,0:0:0:0:
408,32,114815,1,0,1:0:0:0:
307,37,114963,2,0,B|217:36|214:136|117:88,1,180,0|0,1:0|1:0,0:0:0:0:
74,138,115406,1,0,1:0:0:0:
74,138,115480,1,0,1:0:0:0:
74,138,115554,2,2,B|97:172|97:172|110:173|151:187,1,90,0|0,1:1|1:1,0:1:0:0:
149,265,115849,2,0,P|197:257|254:269,1,90,10|2,1:0|0:0,0:0:0:0:
227,340,116145,6,0,P|162:341|40:276,1,180,0|0,1:0|1:1,0:0:0:0:
38,216,116588,1,0,1:0:0:0:
97,170,116736,2,0,B|205:171|293:233,1,180,0|8,1:0|1:0,0:0:0:0:
322,156,117179,1,0,1:0:0:0:
270,79,117327,2,2,B|231:139|208:110|150:134|150:134|179:114|200:81,1,180,0|0,1:1|1:0,0:1:0:0:
202,32,117771,6,0,L|251:48,1,45,0|0,1:0|1:1,0:0:0:0:
197,18,117918,2,0,P|279:14|381:71,1,180,0|8,1:0|1:1,0:0:0:0:
406,126,118362,1,0,1:0:0:0:
346,191,118510,2,0,B|270:179|251:127|251:127|277:133|302:122,1,161.999995056153,0|0,1:0|0:1,0:0:0:0:
297,107,118805,6,0,B|331:115|415:203|370:322|370:322|255:229|104:258,1,530.099993529053,4|0,0:1|0:0,0:0:0:0:
102,264,121170,6,0,B|186:207|198:83|122:19|122:19|108:119|60:159|29:160|29:160|47:128|38:86,1,530.099993529053,2|0,0:0|0:0,0:0:0:0:
32,94,123534,6,0,B|115:187|244:178|287:106|287:106|349:260|474:227,1,530.099993529053,2|0,0:0|0:0,0:0:0:0:
456,221,125899,6,0,B|412:191|276:241|386:347|311:229|195:267|195:267|250:239|270:194|261:161|261:161|303:203|371:183,1,530.099993529053,2|0,0:0|0:0,0:0:0:0:
371,178,128263,6,0,B|367:236|362:329,1,135.000005149842,0|0,1:0|1:0,0:0:0:0:
303,369,128706,1,0,0:0:0:0:
206,322,128854,2,0,B|168:357|101:347|73:303,1,135.000005149842,0|0,1:0|1:0,0:0:0:0:
61,166,129298,5,0,0:0:0:0:
144,206,129445,2,0,B|216:194|296:168|296:168,1,135.000005149842,0|0,1:0|1:0,0:0:0:0:
343,124,129889,1,2,0:0:0:0:
343,124,130037,2,0,B|361:206,1,67.5000025749208,0|0,1:0|0:0,0:0:0:0:
424,49,130332,2,0,P|435:104|457:199,1,135.000005149842,0|0,1:0|1:0,0:0:0:0:
370,279,130923,5,0,1:0:0:0:
370,279,131219,2,0,P|291:263|235:241,1,135.000005149842,0|0,1:0|1:0,0:0:0:0:
155,317,131662,2,0,B|132:281|117:230|120:173,1,135.000005149842,0|2,1:0|0:0,0:0:0:0:
138,92,132106,1,0,1:0:0:0:
208,143,132253,1,2,0:0:0:0:
281,104,132401,2,0,B|257:14,1,67.5000025749208,0|2,1:0|0:0,0:0:0:0:
190,173,132697,2,0,L|211:250,1,67.5000025749208,0|2,1:0|0:0,0:0:0:0:
362,301,132992,6,0,P|377:256|383:194,1,90,0|0,1:0|1:0,0:0:0:0:
218,273,133288,1,0,1:0:0:0:
98,245,133436,1,0,1:0:0:0:
135,128,133583,2,0,P|220:147|322:181,1,180,0|0,1:0|1:0,0:0:0:0:
389,133,134027,5,0,1:0:0:0:
357,58,134174,1,0,1:0:0:0:
216,142,134322,1,0,1:0:0:0:
247,228,134470,1,0,1:0:0:0:
417,214,134618,5,2,1:2:0:0:
346,277,134766,1,0,1:0:0:0:
346,277,134913,2,0,P|357:342|365:385,1,90,0|0,1:0|1:0,0:0:0:0:
343,191,135209,2,0,P|334:149|322:102,1,90,0|0,1:0|1:0,0:0:0:0:
327,69,135431,1,2,0:0:0:0:
327,69,135505,2,0,L|275:54,1,45,2|2,0:0|0:0,0:0:0:0:
199,63,135652,2,0,L|209:112,3,45,2|2|2|2,0:0|0:0|0:0|0:0,0:0:0:0:
156,170,135948,2,0,L|167:221,3,45,2|2|2|2,3:0|3:0|3:0|3:0,0:0:0:0:
93,253,136244,6,0,B|164:337|239:345|338:286,1,270.000010299683,2|0,3:0|0:0,0:0:0:0:
410,330,136982,6,0,B|434:136,1,180,2|2,0:0|0:0,0:0:0:0:
400,75,137426,2,0,P|448:65|505:63,1,90,8|4,3:0|3:0,0:0:0:0:
375,211,137721,2,0,P|289:226|166:239,1,180,4|8,1:0|1:0,0:0:0:0:
86,250,138165,1,2,0:0:0:0:
65,153,138312,1,0,1:0:0:0:
65,153,138460,2,0,B|121:146|173:137,1,90,2|8,3:0|1:0,0:0:0:0:
280,257,138756,6,0,B|304:200|301:104|275:66,1,180,4|2,3:0|0:0,0:0:0:0:
178,43,139199,2,0,P|122:50|73:59,1,90,8|2,1:0|0:0,0:0:0:0:
153,183,139495,1,4,3:0:0:0:
248,161,139643,1,0,3:0:0:0:
248,161,139716,1,0,3:0:0:0:
248,161,139790,2,0,P|307:174|350:179,1,90,8|4,1:0|3:0,0:0:0:0:
201,322,140086,6,0,B|267:344|344:312|378:275,1,180,0|8,1:0|1:0,0:0:0:0:
480,280,140529,2,0,L|466:186,1,90,0|0,1:0|0:0,0:0:0:0:
476,85,140825,1,4,3:0:0:0:
358,100,140973,2,0,L|376:209,1,90,8|4,1:0|3:0,0:0:0:0:
371,298,141268,2,0,P|269:274|172:286,1,180,4|8,3:0|1:0,0:0:0:0:
35,168,141712,2,0,P|126:189|219:152,1,180,2|0,3:0|3:0,0:0:0:0:
205,162,142155,1,8,1:0:0:0:
154,98,142303,5,4,3:0:0:0:
279,116,142450,1,0,1:0:0:0:
226,43,142598,1,4,3:0:0:0:
69,55,142746,2,0,B|76:112|76:169,1,90,8|0,1:0|0:0,0:0:0:0:
57,246,143042,1,4,3:0:0:0:
159,283,143189,2,0,P|161:243|167:193,1,90,8|8,3:0|1:0,0:0:0:0:
330,125,143485,6,0,B|239:130|121:87,1,180,4|0,3:0|3:0,0:0:0:0:
247,32,143928,1,8,1:0:0:0:
266,163,144076,2,0,P|267:222|261:263,1,90,2|4,0:0|3:0,0:0:0:0:
101,268,144372,5,8,3:0:0:0:
120,168,144519,1,8,1:0:0:0:
26,199,144667,1,8,3:0:0:0:
26,199,144963,6,0,P|76:195|138:193,1,90,4|8,3:0|1:0,0:0:0:0:
207,196,145258,1,2,0:0:0:0:
272,297,145406,2,0,B|222:289|161:286,1,90,0|2,1:0|3:0,0:0:0:0:
96,283,145702,1,8,1:0:0:0:
195,154,145849,6,0,P|282:164|388:168,1,180,4|2,3:0|3:0,0:0:0:0:
290,78,146293,1,8,1:0:0:0:
178,74,146441,1,4,3:0:0:0:
72,113,146588,2,0,P|69:61|66:18,2,90,2|2|8,3:0|3:0|1:0,0:0:0:0:
167,36,147179,6,0,P|162:112|172:219,1,180,0|8,1:0|1:0,0:0:0:0:
248,161,147623,1,2,0:0:0:0:
78,189,147771,2,0,B|80:233|91:283,1,90,4|0,3:0|3:0,0:0:0:0:
89,279,147992,1,0,3:0:0:0:
89,279,148066,1,8,1:0:0:0:
262,254,148214,1,2,3:0:0:0:
188,303,148362,6,0,B|174:244|169:197,1,90,4|0,3:0|0:0,0:0:0:0:
152,123,148657,1,8,1:0:0:0:
271,35,148805,2,0,B|312:16|406:27|467:68,1,180,0|4,1:0|3:0,0:0:0:0:
412,186,149248,1,8,1:0:0:0:
356,116,149396,1,4,3:0:0:0:
303,180,149544,2,0,B|249:176|199:169,1,90,0|0,1:0|3:0,0:0:0:0:
127,80,149839,2,0,B|184:87|241:93,1,90,8|4,1:0|3:0,0:0:0:0:
235,277,150135,5,0,3:0:0:0:
144,245,150283,1,2,3:0:0:0:
81,313,150431,1,8,1:0:0:0:
81,313,150578,1,0,3:0:0:0:
3,195,150726,6,0,B|96:182|180:149,1,180,0|8,1:0|1:0,0:0:0:0:
251,241,151170,2,0,P|337:225|428:187,1,180,4|4,3:0|3:0,0:0:0:0:
354,143,151613,5,8,1:0:0:0:
348,282,151761,2,0,P|392:289|444:299,1,90,2|0,0:0|1:0,0:0:0:0:
238,234,152056,1,2,0:0:0:0:
248,346,152204,1,8,1:0:0:0:
160,298,152352,1,2,0:0:0:0:
337,307,152500,2,0,P|332:258|323:198,1,90,4|2,3:0|0:0,0:0:0:0:
341,126,152795,1,8,1:0:0:0:
219,88,152943,5,2,0:0:0:0:
99,116,153091,1,4,3:0:0:0:
155,30,153239,1,2,3:0:0:0:
301,81,153386,5,8,1:0:0:0:
301,81,153534,1,4,3:0:0:0:
225,227,153682,2,0,L|125:197,1,90,0|2,1:0|3:0,0:0:0:0:
138,201,153904,1,2,3:0:0:0:
138,201,153977,1,8,1:0:0:0:
292,287,154125,6,0,B|182:215|141:341|24:248,1,270.000010299683,2|2,3:0|0:0,0:0:0:0:
27,236,154790,1,2,0:0:0:0:
27,236,154864,2,0,B|50:166|28:91|28:91|36:46,1,180,2|8,0:0|1:0,0:0:0:0:
111,36,155308,5,8,3:0:0:0:
129,45,155455,1,0,1:0:0:0:
148,55,155603,1,2,0:0:0:0:
61,103,155751,5,0,1:0:0:0:
109,102,155899,1,2,0:0:0:0:
164,103,156046,1,0,1:0:0:0:
56,184,156194,5,2,0:0:0:0:
56,184,156490,6,0,B|156:171|219:249,1,180,4|0,1:0|1:0,0:0:0:0:
204,325,156934,2,0,P|159:326|113:329,1,90,8|0,1:0|1:0,0:0:0:0:
166,171,157229,1,0,1:0:0:0:
228,93,157376,1,4,3:0:0:0:
269,185,157524,1,8,1:0:0:0:
313,62,157672,6,0,P|410:79|492:108,1,180,2|0,3:0|0:0,0:0:0:0:
439,176,158115,2,0,P|445:238|454:291,1,90,8|2,1:0|0:0,0:0:0:0:
463,349,158411,1,4,3:0:0:0:
369,366,158559,1,4,3:0:0:0:
351,277,158706,1,8,1:0:0:0:
223,201,158854,5,0,1:0:0:0:
223,201,159002,2,0,P|229:248|238:307,1,90,4|2,1:0|3:0,0:0:0:0:
299,87,159298,2,0,B|299:127|305:196,1,90,8|2,1:0|3:0,0:0:0:0:
204,271,159593,2,0,B|203:229|194:162,1,90,4|4,3:0|3:0,0:0:0:0:
253,18,159889,5,8,1:0:0:0:
360,20,160037,2,0,B|405:57|410:136|375:189,1,180,0|0,1:0|0:0,0:0:0:0:
276,173,160480,1,8,1:0:0:0:
314,261,160628,1,2,3:0:0:0:
199,293,160775,6,0,P|127:279|15:266,1,180,2|8,3:0|1:0,0:0:0:0:
125,119,161219,2,0,B|142:168|152:229,1,90,4|0,1:0|0:0,0:0:0:0:
106,310,161514,1,4,3:0:0:0:
240,354,161662,2,0,B|236:301|209:243,1,90,8|4,1:0|3:0,0:0:0:0:
93,171,161958,5,8,3:0:0:0:
214,188,162106,1,2,3:0:0:0:
163,69,162253,1,8,1:0:0:0:
267,100,162401,5,0,1:0:0:0:
347,124,162549,1,0,1:0:0:0:
193,169,162697,1,4,3:0:0:0:
275,192,162844,1,8,1:0:0:0:
332,281,162992,6,0,P|226:296|145:305,1,180,2|2,3:0|3:0,0:0:0:0:
154,304,163362,1,2,3:0:0:0:
154,304,163436,1,8,1:0:0:0:
306,365,163583,6,0,B|402:362|483:292|480:169,1,270,4|8,1:0|1:0,0:0:0:0:
430,101,164174,1,4,3:0:0:0:
385,182,164322,1,0,1:0:0:0:
303,42,164470,5,0,1:0:0:0:
263,120,164618,2,0,P|210:102|149:90,1,90,8|4,1:0|3:0,0:0:0:0:
90,131,164913,1,0,1:0:0:0:
109,230,165061,1,0,1:0:0:0:
195,176,165209,1,0,1:0:0:0:
254,315,165357,2,0,P|204:309|139:286,1,90,4|0,1:3|1:0,0:0:0:0:
219,221,165652,2,0,B|277:223|324:248,1,90,4|0,1:3|1:0,0:0:0:0:
121,364,165948,6,0,B|49:356|2:323|-2:236,1,180,4|4,1:0|3:0,0:0:0:0:
106,189,166391,1,8,1:0:0:0:
110,96,166538,1,8,3:0:0:0:
21,136,166687,1,0,1:0:0:0:
184,152,166835,2,0,L|291:140,1,90,2|8,3:0|1:0,0:0:0:0:
235,55,167130,5,4,3:0:0:0:
240,232,167278,2,0,B|328:268|451:212|465:104,1,270,0|2,1:0|0:0,0:0:0:0:
333,79,167869,1,0,1:0:0:0:
352,176,168017,1,2,0:0:0:0:
256,151,168165,1,8,1:0:0:0:
328,269,168312,5,2,3:0:0:0:
328,269,168386,1,2,3:0:0:0:
328,269,168460,2,0,B|374:276|438:298,1,90,4|0,1:0|0:0,0:0:0:0:
222,352,168756,2,0,B|148:364|72:321,1,135,8|2,1:0|0:0,0:0:0:0:
83,253,169051,2,0,L|33:262,3,45,2|2|2|2,1:2|0:0|0:0|0:0,0:0:0:0:
143,194,169347,5,8,1:0:0:0:
143,194,169421,1,2,0:0:0:0:
143,194,169495,2,0,L|144:140,3,45,2|2|2|2,0:0|0:0|0:0|0:0,0:0:0:0:
218,242,169790,2,0,P|227:149|218:52,1,180,8|0,3:0|3:0,0:0:0:0:
78,61,170234,1,4,3:0:0:0:
312,40,170381,5,8,3:0:0:0:
320,135,170529,1,8,1:0:0:0:
248,225,170677,2,0,B|339:210|431:227,1,180,4|2,1:0|3:0,0:0:0:0:
504,193,171120,2,0,P|507:148|515:82,1,90,8|2,1:0|3:0,0:0:0:0:
414,130,171416,1,4,3:0:0:0:
344,214,171564,2,0,P|347:272|343:336,1,90,8|8,3:0|1:0,0:0:0:0:
512,273,171859,6,0,P|454:271|402:275,1,90,2|0,3:0|1:0,0:0:0:0:
305,118,172155,2,0,P|363:120|415:116,1,90,2|8,3:0|1:0,0:0:0:0:
203,292,172450,2,0,P|247:290|292:292,1,90,4|8,3:0|3:0,0:0:0:0:
189,104,172746,2,0,P|144:105|99:103,1,90,0|8,1:0|1:0,0:0:0:0:
248,188,173042,1,4,3:0:0:0:
140,238,173189,6,0,B|60:202|36:64|120:-6,1,270,4|0,1:0|1:0,0:0:0:0:
350,145,173780,2,0,B|435:171|459:309|379:381,1,270,0|2,1:0|3:0,0:0:0:0:
274,357,174372,2,0,B|289:292|296:240,1,90,4|2,1:0|0:0,0:0:0:0:
211,179,174667,5,8,1:0:0:0:
228,86,174815,1,4,3:0:0:0:
304,142,174963,1,8,3:0:0:0:
278,244,175111,5,2,3:0:0:0:
368,218,175258,1,8,1:0:0:0:
211,179,175406,1,8,3:0:0:0:
241,96,175554,6,0,P|334:85|463:81,2,215.999993408203,4|0|0,1:0|1:0|1:0,0:0:0:0:
119,117,176441,5,0,1:0:0:0:
38,74,176589,1,2,0:0:0:0:
114,21,176737,1,0,1:0:0:0:
198,164,176885,5,2,0:0:0:0:
185,72,177033,1,0,1:0:0:0:
269,108,177180,1,2,0:0:0:0:
228,260,177328,5,0,1:0:0:0:
283,183,177476,1,2,0:0:0:0:
315,271,177624,1,0,1:0:0:0:
315,271,177772,1,2,0:0:0:0:
398,238,177918,6,0,B|399:176|390:117,2,107.999996704102,0|4|0,1:0|3:0|1:0,0:0:0:0:
478,287,178362,1,2,3:0:0:0:
478,287,178436,1,2,3:0:0:0:
478,287,178510,2,0,L|465:341,3,53.9999983520508,0|2|2|2,1:0|1:2|1:2|1:2,0:0:0:0:
383,332,178805,1,2,1:2:0:0:
383,332,178879,1,2,1:2:0:0:
383,332,178953,2,0,B|237:384|148:262,1,215.999993408203,4|0,1:0|1:0,0:0:0:0:
188,197,179396,1,0,1:0:0:0:
273,221,179544,2,0,P|270:155|266:74,1,135.000005149842,0|0,1:0|1:0,0:0:0:0:
266,86,180135,5,8,3:0:0:0:
256,192,180209,12,2,182647,3:0:0:0:
88,192,189741,5,2,0:0:0:0:
88,192,189889,1,2,0:0:0:0:
88,192,190037,1,2,0:0:0:0:
170,208,190184,2,0,B|173:145|138:100,1,107.999996704102,2|0,0:0|0:0,0:0:0:0:
142,105,190628,1,2,0:0:0:0:
189,44,190776,2,0,P|245:52|313:56,1,107.999996704102,2|0,0:0|0:0,0:0:0:0:
374,43,191219,1,2,0:0:0:0:
352,126,191367,1,2,0:0:0:0:
198,117,191662,5,2,0:0:0:0:
277,89,191810,2,0,P|273:129|269:163,1,53.9999983520508,2|2,0:0|0:0,0:0:0:0:
238,235,192106,5,2,0:0:0:0:
238,235,192253,1,2,0:0:0:0:
238,235,192401,1,2,0:0:0:0:
289,289,192549,2,0,P|343:278|402:278,1,107.999996704102,2|0,0:0|0:0,0:0:0:0:
395,277,192992,2,0,P|407:308|412:352,1,53.9999983520508,2|2,0:0|0:0,0:0:0:0:
361,195,193436,2,0,L|292:204,1,53.9999983520508,0|2,0:0|0:0,0:0:0:0:
229,218,193731,1,2,0:0:0:0:
446,213,194027,5,2,0:0:0:0:
453,131,194175,2,0,L|459:61,1,53.9999983520508,2|2,0:0|0:0,0:0:0:0:
228,45,194470,6,0,B|219:97|251:153,1,107.999996704102,2|2,0:0|0:0,0:0:0:0:
317,183,194914,2,0,B|335:239|308:305,1,107.999996704102,2|2,0:0|0:0,0:0:0:0:
228,275,195357,1,0,0:0:0:0:
163,166,195505,2,0,B|114:167|50:152,1,107.999996704102,2|0,0:0|0:0,0:0:0:0:
55,153,195948,2,0,P|66:117|72:92,1,53.9999983520508,2|2,0:0|0:0,0:0:0:0:
35,267,196391,5,2,0:0:0:0:
96,317,196539,2,0,P|132:320|164:328,1,53.9999983520508,2|2,0:0|0:0,0:0:0:0:
242,196,196835,5,2,0:0:0:0:
242,196,196982,1,2,0:0:0:0:
242,196,197130,1,2,0:0:0:0:
286,117,197278,2,0,P|236:107|166:137,1,107.999996704102,2|2,0:0|0:0,0:0:0:0:
182,123,197721,1,2,0:0:0:0:
121,180,197869,2,0,B|144:224|168:302,1,107.999996704102,2|0,0:0|0:0,0:0:0:0:
199,369,198312,1,2,0:0:0:0:
286,341,198460,1,2,0:0:0:0:
286,341,198756,5,2,0:0:0:0:
400,345,198904,1,2,0:0:0:0:
336,250,199051,1,2,0:0:0:0:
247,259,199200,6,0,B|242:154|351:125,1,180,4|8,1:0|1:0,0:0:0:0:
303,34,199643,2,0,B|396:-2|485:75,1,180,0|0,1:0|1:0,0:0:0:0:
431,158,200086,2,0,P|438:210|446:252,1,90,8|2,1:0|3:0,0:0:0:0:
512,184,200382,1,4,3:0:0:0:
359,232,200530,5,0,3:0:0:0:
359,232,200678,2,0,B|302:219|254:214|254:214,1,90,8|2,1:0|0:0,0:0:0:0:
254,145,200973,2,0,P|210:137|166:131,1,90,4|2,3:0|0:0,0:0:0:0:
82,140,201269,1,8,1:0:0:0:
101,222,201417,1,0,1:0:0:0:
0,109,201564,6,0,B|37:51|97:21|168:40,1,180,0|8,1:0|1:0,0:0:0:0:
249,70,202008,2,0,B|253:131|312:182|382:180,1,180,4|2,3:0|0:0,0:0:0:0:
467,170,202451,1,8,1:0:0:0:
435,94,202599,1,4,3:0:0:0:
371,145,202747,5,0,1:0:0:0:
431,11,202894,2,0,P|478:30|527:58,1,90,2|8,3:0|1:0,0:0:0:0:
321,71,203190,2,0,P|303:119|273:163,1,90,4|4,3:0|3:0,0:0:0:0:
183,13,203485,1,2,3:0:0:0:
116,69,203633,1,8,1:0:0:0:
193,111,203781,1,0,1:0:0:0:
267,236,203929,6,0,B|208:203|142:213|93:280,1,180,0|8,1:0|1:0,0:0:0:0:
43,361,204372,2,0,B|-3:178,1,180,2|4,3:0|3:0,0:0:0:0:
11,94,204815,1,8,1:0:0:0:
99,147,204963,1,2,3:0:0:0:
196,188,205111,2,0,B|298:168,2,90,4|2|8,3:0|3:0|1:0,0:0:0:0:
131,122,205554,6,0,B|210:87|322:83,1,180,2|4,3:0|3:0,0:0:0:0:
389,153,205998,1,8,1:0:0:0:
417,63,206146,1,4,3:0:0:0:
510,176,206293,6,0,B|516:221|473:252|430:269|430:269|399:231,1,180,4|8,3:0|1:0,0:0:0:0:
307,200,206737,1,2,0:0:0:0:
314,102,206884,2,0,B|275:104|219:115,1,90,0|4,1:0|3:0,0:0:0:0:
128,136,207179,1,8,1:0:0:0:
148,231,207327,1,4,3:0:0:0:
240,217,207476,2,0,P|296:208|342:197,1,90,8|0,3:0|3:0,0:0:0:0:
442,186,207771,1,8,1:0:0:0:
468,304,207918,1,2,0:0:0:0:
365,345,208067,5,4,3:0:0:0:
289,281,208215,1,8,3:0:0:0:
196,310,208362,1,8,1:0:0:0:
134,256,208510,1,4,3:0:0:0:
167,179,208657,6,0,P|295:175|369:171,1,180,0|8,1:0|1:0,0:0:0:0:
481,155,209101,2,0,B|504:87|470:24|386:14,1,180,4|4,3:0|3:0,0:0:0:0:
318,89,209544,2,0,P|256:91|191:95,1,90,8|2,1:0|3:0,0:0:0:0:
117,66,209840,2,0,P|134:123|146:176,1,90,2|0,3:0|3:0,0:0:0:0:
302,181,210135,5,8,1:0:0:0:
271,275,210283,2,0,B|387:268|403:138,1,180,4|4,3:0|3:0,0:0:0:0:
212,73,210726,1,8,1:0:0:0:
228,156,210874,1,4,3:0:0:0:
205,330,211022,6,0,B|140:350|65:329|27:263,1,180,0|8,1:0|1:0,0:0:0:0:
0,221,211465,2,0,P|9:179|22:121,1,90,2|4,3:0|3:0,0:0:0:0:
193,151,211761,1,2,0:0:0:0:
124,239,211909,2,0,P|179:240|224:219,1,90,8|4,1:0|3:0,0:0:0:0:
114,120,212204,1,8,3:0:0:0:
273,172,212352,2,0,P|293:128|299:71,1,90,2|8,3:0|1:0,0:0:0:0:
218,70,212647,5,2,3:0:0:0:
368,169,212795,1,4,3:0:0:0:
280,274,212943,1,8,3:0:0:0:
130,211,213091,1,8,1:0:0:0:
213,163,213239,1,2,0:0:0:0:
193,343,213386,6,0,B|257:374|330:369|382:321,1,180,4|8,3:0|1:0,0:0:0:0:
466,318,213830,2,0,L|486:219,1,90,4|0,3:0|0:0,0:0:0:0:
431,105,214125,1,4,3:0:0:0:
370,176,214273,1,8,1:0:0:0:
288,129,214421,1,2,3:0:0:0:
336,56,214569,6,0,P|391:69|442:80,1,90,0|0,1:0|3:0,0:0:0:0:
250,201,214864,1,8,1:0:0:0:
375,150,215012,2,0,B|332:139|271:125,1,90,2|0,3:0|0:0,0:0:0:0:
118,138,215308,5,4,3:0:0:0:
24,193,215455,1,8,1:0:0:0:
29,86,215603,1,4,3:0:0:0:
112,244,215751,5,0,1:0:0:0:
204,111,215899,1,0,1:0:0:0:
87,144,216046,1,8,1:0:0:0:
209,192,216194,1,2,0:0:0:0:
316,147,216342,6,0,P|326:108|333:48,1,90,4|2,3:0|0:0,0:0:0:0:
298,233,216638,1,8,1:0:0:0:
298,233,216785,1,4,3:0:0:0:
411,238,216933,2,0,P|426:194|433:138,1,90,4|2,3:0|3:0,0:0:0:0:
372,328,217229,1,8,1:0:0:0:
372,328,217377,1,2,3:0:0:0:
277,306,217524,5,4,3:0:0:0:
400,242,217672,1,8,3:0:0:0:
310,142,217819,1,8,1:0:0:0:
179,200,217967,1,4,3:0:0:0:
246,233,218115,5,4,0:1:0:0:
118,258,220480,5,2,0:0:0:0:
127,242,220628,1,2,0:0:0:0:
117,224,220776,1,2,0:0:0:0:
130,205,220923,1,2,0:0:0:0:
330,239,225209,5,2,0:0:0:0:
339,194,225357,1,2,0:0:0:0:
385,192,225505,1,2,0:0:0:0:
394,143,225652,1,2,0:0:0:0:
234,352,227574,6,0,B|176:341|91:336,1,135.000005149842,0|0,1:0|1:0,0:0:0:0:
14,266,228017,1,0,3:0:0:0:
20,181,228165,2,0,B|-15:143|-5:76|39:48,1,135.000005149842,0|0,1:0|1:0,0:0:0:0:
138,168,228608,5,0,3:0:0:0:
168,248,228756,2,0,B|241:258|324:268|324:268,1,135.000005149842,0|0,1:0|1:0,0:0:0:0:
377,229,229200,1,2,3:0:0:0:
377,229,229348,2,0,B|359:146,1,67.5000025749208,0|0,1:0|0:0,0:0:0:0:
422,91,229643,2,0,P|355:82|276:72,1,135.000005149842,0|0,1:0|1:0,0:0:0:0:
60,49,230234,5,0,1:0:0:0:
60,49,230530,2,0,P|86:125|95:184,1,135.000005149842,0|0,1:0|1:0,0:0:0:0:
87,275,230973,2,0,B|123:252|174:237|231:240,1,135.000005149842,2|2,0:0|0:0,0:0:0:0:
349,231,231417,1,0,1:0:0:0:
282,173,231564,1,2,0:0:0:0:
371,154,231712,2,0,B|461:130,1,67.5000025749208,0|0,1:0|0:0,0:0:0:0:
469,281,232008,2,0,L|448:204,1,67.5000025749208,0|0,1:0|0:0,0:0:0:0:
282,288,232303,6,0,P|248:276|202:270,1,67.5000025749208,0|0,1:0|1:0,0:0:0:0:
361,270,232599,1,0,1:0:0:0:
339,114,232747,1,4,3:0:0:0:
209,189,232894,2,0,B|137:211|80:171|65:107,1,180,0|0,1:0|1:0,0:0:0:0:
178,47,233338,5,2,0:0:0:0:
239,107,233485,1,0,1:0:0:0:
391,47,233633,1,2,0:0:0:0:
339,114,233781,1,0,1:0:0:0:
409,254,233929,5,8,3:0:0:0:
340,208,234077,1,0,1:0:0:0:
340,208,234224,2,0,P|299:259|272:294,1,90,2|0,3:0|1:0,0:0:0:0:
189,319,234520,2,0,P|155:288|120:261,1,90,2|4,3:0|1:3,0:0:0:0:
63,266,234742,1,0,1:0:0:0:
63,266,234816,2,0,L|78:214,1,45,0|0,1:0|1:0,0:0:0:0:
39,174,234963,6,0,L|88:164,3,45,4|0|0|0,1:3|1:0|1:0|1:0,0:0:0:0:
83,91,235259,2,0,L|129:115,3,45,4|4|6|6,1:3|1:3|1:3|1:3,0:0:0:0:
180,51,235554,5,6,1:3:0:0:
180,51,235628,1,6,1:3:0:0:
180,51,235702,2,0,B|203:103|224:182,1,135,4|0,1:2|0:0,0:0:0:0:
238,221,235997,6,0,P|222:138|223:45,1,161.999995056153,4|0,1:2|0:0,0:0:0:0:
229,9,236293,6,0,B|226:88|194:226,1,202.500007724762,4|0,1:2|0:0,0:0:0:0:
128,241,236588,5,4,1:2:0:0:
128,241,236884,6,0,B|187:213|267:224|309:289,1,180,4|0,1:0|1:0,0:0:0:0:
370,250,237328,2,0,P|369:204|366:159,1,90,8|4,1:0|3:0,0:0:0:0:
221,63,237623,1,4,3:0:0:0:
283,141,237770,1,8,3:0:0:0:
324,49,237918,1,8,1:0:0:0:
448,46,238066,6,0,P|455:146|462:242,1,180,2|2,3:0|3:0,0:0:0:0:
474,329,238509,2,0,P|412:335|359:344,1,90,8|2,1:0|3:0,0:0:0:0:
239,351,238805,1,4,3:0:0:0:
227,256,238953,1,8,3:0:0:0:
213,164,239100,1,8,1:0:0:0:
325,202,239248,5,0,1:0:0:0:
325,202,239396,2,0,P|319:155|310:96,1,90,4|4,1:0|3:0,0:0:0:0:
107,206,239692,2,0,B|107:246|113:315,1,90,8|4,1:0|3:0,0:0:0:0:
218,253,239987,2,0,B|217:211|211:152,1,90,0|4,1:0|3:0,0:0:0:0:
18,197,240283,5,8,1:0:0:0:
10,95,240431,2,0,B|47:50|126:45|179:80,1,180,0|2,1:0|0:0,0:0:0:0:
287,101,240874,1,8,1:0:0:0:
267,5,241022,1,2,1:2:0:0:
387,9,241169,6,0,P|401:81|414:193,1,180,0|8,1:0|1:0,0:0:0:0:
251,202,241613,2,0,B|300:185|361:175,1,90,4|0,1:0|1:0,0:0:0:0:
512,185,241908,1,2,3:0:0:0:
497,78,242056,2,0,B|449:94|388:111,1,90,8|2,1:0|3:0,0:0:0:0:
366,267,242352,5,0,1:0:0:0:
231,290,242500,1,4,3:0:0:0:
266,164,242647,1,8,1:0:0:0:
162,234,242795,5,0,1:0:0:0:
73,243,242943,1,0,1:0:0:0:
15,93,243091,1,2,1:2:0:0:
94,83,243238,1,8,1:0:0:0:
173,160,243386,2,0,B|189:224|235:262|334:266,1,180,4|0,3:0|1:0,0:0:0:0:
304,263,243756,1,0,1:0:0:0:
304,263,243830,1,8,1:0:0:0:
142,308,243977,6,0,B|154:107|165:36,1,270,4|8,1:0|1:0,0:0:0:0:
276,26,244568,1,0,3:0:0:0:
260,142,244716,1,4,3:0:0:0:
175,113,244864,5,8,3:0:0:0:
328,98,245012,2,0,P|381:116|442:128,1,90,8|0,1:0|1:0,0:0:0:0:
285,216,245308,2,0,P|239:235|192:266,1,90,4|4,1:0|1:3,1:3:0:0:
218,351,245603,1,8,1:3:0:0:
353,296,245751,2,0,P|397:317|456:328,1,90,4|4,1:3|1:0,0:0:0:0:
406,215,246046,2,0,B|463:217|495:203|514:198,1,90,2|2,1:2|1:2,0:0:0:0:
464,52,246342,6,0,B|358:38|251:-6,1,180,4|0,1:0|1:0,0:0:0:0:
165,124,246785,1,8,1:0:0:0:
165,27,246932,1,2,3:0:0:0:
80,71,247081,1,4,3:0:0:0:
0,175,247229,2,0,L|100:204,1,90,8|8,3:0|1:0,0:0:0:0:
247,83,247524,5,2,1:2:0:0:
169,31,247672,2,0,B|127:97|120:230|170:324,1,270,2|2,1:2|3:0,0:0:0:0:
240,381,248263,1,4,3:0:0:0:
240,381,248337,1,4,3:0:0:0:
240,381,248411,2,0,P|293:374|353:376,1,90,8|8,3:0|1:0,0:0:0:0:
480,307,248706,6,0,B|515:252|516:187|481:126,1,180,4|4,1:0|3:0,0:0:0:0:
337,244,249150,2,0,L|353:292,3,45,8|2|2|2,1:0|1:2|1:2|1:2,0:0:0:0:
260,205,249445,2,0,L|212:221,3,45,2|2|2|2,1:2|1:2|1:2|1:2,0:0:0:0:
256,124,249741,5,8,1:0:0:0:
256,124,249815,1,2,1:2:0:0:
256,124,249889,2,0,L|275:79,3,45,2|2|2|2,1:2|1:2|1:2|1:2,0:0:0:0:
330,152,250184,2,0,B|387:95|452:100|506:114,1,180,4|4,3:0|3:0,0:0:0:0:
512,238,250628,2,0,B|408:245,1,90,0|0,1:0|1:0,0:0:0:0:
192,191,250923,5,8,1:0:0:0:
231,289,251071,2,0,B|149:336|22:296|-4:208,1,270,4|8,1:0|1:0,0:0:0:0:
42,79,251662,1,4,3:0:0:0:
106,146,251810,2,0,P|103:198|101:251,1,90,8|4,3:0|3:0,0:0:0:0:
271,199,252105,1,8,1:0:0:0:
193,157,252253,6,0,B|188:109|188:51,1,90,2|0,3:0|1:0,0:0:0:0:
441,146,252549,2,0,B|445:188|449:237,1,90,0|8,1:0|1:0,0:0:0:0:
297,220,252844,2,0,B|292:172|292:114,1,90,0|0,1:0|1:0,0:0:0:0:
111,217,253140,2,0,B|115:259|119:308,1,90,0|8,1:0|1:0,0:0:0:0:
295,296,253435,5,4,1:0:0:0:
398,229,253583,1,0,1:0:0:0:
270,215,253731,2,0,B|214:214|162:171,1,90,4|8,3:0|1:0,0:0:0:0:
224,53,254026,1,2,3:0:0:0:
368,79,254175,2,0,P|330:103|287:117,1,90,4|8,3:0|3:0,0:0:0:0:
64,129,254470,2,0,P|111:139|147:168,1,90,8|0,1:0|1:0,0:0:0:0:
189,320,254766,6,0,P|223:283|357:277,1,180,0|0,1:0|1:0,0:0:0:0:
223,188,255209,2,0,P|168:219|38:199,1,180,4|4,1:3|1:3,0:0:0:0:
16,129,255652,1,0,1:0:0:0:
144,16,255800,6,0,B|235:47|346:78,1,180,4|0,1:0|1:0,0:0:0:0:
436,61,256244,2,0,P|420:103|407:147,1,90,8|4,1:0|3:0,0:0:0:0:
277,255,256539,1,4,3:0:0:0:
218,139,256686,1,8,3:0:0:0:
333,155,256834,1,8,1:0:0:0:
190,233,256982,6,0,P|93:216|11:187,1,180,2|2,1:2|3:0,0:0:0:0:
29,91,257426,2,0,P|88:108|139:127,1,90,8|2,1:0|3:0,0:0:0:0:
309,179,257721,1,0,1:0:0:0:
390,128,257869,1,4,3:0:0:0:
344,50,258016,1,8,1:0:0:0:
214,137,258164,5,4,1:3:0:0:
154,229,258312,2,0,P|201:223|260:214,1,90,4|4,1:0|3:0,0:0:0:0:
72,192,258608,2,0,B|72:232|78:301,1,90,8|4,1:0|3:0,0:0:0:0:
324,336,258903,2,0,B|323:294|314:227,1,90,8|4,3:0|3:0,0:0:0:0:
276,53,259199,5,8,1:0:0:0:
465,70,259347,2,0,B|503:130|503:263|454:348,1,270,2|8,3:0|1:0,0:0:0:0:
462,331,259938,1,0,1:0:0:0:
402,200,260085,6,0,P|330:186|218:173,1,180,0|8,1:0|1:0,0:0:0:0:
128,183,260529,2,0,B|145:232|155:293,1,90,4|0,1:0|0:0,0:0:0:0:
306,268,260824,1,2,1:2:0:0:
314,165,260972,2,0,B|310:112|283:54,1,90,8|4,1:0|3:0,0:0:0:0:
122,104,261268,5,8,3:0:0:0:
222,187,261416,1,2,3:0:0:0:
212,312,261563,1,8,1:0:0:0:
208,101,261711,5,4,3:0:0:0:
136,187,261859,1,0,1:0:0:0:
310,196,262007,1,4,3:0:0:0:
237,285,262154,1,8,1:0:0:0:
348,310,262302,2,0,P|363:204|372:123,1,180,4|4,3:0|3:0,0:0:0:0:
371,131,262672,1,4,3:0:0:0:
371,131,262746,1,8,1:0:0:0:
121,56,262893,6,0,B|43:112|15:215|86:315,1,270,4|8,3:0|1:0,0:0:0:0:
132,371,263484,1,2,3:0:0:0:
219,340,263632,1,4,3:0:0:0:
124,198,263780,1,8,3:0:0:0:
199,234,263928,2,0,P|252:216|313:204,1,90,8|0,1:0|1:0,0:0:0:0:
375,187,264223,5,4,1:0:0:0:
260,94,264371,1,0,1:0:0:0:
421,75,264519,1,0,1:0:0:0:
293,182,264667,2,0,P|243:176|178:153,1,90,4|0,1:3|1:0,0:0:0:0:
181,57,264963,2,0,B|239:59|286:84,1,90,4|0,1:3|1:0,0:0:0:0:
470,163,265258,6,0,B|462:235|429:282|342:286,1,180,4|0,1:0|1:0,0:0:0:0:
252,271,265701,1,8,1:0:0:0:
161,327,265848,1,0,1:0:0:0:
269,369,265997,1,4,3:0:0:0:
144,248,266145,2,0,L|132:141,1,90,8|8,3:0|1:0,0:0:0:0:
135,25,266440,5,4,3:0:0:0:
0,87,266588,2,0,B|9:185|16:304,1,180,0|8,1:0|1:0,0:0:0:0:
78,338,267032,1,2,1:2:0:0:
128,228,267179,1,2,1:3:0:0:
175,300,267327,1,4,1:3:0:0:
222,204,267475,1,8,1:0:0:0:
296,305,267622,5,4,1:0:0:0:
296,305,267697,1,0,1:0:0:0:
296,305,267770,2,0,B|342:298|406:276,1,90,0|0,1:0|1:0,0:0:0:0:
425,217,268066,2,0,L|416:167,3,45,8|2|2|2,1:0|1:2|1:2|1:2,0:0:0:0:
490,277,268362,2,0,L|499:327,3,45,2|2|2|2,1:2|1:2|1:2|1:2,0:0:0:0:
408,297,268657,5,8,1:0:0:0:
408,297,268731,1,2,1:2:0:0:
408,297,268805,2,0,L|400:351,3,45,2|2|6|6,1:2|1:2|1:3|1:3,0:0:0:0:
501,247,269100,2,0,P|523:163|515:49,1,180,6|2,1:3|1:2,0:0:0:0:
419,16,269544,1,2,1:2:0:0:
302,174,269691,5,4,1:3:0:0:
396,126,269839,1,8,1:0:0:0:
314,31,269987,2,0,B|223:46|131:29,1,180,4|0,1:0|1:0,0:0:0:0:
34,128,270430,2,0,P|28:84|31:17,1,90,8|4,1:0|3:0,0:0:0:0:
209,183,270726,1,0,1:0:0:0:
115,119,270874,2,0,P|118:177|114:241,1,90,0|8,1:0|1:0,0:0:0:0:
86,324,271170,6,0,P|144:326|196:322,1,90,2|0,1:2|1:0,0:0:0:0:
292,102,271465,2,0,P|350:104|402:100,1,90,2|8,1:2|1:0,0:0:0:0:
392,333,271761,2,0,P|348:335|303:333,1,90,2|4,1:2|1:3,0:0:0:0:
165,100,272056,2,0,P|120:101|75:99,1,90,4|8,1:3|1:0,0:0:0:0:
256,196,272352,1,0,1:0:0:0:
243,279,272499,6,0,B|305:340|442:313|477:210,1,270,4|0,1:0|1:0,0:0:0:0:
271,115,273090,2,0,B|245:30|107:6|35:86,1,270,0|4,1:0|1:3,0:0:0:0:
0,222,273682,2,0,B|65:237|117:244,1,90,4|2,1:0|1:3,0:0:0:0:
209,216,273977,5,8,1:0:0:0:
346,239,274125,1,0,1:0:0:0:
275,165,274273,1,0,1:0:0:0:
234,287,274421,5,2,1:2:0:0:
119,201,274568,1,8,1:0:0:0:
64,271,274716,1,4,1:3:0:0:
0,145,274864,5,4,1:0:0:0:
206,212,275160,5,0,1:0:0:0:
412,285,275455,5,0,1:0:0:0:
261,120,275751,5,0,1:0:0:0:
192,61,275899,1,4,3:0:0:0:
287,26,276047,1,0,1:0:0:0:
327,185,276195,5,6,3:0:0:0:
338,83,276343,1,0,1:0:0:0:
409,146,276490,1,2,3:0:0:0:
336,285,276638,5,0,1:0:0:0:
412,212,276786,1,2,3:0:0:0:
430,325,276934,1,0,1:0:0:0:
430,325,277082,1,2,3:0:0:0:
291,352,277229,6,0,P|234:335|163:324,1,107.999996704102,0|0,1:0|1:0,0:0:0:0:
37,181,277525,1,0,1:0:0:0:
14,300,277673,2,0,B|142:290|173:173,1,215.999993408203,0|2,1:0|1:2,0:0:0:0:
124,120,278042,1,2,1:2:0:0:
124,120,278116,1,2,1:2:0:0:
124,120,278190,1,2,1:2:0:0:
124,120,278264,2,0,P|214:193|287:190,1,161.999995056153,4|0,1:0|0:0,0:0:0:0:
329,242,278559,2,0,L|358:130,1,107.999996704102,4|8,1:3|1:3,0:0:0:0:
229,287,278855,6,0,B|238:220|328:174|386:220,1,202.500007724762,0|0,1:0|1:0,0:0:0:0:
385,219,279593,6,0,B|278:204|186:196,1,180,4|8,1:0|1:0,0:0:0:0:
128,275,280037,2,0,B|235:290|327:298,1,180,0|4,1:0|3:0,0:0:0:0:
384,343,280480,2,0,P|436:336|478:328,1,90,8|4,1:0|3:0,0:0:0:0:
446,190,280776,6,0,B|448:206|443:158|430:101,1,90,4|2,3:0|3:0,0:0:0:0:
383,18,281071,1,8,1:0:0:0:
321,98,281218,1,2,0:0:0:0:
227,61,281366,2,0,P|232:104|241:149,1,90,0|2,1:0|0:0,0:0:0:0:
307,212,281662,1,8,1:0:0:0:
349,125,281810,1,4,3:0:0:0:
294,25,281957,6,0,B|228:3|163:17|120:77,1,180,4|8,3:0|1:0,0:0:0:0:
35,115,282401,1,2,0:0:0:0:
77,186,282549,2,0,P|136:182|186:180,1,90,2|4,3:0|3:0,0:0:0:0:
239,128,282844,1,8,1:0:0:0:
300,199,282992,1,4,3:0:0:0:
367,147,283141,6,0,P|320:128|271:100,1,90,0|4,1:0|3:0,0:0:0:0:
232,261,283436,2,0,P|184:243|140:213,1,90,8|2,1:0|0:0,0:0:0:0:
314,384,283731,2,0,P|355:341|380:295,1,90,4|4,3:0|3:0,0:0:0:0:
359,228,284026,1,8,1:0:0:0:
269,188,284174,1,0,0:0:0:0:
174,329,284322,6,0,B|107:321|60:274|60:191,1,180,0|8,1:0|1:0,0:0:0:0:
37,127,284765,2,0,P|138:130|222:85,1,180,2|4,0:0|3:0,0:0:0:0:
249,23,285209,2,0,P|291:49|341:63,1,90,8|2,1:0|0:0,0:0:0:0:
376,139,285504,2,0,B|436:168|444:234|444:234|480:170,1,180,0|8,1:0|1:0,0:0:0:0:
454,94,285948,6,0,B|380:103|263:126,1,180,2|2,3:0|3:0,0:0:0:0:
187,157,286391,1,8,1:0:0:0:
142,75,286539,1,4,3:0:0:0:
249,53,286686,6,0,B|238:147|247:249,1,180,4|8,3:0|1:0,0:0:0:0:
345,221,287130,1,4,3:0:0:0:
348,141,287278,2,0,B|346:102|335:46,1,90,2|4,0:0|3:0,0:0:0:0:
177,156,287573,2,0,B|185:203|197:262,1,90,8|4,1:0|3:0,0:0:0:0:
18,237,287869,2,0,P|27:293|38:339,1,90,4|0,3:0|3:0,0:0:0:0:
65,166,288164,2,0,B|52:103|45:46,1,90,8|2,1:0|0:0,0:0:0:0:
147,77,288460,5,4,3:0:0:0:
212,15,288608,1,4,3:0:0:0:
299,18,288755,1,8,1:0:0:0:
357,81,288903,1,4,3:0:0:0:
327,191,289051,5,4,3:0:0:0:
327,191,289125,1,4,3:0:0:0:
327,191,289199,2,0,B|275:184|235:169|235:169,1,90,4|8,3:0|1:0,0:0:0:0:
159,199,289420,1,8,3:0:0:0:
159,199,289494,2,0,B|195:302|324:285,1,180,8|4,3:0|3:0,0:0:0:0:
383,257,289938,2,0,L|364:152,1,90,8|4,1:0|3:0,0:0:0:0:
421,40,290233,6,0,B|386:23|326:28|326:28|339:72|284:120,1,180,2|8,1:2|1:0,0:0:0:0:
229,129,290677,2,0,B|252:252|145:306,1,180,4|0,3:0|1:0,0:0:0:0:
87,310,291120,1,8,1:0:0:0:
49,219,291268,1,4,3:0:0:0:
157,180,291416,6,0,P|253:197|342:213,1,180,4|8,3:0|1:0,0:0:0:0:
399,103,291859,1,4,3:0:0:0:
399,103,292007,2,0,P|351:95|292:83,1,90,4|4,3:0|3:0,0:0:0:0:
185,81,292302,6,0,B|184:114|186:155|245:181|245:181|234:157|240:129,1,180,8|0,1:0|1:0,0:0:0:0:
313,105,292746,1,2,3:0:0:0:
316,108,292894,1,8,1:0:0:0:
320,112,293041,2,0,B|319:102|330:162|333:215,1,90,2|4,0:0|3:0,0:0:0:0:
248,316,293337,1,2,0:0:0:0:
169,305,293485,2,0,P|163:259|151:198,1,90,8|4,1:0|3:0,0:0:0:0:
94,161,293780,6,0,B|116:202|172:209|215:205|215:205|279:234,1,180,0|8,1:0|1:0,0:0:0:0:
321,279,294223,2,0,B|385:298|445:278|480:218,1,180,4|4,3:0|3:0,0:0:0:0:
473,134,294667,1,8,1:0:0:0:
473,134,294814,1,4,3:0:0:0:
444,40,294963,6,0,P|367:56|237:90,1,180,0|8,1:0|1:0,0:0:0:0:
189,5,295406,2,0,B|178:55|164:109,1,90,2|4,0:0|3:0,0:0:0:0:
136,187,295702,1,2,0:0:0:0:
289,200,295849,6,0,B|248:193|222:173|214:137,1,90,8|0,1:0|0:0,0:0:0:0:
291,6,296145,2,0,B|369:20|400:59|399:163,1,180,4|8,3:0|1:0,0:0:0:0:
504,161,296588,2,0,B|491:215|474:275|474:275,1,90,2|4,3:0|3:0,0:0:0:0:
322,360,296883,1,8,3:0:0:0:
272,278,297031,1,8,1:0:0:0:
362,247,297179,1,4,3:0:0:0:
186,237,297327,5,4,1:0:0:0:
179,336,297475,1,4,3:0:0:0:
8,219,297623,1,8,1:0:0:0:
3,311,297771,1,2,3:0:0:0:
107,269,297918,2,0,P|105:209|100:159,1,90,4|8,3:0|3:0,0:0:0:0:
279,122,298213,1,8,1:0:0:0:
279,122,298362,2,0,P|283:165|285:208,1,67.5000025749208,0|0,1:0|0:0,0:0:0:0:
256,192,298657,12,0,300283,0:0:0:0:
