osu file format v14

[General]
AudioFilename: audio.mp3
AudioLeadIn: 0
PreviewTime: 134974
Countdown: 0
SampleSet: Soft
StackLeniency: 0.2
Mode: 0
LetterboxInBreaks: 0
WidescreenStoryboard: 0

[Editor]
Bookmarks: 502,15502,30502,38002,53002,60502,75502,83002,98002,113002,118627,135502,170189,185189
DistanceSpacing: 1.3
BeatDivisor: 4
GridSize: 4
TimelineZoom: 1.85

[Metadata]
Title:Hyde no Kyoukiteki Menzaifu
TitleUnicode:ハイドの狂気的免罪符
Artist:Pizuya's Cell feat. Futoumeido
ArtistUnicode:Pizuya's Cell feat.普透明度
Creator:Shogud
Version:Distortion
Source:旧約酒場 ~ Dateless Bar "Old Adam"
Tags:
BeatmapID:1520541
BeatmapSetID:720191

[Difficulty]
HPDrainRate:5.5
CircleSize:4
OverallDifficulty:9.7
ApproachRate:10
SliderMultiplier:2
SliderTickRate:1

[Events]
//Background and Video events
0,0,"abstract_video_games_blue_touh_1888x1063_artwallpaperhi.com.jpg",0,0
//Break Periods
//Storyboard Layer 0 (Background)
//Storyboard Layer 1 (Fail)
//Storyboard Layer 2 (Pass)
//Storyboard Layer 3 (Foreground)
//Storyboard Sound Samples

[TimingPoints]
502,234.375,4,2,0,50,1,0
7533,-200,4,2,0,50,0,0
8002,-66.6666666666667,4,2,0,50,0,0
15502,-133.333333333333,4,2,0,50,0,0
30502,-100,4,2,0,50,0,0
37884,-66.6666666666667,4,2,0,50,0,1
45033,-100,4,2,0,50,0,0
45384,-66.6666666666667,4,2,0,50,0,1
51478,-100,4,2,0,50,0,1
51830,-133.333333333333,4,2,0,50,0,1
53002,-66.6666666666667,4,2,0,50,0,0
60033,-400,4,2,0,50,0,0
60267,-133.333333333333,4,2,0,50,0,0
60502,-66.6666666666667,4,2,0,50,0,0
60736,-80,4,2,0,50,0,0
68002,-133.333333333333,4,2,0,50,0,0
75033,-200,4,2,0,50,0,0
75267,-133.333333333333,4,2,0,50,0,0
75502,-100,4,2,0,50,0,0
82884,-66.6666666666667,4,2,0,50,0,1
90033,-100,4,2,0,50,0,0
90384,-66.6666666666667,4,2,0,50,0,1
96439,-100,4,2,0,50,0,1
96752,-133.333333333333,4,2,0,50,0,1
98002,-133.333333333333,4,2,0,50,0,0
116283,-66.6666666666667,4,2,0,50,0,0
118627,-100,4,2,0,50,0,0
135384,-66.6666666666667,4,2,0,50,0,1
142533,-100,4,2,0,50,0,0
142884,-66.6666666666667,4,2,0,50,0,1
148978,-57.1428571428571,4,2,0,50,0,1
149330,-50,4,2,0,50,0,1
150033,-100,4,2,0,50,0,0
150384,-66.6666666666667,4,2,0,50,0,1
157533,-100,4,2,0,50,0,0
157884,-66.6666666666667,4,2,0,50,0,1
161517,-66.6666666666667,4,2,0,50,0,0
161634,-66.6666666666667,4,2,0,50,0,1
162455,-66.6666666666667,4,2,0,50,0,0
162572,-66.6666666666667,4,2,0,50,0,1
163392,-66.6666666666667,4,2,0,50,0,0
163509,-66.6666666666667,4,2,0,50,0,1
164330,-66.6666666666667,4,2,0,50,0,0
164447,-66.6666666666667,4,2,0,50,0,1
165267,-66.6666666666667,4,2,0,50,0,0
165384,-66.6666666666667,4,2,0,50,0,1
166205,-66.6666666666667,4,2,0,50,0,0
166322,-66.6666666666667,4,2,0,50,0,1
167259,-66.6666666666667,4,2,0,50,0,0
167377,-66.6666666666667,4,2,0,50,0,1
167728,-100,4,2,0,50,0,1
168080,-133.333333333333,4,2,0,50,0,1
170189,-66.6666666666667,4,2,0,50,0,0

[HitObjects]
110,92,502,6,0,P|106:140|119:191,1,100,2|0,0:0|0:0,0:0:0:0:
168,264,736,1,2,0:0:0:0:
252,296,853,1,2,0:0:0:0:
239,204,970,1,2,0:0:0:0:
147,268,1087,1,2,0:0:0:0:
261,314,1205,1,2,0:0:0:0:
246,187,1322,1,2,0:0:0:0:
252,169,1673,5,2,0:0:0:0:
259,150,1908,1,2,0:0:0:0:
330,26,2025,1,2,0:0:0:0:
334,114,2142,1,2,0:0:0:0:
256,68,2259,1,2,0:0:0:0:
409,69,2377,6,0,P|422:119|425:201,1,100,2|0,0:0|0:0,0:0:0:0:
406,255,2611,1,2,0:0:0:0:
324,280,2728,1,2,0:0:0:0:
341,195,2845,1,2,0:0:0:0:
310,294,2962,1,2,0:0:0:0:
423,262,3080,1,2,0:0:0:0:
298,305,3197,1,2,0:0:0:0:
284,320,3548,6,0,B|251:342|251:342|120:322,1,150,2|0,0:0|0:0,0:0:0:0:
14,231,3783,2,0,B|47:209|47:209|178:229,1,150,2|0,0:0|0:0,0:0:0:0:
141,325,4017,1,2,0:0:0:0:
175,130,4134,1,0,0:0:0:0:
308,219,4252,6,0,P|358:222|430:206,1,100,2|0,0:0|0:0,0:0:0:0:
440,116,4486,1,2,0:0:0:0:
382,45,4603,1,2,0:0:0:0:
350,128,4720,1,2,0:0:0:0:
460,121,4837,1,2,0:0:0:0:
379,23,4955,1,2,0:0:0:0:
336,143,5072,1,2,0:0:0:0:
321,159,5423,5,2,0:0:0:0:
429,257,5541,2,0,P|421:233|393:203,1,50
309,173,5658,1,2,0:0:0:0:
219,286,5775,1,2,0:0:0:0:
305,263,5892,1,2,0:0:0:0:
161,218,6009,1,2,0:0:0:0:
281,349,6127,6,0,P|340:348|416:316,1,100,2|0,0:0|0:0,0:0:0:0:
420,248,6361,1,2,0:0:0:0:
441,155,6478,1,2,0:0:0:0:
424,265,6595,1,2,0:0:0:0:
353,183,6712,1,2,0:0:0:0:
428,284,6830,1,2,0:0:0:0:
449,135,6947,1,2,0:0:0:0:
338,266,7064,5,0,0:0:0:0:
288,47,7181,1,0,0:0:0:0:
362,88,7298,2,0,P|371:128|352:182,1,100,2|0,0:0|0:0,0:0:0:0:
271,224,7533,6,0,P|261:183|280:129,1,100,2|0,0:0|0:0,0:0:0:0:
280,129,8002,5,2,0:0:0:0:
353,367,8119,2,0,B|376:316|376:316|357:180,1,150.000005722046,0|2,0:0|0:0,0:0:0:0:
328,36,8353,1,2,0:0:0:0:
140,325,8470,2,0,L|316:295,1,150.000005722046,2|2,0:0|0:0,0:0:0:0:
459,280,8705,1,2,0:0:0:0:
203,233,8822,2,0,B|95:251|95:251|56:291,1,150.000005722046,2|0,0:0|0:0,0:0:0:0:
288,300,9056,1,0,0:0:0:0:
270,107,9173,2,0,B|222:115|222:115|192:153|192:153|133:163,1,150.000005722046,2|0,0:0|0:0,0:0:0:0:
28,90,9408,6,0,P|63:83|108:90,1,75.0000028610231,2|0,0:0|0:0,0:0:0:0:
354,210,9525,1,2,0:0:0:0:
118,1,9642,6,0,P|152:13|187:41,1,75.0000028610231,2|0,0:0|0:0,0:0:0:0:
454,219,9759,1,0,0:0:0:0:
288,300,9877,5,2,0:0:0:0:
446,111,9994,2,0,L|280:140,1,150.000005722046,0|2,0:0|0:0,0:0:0:0:
138,162,10228,1,2,0:0:0:0:
354,355,10345,2,0,B|373:312|373:312|351:190,1,150.000005722046,2|2,0:0|0:0,0:0:0:0:
324,43,10580,1,2,0:0:0:0:
447,255,10697,2,0,B|436:192|436:192|453:152|453:152|445:109,1,150.000005722046,2|0,2:0|2:0,2:0:0:0:
288,300,10931,1,0,0:0:0:0:
8,221,11048,2,0,B|41:182|41:182|152:159,1,150.000005722046,2|0,0:0|0:0,0:0:0:0:
126,359,11283,6,0,P|105:331|88:293,1,75.0000028610231,2|0,0:0|0:0,0:0:0:0:
137,38,11400,1,0,0:0:0:0:
199,308,11517,6,0,P|195:273|199:232,1,75.0000028610231,2|0,0:0|0:0,0:0:0:0:
300,59,11634,1,0,0:0:0:0:
288,300,11752,5,2,0:0:0:0:
229,9,11869,2,0,B|220:54|220:54|230:104|230:104|221:166,1,150.000005722046,0|2,0:0|0:0,0:0:0:0:
200,308,12103,1,2,0:0:0:0:
454,171,12220,2,0,L|304:144,1,150.000005722046,2|2,0:0|0:0,0:0:0:0:
141,120,12455,1,2,0:0:0:0:
364,238,12572,2,0,B|470:256|470:256|512:237,1,150.000005722046,2|0,0:0|0:0,0:0:0:0:
300,59,12806,1,0,0:0:0:0:
311,313,12923,2,0,L|504:347,1,150.000005722046,2|0,0:0|0:0,0:0:0:0:
449,87,13158,6,0,P|415:98|372:131,1,75.0000028610231,2|0,0:0|0:0,0:0:0:0:
219,344,13275,1,2,0:0:0:0:
512,192,13392,6,0,P|477:185|424:192,1,75.0000028610231,2|0,0:0|0:0,0:0:0:0:
145,274,13509,1,0,0:0:0:0:
393,319,13627,5,2,0:0:0:0:
191,140,13744,1,0,0:0:0:0:
311,313,13861,2,0,B|312:277|343:249|343:249|350:208|315:129,1,150.000005722046,2|2,0:0|0:0,0:0:0:0:
300,6,14095,1,2,0:0:0:0:
229,253,14212,1,2,0:0:0:0:
406,115,14330,2,0,P|327:81|243:142,1,150.000005722046,2|2,0:0|0:0,0:0:0:0:
140,259,14564,5,0,0:0:0:0:
332,174,14681,1,0,0:0:0:0:
139,30,14798,1,2,0:0:0:0:
191,140,14916,1,0,0:0:0:0:
300,6,15033,1,2,0:0:0:0:
94,140,15150,1,0,0:0:0:0:
361,269,15267,1,0,0:0:0:0:
271,102,15384,1,0,0:0:0:0:
268,356,15502,1,2,0:0:0:0:
252,336,15736,6,0,P|246:292|252:244,1,75.0000028610231,2|0,0:0|0:0,0:0:0:0:
305,150,15970,2,0,P|340:122|384:104,1,75.0000028610231,2|0,0:0|0:0,0:0:0:0:
387,106,16322,1,0,0:0:0:0:
408,103,16556,5,0,0:0:0:0:
431,99,16791,1,0,0:0:0:0:
424,200,16908,1,2,0:0:0:0:
417,301,17025,1,0,0:0:0:0:
440,292,17259,1,0,0:0:0:0:
448,192,17377,1,2,0:0:0:0:
468,184,17611,6,0,P|474:140|468:92,1,75.0000028610231,2|0,0:0|0:0,0:0:0:0:
317,24,17845,2,0,P|275:40|237:70,1,75.0000028610231,2|0,0:0|0:0,0:0:0:0:
240,80,18197,1,0,0:0:0:0:
232,100,18431,5,0,0:0:0:0:
224,116,18666,1,0,0:0:0:0:
180,232,18783,2,0,P|203:252|250:265,1,75.0000028610231
372,151,19017,2,0,P|349:171|302:184,1,75.0000028610231
107,139,19252,1,2,0:0:0:0:
86,155,19486,6,0,P|80:198|86:247,1,75.0000028610231
137,338,19720,2,0,P|166:361|199:378,1,75.0000028610231
334,375,19955,2,0,P|368:361|400:341,2,75.0000028610231,2|0|2,0:0|0:0|0:0,0:0:0:0:
261,267,20306,5,0,0:0:0:0:
271,246,20541,1,0,0:0:0:0:
380,216,20658,1,2,0:0:0:0:
489,186,20775,1,0,0:0:0:0:
501,161,21009,1,0,0:0:0:0:
392,191,21126,1,0,0:0:0:0:
404,164,21361,6,0,P|360:158|312:164,1,75.0000028610231,2|2,0:0|0:0,0:0:0:0:
208,224,21595,2,0,P|180:259|162:303,1,75.0000028610231,2|2,0:0|0:0,0:0:0:0:
172,308,21947,1,0,0:0:0:0:
176,328,22181,5,0,0:0:0:0:
180,348,22416,1,0,0:0:0:0:
289,333,22533,1,2,0:0:0:0:
398,318,22650,1,0,0:0:0:0:
331,232,22767,5,0,0:0:0:0:
292,216,22845,5,0,0:0:0:0:
258,241,22923,5,0,0:0:0:0:
219,224,23002,5,2,0:0:0:0:
207,202,23236,6,0,P|201:158|207:110,1,75.0000028610231,2|0,0:0|0:0,0:0:0:0:
291,36,23470,2,0,P|332:52|370:82,1,75.0000028610231,2|0,0:0|0:0,0:0:0:0:
393,191,23705,2,0,P|357:218|313:236,2,75.0000028610231,2|0|2,0:0|0:0|0:0,0:0:0:0:
475,94,24056,5,0,0:0:0:0:
453,80,24291,1,0,0:0:0:0:
472,189,24408,1,2,0:0:0:0:
491,298,24525,1,0,0:0:0:0:
465,289,24759,1,0,0:0:0:0:
446,180,24876,1,2,0:0:0:0:
424,168,25111,6,0,P|380:162|332:168,1,75.0000028610231,0|2,0:0|0:0,0:0:0:0:
241,238,25345,2,0,P|203:240|166:234,1,75.0000028610231
50,106,25580,1,2,0:0:0:0:
129,66,25697,2,0,P|166:63|203:69,1,75.0000028610231,2|2,0:0|0:0,0:0:0:0:
259,144,25931,5,0,0:0:0:0:
272,160,26166,1,2,0:0:0:0:
316,260,26283,1,2,0:0:0:0:
360,360,26400,1,2,0:0:0:0:
434,303,26517,2,0,P|441:266|437:211,1,75.0000028610231,2|2,0:0|0:0,0:0:0:0:
358,94,26752,5,2,0:0:0:0:
366,182,26869,1,0,0:0:0:0:
468,48,26986,5,0,0:0:0:0:
384,0,27103,1,0,0:0:0:0:
285,7,27220,1,0,0:0:0:0:
131,240,27337,5,0,0:0:0:0:
214,191,27454,1,2,0:0:0:0:
258,102,27571,1,2,0:0:0:0:
2,4,27689,5,2,0:0:0:0:
46,93,27806,1,0,0:0:0:0:
130,141,27923,1,0,0:0:0:0:
392,234,28041,5,0,0:0:0:0:
309,289,28158,1,2,0:0:0:0:
213,289,28275,1,0,0:0:0:0:
130,141,28392,5,0,0:0:0:0:
261,223,28509,1,0,0:0:0:0:
124,295,28627,1,2,0:0:0:0:
194,39,28744,5,0,0:0:0:0:
286,15,28861,1,0,0:0:0:0:
382,51,28978,1,0,0:0:0:0:
512,206,29095,5,2,0:0:0:0:
420,230,29212,1,0,0:0:0:0:
324,194,29329,1,2,0:0:0:0:
480,48,29447,5,2,0:0:0:0:
428,136,29564,1,0,0:0:0:0:
412,152,30267,5,0,0:0:0:0:
400,168,30502,6,0,B|369:178|369:178|294:165,1,100,0|2,0:0|0:0,0:0:0:0:
78,36,30736,2,0,B|108:25|108:25|183:38,1,100,0|2,0:0|0:0,0:0:0:0:
242,236,30970,2,0,L|262:354,1,100,2|2,0:0|0:0,0:0:0:0:
462,66,31205,2,0,L|343:86,1,100,2|2,0:0|0:0,0:0:0:0:
180,152,31439,6,0,B|148:158|148:158|118:176|118:176|77:170,1,100,2|2,0:0|0:0,0:0:0:0:
336,264,31673,2,0,B|367:269|367:269|397:287|397:287|438:282,1,100,2|2,0:0|0:0,0:0:0:0:
108,259,31908,2,0,B|96:325|96:325|107:356,1,100,2|2,0:0|0:0,0:0:0:0:
364,180,32142,2,0,B|374:149|374:149|363:82,1,100,0|2,0:0|0:0,0:0:0:0:
180,152,32377,6,0,L|197:250,1,100,0|2,0:0|0:0,0:0:0:0:
289,26,32611,2,0,L|190:8,1,100,0|2,0:0|0:0,0:0:0:0:
282,237,32845,2,0,B|288:272|288:272|281:302|281:302|287:337,1,100,2|2,0:0|0:0,0:0:0:0:
84,133,33080,1,2,0:0:0:0:
363,82,33197,1,2,0:0:0:0:
392,109,33431,5,2,0:0:0:0:
113,160,33548,1,2,0:0:0:0:
416,132,33783,5,2,0:0:0:0:
278,158,33900,1,2,0:0:0:0:
140,184,34017,1,2,0:0:0:0:
433,166,34252,6,0,P|393:194|346:216,1,100
174,286,34486,2,0,P|213:257|260:235,1,100
480,263,34720,6,0,P|436:283|381:280,1,100,0|2,0:0|0:0,0:0:0:0:
140,184,34955,2,0,P|183:163|238:166,1,100,2|2,0:0|0:0,0:0:0:0:
429,373,35189,6,0,P|378:375|335:338,1,100,0|2,0:0|0:0,0:0:0:0:
193,75,35423,2,0,P|243:72|286:109,1,100,0|2,0:0|0:0,0:0:0:0:
257,352,35658,5,0,0:0:0:0:
364,85,35775,1,2,0:0:0:0:
307,226,35892,2,0,P|261:235|208:226,1,100,2|2,0:0|0:0,0:0:0:0:
37,30,36127,5,2,0:0:0:0:
193,75,36244,1,2,0:0:0:0:
76,187,36361,1,2,0:0:0:0:
49,43,36478,1,2,0:0:0:0:
174,79,36595,1,2,0:0:0:0:
81,169,36712,1,2,0:0:0:0:
61,56,36830,5,2,0:0:0:0:
368,168,36947,1,2,0:0:0:0:
208,247,37064,1,2,0:0:0:0:
131,2,37181,5,2,0:0:0:0:
255,330,37298,1,2,0:0:0:0:
331,18,37415,5,2,0:0:0:0:
143,318,37533,1,2,0:0:0:0:
216,150,37650,5,2,0:0:0:0:
218,168,37884,6,0,B|262:183|262:183|378:168,1,150.000005722046,2|0,0:0|0:0,0:0:0:0:
496,28,38119,1,0,0:0:0:0:
180,59,38236,2,0,B|151:69|142:94|142:94|150:109|150:109|116:151|136:239,1,150.000005722046
364,272,38470,1,0,0:0:0:0:
452,92,38587,1,2,0:0:0:0:
236,332,38705,1,2,0:0:0:0:
429,99,38822,6,0,B|385:84|385:84|269:99,1,150.000005722046,2|0,0:0|0:0,0:0:0:0:
52,128,39056,1,2,0:0:0:0:
142,334,39173,6,0,B|153:299|153:299|142:242,1,75.0000028610231,2|2,0:0|0:0,0:0:0:0:
111,25,39291,1,0,0:0:0:0:
236,332,39408,6,0,B|258:302|258:302|267:245,1,75.0000028610231,2|2,0:0|0:0,0:0:0:0:
290,11,39526,1,0,0:0:0:0:
338,328,39642,6,0,B|368:307|368:307|396:256,1,75.0000028610231,2|2,0:0|0:0,0:0:0:0:
479,24,39759,6,0,B|463:46|439:55|439:55|415:100|415:100|390:103|360:137,1,150.000005722046,2|0,0:0|0:0,0:0:0:0:
156,196,39994,1,2,0:0:0:0:
293,100,40111,1,2,0:0:0:0:
128,216,40228,1,2,0:0:0:0:
400,196,40345,1,2,0:0:0:0:
100,232,40462,1,2,0:0:0:0:
320,76,40580,1,2,0:0:0:0:
72,248,40697,1,2,0:0:0:0:
440,184,40814,5,2,0:0:0:0:
240,328,40931,1,2,0:0:0:0:
215,82,41048,1,2,0:0:0:0:
364,290,41166,5,2,0:0:0:0:
184,209,41283,1,2,0:0:0:0:
345,93,41400,1,2,0:0:0:0:
283,234,41517,5,2,0:0:0:0:
77,66,41634,2,0,B|93:53|120:52|120:52|145:74|145:74|181:69|262:95,1,150.000005722046,2|0,0:0|0:0,0:0:0:0:
432,100,41869,1,0,0:0:0:0:
317,314,41986,2,0,B|278:331|240:313|240:313|203:288|153:310,1,150.000005722046,2|0,0:0|0:0,0:0:0:0:
312,52,42220,2,0,B|295:91|313:129|313:129|338:166|316:216,1,150.000005722046,2|0,0:0|0:0,0:0:0:0:
194,377,42455,1,2,0:0:0:0:
214,81,42572,6,0,B|226:114|221:150|221:150|243:175|243:175|242:202|229:218,1,150.000005722046,2|0,0:0|0:0,0:0:0:0:
58,352,42806,1,0,0:0:0:0:
0,137,42923,2,0,B|33:125|69:130|69:130|94:108|94:108|121:109|137:122,1,150.000005722046,2|0,0:0|0:0,0:0:0:0:
284,273,43158,1,2,0:0:0:0:
82,10,43275,1,0,0:0:0:0:
322,196,43392,1,0,0:0:0:0:
105,29,43509,6,0,B|140:19|177:29|177:29|220:48|275:27,1,150.000005722046,2|0,0:0|0:0,0:0:0:0:
424,36,43744,1,2,0:0:0:0:
262,137,43861,1,2,0:0:0:0:
412,56,43978,1,2,0:0:0:0:
349,270,44095,1,2,0:0:0:0:
400,76,44212,1,2,0:0:0:0:
176,176,44330,1,2,0:0:0:0:
388,92,44447,1,2,0:0:0:0:
328,352,44564,5,0,0:0:0:0:
280,340,44623,1,0,0:0:0:0:
232,328,44681,1,2,0:0:0:0:
386,177,44798,5,0,0:0:0:0:
410,171,44857,1,0,0:0:0:0:
434,165,44915,1,2,0:0:0:0:
432,352,45033,5,0,0:0:0:0:
252,36,45150,1,2,0:0:0:0:
443,369,45267,1,0,0:0:0:0:
239,16,45384,6,0,B|271:2|271:2|388:21,1,150.000005722046,2|0,0:0|0:0,0:0:0:0:
388,256,45619,1,2,0:0:0:0:
252,156,45736,1,2,0:0:0:0:
411,260,45853,1,2,0:0:0:0:
177,254,45970,1,2,0:0:0:0:
433,264,46087,1,2,0:0:0:0:
188,112,46205,1,2,0:0:0:0:
471,334,46322,6,0,B|454:352|426:358|426:358|385:334|385:334|326:323,1,150.000005722046,2|0,0:0|0:0,0:0:0:0:
93,221,46556,1,0,0:0:0:0:
178,39,46673,5,2,0:0:0:0:
149,306,46791,1,2,0:0:0:0:
267,102,46908,5,2,0:0:0:0:
335,324,47026,1,2,0:0:0:0:
412,40,47142,5,2,0:0:0:0:
433,264,47259,2,0,B|410:245|378:249|378:249|370:235|370:235|328:240|275:210,1,150.000005722046,2|0,0:0|0:0,0:0:0:0:
76,121,47494,1,2,0:0:0:0:
267,102,47611,1,2,0:0:0:0:
187,276,47728,1,2,0:0:0:0:
163,34,47845,5,2,0:0:0:0:
297,221,47962,1,2,0:0:0:0:
68,242,48079,1,2,0:0:0:0:
341,7,48197,6,0,B|344:26|351:39|351:39|345:57|345:57|367:111|336:160,1,150.000005722046,2|0,0:0|0:0,0:0:0:0:
256,324,48431,1,2,0:0:0:0:
123,102,48548,2,0,B|142:99|155:92|155:92|173:98|173:98|227:76|276:107,1,150.000005722046,2|0,0:0|0:0,0:0:0:0:
399,323,48783,2,0,B|380:326|367:333|367:333|349:327|349:327|295:349|246:318,1,150.000005722046,2|0,0:0|0:0,0:0:0:0:
68,242,49017,1,2,0:0:0:0:
395,49,49134,6,0,B|391:109|355:141|355:141|275:181|299:285,1,225.000008583069,2|0,0:0|0:0,0:0:0:0:
307,258,49369,5,2,0:0:0:0:
462,124,49486,1,2,0:0:0:0:
216,200,49603,1,2,0:0:0:0:
486,109,49720,1,2,0:0:0:0:
256,324,49837,1,2,0:0:0:0:
506,95,49955,1,2,0:0:0:0:
139,238,50072,6,0,B|114:211|119:174|119:174|148:146|148:146|146:117|130:101|130:101|145:73|153:26,1,225.000008583069,2|0,0:0|0:0,0:0:0:0:
172,28,50306,5,2,0:0:0:0:
400,112,50423,1,2,0:0:0:0:
213,267,50541,1,0,0:0:0:0:
153,6,50658,1,2,0:0:0:0:
426,106,50775,1,0,0:0:0:0:
202,292,50893,1,2,0:0:0:0:
292,32,51009,1,0,0:0:0:0:
285,229,51127,6,0,B|275:208|250:180|250:180|216:173|186:184|186:184|93:168|21:102|21:102|49:90|108:94,1,375.000014305115,2|0,0:0|0:0,0:0:0:0:
355,182,51478,6,0,P|359:270|217:278,1,250,2|0,0:0|0:0,0:0:0:0:
313,108,51830,6,0,P|361:98|436:142,1,112.500004291535,2|0,0:0|0:0,0:0:0:0:
479,325,52064,6,0,P|450:334|385:325,1,50.0000019073487,2|0,0:0|0:0,0:0:0:0:
224,287,52220,6,0,P|230:258|270:206,1,50.0000019073487,2|0,0:0|0:0,0:0:0:0:
385,85,52377,6,0,P|406:104|431:165,1,50.0000019073487,2|0,0:0|0:0,0:0:0:0:
399,228,52533,5,2,0:0:0:0:
375,244,52611,5,0,0:0:0:0:
344,242,52689,5,2,0:0:0:0:
329,217,52767,5,0,0:0:0:0:
340,196,52845,5,2,0:0:0:0:
361,198,52923,5,0,0:0:0:0:
362,220,53002,5,2,0:0:0:0:
108,83,53119,2,0,B|145:77|145:77|259:97,1,150.000005722046,0|2,0:0|0:0,0:0:0:0:
418,121,53353,1,0,0:0:0:0:
125,306,53470,2,0,L|154:136,1,150.000005722046,2|2,0:0|0:0,0:0:0:0:
177,2,53705,1,2,0:0:0:0:
219,239,53822,2,0,B|209:290|209:290|233:336|233:336|221:395,1,150.000005722046,2|0,0:0|0:0,0:0:0:0:
125,306,54056,1,0,0:0:0:0:
331,61,54173,2,0,B|336:98|336:98|317:208,1,150.000005722046,2|0,0:0|0:0,0:0:0:0:
319,351,54408,6,0,P|343:322|358:288,1,75.0000028610231,2|0,0:0|0:0,0:0:0:0:
419,33,54525,1,2,0:0:0:0:
454,283,54642,6,0,P|441:247|419:217,1,75.0000028610231,2|0,0:0|0:0,0:0:0:0:
264,13,54759,1,0,0:0:0:0:
73,214,54877,5,2,0:0:0:0:
255,96,54994,2,0,B|145:113|145:113|106:152,1,150.000005722046,0|2,0:0|0:0,0:0:0:0:
32,288,55228,1,2,0:0:0:0:
328,204,55345,2,0,B|318:152|318:152|340:116|340:116|330:57,1,150.000005722046,2|2,0:0|0:0,0:0:0:0:
161,217,55580,1,2,0:0:0:0:
269,331,55697,2,0,L|239:165,1,150.000005722046,2|0,0:0|0:0,0:0:0:0:
216,21,55931,1,0,0:0:0:0:
161,217,56048,2,0,B|188:370,1,150.000005722046,2|0,0:0|0:0,0:0:0:0:
389,341,56283,6,0,P|395:303|391:266,1,75.0000028610231,2|0,0:0|0:0,0:0:0:0:
348,49,56400,1,0,0:0:0:0:
272,365,56517,6,0,P|296:336|311:302,1,75.0000028610231,2|0,0:0|0:0,0:0:0:0:
448,40,56634,1,0,0:0:0:0:
255,10,56752,5,2,0:0:0:0:
161,217,56869,2,0,B|204:231|204:231|313:211,1,150.000005722046,0|2,0:0|0:0,0:0:0:0:
482,169,57103,1,2,0:0:0:0:
143,136,57220,2,0,B|83:146|83:146|54:128|54:128|-32:144,1,150.000005722046,2|2,0:0|0:0,0:0:0:0:
135,302,57455,1,0,0:0:0:0:
345,35,57572,2,0,B|373:70|373:70|391:180,1,150.000005722046,2|0,0:0|0:0,0:0:0:0:
414,339,57806,1,0,0:0:0:0:
143,136,57923,2,0,L|296:108,1,150.000005722046,2|0,0:0|0:0,0:0:0:0:
453,135,58158,6,0,P|424:158|390:173,1,75.0000028610231,2|0,0:0|0:0,0:0:0:0:
93,235,58275,1,2,0:0:0:0:
430,254,58392,6,0,P|393:260|356:256,1,75.0000028610231,2|0,0:0|0:0,0:0:0:0:
59,151,58509,1,0,0:0:0:0:
219,52,58627,5,2,0:0:0:0:
280,256,58744,1,0,0:0:0:0:
143,136,58861,2,0,B|165:135|183:126|183:126|203:139|203:139|243:117|316:135,1,150.000005722046,2|2,0:0|0:0,0:0:0:0:
453,134,59095,5,2,0:0:0:0:
178,213,59212,1,2,0:0:0:0:
333,52,59330,2,0,P|376:123|329:207,1,150.000005722046,2|2,0:0|0:0,0:0:0:0:
161,323,59564,5,0,0:0:0:0:
286,129,59681,1,0,0:0:0:0:
391,334,59798,1,2,0:0:0:0:
280,256,59916,1,0,0:0:0:0:
453,134,60033,6,0,P|457:157|453:175,1,37.5
445,261,60267,6,0,P|437:226|445:185,1,75.0000028610231
457,6,60502,6,0,P|520:90|443:172,1,225.000008583069
368,139,60736,6,0,B|339:124|339:124|226:143,1,125
64,176,60970,1,0,0:0:0:0:
268,248,61087,1,0,0:0:0:0:
273,49,61205,2,0,L|143:71,1,125,2|0,0:0|0:0,0:0:0:0:
57,289,61439,6,0,L|186:266,1,125,2|0,0:0|0:0,0:0:0:0:
384,228,61673,1,0,0:0:0:0:
273,49,61791,2,0,B|288:134|288:134|312:163,1,125,0|2,0:0|0:0,0:0:0:0:
458,292,62025,1,0,0:0:0:0:
478,39,62142,2,0,B|448:44|448:44|410:71|410:71|355:80,1,125
57,173,62377,6,0,B|86:178|86:178|124:205|124:205|179:214,1,125,2|0,0:0|0:0,0:0:0:0:
455,173,62611,2,0,B|472:203|472:203|454:306,1,125,2|2,0:0|0:0,0:0:0:0:
182,320,62845,1,2,0:0:0:0:
369,159,62962,1,0,0:0:0:0:
395,361,63080,2,0,L|265:338,1,125,2|0,0:0|0:0,0:0:0:0:
156,122,63314,6,0,L|285:144,1,125,2|0,0:0|0:0,0:0:0:0:
455,173,63548,1,0,0:0:0:0:
198,215,63666,2,0,B|116:201|116:201|75:167,1,125
347,36,63900,1,0,0:0:0:0:
308,222,64017,2,0,B|301:261|301:261|278:298|278:298|268:353,1,125
4,292,64252,6,0,B|43:285|43:285|85:293|85:293|140:284,1,125,2|0,0:0|0:0,0:0:0:0:
402,122,64486,2,0,L|275:144,1,125,0|0,2:0|2:0,2:0:0:0:
83,174,64720,1,0,0:0:0:0:
250,266,64837,1,0,0:0:0:0:
322,52,64955,2,0,B|231:67|231:67|201:96,1,125,2|0,0:0|0:0,0:0:0:0:
199,361,65189,6,0,B|289:345|289:345|319:316,1,125,2|0,0:0|0:0,0:0:0:0:
402,194,65423,1,0,0:0:0:0:
162,160,65541,2,0,B|170:207|170:207|156:242|156:242|168:309,1,125,0|2,0:0|0:0,0:0:0:0:
404,292,65775,1,0,0:0:0:0:
405,97,65892,2,0,L|278:119,1,125
57,196,66127,6,0,L|80:62,1,125,2|0,0:0|0:0,0:0:0:0:
312,199,66361,2,0,L|288:332,1,125
163,175,66595,1,2,0:0:0:0:
402,194,66712,1,0,0:0:0:0:
197,320,66830,2,0,B|157:313|157:313|124:294|124:294|69:285,1,125,2|0,0:0|0:0,0:0:0:0:
162,85,67064,6,0,B|201:91|201:91|234:110|234:110|289:119,1,125,2|0,0:0|0:0,0:0:0:0:
483,157,67298,1,0,0:0:0:0:
290,322,67416,2,0,B|274:288|274:288|289:201,1,125,0|2,0:0|0:0,0:0:0:0:
324,27,67650,5,0,0:0:0:0:
392,332,67767,1,0,0:0:0:0:
280,117,67884,5,0,0:0:0:0:
469,267,68002,1,2,0:0:0:0:
458,248,68236,6,0,P|419:243|378:248,1,75.0000028610231,2|2,0:0|0:0,0:0:0:0:
290,322,68470,2,0,P|252:325|215:320,1,75.0000028610231,2|0,0:0|0:0,0:0:0:0:
104,256,68705,2,0,P|82:225|67:190,2,75.0000028610231,2|0|2,0:0|0:0|0:0,0:0:0:0:
189,167,69056,5,0,0:0:0:0:
203,156,69291,1,0,0:0:0:0:
311,176,69409,1,2,0:0:0:0:
419,196,69526,1,0,0:0:0:0:
430,181,69759,1,2,0:0:0:0:
322,161,69876,1,2,0:0:0:0:
340,144,70111,6,0,P|346:108|340:68,1,75.0000028610231,2|2,0:0|0:0,0:0:0:0:
204,10,70345,2,0,P|169:22|138:48,1,75.0000028610231,2|0,0:0|0:0,0:0:0:0:
65,176,70580,1,2,0:0:0:0:
155,194,70697,2,0,P|183:217|220:232,1,75.0000028610231,2|2,0:0|0:0,0:0:0:0:
344,278,70931,5,0,0:0:0:0:
359,267,71166,1,0,0:0:0:0:
379,163,71283,1,2,0:0:0:0:
399,59,71400,1,2,0:0:0:0:
304,14,71517,2,0,P|260:8|224:14,2,75.0000028610231,2|2|2,0:0|0:0|0:0,0:0:0:0:
316,28,71986,6,0,P|321:67|316:104,1,75.0000028610231
260,210,72220,2,0,P|228:233|194:248,1,75.0000028610231
74,252,72455,2,0,P|37:236|8:214,2,75.0000028610231,2|2|2,0:0|0:0|0:0,0:0:0:0:
136,148,72806,5,2,0:0:0:0:
148,128,73041,1,0,0:0:0:0:
256,108,73158,1,2,0:0:0:0:
364,88,73275,1,0,0:0:0:0:
376,68,73509,1,2,0:0:0:0:
268,88,73627,6,0,P|262:49|268:10,1,75.0000028610231,2|0,0:0|0:0,0:0:0:0:
328,168,73861,2,0,P|334:207|328:246,1,75.0000028610231
376,68,74095,2,0,P|415:62|454:68,1,75.0000028610231,2|0,0:0|0:0,0:0:0:0:
228,267,74330,2,0,P|189:273|150:267,1,75.0000028610231
90,86,74564,6,0,B|133:140|90:198|90:198|38:262|81:333,1,262.500010013581,2|0,0:0|0:0,0:0:0:0:
102,360,75033,6,0,P|136:370|166:366,1,50
278,342,75267,6,0,P|316:332|361:339,1,75.0000028610231
473,354,75502,6,0,B|483:323|483:323|470:248,1,100,0|2,0:0|0:0,0:0:0:0:
287,50,75736,2,0,B|276:81|276:81|288:148,1,100,0|2,0:0|0:0,0:0:0:0:
476,80,75970,2,0,L|369:98,1,100,2|2,0:0|0:0,0:0:0:0:
69,257,76205,2,0,L|175:275,1,100,2|2,0:0|0:0,0:0:0:0:
368,292,76439,6,0,B|377:259|377:259|359:238|359:238|349:185,1,100,2|2,0:0|0:0,0:0:0:0:
120,184,76673,2,0,B|110:151|110:151|128:130|128:130|138:77,1,100,2|2,0:0|0:0,0:0:0:0:
378,0,76908,2,0,B|388:30|388:30|375:105,1,100,2|2,0:0|0:0,0:0:0:0:
167,274,77142,2,0,B|156:304|156:304|169:379,1,100,0|2,0:0|0:0,0:0:0:0:
449,201,77377,6,0,B|382:189|382:189|351:200,1,100,0|2,0:0|0:0,0:0:0:0:
69,273,77611,2,0,B|135:284|135:284|166:273,1,100,0|2,0:0|0:0,0:0:0:0:
309,48,77845,2,0,L|193:66,1,100,2|2,0:0|0:0,0:0:0:0:
248,355,78080,5,2,0:0:0:0:
303,130,78197,1,2,0:0:0:0:
274,135,78431,5,2,0:0:0:0:
204,361,78548,1,2,0:0:0:0:
170,139,78666,1,2,0:0:0:0:
274,247,78783,1,2,0:0:0:0:
138,280,78900,1,2,0:0:0:0:
176,160,79017,1,2,0:0:0:0:
252,241,79134,1,2,0:0:0:0:
156,260,79252,6,0,P|105:264|44:256,1,100
234,94,79486,2,0,P|285:90|346:98,1,100,2|0,0:0|0:0,0:0:0:0:
108,179,79720,6,0,P|61:156|28:106,1,100,2|2,0:0|0:0,0:0:0:0:
282,175,79955,2,0,P|328:197|362:248,1,100,2|2,0:0|0:0,0:0:0:0:
122,94,80189,6,0,P|93:51|108:-6,1,100,0|2,0:0|0:0,0:0:0:0:
266,256,80423,2,0,P|294:298|276:359,1,100,0|2,0:0|0:0,0:0:0:0:
179,30,80658,5,0,0:0:0:0:
199,317,80775,1,2,0:0:0:0:
197,176,80892,2,0,P|244:153|299:157,1,100,2|2,0:0|0:0,0:0:0:0:
457,172,81127,5,2,0:0:0:0:
444,338,81244,1,2,0:0:0:0:
305,244,81361,1,2,0:0:0:0:
446,187,81478,1,2,0:0:0:0:
435,320,81595,1,2,0:0:0:0:
324,245,81712,1,2,0:0:0:0:
434,205,81830,5,2,0:0:0:0:
199,355,81947,1,2,0:0:0:0:
271,139,82064,1,2,0:0:0:0:
336,355,82181,1,2,0:0:0:0:
87,209,82298,5,2,0:0:0:0:
111,197,82357,1,2,0:0:0:0:
135,185,82416,1,2,0:0:0:0:
335,72,82533,5,2,0:0:0:0:
120,297,82650,1,2,0:0:0:0:
175,104,82767,1,2,0:0:0:0:
133,315,82884,6,0,B|180:327|180:327|295:306,1,150.000005722046,2|0,0:0|0:0,0:0:0:0:
511,265,83119,1,0,0:0:0:0:
255,84,83236,2,0,B|262:123|250:147|250:147|263:172|263:172|239:216|247:284,1,150.000005722046
420,255,83470,1,0,0:0:0:0:
409,97,83587,1,2,0:0:0:0:
370,337,83705,1,2,0:0:0:0:
401,77,83822,6,0,B|354:65|354:65|239:86,1,150.000005722046,2|0,0:0|0:0,0:0:0:0:
60,123,84056,1,2,0:0:0:0:
135,340,84173,6,0,B|144:306|144:306|135:244,1,75.0000028610231,2|2,0:0|0:0,0:0:0:0:
107,25,84291,1,0,0:0:0:0:
275,302,84408,6,0,B|265:268|265:268|227:218,1,75.0000028610231,2|2,0:0|0:0,0:0:0:0:
0,39,84525,1,0,0:0:0:0:
396,232,84642,6,0,B|371:207|371:207|312:184,1,75.0000028610231,2|2,0:0|0:0,0:0:0:0:
60,123,84759,6,0,B|47:126|40:134|40:134|80:148|112:137|112:137|149:125|217:135,1,150.000005722046,2|0,0:0|0:0,0:0:0:0:
426,70,84994,1,2,0:0:0:0:
287,148,85111,1,2,0:0:0:0:
439,56,85228,1,2,0:0:0:0:
320,233,85345,1,2,0:0:0:0:
453,38,85462,1,2,0:0:0:0:
216,196,85580,1,2,0:0:0:0:
467,22,85697,1,2,0:0:0:0:
285,309,85814,5,2,0:0:0:0:
233,66,85931,1,2,0:0:0:0:
469,142,86048,1,2,0:0:0:0:
216,196,86166,5,2,0:0:0:0:
364,63,86283,1,2,0:0:0:0:
406,257,86400,1,2,0:0:0:0:
288,133,86517,5,2,0:0:0:0:
504,333,86634,2,0,B|501:346|484:353|484:353|463:348|448:333|448:333|410:345|356:333,1,150.000005722046,2|0,0:0|0:0,0:0:0:0:
120,240,86869,1,0,0:0:0:0:
364,63,86986,2,0,B|378:110|378:110|351:219,1,150.000005722046,2|0,0:0|0:0,0:0:0:0:
209,384,87220,2,0,B|195:337|195:337|222:228,1,150.000005722046,2|0,0:0|0:0,0:0:0:0:
267,41,87455,1,2,0:0:0:0:
501,215,87572,6,0,B|464:222|421:211|421:211|385:195|309:219,1,150.000005722046,2|0,0:0|0:0,0:0:0:0:
120,240,87806,1,2,0:0:0:0:
174,17,87923,2,0,B|181:53|170:97|170:97|154:133|178:209,1,150.000005722046,2|0,0:0|0:0,0:0:0:0:
384,290,88158,1,2,0:0:0:0:
392,92,88275,1,0,0:0:0:0:
284,336,88392,1,0,0:0:0:0:
395,58,88509,6,0,B|375:42|352:42|352:42|331:55|331:55|294:42|215:62,1,150.000005722046,2|0,0:0|0:0,0:0:0:0:
120,240,88744,1,2,0:0:0:0:
286,136,88861,1,2,0:0:0:0:
113,45,88978,1,2,0:0:0:0:
109,259,89095,1,2,0:0:0:0:
308,135,89212,1,2,0:0:0:0:
101,25,89329,1,2,0:0:0:0:
98,278,89447,1,2,0:0:0:0:
171,105,89564,5,0,0:0:0:0:
164,133,89623,1,0,0:0:0:0:
157,161,89681,1,2,0:0:0:0:
274,313,89798,5,0,0:0:0:0:
268,290,89856,1,0,0:0:0:0:
262,268,89915,1,2,0:0:0:0:
152,344,90033,5,0,0:0:0:0:
280,48,90150,1,2,0:0:0:0:
140,364,90267,1,0,0:0:0:0:
288,28,90384,6,0,B|245:12|245:12|124:28,1,150.000005722046,2|0,0:0|0:0,0:0:0:0:
64,172,90619,1,2,0:0:0:0:
254,178,90736,1,2,0:0:0:0:
40,164,90853,1,2,0:0:0:0:
268,290,90970,1,2,0:0:0:0:
16,156,91087,1,2,0:0:0:0:
342,179,91205,1,2,0:0:0:0:
11,250,91322,6,0,B|53:270|92:259|92:259|136:249|192:278,1,150.000005722046,2|0,0:0|0:0,0:0:0:0:
426,300,91556,1,2,0:0:0:0:
426,70,91673,5,2,0:0:0:0:
346,331,91791,1,2,0:0:0:0:
236,79,91908,5,2,0:0:0:0:
263,297,92025,1,2,0:0:0:0:
151,106,92142,5,2,0:0:0:0:
92,372,92259,2,0,B|72:347|72:331|72:331|92:312|92:312|72:288|76:228,1,150.000005722046,2|0,0:0|0:0,0:0:0:0:
139,7,92494,1,2,0:0:0:0:
187,190,92611,1,2,0:0:0:0:
3,139,92728,1,2,0:0:0:0:
236,79,92845,5,2,0:0:0:0:
75,239,92962,1,2,0:0:0:0:
17,17,93079,1,2,0:0:0:0:
272,160,93197,6,0,B|287:196|276:230|276:230|287:252|287:252|291:280|272:336,1,150.000005722046,2|0,0:0|0:0,0:0:0:0:
75,239,93431,1,2,0:0:0:0:
236,79,93548,2,0,B|272:64|306:74|306:74|328:64|328:64|354:78|412:79,1,150.000005722046,2|0,0:0|0:0,0:0:0:0:
425,303,93783,2,0,B|389:318|355:308|355:308|333:318|333:318|307:304|249:303,1,150.000005722046,2|2,0:0|0:0,0:0:0:0:
75,239,94017,1,2,0:0:0:0:
156,25,94134,6,0,B|158:69|140:97|140:97|167:127|167:127|143:185|160:257,1,225.000008583069,2|0,0:0|0:0,0:0:0:0:
177,260,94369,5,2,0:0:0:0:
362,222,94486,1,2,0:0:0:0:
236,79,94603,1,2,0:0:0:0:
284,327,94720,1,2,0:0:0:0:
361,95,94837,1,2,0:0:0:0:
120,143,94954,1,2,0:0:0:0:
436,265,95072,6,0,B|465:247|475:229|475:229|471:211|451:189|451:189|464:130|464:130|422:40,1,225.000008583069,2|0,0:0|0:0,0:0:0:0:
407,53,95306,5,2,0:0:0:0:
244,160,95423,1,2,0:0:0:0:
424,32,95541,1,0,0:0:0:0:
296,252,95658,1,2,0:0:0:0:
440,8,95775,1,0,0:0:0:0:
172,208,95892,1,2,0:0:0:0:
454,186,96009,1,0,0:0:0:0:
228,102,96127,6,0,P|120:110|155:335,1,375.000014305115,2|0,0:0|0:0,0:0:0:0:
221,286,96478,6,0,P|268:188|144:123,1,250,2|0,0:0|0:0,0:0:0:0:
124,266,96830,6,0,P|175:283|224:259,1,112.500004291535,2|0,0:0|0:0,0:0:0:0:
273,131,97064,6,0,P|248:125|197:131,1,50.0000019073487,2|0,0:0|0:0,0:0:0:0:
18,76,97220,6,0,P|25:100|56:141,1,50.0000019073487,2|0,0:0|0:0,0:0:0:0:
97,324,97377,6,0,P|114:305|135:258,1,50.0000019073487,2|0,0:0|0:0,0:0:0:0:
223,124,97533,6,0,P|198:131|157:162,1,50.0000019073487,2|0,0:0|0:0,0:0:0:0:
37,121,97689,6,0,P|55:138|102:159,1,50.0000019073487,2|0,0:0|0:0,0:0:0:0:
126,284,97845,6,0,P|132:259|126:208,1,50.0000019073487,2|0,0:0|0:0,0:0:0:0:
265,49,98002,6,0,P|237:42|187:49,1,75.0000028610231
164,60,98353,5,0,0:0:0:0:
102,119,98470,1,0,0:0:0:0:
77,201,98587,1,0,0:0:0:0:
96,284,98705,1,0,0:0:0:0:
153,346,98822,1,0,0:0:0:0:
179,338,99056,5,0,0:0:0:0:
208,328,99291,5,0,0:3:0:0:
151,266,99408,1,0,0:0:0:0:
219,309,99525,5,0,0:3:0:0:
139,284,99642,1,0,0:0:0:0:
220,287,99759,5,0,0:3:0:0:
138,306,99876,1,0,0:0:0:0:
210,268,99994,1,0,0:3:0:0:
216,240,100228,5,0,0:0:0:0:
221,211,100462,5,0,0:0:0:0:
272,140,100580,1,0,0:0:0:0:
351,104,100697,1,0,0:0:0:0:
381,116,100931,6,0,L|376:143,1,18.7500007152558
411,128,101166,5,0,0:0:0:0:
470,229,101283,1,0,0:0:0:0:
512,123,101400,6,0,L|490:140,1,18.7500007152558
377,221,101517,1,0,0:0:0:0:
356,236,101752,6,0,P|348:274|356:316,1,75.0000028610231
368,336,102103,5,0,0:0:0:0:
276,352,102220,1,0,0:0:0:0:
188,319,102337,1,0,0:0:0:0:
128,246,102455,1,0,0:0:0:0:
112,152,102572,1,0,0:0:0:0:
136,128,102806,5,0,0:0:0:0:
160,104,103041,5,0,0:0:0:0:
176,198,103158,1,0,0:0:0:0:
184,106,103275,5,0,0:0:0:0:
151,195,103392,1,0,0:0:0:0:
204,120,103509,5,0,0:0:0:0:
131,181,103626,1,0,0:0:0:0:
215,143,103744,1,0,0:0:0:0:
240,152,103978,5,0,0:0:0:0:
265,161,104212,5,0,0:0:0:0:
224,248,104330,1,0,0:0:0:0:
144,302,104447,1,0,0:0:0:0:
47,308,104564,5,0,2:0:0:0:
140,210,104681,1,0,0:0:0:0:
228,343,104798,1,0,0:0:0:0:
144,302,104916,1,0,0:0:0:0:
224,248,105033,1,0,0:0:0:0:
322,345,105150,1,0,0:0:0:0:
357,199,105267,1,0,0:0:0:0:
216,155,105384,1,0,0:0:0:0:
402,297,105502,6,0,P|445:261|410:106,1,225.000008583069,2|0,0:0|0:0,0:0:0:0:
332,76,105970,5,0,0:0:0:0:
240,36,106087,1,0,0:0:0:0:
159,95,106205,1,0,0:0:0:0:
169,194,106322,1,0,0:0:0:0:
196,208,106556,5,0,0:0:0:0:
223,222,106791,5,0,0:0:0:0:
213,123,106908,1,2,0:0:0:0:
308,217,107025,5,2,0:0:0:0:
249,136,107142,1,2,0:0:0:0:
377,188,107259,5,2,0:0:0:0:
285,147,107377,2,0,P|347:91|450:118,1,187.500007152558,2|0,0:0|0:0,0:0:0:0:
464,134,107728,6,0,L|459:159,1,18.7500007152558
488,160,107962,5,0,0:0:0:0:
476,264,108080,1,0,0:0:0:0:
379,305,108197,1,0,0:0:0:0:
354,286,108431,6,0,L|358:260,1,18.7500007152558
328,268,108666,5,0,0:0:0:0:
247,202,108783,1,0,0:0:0:0:
344,164,108900,2,0,L|331:178,1,18.7500007152558
236,296,109017,1,0,0:0:0:0:
207,299,109252,6,0,P|152:249|215:109,1,225.000008583069,2|0,0:0|0:0,0:0:0:0:
275,124,109720,5,0,0:0:0:0:
231,19,109837,1,0,0:0:0:0:
120,5,109955,1,0,0:0:0:0:
51,92,110072,1,0,0:0:0:0:
64,123,110306,5,0,0:0:0:0:
80,158,110541,5,0,0:0:0:0:
149,71,110658,1,2,0:0:0:0:
146,215,110775,5,2,0:0:0:0:
162,105,110892,1,2,0:0:0:0:
216,242,111009,5,2,0:0:0:0:
175,138,111127,2,0,P|250:134|324:220,1,187.500007152558,2|0,0:0|0:0,0:0:0:0:
355,231,111478,6,0,L|386:225,1,18.7500007152558,2|0,0:0|0:0,0:0:0:0:
388,251,111712,5,0,0:0:0:0:
464,171,111830,1,0,0:0:0:0:
432,65,111947,1,0,0:0:0:0:
400,57,112181,6,0,L|394:88,1,18.7500007152558
364,47,112416,5,0,0:0:0:0:
243,148,112533,1,0,0:0:0:0:
344,164,112650,2,0,L|333:133,1,18.7500007152558
273,38,112767,2,0,L|283:68,5,18.7500007152558
258,10,113002,5,2,0:0:0:0:
69,144,113119,1,0,0:0:0:0:
279,240,113236,1,0,0:0:0:0:
236,2,113353,5,2,0:0:0:0:
73,166,113470,1,0,0:0:0:0:
296,224,113587,1,0,0:0:0:0:
213,0,113705,5,0,0:0:0:0:
84,188,113822,2,0,P|99:189|112:188,1,18.7500007152558
198,195,113939,2,0,P|191:181|184:170,1,18.7500007152558
144,90,114056,2,0,P|135:102|130:114,10,18.7500007152558
104,216,114408,5,0,0:0:0:0:
348,72,114525,1,0,0:0:0:0:
118,236,114642,5,0,0:0:0:0:
333,51,114759,1,0,0:0:0:0:
135,253,114877,5,0,0:0:0:0:
316,34,114994,1,0,0:0:0:0:
156,268,115111,6,0,P|171:269|184:268,1,18.7500007152558
434,261,115228,2,0,P|427:247|420:236,1,18.7500007152558
288,24,115345,2,0,P|279:36|274:48,1,18.7500007152558
196,269,115462,6,0,P|208:267|218:265,1,18.7500007152558
414,225,115579,2,0,P|407:215|400:207,1,18.7500007152558
266,58,115696,2,0,P|261:69|259:79,1,18.7500007152558
318,309,115814,5,0,0:0:0:0:
388,99,115931,1,0,0:0:0:0:
175,155,116048,2,0,L|157:186,1,18.7500007152558
190,156,116107,2,0,L|191:192,1,18.7500007152558
204,147,116166,2,0,L|223:177,1,18.7500007152558
288,24,116283,6,0,B|311:5|311:5|375:7,1,75.0000028610231
156,268,116400,2,0,B|128:257|128:257|98:200,1,75.0000028610231
434,261,116517,2,0,P|415:325|354:236,1,225.000008583069
335,104,116752,5,0,0:0:0:0:
85,233,116869,1,0,0:0:0:0:
198,15,116986,1,0,0:0:0:0:
66,250,117103,1,0,0:0:0:0:
288,24,117220,5,0,0:0:0:0:
341,11,117278,1,0,0:0:0:0:
393,31,117337,1,0,0:0:0:0:
424,77,117395,1,0,0:0:0:0:
423,132,117454,5,0,0:0:0:0:
404,168,117513,1,0,0:0:0:0:
400,212,117572,1,0,0:0:0:0:
416,248,117630,1,0,0:0:0:0:
446,277,117689,5,2,0:0:0:0:
504,136,117806,1,2,0:0:0:0:
448,307,117923,1,2,0:0:0:0:
335,104,118041,1,2,0:0:0:0:
449,338,118158,1,2,0:0:0:0:
512,52,118275,1,2,0:0:0:0:
450,363,118392,1,2,0:0:0:0:
324,24,118509,1,2,0:0:0:0:
358,267,118627,6,0,P|270:380|329:197,1,600,2|2,0:0|0:0,0:0:0:0:
248,272,119564,2,0,B|180:260|180:260|126:282|126:282|48:272,1,200,2|2,0:0|0:0,0:0:0:0:
43,252,120267,1,0,0:0:0:0:
34,230,120502,5,0,0:0:0:0:
356,62,120619,1,2,0:0:0:0:
276,245,120736,1,0,0:0:0:0:
157,84,120853,1,2,0:0:0:0:
328,81,120970,1,2,0:0:0:0:
272,210,121087,1,2,0:0:0:0:
190,101,121205,1,2,0:0:0:0:
484,156,121322,1,2,0:0:0:0:
493,139,121556,5,2,0:0:0:0:
497,291,121673,1,2,0:0:0:0:
361,218,121791,1,2,0:0:0:0:
502,117,121908,5,2,0:0:0:0:
436,353,122025,1,2,0:0:0:0:
493,139,122142,1,2,0:0:0:0:
379,292,122259,1,2,0:0:0:0:
484,156,122377,6,0,P|490:205|484:268,1,100
186,298,122611,2,0,P|180:249|186:186,1,100,2|0,0:0|0:0,0:0:0:0:
512,336,122845,6,0,P|472:365|409:371,1,100,2|2,0:0|0:0,0:0:0:0:
158,118,123079,2,0,P|197:88|261:83,1,100,2|2,0:0|0:0,0:0:0:0:
334,384,123314,6,0,P|288:364|267:309,1,100,0|2,0:0|0:0,0:0:0:0:
336,70,123548,2,0,P|381:89|403:145,1,100,0|2,0:0|0:0,0:0:0:0:
186,298,123783,6,0,P|180:249|223:218,1,100,0|2,0:0|0:0,0:0:0:0:
484,156,124017,2,0,P|490:204|446:235,1,100,2|2,0:0|0:0,0:0:0:0:
158,118,124252,5,2,0:0:0:0:
336,70,124369,1,2,0:0:0:0:
288,248,124486,1,2,0:0:0:0:
178,123,124603,1,2,0:0:0:0:
320,85,124720,1,2,0:0:0:0:
282,227,124837,1,2,0:0:0:0:
203,19,124955,5,2,0:0:0:0:
395,302,125072,1,2,0:0:0:0:
214,39,125189,1,2,0:0:0:0:
213,285,125306,1,2,0:0:0:0:
224,64,125423,1,2,0:0:0:0:
369,223,125541,1,2,0:0:0:0:
232,84,125658,1,2,0:0:0:0:
249,360,125775,5,2,0:0:0:0:
480,208,125892,1,2,0:0:0:0:
232,84,126009,1,2,0:0:0:0:
331,306,126127,6,0,B|369:315|369:315|448:301,1,100,0|2,0:0|0:0,0:0:0:0:
176,200,126361,2,0,B|137:209|137:209|58:195,1,100,0|2,0:0|0:0,0:0:0:0:
355,33,126595,2,0,L|334:147,1,100,2|2,0:0|0:0,0:0:0:0:
228,356,126830,2,0,L|248:241,1,100,2|2,0:0|0:0,0:0:0:0:
126,28,127064,6,0,B|132:63|132:63|124:89|124:89|132:136,1,100,2|2,0:0|0:0,0:0:0:0:
416,155,127298,2,0,B|409:190|409:190|417:216|417:216|409:263,1,100,2|2,0:0|0:0,0:0:0:0:
228,356,127533,2,0,B|231:327|231:327|218:300|218:300|208:245,1,100,2|2,0:0|0:0,0:0:0:0:
428,72,127767,2,0,B|399:68|399:68|372:81|372:81|317:91,1,100,0|2,0:0|0:0,0:0:0:0:
39,192,128002,6,0,L|137:209,1,100,0|2,0:0|0:0,0:0:0:0:
348,344,128236,2,0,B|359:313|359:313|348:228,1,100
252,39,128470,2,0,B|241:70|241:70|252:155,1,100,2|2,0:0|0:0,0:0:0:0:
268,368,128705,1,2,0:0:0:0:
331,88,128822,1,2,0:0:0:0:
361,80,129056,5,2,0:0:0:0:
298,360,129173,1,2,0:0:0:0:
463,127,129291,1,2,0:0:0:0:
332,225,129408,1,2,0:0:0:0:
482,289,129525,1,2,0:0:0:0:
455,144,129642,1,2,0:0:0:0:
352,224,129759,1,2,0:0:0:0:
472,272,129877,6,0,P|481:218|472:164,1,100
180,189,130111,2,0,P|170:242|180:297,1,100,2|0,0:0|0:0,0:0:0:0:
382,160,130345,6,0,P|363:109|315:82,1,100,2|2,0:0|0:0,0:0:0:0:
270,301,130579,2,0,P|288:351|336:378,1,100,2|2,0:0|0:0,0:0:0:0:
250,133,130814,6,0,P|208:98|152:114,1,100,0|2,0:0|0:0,0:0:0:0:
402,328,131048,2,0,P|443:362|500:347,1,100,0|2,0:0|0:0,0:0:0:0:
180,189,131283,5,0,0:0:0:0:
472,272,131400,1,0,0:0:0:0:
322,232,131517,2,0,P|307:287|326:345,1,100,2|2,0:0|0:0,0:0:0:0:
480,152,131752,5,2,0:0:0:0:
332,56,131869,1,2,0:0:0:0:
322,232,131986,1,2,0:0:0:0:
459,150,132103,1,2,0:0:0:0:
341,74,132220,1,2,0:0:0:0:
333,214,132337,1,2,0:0:0:0:
452,37,132455,5,2,0:0:0:0:
216,328,132572,1,2,0:0:0:0:
74,41,132689,5,2,0:0:0:0:
62,253,132806,1,2,0:0:0:0:
252,157,132923,1,2,0:0:0:0:
84,65,133040,1,2,0:0:0:0:
76,232,133157,1,2,0:0:0:0:
226,157,133274,1,2,0:0:0:0:
30,157,133392,5,2,0:0:0:0:
384,308,133509,1,2,0:0:0:0:
74,41,133627,5,2,0:0:0:0:
32,91,133705,5,0,0:0:0:0:
30,157,133783,5,0,0:0:0:0:
68,209,133861,5,2,0:0:0:0:
107,261,133939,5,0,0:0:0:0:
105,327,134017,5,0,0:0:0:0:
63,377,134095,5,2,0:0:0:0:
39,354,134173,5,0,0:0:0:0:
24,325,134251,5,0,0:0:0:0:
20,292,134329,5,2,0:0:0:0:
126,91,134447,1,2,0:0:0:0:
258,115,134563,5,2,0:0:0:0:
67,209,134681,1,2,0:0:0:0:
280,320,134798,5,2,0:0:0:0:
200,20,134916,1,2,0:0:0:0:
306,208,135033,5,2,0:0:0:0:
171,185,135150,1,2,0:0:0:0:
347,45,135267,5,2,0:0:0:0:
149,299,135384,6,0,B|109:323|109:323|-16:301,1,150.000005722046,2|0,0:0|0:0,0:0:0:0:
126,91,135619,1,0,0:0:0:0:
306,208,135736,2,0,B|321:228|323:250|323:250|298:272|298:272|314:306|306:368,1,150.000005722046
171,185,135970,1,0,0:0:0:0:
419,173,136087,1,2,0:0:0:0:
149,299,136205,1,2,0:0:0:0:
440,160,136322,6,0,B|464:212|464:212|447:248|447:248|448:308,1,150.000005722046,2|0,0:0|0:0,0:0:0:0:
356,88,136556,1,2,0:0:0:0:
308,341,136673,6,0,B|317:305|317:305|308:257,1,75.0000028610231,2|2,0:0|0:0,0:0:0:0:
270,39,136791,1,0,0:0:0:0:
47,301,136908,6,0,B|72:274|72:274|89:228,1,75.0000028610231,2|2,0:0|0:0,0:0:0:0:
157,20,137026,1,0,0:0:0:0:
169,384,137142,6,0,B|187:351|187:351|190:302,1,75.0000028610231,2|2,0:0|0:0,0:0:0:0:
84,51,137259,6,0,B|91:86|107:104|107:104|123:109|145:110|145:110|170:121|192:137,1,150.000005722046,2|0,0:0|0:0,0:0:0:0:
310,267,137494,1,2,0:0:0:0:
359,97,137611,1,2,0:0:0:0:
315,288,137728,1,2,0:0:0:0:
270,39,137845,1,2,0:0:0:0:
318,304,137962,1,2,0:0:0:0:
380,16,138080,1,2,0:0:0:0:
320,320,138197,1,2,0:0:0:0:
184,90,138314,5,2,0:0:0:0:
409,216,138431,1,2,0:0:0:0:
187,347,138548,1,2,0:0:0:0:
318,113,138666,5,2,0:0:0:0:
320,320,138783,1,2,0:0:0:0:
141,218,138900,1,2,0:0:0:0:
318,217,139017,5,2,0:0:0:0:
54,313,139134,2,0,B|43:305|34:291|34:291|39:275|55:261|55:261|43:226|57:162,1,150.000005722046,2|0,0:0|0:0,0:0:0:0:
72,28,139369,1,0,0:0:0:0:
318,113,139486,2,0,B|283:101|246:118|246:118|204:131|143:96,1,150.000005722046,2|0,0:0|0:0,0:0:0:0:
395,11,139720,2,0,B|383:46|400:83|400:83|413:125|378:186,1,150.000005722046,2|0,0:0|0:0,0:0:0:0:
342,365,139955,1,2,0:0:0:0:
174,253,140072,6,0,B|176:223|166:198|166:198|183:163|183:163|172:144|171:96,1,150.000005722046,2|0,0:0|0:0,0:0:0:0:
395,11,140306,1,0,0:0:0:0:
432,241,140423,2,0,B|411:241|388:249|388:249|336:227|336:227|308:223|260:241,1,150.000005722046,2|0,0:0|0:0,0:0:0:0:
33,215,140658,1,2,0:0:0:0:
120,32,140775,1,2,0:0:0:0:
90,279,140892,1,2,0:0:0:0:
104,16,141009,6,0,B|85:32|76:60|76:60|94:88|94:88|87:127|107:171,1,150.000005722046,2|0,0:0|0:0,0:0:0:0:
199,332,141244,1,2,0:0:0:0:
348,200,141361,1,2,0:0:0:0:
184,348,141478,1,2,0:0:0:0:
304,116,141595,1,2,0:0:0:0:
164,368,141712,1,2,0:0:0:0:
420,136,141830,1,2,0:0:0:0:
148,384,141947,1,2,0:0:0:0:
208,88,142064,5,0,0:0:0:0:
214,127,142123,1,0,0:0:0:0:
221,166,142181,1,2,0:0:0:0:
333,346,142298,5,0,0:0:0:0:
336,326,142357,1,0,0:0:0:0:
339,307,142415,1,2,0:0:0:0:
372,72,142533,5,0,0:0:0:0:
184,348,142650,1,2,0:0:0:0:
390,51,142767,1,0,0:0:0:0:
164,368,142884,6,0,B|113:384|113:384|8:368,1,150.000005722046,2|0,0:0|0:0,0:0:0:0:
85,169,143119,1,2,0:0:0:0:
256,268,143236,1,2,0:0:0:0:
58,163,143353,1,2,0:0:0:0:
329,149,143470,1,2,0:0:0:0:
34,157,143587,1,2,0:0:0:0:
339,307,143705,1,2,0:0:0:0:
70,76,143822,6,0,B|94:84|121:85|121:85|149:106|149:106|177:103|240:122,1,150.000005722046,2|0,0:0|0:0,0:0:0:0:
453,169,144056,1,0,0:0:0:0:
430,325,144173,5,2,0:0:0:0:
374,74,144291,1,2,0:0:0:0:
256,268,144408,5,2,0:0:0:0:
294,39,144525,1,2,0:0:0:0:
141,302,144642,5,2,0:0:0:0:
70,76,144759,2,0,B|60:120|77:153|77:153|62:180|62:180|82:231,1,150.000005722046,2|0,0:0|0:0,0:0:0:0:
257,360,144994,1,2,0:0:0:0:
176,200,145111,1,2,0:0:0:0:
77,350,145228,1,2,0:0:0:0:
276,368,145345,1,2,0:0:0:0:
178,175,145462,1,2,0:0:0:0:
60,356,145579,1,2,0:0:0:0:
313,287,145697,6,0,B|325:259|325:259|317:236|317:236|335:188|313:124,1,150.000005722046,2|0,0:0|0:0,0:0:0:0:
192,32,145931,1,0,0:0:0:0:
81,274,146048,2,0,B|109:286|109:286|132:278|132:278|180:296|244:274,1,150.000005722046,2|0,0:0|0:0,0:0:0:0:
460,115,146283,1,2,0:0:0:0:
260,74,146400,1,2,0:0:0:0:
507,214,146517,1,2,0:0:0:0:
228,60,146634,6,0,B|219:120|219:120|236:176|236:176|219:226|219:226|228:308,1,225.000008583069,2|0,0:0|0:0,0:0:0:0:
244,296,146869,5,2,0:0:0:0:
369,157,146986,1,2,0:0:0:0:
232,312,147103,1,2,0:0:0:0:
340,64,147220,1,2,0:0:0:0:
220,328,147337,1,2,0:0:0:0:
429,85,147455,1,2,0:0:0:0:
140,256,147572,6,0,B|119:234|118:212|118:212|144:181|144:181|114:121|139:23,1,225.000008583069,2|0,0:0|0:0,0:0:0:0:
153,34,147806,5,0,0:0:0:0:
289,228,147923,1,2,0:0:0:0:
52,248,148041,1,0,0:0:0:0:
152,8,148158,1,2,0:0:0:0:
315,241,148275,1,0,0:0:0:0:
30,265,148393,1,2,0:0:0:0:
241,25,148509,1,0,0:0:0:0:
394,211,148627,6,0,P|374:307|266:175,1,375.000014305115,2|0,0:0|0:0,0:0:0:0:
267,92,148978,6,0,P|445:140|416:381,1,437.500004172325,2|0,0:0|0:0,0:0:0:0:
125,323,149330,6,0,P|105:171|389:15,1,500,2|0,0:0|0:0,0:0:0:0:
441,173,149681,5,2,0:3:0:0:
125,323,149798,1,0,0:3:0:0:
159,7,149916,1,0,0:3:0:0:
307,343,150033,5,2,0:3:0:0:
51,155,150150,1,0,0:3:0:0:
342,27,150268,1,0,0:3:0:0:
49,194,150384,6,0,B|92:173|92:173|201:190,1,150.000005722046,2|0,0:0|0:0,0:0:0:0:
460,308,150619,1,0,0:0:0:0:
276,254,150736,2,0,B|266:224|266:224|279:200|279:200|260:158|278:60,1,150.000005722046
474,113,150970,1,0,0:0:0:0:
350,316,151087,1,2,0:0:0:0:
393,57,151205,1,2,0:0:0:0:
328,334,151322,6,0,B|301:334|276:349|276:349|227:332|227:332|206:344|153:352,1,150.000005722046,2|0,0:0|0:0,0:0:0:0:
0,271,151556,1,2,0:0:0:0:
89,40,151673,6,0,B|77:75|77:75|80:116,1,75.0000028610231,2|2,0:0|0:0,0:0:0:0:
89,348,151791,1,0,0:0:0:0:
206,69,151908,6,0,B|200:105|200:105|210:145,1,75.0000028610231,2|2,0:0|0:0,0:0:0:0:
259,372,152026,1,0,0:0:0:0:
330,69,152142,6,0,B|330:105|330:105|347:143,1,75.0000028610231,2|2,0:0|0:0,0:0:0:0:
444,344,152259,6,0,B|460:328|464:310|464:310|444:274|444:274|455:246|445:177,1,150.000005722046,2|0,0:0|0:0,0:0:0:0:
411,66,152494,1,2,0:0:0:0:
260,216,152611,1,2,0:0:0:0:
422,49,152728,1,2,0:0:0:0:
302,301,152845,1,2,0:0:0:0:
434,33,152962,1,2,0:0:0:0:
180,272,153080,1,2,0:0:0:0:
445,17,153197,1,2,0:0:0:0:
358,359,153314,5,2,0:0:0:0:
209,142,153431,1,2,0:0:0:0:
469,122,153548,1,2,0:0:0:0:
245,275,153666,5,2,0:0:0:0:
335,87,153783,1,2,0:0:0:0:
454,258,153900,1,2,0:0:0:0:
292,188,154017,5,2,0:0:0:0:
503,24,154134,2,0,B|521:60|521:60|501:88|501:88|513:128|506:195,1,150.000005722046,2|0,0:0|0:0,0:0:0:0:
344,285,154369,1,0,0:0:0:0:
92,108,154486,2,0,B|132:89|168:106|168:106|203:124|265:108,1,150.000005722046,2|0,0:0|0:0,0:0:0:0:
126,330,154720,2,0,B|107:289|124:253|124:253|142:218|126:157,1,150.000005722046,2|0,0:0|0:0,0:0:0:0:
244,27,154955,1,2,0:0:0:0:
344,285,155072,6,0,B|325:304|304:305|304:305|259:280|259:280|232:293|188:285,1,150.000005722046,2|0,0:0|0:0,0:0:0:0:
46,214,155306,1,0,0:0:0:0:
312,77,155423,2,0,B|331:96|332:117|332:117|307:161|307:161|320:189|312:233,1,150.000005722046,2|0,0:0|0:0,0:0:0:0:
410,363,155658,1,2,0:0:0:0:
224,208,155775,1,2,0:0:0:0:
498,318,155892,1,2,0:0:0:0:
196,192,156009,6,0,B|179:156|194:118|194:118|184:92|184:92|196:36,1,150.000005722046,2|0,0:0|0:0,0:0:0:0:
368,56,156244,1,2,0:0:0:0:
430,223,156361,1,2,0:0:0:0:
368,32,156478,1,2,0:0:0:0:
328,272,156595,1,2,0:0:0:0:
368,16,156712,1,2,0:0:0:0:
449,312,156830,1,2,0:0:0:0:
368,0,156947,1,2,0:0:0:0:
243,281,157064,5,0,0:0:0:0:
203,274,157123,1,0,0:0:0:0:
164,267,157181,1,2,0:0:0:0:
320,120,157298,5,0,0:0:0:0:
340,123,157357,1,0,0:0:0:0:
359,127,157415,1,2,0:0:0:0:
344,348,157533,5,0,0:0:0:0:
216,56,157650,1,2,0:0:0:0:
357,368,157767,1,0,0:0:0:0:
208,32,157884,6,0,B|159:18|159:18|56:32,1,150.000005722046,2|0,0:0|0:0,0:0:0:0:
124,248,158119,1,2,0:0:0:0:
268,136,158236,1,2,0:0:0:0:
104,256,158353,1,2,0:0:0:0:
360,192,158470,1,2,0:0:0:0:
88,264,158587,1,2,0:0:0:0:
334,78,158705,1,2,0:0:0:0:
141,331,158822,6,0,B|165:333|181:347|181:347|198:333|217:331|217:331|249:343|309:331,1,150.000005722046,2|0,0:0|0:0,0:0:0:0:
488,288,159056,1,0,0:0:0:0:
420,68,159173,5,2,0:0:0:0:
384,295,159291,1,2,0:0:0:0:
253,35,159408,5,2,0:0:0:0:
288,244,159525,1,2,0:0:0:0:
150,51,159642,5,2,0:0:0:0:
21,265,159759,2,0,B|67:277|67:277|107:249|107:249|186:235,1,150.000005722046,2|0,0:0|0:0,0:0:0:0:
381,200,159994,1,2,0:0:0:0:
209,136,160111,1,2,0:0:0:0:
239,316,160228,1,2,0:0:0:0:
401,196,160345,1,2,0:0:0:0:
195,119,160462,1,2,0:0:0:0:
231,335,160579,1,2,0:0:0:0:
430,119,160697,6,0,B|396:101|396:101|365:120|365:120|331:105|270:119,1,150.000005722046,2|0,0:0|0:0,0:0:0:0:
59,176,160931,1,2,0:0:0:0:
231,335,161048,2,0,B|264:352|264:352|295:333|295:333|329:348|391:335,1,150.000005722046,2|0,0:0|0:0,0:0:0:0:
401,196,161283,1,2,0:0:0:0:
189,56,161400,1,2,0:0:0:0:
439,283,161517,1,2,0:0:0:0:
160,36,161634,6,0,B|136:88|161:148|161:148|148:200|148:200|164:264,1,225.000008583069,2|0,0:0|0:0,0:0:0:0:
183,272,161869,5,2,0:0:0:0:
266,78,161986,1,2,0:0:0:0:
56,102,162103,1,2,0:0:0:0:
303,208,162220,1,2,0:0:0:0:
151,5,162337,1,2,0:0:0:0:
50,238,162454,1,2,0:0:0:0:
437,343,162572,6,0,B|433:302|449:260|449:260|424:216|424:216|440:169|437:95,1,225.000008583069,2|0,0:0|0:0,0:0:0:0:
415,104,162806,5,0,0:0:0:0:
354,297,162923,1,2,0:0:0:0:
349,35,163041,1,0,0:0:0:0:
352,316,163158,1,2,0:0:0:0:
455,23,163275,1,0,0:0:0:0:
349,332,163392,1,2,0:0:0:0:
160,36,163509,6,0,B|146:96|146:96|162:156|162:156|148:192|148:192|160:272,1,225.000008583069,2|0,0:0|0:0,0:0:0:0:
183,272,163744,5,2,0:0:0:0:
266,78,163861,1,2,0:0:0:0:
56,102,163978,1,2,0:0:0:0:
303,208,164095,1,2,0:0:0:0:
151,5,164212,1,2,0:0:0:0:
50,238,164329,1,2,0:0:0:0:
437,343,164447,6,0,B|453:320|462:296|462:296|446:273|432:261|432:261|452:199|433:95,1,225.000008583069,2|0,0:0|0:0,0:0:0:0:
415,104,164681,5,0,0:0:0:0:
354,297,164798,1,2,0:0:0:0:
349,35,164916,1,0,0:0:0:0:
352,316,165033,1,2,0:0:0:0:
455,23,165150,1,0,0:0:0:0:
349,332,165267,1,2,0:0:0:0:
160,36,165384,6,0,B|155:61|164:84|164:84|147:114|147:114|160:140|160:140|132:192|160:264,1,225.000008583069,2|0,0:0|0:0,0:0:0:0:
183,272,165619,5,2,0:0:0:0:
65,69,165736,1,2,0:0:0:0:
56,96,165794,1,0,0:0:0:0:
64,124,165853,1,2,0:0:0:0:
303,208,165970,1,2,0:0:0:0:
151,5,166087,1,2,0:0:0:0:
50,238,166204,1,2,0:0:0:0:
437,343,166322,6,0,B|413:279|436:233|436:233|455:173|427:99,1,225.000008583069,2|0,0:0|0:0,0:0:0:0:
415,104,166556,5,0,0:0:0:0:
354,297,166673,1,2,0:0:0:0:
349,35,166791,1,0,0:0:0:0:
352,316,166908,1,2,0:0:0:0:
455,23,167025,1,0,0:0:0:0:
243,324,167142,1,2,0:0:0:0:
469,6,167259,1,0,0:0:0:0:
224,344,167377,6,0,P|152:264|326:166,1,375.000014305115,2|0,0:0|0:0,0:0:0:0:
469,151,167728,6,0,P|445:222|325:151,1,250,2|0,0:0|0:0,0:0:0:0:
273,113,168080,6,0,P|309:105|309:174,1,112.500004291535,2|0,0:0|0:0,0:0:0:0:
101,230,168314,6,0,P|96:206|101:170,1,50.0000019073487,2|0,0:0|0:0,0:0:0:0:
228,90,168470,6,0,P|251:97|279:120,1,50.0000019073487,2|0,0:0|0:0,0:0:0:0:
285,269,168627,6,0,P|266:285|233:299,1,50.0000019073487,2|0,0:0|0:0,0:0:0:0:
97,180,168783,6,0,P|103:156|124:126,1,50.0000019073487,2|0,0:0|0:0,0:0:0:0:
272,112,168939,6,0,P|289:129|304:162,1,50.0000019073487,2|0,0:0|0:0,0:0:0:0:
243,296,169096,6,0,P|219:302|183:299,1,50.0000019073487,2|0,0:0|0:0,0:0:0:0:
116,134,169252,6,0,P|139:127|175:130,1,50.0000019073487,2|0,0:0|0:0,0:0:0:0:
301,151,169408,6,0,P|294:174|273:204,1,50.0000019073487,2|0,0:0|0:0,0:0:0:0:
193,301,169564,6,0,P|175:283|160:250,1,50.0000019073487,2|0,0:0|0:0,0:0:0:0:
165,128,169720,6,0,P|182:145|197:178,1,50.0000019073487,2|0,0:0|0:0,0:0:0:0:
281,196,169877,6,0,P|257:202|221:199,1,50.0000019073487,2|0,0:0|0:0,0:0:0:0:
163,261,170033,6,0,P|169:237|190:207,1,50.0000019073487,2|0,0:0|0:0,0:0:0:0:
332,76,170189,5,2,0:0:0:0:
395,338,170306,2,0,B|352:366|352:366|210:341,1,150.000005722046,2|2,0:0|0:0,0:0:0:0:
76,308,170540,1,2,0:0:0:0:
276,272,170657,2,0,B|332:282|332:282|372:257|372:257|439:265,1,150.000005722046,2|2,0:0|0:0,0:0:0:0:
158,332,170892,1,2,0:0:0:0:
348,172,171009,2,0,L|501:199,1,150.000005722046,2|0,0:0|0:0,0:0:0:0:
258,182,171243,1,0,0:0:0:0:
406,42,171361,2,0,B|386:144|386:144|342:177,1,150.000005722046,2|0,0:0|0:0,0:0:0:0:
163,13,171595,6,0,P|189:43|207:89,1,75.0000028610231,2|0,0:0|0:0,0:0:0:0:
240,304,171712,1,2,0:0:0:0:
290,28,171829,6,0,P|298:68|290:116,1,75.0000028610231,2|0,0:0|0:0,0:0:0:0:
264,383,171947,1,2,0:0:0:0:
128,263,172064,5,2,0:0:0:0:
203,74,172181,2,0,B|213:133|213:133|198:173|198:173|225:213,1,150.000005722046,2|2,0:0|0:0,0:0:0:0:
368,256,172415,1,2,0:0:0:0:
428,49,172532,2,0,B|377:57|377:57|345:90|345:90|280:103,1,150.000005722046,2|2,0:0|0:0,0:0:0:0:
128,124,172767,1,2,0:0:0:0:
353,172,172884,2,0,L|520:142,1,150.000005722046,2|0,0:0|0:0,0:0:0:0:
293,101,173118,1,0,0:0:0:0:
158,326,173236,2,0,B|258:308|258:308|288:270,1,150.000005722046,2|0,0:0|0:0,0:0:0:0:
454,20,173470,6,0,P|427:50|410:96,1,75.0000028610231,2|0,0:0|0:0,0:0:0:0:
343,344,173587,1,0,0:0:0:0:
333,38,173704,6,0,P|325:78|333:126,1,75.0000028610231,2|0,0:0|0:0,0:0:0:0:
435,366,173821,1,2,0:0:0:0:
435,174,173939,5,2,0:0:0:0:
125,228,174056,2,0,B|101:191|101:191|127:49,1,150.000005722046,2|2,0:0|0:0,0:0:0:0:
256,24,174290,1,2,0:0:0:0:
215,212,174407,2,0,B|205:267|205:267|180:295|180:295|169:354,1,150.000005722046,2|2,0:0|0:0,0:0:0:0:
32,256,174642,1,2,0:0:0:0:
297,245,174759,2,0,L|450:272,1,150.000005722046,2|0,0:0|0:0,0:0:0:0:
259,336,174993,1,0,0:0:0:0:
292,104,175111,2,0,B|315:140|315:140|289:282,1,150.000005722046,2|0,0:0|0:0,0:0:0:0:
32,256,175345,6,0,P|62:229|108:212,1,75.0000028610231,2|0,0:0|0:0,0:0:0:0:
406,188,175462,1,2,0:0:0:0:
82,128,175579,6,0,P|122:120|169:128,1,75.0000028610231,2|0,0:0|0:0,0:0:0:0:
444,271,175696,1,0,0:0:0:0:
211,248,175814,5,2,0:0:0:0:
378,107,175931,1,2,0:0:0:0:
304,332,176048,2,0,B|260:324|260:324|217:337|217:337|150:325,1,150.000005722046,2|0,0:0|0:0,0:0:0:0:
268,176,176283,5,2,0:0:0:0:
400,348,176400,1,2,0:0:0:0:
72,276,176517,2,0,B|141:236|141:236|218:248,1,150.000005722046,2|2,0:0|0:0,0:0:0:0:
365,268,176751,5,0,0:0:0:0:
157,326,176868,1,0,0:0:0:0:
210,116,176986,1,2,0:0:0:0:
240,238,177103,1,0,0:0:0:0:
192,36,177220,5,2,0:0:0:0:
270,344,177337,1,0,0:0:0:0:
185,12,177454,1,2,0:0:0:0:
272,365,177572,1,0,0:0:0:0:
275,27,177689,6,0,B|292:16|322:11|322:11|350:27|360:43|360:43|392:44|424:55,1,150.000005722046,2|2,0:0|0:0,0:0:0:0:
495,190,177923,1,2,0:0:0:0:
263,107,178040,2,0,L|439:142,1,150.000005722046,2|2,0:0|0:0,0:0:0:0:
356,314,178275,1,2,0:0:0:0:
199,167,178392,2,0,B|176:126|176:126|195:18,1,150.000005722046,2|2,0:0|0:0,0:0:0:0:
244,243,178626,1,0,0:0:0:0:
43,48,178743,2,0,B|98:57|98:57|134:84|134:84|193:94,1,150.000005722046,0|2,0:0|0:0,0:0:0:0:
340,122,178978,1,0,0:0:0:0:
156,248,179095,2,0,L|-1:220,1,150.000005722046,2|2,0:0|0:0,0:0:0:0:
317,198,179329,2,0,B|332:249|332:249|312:359,1,150.000005722046,2|0,0:0|0:0,0:0:0:0:
164,143,179564,6,0,B|191:145|224:128|224:128|265:135|265:135|288:116|325:114,1,150.000005722046,2|0,0:0|0:0,0:0:0:0:
508,107,179798,1,2,0:0:0:0:
289,35,179915,2,0,L|127:63,1,150.000005722046,2|2,0:0|0:0,0:0:0:0:
0,83,180150,1,2,0:0:0:0:
70,277,180267,2,0,B|98:231|98:231|80:128,1,150.000005722046,2|2,0:0|0:0,0:0:0:0:
59,0,180501,1,0,0:0:0:0:
70,277,180618,2,0,B|117:268|117:268|159:277|159:277|226:265,1,150.000005722046,0|2,0:0|0:0,0:0:0:0:
366,245,180853,1,0,0:0:0:0:
254,50,180970,2,0,L|281:203,1,150.000005722046,2|0,0:0|0:0,0:0:0:0:
458,368,181204,2,0,B|469:322|469:322|447:207,1,150.000005722046,2|0,0:0|0:0,0:0:0:0:
449,23,181439,5,2,0:0:0:0:
379,102,181556,2,0,B|354:141|361:176|361:176|370:210|344:253,1,150.000005722046,2|2,0:0|0:0,0:0:0:0:
283,375,181790,1,2,0:0:0:0:
135,200,181907,2,0,B|183:180|183:180|321:204,1,150.000005722046,2|2,0:0|0:0,0:0:0:0:
366,336,182142,1,2,0:0:0:0:
135,200,182259,2,0,L|174:20,1,150.000005722046,2|0,0:0|0:0,0:0:0:0:
312,24,182493,1,0,0:0:0:0:
211,290,182611,2,0,B|163:281|163:281|116:285|116:285|68:260,1,150.000005722046,2|0,0:0|0:0,0:0:0:0:
0,94,182845,6,0,P|36:86|80:94,1,75.0000028610231,2|0,0:0|0:0,0:0:0:0:
343,132,182962,1,2,0:0:0:0:
102,19,183079,6,0,P|137:30|171:59,1,75.0000028610231,2|0,0:0|0:0,0:0:0:0:
357,214,183196,1,2,0:0:0:0:
212,138,183314,5,2,0:0:0:0:
435,234,183431,1,2,0:0:0:0:
240,379,183548,1,2,0:0:0:0:
289,253,183665,1,2,0:0:0:0:
385,378,183782,5,2,0:0:0:0:
88,192,183899,1,2,0:0:0:0:
354,112,184016,1,2,0:0:0:0:
168,280,184134,1,2,0:0:0:0:
275,71,184251,5,0,0:0:0:0:
177,193,184368,1,0,0:0:0:0:
114,49,184486,1,2,0:0:0:0:
187,104,184603,1,0,0:0:0:0:
33,309,184720,5,2,0:0:0:0:
205,17,184837,1,0,0:0:0:0:
237,354,184954,1,2,0:0:0:0:
13,100,185072,1,0,0:0:0:0:
284,174,185189,5,2,0:0:0:0:
334,190,185247,5,2,0:0:0:0:
333,242,185306,5,2,0:0:0:0:
283,257,185364,5,2,0:0:0:0:
253,214,185423,5,2,0:0:0:0:
