osu file format v14

[General]
AudioFilename: audio.mp3
AudioLeadIn: 0
PreviewTime: 65145
Countdown: 0
SampleSet: Soft
StackLeniency: 0.3
Mode: 0
LetterboxInBreaks: 0
EpilepsyWarning: 1
WidescreenStoryboard: 1

[Editor]
Bookmarks: 3839,19199,34559,49919,51449,65279,80639,95999,111329,126689,142049
DistanceSpacing: 0.9
BeatDivisor: 4
GridSize: 16
TimelineZoom: 2.799999

[Metadata]
Title:Contra (feat. Sara Skinner) (Cut Ver.)
TitleUnicode:Contra (feat. Sara Skinner) (Cut Ver.)
Artist:Pixel Terror
ArtistUnicode:Pixel Terror
Creator:VenerableNyanta
Version:thiev's Insane
Source:Rocket League
Tags:le mirai best of 2018 pop house monstercat RLCSX nyanta thiev tech electronic EDM english SirMirai Cacturne hakashii
BeatmapID:2771933
BeatmapSetID:1325570

[Difficulty]
HPDrainRate:5
CircleSize:4.2
OverallDifficulty:8
ApproachRate:8.6
SliderMultiplier:2.2
SliderTickRate:1

[Events]
//Background and Video events
0,0,"VKTRyTo.jpg",0,0
//Break Periods
//Storyboard Layer 0 (Background)
//Storyboard Layer 1 (Fail)
//Storyboard Layer 2 (Pass)
//Storyboard Layer 3 (Foreground)
Sprite,Foreground,Centre,"sb\italicGlow\_012.png",0,0 S,0,65264,,0.4 M,30,65264,65684,569,422,569,392 F,1,65264,65684,0,1 M,17,65684,66644,569,392,569,396 R,17,65684,69524,-0.06,0.06 M,17,66644,67604,569,396,569,392 M,17,67604,68564,569,392,569,396 M,17,68564,69524,569,396,569,392 M,17,69524,70484,569,392,569,396 R,17,69524,73364,0.06,-0.06 M,17,70484,71444,569,396,569,392 M,17,71444,72404,569,392,569,396 M,17,72404,73364,569,396,569,392 M,17,73364,74324,569,392,569,396 R,17,73364,77204,-0.06,0.06 M,17,74324,75284,569,396,569,392 M,17,75284,76244,569,392,569,396 M,17,76244,77204,569,396,569,392 M,17,77204,78164,569,392,569,396 R,17,77204,81044,0.06,-0.06 M,17,78164,79124,569,396,569,392 M,17,79124,80084,569,392,569,396 M,17,80084,81044,569,396,569,392 M,17,81044,82004,569,392,569,396 R,17,81044,84884,-0.06,0.06 M,17,82004,82964,569,396,569,392 M,17,82964,83924,569,392,569,396 M,17,83924,84884,569,396,569,392 M,17,84884,85844,569,392,569,396 R,17,84884,88724,0.06,-0.06 M,17,85844,86804,569,396,569,392 M,17,86804,87764,569,392,569,396 M,17,87764,88724,569,396,569,392 M,17,88724,89684,569,392,569,396 R,17,88724,92564,-0.06,0.06 M,17,89684,90644,569,396,569,392 M,17,90644,91604,569,392,569,396 M,17,91604,92564,569,396,569,392 M,17,92564,93524,569,392,569,396 R,17,92564,96404,0.06,-0.06 M,17,93524,94484,569,396,569,392 M,29,94605,95025,569,392,569,362 F,2,94605,95025,1,0
Sprite,Foreground,Centre,"sb\italicGlow\_012.png",0,0 S,0,111345,,0.4 M,30,111345,111765,569,422,569,392 F,1,111345,111765,0,1 M,17,111765,112725,569,392,569,396 R,17,111765,115605,-0.06,0.06 M,17,112725,113685,569,396,569,392 M,17,113685,114645,569,392,569,396 M,17,114645,115605,569,396,569,392 M,17,115605,116565,569,392,569,396 R,17,115605,119445,0.06,-0.06 M,17,116565,117525,569,396,569,392 M,17,117525,118485,569,392,569,396 M,17,118485,119445,569,396,569,392 M,17,119445,120405,569,392,569,396 R,17,119445,123285,-0.06,0.06 M,17,120405,121365,569,396,569,392 M,17,121365,122325,569,392,569,396 M,17,122325,123285,569,396,569,392 M,17,123285,124245,569,392,569,396 R,17,123285,127125,0.06,-0.06 M,17,124245,125205,569,396,569,392 M,17,125205,126165,569,392,569,396 M,17,126165,127125,569,396,569,392 M,17,127125,128085,569,392,569,396 R,17,127125,130965,-0.06,0.06 M,17,128085,129045,569,396,569,392 M,17,129045,130005,569,392,569,396 M,17,130005,130965,569,396,569,392 M,17,130965,131925,569,392,569,396 R,17,130965,134805,0.06,-0.06 M,17,131925,132885,569,396,569,392 M,17,132885,133845,569,392,569,396 M,17,133845,134805,569,396,569,392 M,17,134805,135765,569,392,569,396 R,17,134805,138645,-0.06,0.06 M,17,135765,136725,569,396,569,392 M,17,136725,137685,569,392,569,396 M,17,137685,138645,569,396,569,392 M,17,138645,139605,569,392,569,396 R,17,138645,142485,0.06,-0.06 M,29,139725,140145,569,392,569,362 F,2,139725,140145,1,0
Sprite,Foreground,Centre,"sb\italicOutline\_000.png",320,240 S,0,3825,,0.52 F,15,3825,4075,0,1 F,15,7414,7664,1,0
Sprite,Foreground,Centre,"sb\italicGlow\_000.png",0,0 S,0,3825,,0.4 M,30,3825,4245,320,338,320,308 F,1,3825,4245,0,1 M,29,7244,7664,320,308,320,278 F,2,7244,7664,1,0
Sprite,Foreground,Centre,"sb\italicOutline\_014.png",320,240 S,0,7664,,0.52 F,15,7664,7914,0,1 F,15,11255,11505,1,0
Sprite,Foreground,Centre,"sb\italicGlow\_001.png",0,0 S,0,7664,,0.4 M,30,7664,8084,320,338,320,308 F,1,7664,8084,0,1 M,29,11085,11505,320,308,320,278 F,2,11085,11505,1,0
Sprite,Foreground,Centre,"sb\italicOutline\_001.png",320,240 S,0,11505,,0.52 F,15,11505,11755,0,1 F,15,17975,18225,1,0
Sprite,Foreground,Centre,"sb\italicGlow\_002.png",0,0 S,0,11505,,0.4 M,30,11505,11925,320,338,320,308 F,1,11505,11925,0,1 M,29,17805,18225,320,308,320,278 F,2,17805,18225,1,0
//Storyboard Layer 4 (Overlay)
//Storyboard Sound Samples

[TimingPoints]
3825,480,4,2,0,50,1,0
19665,-133.333333333333,4,2,1,60,0,0
26865,-133.333333333333,4,2,9,60,0,0
27345,-133.333333333333,4,2,1,60,0,0
30225,-111.111111111111,4,2,1,60,0,0
32625,-111.111111111111,4,2,1,70,0,0
34065,-111.111111111111,4,2,1,45,0,0
34545,-111.111111111111,4,2,3,50,0,0
34785,-111.111111111111,4,2,1,50,0,0
35025,-200,4,2,1,50,0,0
38385,-76.9230769230769,4,2,1,50,0,0
39345,-142.857142857143,4,2,1,50,0,0
41745,-66.6666666666667,4,2,1,50,0,0
42225,-66.6666666666667,4,2,1,60,0,0
42705,-153.846153846153,4,2,1,60,0,0
44625,-117.647058823529,4,2,1,60,0,0
45105,-95.2380952380951,4,2,1,60,0,0
46065,-58.8235294117647,4,2,1,60,0,0
47025,-111.111111111111,4,2,1,60,0,0
49905,-111.111111111111,4,2,3,50,0,0
50385,-133.333333333333,4,2,2,50,0,0
51825,-222.222222222221,4,2,2,20,0,0
52305,-181.818181818181,4,2,2,30,0,0
52785,-153.846153846153,4,2,2,40,0,0
53265,-133.333333333333,4,2,2,50,0,0
53745,-133.333333333333,4,2,2,50,0,0
54225,-90.9090909090909,4,2,2,50,0,0
55665,-117.647058823529,4,2,2,20,0,0
56145,-95.238095238095,4,2,2,30,0,0
56625,-80,4,2,2,40,0,0
57105,-68.9655172413793,4,2,2,50,0,0
57585,-68.9655172413793,4,2,2,60,0,0
58065,-74.0740740740741,4,2,2,60,0,0
59505,-100,4,2,2,60,0,0
59985,-83.3333333333333,4,2,2,60,0,0
60465,-71.4285714285714,4,2,2,60,0,0
61905,-83.3333333333333,4,2,2,60,0,0
63825,-83.3333333333333,4,2,2,70,0,0
64305,-83.3333333333333,4,2,2,50,0,0
65265,-40,4,2,5,65,0,1
65745,-125,4,2,4,50,0,1
65985,-58.8235294117647,4,2,4,50,0,1
66705,-100,4,2,4,50,0,1
67185,-66.6666666666667,4,2,4,50,0,1
67665,-90.9090909090909,4,2,4,50,0,1
68265,-200,4,2,4,50,0,1
68625,-50,4,2,4,50,0,1
69105,-37.037037037037,4,2,4,50,0,1
69585,-166.666666666667,4,2,4,50,0,1
69825,-66.6666666666667,4,2,4,50,0,1
71025,-133.333333333333,4,2,4,50,0,1
72105,-83.3333333333333,4,2,4,50,0,1
72945,-40,4,2,5,50,0,1
73425,-166.666666666667,4,2,4,50,0,1
73665,-58.8235294117647,4,2,4,50,0,1
74385,-100,4,2,4,50,0,1
75225,-66.6666666666667,4,2,4,50,0,1
75945,-166.666666666667,4,2,4,50,0,1
76305,-41.6666666666667,4,2,4,50,0,1
76785,-40,4,2,4,50,0,1
77265,-166.666666666667,4,2,4,50,0,1
77505,-66.6666666666667,4,2,4,50,0,1
78225,-100,4,2,4,50,0,1
78945,-200,4,2,4,50,0,1
79185,-100,4,2,4,50,0,1
79785,-40,4,2,4,50,0,1
80265,-133.333333333333,4,2,4,50,0,1
80625,-37.037037037037,4,2,4,50,0,1
81105,-66.6666666666667,4,2,4,50,0,1
82305,-100,4,2,4,50,0,1
82545,-66.6666666666667,4,2,4,50,0,1
83625,-100,4,2,4,50,0,1
83985,-43.4782608695652,4,2,4,50,0,1
84465,-37.037037037037,4,2,4,50,0,1
84945,-66.6666666666667,4,2,4,50,0,1
85425,-55.5555555555556,4,2,4,50,0,1
85905,-66.6666666666667,4,2,4,50,0,1
86145,-83.3333333333333,4,2,4,50,0,1
86385,-66.6666666666667,4,2,4,50,0,1
87705,-83.3333333333333,4,2,4,50,0,1
88305,-37.037037037037,4,2,4,50,0,1
88785,-66.6666666666667,4,2,4,50,0,1
89265,-55.5555555555556,4,2,4,50,0,1
89745,-71.4285714285714,4,2,4,50,0,1
89985,-111.111111111111,4,2,4,50,0,1
90225,-76.9230769230769,4,2,4,50,0,1
91305,-166.666666666667,4,2,4,50,0,1
91665,-43.4782608695652,4,2,4,50,0,1
92145,-37.037037037037,4,2,4,50,0,1
92625,-66.6666666666667,4,2,4,50,0,1
93105,-55.5555555555556,4,2,4,50,0,1
93585,-76.9230769230769,4,2,4,50,0,1
93825,-111.111111111111,4,2,4,50,0,1
94065,-50,4,2,4,50,0,1
94305,-133.333333333333,4,2,4,50,0,1
94545,-66.6666666666667,4,2,4,50,0,1
95025,-166.666666666667,4,2,1,50,0,1
95985,-166.666666666667,4,2,3,50,0,0
96225,-166.666666666667,4,2,6,50,0,0
99825,-100,4,2,6,50,0,0
104625,-166.666666666667,4,2,6,50,0,0
107505,-333.333333333334,4,2,6,50,0,0
108465,-222.222222222222,4,2,6,50,0,0
109425,-166.666666666667,4,2,6,50,0,0
111345,-76.9230769230769,4,2,7,50,0,1
113265,-200,4,2,4,50,0,1
114225,-333.333333333333,4,2,4,50,0,1
114705,-47.6190476190476,4,2,4,50,0,1
115185,-76.9230769230769,4,2,7,50,0,1
117105,-200,4,2,4,50,0,1
118065,-66.6666666666667,4,2,4,50,0,1
118785,-125,4,2,4,50,0,1
119025,-83.3333333333333,4,2,7,50,0,1
120945,-83.3333333333333,4,2,4,50,0,1
121785,-111.111111111111,4,2,4,50,0,1
122025,-200,4,2,4,50,0,1
122385,-47.6190476190476,4,2,4,50,0,1
122865,-76.9230769230769,4,2,7,50,0,1
124785,-76.9230769230769,4,2,4,50,0,1
125025,-399.999999999997,4,2,4,50,0,1
125265,-222.222222222221,4,2,4,50,0,1
125745,-153.846153846153,4,2,4,50,0,1
126705,-66.6666666666667,4,2,8,50,0,1
128145,-44.4444444444445,4,2,8,50,0,1
128625,-100,4,2,8,50,0,1
128745,-100,4,2,4,50,0,1
130065,-52.6315789473684,4,2,4,50,0,1
130545,-66.6666666666667,4,2,8,50,0,1
131985,-44.4444444444445,4,2,8,50,0,1
132465,-100,4,2,4,50,0,1
134385,-66.6666666666667,4,2,8,50,0,1
135825,-44.4444444444445,4,2,8,50,0,1
136545,-44.4444444444445,4,2,4,50,0,1
136785,-100,4,2,4,50,0,1
137385,-222.222222222221,4,2,4,50,0,1
137745,-52.6315789473684,4,2,4,50,0,1
138225,-100,4,2,4,50,0,1
140145,-166.666666666667,4,2,4,50,0,1
140505,-200,4,2,4,50,0,1
141105,-333.333333333333,4,2,4,50,0,1
142065,-333.333333333333,4,2,4,50,0,0

[Colours]
Combo1 : 255,104,233
Combo2 : 232,30,116
Combo3 : 139,218,33
Combo4 : 216,216,216
Combo5 : 163,243,12
Combo6 : 86,209,175
Combo7 : 17,213,223
Combo8 : 211,135,218

[HitObjects]
238,243,19185,37,0,0:0:0:0:
297,360,19665,2,0,P|318:315|298:259,1,82.5000031471254,2|0,0:0|0:0,0:0:0:0:
164,237,20145,1,2,0:0:0:0:
155,230,20265,2,0,P|134:185|154:129,1,82.5000031471254
144,146,20625,1,0,0:0:0:0:
281,36,21105,21,0,0:0:0:0:
167,43,21345,2,0,B|219:110|290:64|254:65|312:34|381:57|397:108,1,247.500009441376,2|2,0:0|0:0,0:0:0:0:
313,228,23025,86,0,P|294:275|308:316,1,82.5000031471254,2|0,0:0|0:0,0:0:0:0:
383,354,23505,1,0,0:0:0:0:
439,274,23745,2,0,L|421:141,2,123.750004720688
216,167,24945,22,0,P|193:129|203:79,1,82.5000031471254,2|0,0:0|0:0,0:0:0:0:
273,25,25425,1,2,0:0:0:0:
286,31,25545,2,0,P|309:69|299:119,1,82.5000031471254
301,120,25905,2,0,L|312:218,1,82.5000031471254
276,336,26385,1,0,0:0:0:0:
116,197,26865,85,2,0:0:0:0:
0,273,27345,2,0,P|41:284|83:268,1,82.5000031471254,2|0,0:0|0:0,0:0:0:0:
158,132,27825,1,2,0:0:0:0:
167,125,27945,2,0,P|208:114|250:130,1,82.5000031471254
252,133,28305,1,0,0:0:0:0:
336,283,28785,21,0,0:0:0:0:
266,351,29025,2,0,B|302:376|358:363|369:313|354:279|354:279|332:224|381:180,1,247.500009441376,2|2,0:0|0:0,0:0:0:0:
427,150,30705,86,0,P|456:112|438:51,1,98.9999969787599,2|0,0:0|0:0,0:0:0:0:
352,17,31185,1,0,0:0:0:0:
292,113,31425,2,0,L|326:283,2,148.49999546814
12,121,32625,86,0,P|59:86|107:92,1,98.9999969787599,2|0,0:0|0:0,0:0:0:0:
147,158,33105,1,2,0:0:0:0:
151,190,33225,2,0,L|131:290,1,98.9999969787599
133,314,33585,2,0,P|187:343|244:326,1,98.9999969787599
373,285,34065,70,0,P|429:301|368:302,1,148.49999546814,2|0,0:0|0:0,0:0:0:0:
306,300,34545,101,10,0:0:0:0:
203,198,34785,1,0,0:0:0:0:
297,70,35025,2,0,P|341:59|384:63,1,82.5,8|0,0:0|0:0,0:0:0:0:
448,82,35505,2,0,P|448:64|393:61,1,82.5,2|0,0:0|0:0,0:0:0:0:
340,146,35985,5,10,0:0:0:0:
466,247,36225,2,0,L|408:239,1,55,2|2,0:0|0:0,0:0:0:0:
512,137,36705,1,0,0:0:0:0:
381,252,36945,2,0,P|310:265|269:257,1,110,10|2,0:0|0:0,0:0:0:0:
70,166,37905,1,10,0:0:0:0:
288,97,38385,102,0,B|275:25|275:25|192:84,2,142.99999345398,6|2|10,0:0|0:0|0:0,0:0:0:0:
459,80,39345,2,0,P|409:59|387:106,1,115.49999647522
395,120,39825,1,8,0:0:0:0:
254,244,40065,6,0,P|241:207|256:159,1,76.9999976501466,0|2,0:0|0:0,0:0:0:0:
332,295,40545,1,2,0:0:0:0:
395,120,40785,2,0,P|432:171|391:275,1,153.999995300293,10|0,0:0|0:0,0:0:0:0:
413,255,41745,102,0,B|385:231|343:239|343:239|300:298|220:266|246:195|293:194,1,247.500009441376
340,138,42225,5,4,0:0:0:0:
212,67,42465,1,0,0:0:0:0:
85,163,42705,2,0,P|73:201|73:244,1,71.4999967269899,10|2,0:0|0:0,0:0:0:0:
114,294,43185,2,0,P|139:267|76:254,1,107.249995090485,2|0,0:0|0:0,0:0:0:0:
42,339,43665,101,10,0:0:0:0:
210,301,43905,1,2,0:0:0:0:
228,213,44145,2,0,P|217:253|212:301,1,71.4999967269899,2|0,0:0|0:0,0:0:0:0:
325,382,44625,2,0,P|310:335|305:262,1,93.500001783371,10|0,0:0|0:0,0:0:0:0:
456,72,45105,2,0,P|422:187|417:317,1,230.99999295044,2|8,0:0|0:0,0:0:0:0:
415,297,46065,6,0,B|470:288|477:228|477:228|421:201|379:243,2,187.000003566742,6|2|10,0:0|0:0|0:0,0:0:0:0:
228,305,47025,2,0,P|186:266|252:242,1,148.49999546814
253,243,47505,1,8,0:0:0:0:
401,146,47745,102,0,P|420:97|401:42,1,98.9999969787599,2|2,0:0|0:0,0:0:0:0:
324,196,48225,1,0,0:0:0:0:
261,26,48465,1,0,0:0:0:0:
128,157,48705,2,0,B|109:197|150:223|150:223|193:184|165:127|158:160|152:92|187:53,1,247.4999924469,2|0,0:0|0:0,0:0:0:0:
186,49,49425,2,0,L|174:2,2,49.4999984893799
256,267,49905,21,10,0:0:0:0:
256,267,50385,2,0,B|311:253|311:253|329:260|329:260|412:240,1,123.750004720688,2|0,0:0|0:0,0:0:0:0:
460,234,50865,2,0,B|493:260|493:260|447:267,1,82.5000031471254,2|0,0:0|0:0,0:0:0:0:
410,180,51225,2,0,L|416:132,1,41.2500015735627,2|0,0:0|0:0,0:0:0:0:
369,71,51465,2,0,L|375:23,1,41.2500015735627,2|0,0:0|0:0,0:0:0:0:
246,26,51825,54,0,P|236:40|232:54,3,24.74999924469
220,64,52305,2,0,P|215:47|207:35,3,30.2500009231568
190,29,52785,2,0,P|173:40|163:53,3,35.749998363495
151,65,53265,2,0,P|137:44|120:32,3,41.2500015735627
44,68,53745,53,0,0:0:0:0:
44,68,54225,2,0,B|57:144|57:144|72:165|72:165|86:251,1,181.500005538941,2|0,0:0|0:0,0:0:0:0:
60,349,54705,2,0,B|-8:336|-8:336|42:305,1,121.000003692627,2|0,0:0|0:0,0:0:0:0:
122,310,55065,2,0,B|153:318|153:318|184:305,1,60.5000018463135,2|0,0:0|0:0,0:0:0:0:
256,278,55305,2,0,B|287:270|287:270|318:283,1,60.5000018463135,2|0,0:0|0:0,0:0:0:0:
416,377,55665,6,0,P|427:323|407:234,1,140.250002675057,10|0,0:0|0:0,0:0:0:0:
492,214,56145,2,0,P|435:140|354:100,1,173.24999471283,10|0,0:0|0:0,0:0:0:0:
430,36,56625,2,0,P|353:12|208:37,1,206.25,10|0,0:0|0:0,0:0:0:0:
136,2,57105,22,0,B|103:53|103:53|132:162,1,159.500004867554,10|0,0:0|0:0,0:0:0:0:
177,242,57465,1,0,0:0:0:0:
123,316,57585,1,8,0:0:0:0:
123,316,58065,86,0,B|170:289|170:289|244:298|244:298|270:291|270:291|351:303,1,222.750000849724,8|0,0:0|0:0,0:0:0:0:
426,287,58545,2,0,B|498:312|498:312|416:329,1,148.500000566483,8|0,0:0|0:0,0:0:0:0:
358,232,58905,1,0,0:0:0:0:
419,179,59025,2,0,L|492:188,1,74.2500002832413,8|0,0:0|0:0,0:0:0:0:
391,95,59265,1,0,0:0:0:0:
391,95,59505,22,0,P|356:81|333:78,1,55,8|0,0:0|0:0,0:0:0:0:
331,77,59745,2,0,P|293:82|272:91,1,55
283,4,59985,2,0,P|240:18|216:33,1,65.9999979858399,8|0,0:0|0:0,0:0:0:0:
213,32,60225,2,0,P|182:65|170:90,1,65.9999979858399
120,8,60465,2,0,P|88:58|78:92,1,76.9999976501466,8|0,0:0|0:0,0:0:0:0:
75,90,60705,2,0,P|73:148|81:184,1,76.9999976501466
157,241,60945,86,0,B|205:257|205:257|259:243,2,102.666663533529,10|10|10,0:0|0:0|0:0,0:0:0:0:
22,309,61425,21,10,0:0:0:0:
186,361,61665,1,10,0:0:0:0:
383,318,61905,2,0,B|403:273|403:273|375:175,1,131.99999597168,10|10,0:0|0:0,0:0:0:0:
342,53,62385,2,0,P|362:19|399:84,1,131.99999597168,10|10,0:0|0:0,0:0:0:0:
332,136,62745,85,0,0:0:0:0:
271,95,62865,2,0,L|182:112,1,65.9999979858399,10|0,0:0|0:0,0:0:0:0:
134,70,63105,2,0,L|45:87,1,65.9999979858399,0|2,0:0|0:0,0:0:0:0:
11,156,63345,5,8,0:0:0:0:
5,179,63465,1,8,0:0:0:0:
7,212,63585,1,8,0:0:0:0:
29,254,63705,1,8,0:0:0:0:
76,278,63825,1,10,0:0:0:0:
134,266,63945,1,10,0:0:0:0:
203,231,64065,1,10,0:0:0:0:
280,222,64185,1,10,0:0:0:0:
346,263,64305,21,2,0:0:0:0:
471,218,64785,1,2,0:0:0:0:
386,327,65265,86,0,B|437:303|431:235|431:235|409:221|349:165|399:93|399:93|463:137|463:137|419:139|387:191,1,412.5,6|0,0:0|0:0,0:0:0:0:
304,169,65745,86,0,P|298:143|315:93,1,44,10|0,0:0|0:0,0:0:0:0:
304,117,65985,2,0,L|318:239,1,93.500001783371,2|0,0:0|0:0,0:0:0:0:
186,366,66225,6,0,B|156:301|222:257|222:257|262:276|264:324,1,187.000003566742,4|2,0:0|0:0,0:0:0:0:
270,379,66585,1,0,0:0:0:0:
341,290,66705,2,0,P|335:262|307:224,1,55,10|0,2:0|0:0,0:0:0:0:
106,278,66945,1,2,2:0:0:0:
106,278,67185,102,0,B|111:231|152:206|152:206|193:156|146:87,1,165.000006294251,4|0,3:2|0:0,0:0:0:0:
91,153,67545,1,2,3:2:0:0:
244,110,67665,2,0,P|250:143|244:183,1,60.5000018463135,8|0,3:2|0:0,0:0:0:0:
185,277,67905,5,2,0:1:0:0:
264,314,68025,1,2,0:1:0:0:
322,263,68145,1,6,0:1:0:0:
388,302,68265,2,2,P|390:327|376:356,1,55,2|0,0:1|0:1,0:1:0:0:
379,364,68625,102,0,B|424:312|371:242|371:242|336:203|328:125|381:106|443:144|423:188,1,330,10|0,0:0|0:0,0:0:0:0:
317,311,69105,22,0,B|277:350|222:333|222:333|172:286|99:303|99:303|72:339|85:389|85:389|110:328|188:306,1,445.500001699448,6|0,0:0|0:0,0:0:0:0:
228,247,69585,86,0,P|209:234|177:225,1,32.99999899292,10|0,0:0|0:0,0:0:0:0:
189,223,69825,2,0,L|309:217,1,82.5000031471254,2|0,0:0|0:0,0:0:0:0:
458,344,70065,6,0,B|425:371|354:302|412:228,1,165.000006294251,6|2,0:0|0:0,0:0:0:0:
481,174,70425,1,0,0:0:0:0:
414,11,70545,2,0,P|397:46|414:106,1,82.5000031471254,10|0,0:0|0:0,0:0:0:0:
481,174,70785,1,2,2:0:0:0:
481,174,71025,102,0,P|442:164|380:170,1,82.5000031471254,4|0,3:2|0:0,0:0:0:0:
280,111,71385,1,2,3:2:0:0:
381,172,71505,2,0,P|351:180|304:174,1,41.2500015735627,8|0,3:2|0:0,0:0:0:0:
216,253,71745,5,2,3:2:0:0:
178,189,71865,1,0,0:0:0:0:
202,115,71985,1,2,0:1:0:0:
176,43,72105,2,2,P|149:56|123:96,1,65.9999979858399,2|0,0:1|0:1,0:1:0:0:
71,149,72345,1,2,0:1:0:0:
46,69,72465,1,2,0:1:0:0:
256,184,72705,1,2,0:1:0:0:
477,73,72945,6,0,B|454:17|399:21|399:21|444:75|432:125|432:125|478:167|467:227|467:227|413:246|387:183,1,412.5,6|0,0:0|0:0,0:0:0:0:
292,111,73425,86,0,P|314:98|326:98,1,32.99999899292,10|0,0:0|0:0,0:0:0:0:
341,93,73665,2,0,L|202:78,1,93.500001783371,2|0,0:0|0:0,0:0:0:0:
131,192,73905,6,0,B|174:188|189:155|189:155|149:77|47:135,1,187.000003566742,6|2,0:0|0:0,0:0:0:0:
47,185,74265,1,0,0:0:0:0:
6,119,74385,2,0,P|6:85|26:50,1,55,10|0,0:0|0:0,0:0:0:0:
95,257,74625,1,2,0:0:0:0:
278,177,74865,101,4,3:2:0:0:
492,316,75105,1,2,2:1:0:0:
422,357,75225,2,2,L|332:354,1,82.5000031471254,2|10,2:1|0:0,2:1:0:0:
491,232,75465,1,2,0:1:0:0:
421,273,75585,1,2,0:1:0:0:
361,218,75705,2,2,P|313:210|272:230,1,82.5000031471254,2|6,0:1|0:1,0:1:0:0:
208,327,75945,2,2,P|217:304|189:258,1,65.9999979858399,2|0,0:1|0:1,0:1:0:0:
204,258,76305,6,0,B|253:289|231:402|95:400|75:302|124:234|124:234|170:167|126:87,1,395.999987915039,10|0,0:0|0:0,0:0:0:0:
49,33,76785,6,0,B|7:53|3:90|3:90|50:126|102:97|126:56|126:56|142:57|142:57|169:0|260:13|247:95|190:99,1,412.5,6|0,0:0|0:0,0:0:0:0:
170,180,77265,86,0,P|154:164|148:147,1,32.99999899292,10|0,0:0|0:0,0:0:0:0:
146,146,77505,2,0,L|155:228,1,82.5000031471254,2|0,0:0|0:0,0:0:0:0:
326,348,77745,6,0,B|357:326|356:288|356:288|302:245|244:293,1,165.000006294251,6|2,0:0|0:0,0:0:0:0:
230,347,78105,1,0,0:0:0:0:
187,284,78225,2,0,P|193:244|222:207,1,55,10|0,0:0|0:0,0:0:0:0:
418,367,78465,1,2,0:0:0:0:
418,367,78705,102,0,P|397:316|408:295,1,55,4|4,3:2|3:2,0:0:0:0:
399,282,78945,2,0,L|393:261,2,13.75,0|0|0,0:0|0:0|3:2,0:0:0:0:
505,317,79185,2,0,P|512:287|506:232,1,55,8|0,3:2|0:0,0:0:0:0:
464,194,79425,1,0,3:2:0:0:
483,121,79545,1,0,0:0:0:0:
483,121,79785,6,2,B|451:56|451:56|384:119,1,137.5,2|0,0:1|0:1,0:1:0:0:
393,111,80025,2,0,B|345:156|345:156|313:91,1,137.5,2|2,0:1|0:1,0:0:0:0:
255,18,80265,1,2,0:1:0:0:
244,26,80385,2,2,P|230:52|227:79,1,41.2500015735627,0|0,0:0|0:0,0:1:0:0:
68,269,80625,6,0,B|82:306|129:316|129:316|174:256|131:203|131:203|38:183|47:94|47:94|133:75|149:152,1,445.500001699448,6|0,0:0|0:0,0:0:0:0:
217,182,81105,86,0,P|237:222|242:276,1,82.5000031471254,10|0,0:0|0:0,0:0:0:0:
217,334,81345,2,0,P|222:288|258:245,1,82.5000031471254,2|0,0:0|0:0,0:0:0:0:
387,357,81585,6,0,B|310:322|310:322|403:302,1,165.000006294251,6|2,0:0|0:0,0:0:0:0:
512,277,81945,1,0,0:0:0:0:
315,202,82065,2,0,B|296:241|296:241|367:219,1,82.5000031471254,10|0,0:0|0:0,0:0:0:0:
483,164,82305,2,0,P|452:152|429:156,1,55,2|0,0:0|0:0,0:0:0:0:
422,165,82545,102,0,B|441:276|441:276|391:217,1,165.000006294251,4|0,3:2|0:0,0:0:0:0:
296,161,82905,1,0,3:2:0:0:
360,110,83025,2,0,B|371:53|371:53|344:83,1,82.5000031471254,8|0,3:2|0:0,0:0:0:0:
233,105,83265,5,2,0:1:0:0:
203,186,83385,1,2,0:1:0:0:
263,242,83505,1,2,0:1:0:0:
205,308,83625,2,2,P|178:322|133:320,2,55,2|2|0,0:1|0:1|0:1,0:1:0:0:
297,375,83985,102,2,B|339:369|356:308|315:243|255:248|210:286|210:286|171:328|98:323|72:271,1,379.500007238388,10|0,0:0|0:0,0:0:0:0:
52,60,84465,22,0,B|45:20|81:-11|81:-11|93:49|139:85|139:85|128:141|48:184|48:184|104:222|155:201,1,445.500001699448,6|0,0:0|0:0,0:0:0:0:
247,181,84945,86,0,P|277:136|271:93,1,82.5000031471254,10|0,0:0|0:0,0:0:0:0:
266,32,85185,2,0,P|258:72|275:108,1,82.5000031471254,2|0,0:0|0:0,0:0:0:0:
456,130,85425,6,0,B|478:91|449:35|449:35|383:57|379:108,1,197.99999395752,6|2,0:0|0:0,0:0:0:0:
395,187,85785,1,0,0:0:0:0:
452,254,85905,2,0,B|461:269|449:293|449:293|421:284|419:262,1,82.5000031471254,10|0,0:0|0:0,0:0:0:0:
270,262,86145,2,0,P|307:247|341:261,1,65.9999979858399,2|0,0:0|0:0,0:0:0:0:
337,259,86385,102,0,B|307:182|307:182|362:101,1,165.000006294251,4|0,3:2|0:0,0:0:0:0:
404,51,86745,1,2,3:2:0:0:
288,15,86865,2,0,B|263:51|263:51|277:87,1,82.5000031471254,8|0,3:2|0:0,0:0:0:0:
192,173,87105,2,0,B|216:136|216:136|201:99,1,82.5000031471254,0|0,3:2|0:0,0:0:0:0:
111,12,87345,6,0,P|97:68|94:111,1,82.5000031471254,4|0,3:2|0:0,0:0:0:0:
71,258,87585,1,2,0:1:0:0:
104,181,87705,2,2,L|21:198,1,65.9999979858399,2|8,0:1|0:0,0:1:0:0:
126,327,87945,1,2,0:1:0:0:
159,250,88065,1,2,0:1:0:0:
192,173,88185,1,2,0:1:0:0:
273,125,88305,6,0,B|312:195|259:248|259:248|233:301|268:356|268:356|322:323|382:343|382:343|354:298|303:279,1,445.500001699448,6|0,0:0|0:0,0:0:0:0:
512,212,88785,86,0,P|473:190|429:193,1,82.5000031471254,10|0,0:0|0:0,0:0:0:0:
360,211,89025,2,0,P|404:210|441:185,1,82.5000031471254,2|0,0:0|0:0,0:0:0:0:
424,39,89265,6,0,B|385:74|382:132|382:132|368:73|304:48,1,197.99999395752,6|2,0:0|0:0,0:0:0:0:
252,55,89625,1,0,0:0:0:0:
449,179,89745,2,0,B|483:152|483:152|463:97,1,76.9999976501466,10|0,0:0|0:0,0:0:0:0:
239,133,89985,2,0,P|262:149|291:149,1,49.4999984893799,2|2,2:0|2:0,2:0:0:0:
291,144,90225,102,0,L|275:242,1,71.4999967269899,4|0,0:0|0:0,0:0:0:0:
253,336,90465,1,2,0:1:0:0:
190,286,90585,2,2,L|203:199,1,71.4999967269899,2|10,0:1|0:0,0:1:0:0:
154,361,90825,1,2,0:1:0:0:
98,300,90945,1,2,0:1:0:0:
119,219,91065,2,2,P|134:184|130:140,1,71.4999967269899,2|6,0:1|0:1,0:1:0:0:
58,40,91305,2,2,P|40:70|48:102,1,65.9999979858399,2|0,0:1|0:1,0:1:0:0:
41,108,91665,6,0,B|9:52|65:-3|134:9|157:53|157:53|194:117|280:104|323:42,1,379.500007238388,10|0,0:0|0:0,0:0:0:0:
445,162,92145,6,0,B|477:105|426:49|426:49|404:120|342:151|342:151|395:190|378:268|378:268|307:271|307:212,1,445.500001699448,6|0,0:0|0:0,0:0:0:0:
238,308,92625,86,0,P|218:261|238:214,1,82.5000031471254,10|0,0:0|0:0,0:0:0:0:
253,159,92865,2,0,P|246:208|206:239,1,82.5000031471254,2|0,0:0|0:0,0:0:0:0:
104,348,93105,6,0,B|38:376|-7:322|-7:322|28:260|94:286,1,197.99999395752,6|2,0:0|0:0,0:0:0:0:
115,232,93465,1,0,0:0:0:0:
37,136,93585,2,0,B|22:171|22:171|48:213,1,71.4999967269899,10|0,0:0|0:0,0:0:0:0:
173,166,93825,2,0,P|141:150|118:153,1,49.4999984893799,2|0,0:0|0:0,0:0:0:0:
114,154,94065,102,0,B|152:130|152:130|251:150,1,110,4|4,3:2|3:2,0:0:0:0:
227,149,94305,2,0,L|241:179,2,20.6250007867813,0|0|0,0:0|0:0|3:2,0:0:0:0:
209,280,94545,2,0,B|246:293|246:293|294:276,1,82.5000031471254,10|0,3:2|0:0,0:0:0:0:
357,226,94785,5,0,0:0:0:0:
429,261,94905,1,0,0:0:0:0:
491,209,95025,2,0,P|496:183|484:143,1,65.9999979858399,2|2,0:0|0:0,0:0:0:0:
339,93,95505,2,0,P|346:136|376:95,1,98.9999969787599,2|0,0:0|0:0,0:0:0:0:
395,48,95985,69,10,0:0:0:0:
241,0,96225,1,0,0:0:0:0:
105,72,96465,2,0,P|97:117|106:161,1,65.9999979858399,4|0,0:0|0:0,0:0:0:0:
148,309,96945,5,10,0:0:0:0:
221,286,97185,1,2,0:0:0:0:
101,203,97425,1,6,0:0:0:0:
27,226,97665,1,2,0:0:0:0:
201,362,97905,101,10,0:0:0:0:
278,185,98145,1,0,0:0:0:0:
401,345,98385,2,0,P|383:299|399:265,1,65.9999979858399,6|0,0:0|0:0,0:0:0:0:
507,156,98865,2,0,L|481:285,1,131.99999597168,10|4,0:0|0:0,0:0:0:0:
481,285,99585,1,0,0:0:0:0:
373,178,99825,6,0,P|294:146|251:169,1,110,10|2,0:0|0:0,0:0:0:0:
194,277,100305,2,0,B|204:338|276:353|276:353|315:304|298:240,1,220,6|8,0:0|0:0,0:0:0:0:
234,151,101025,1,0,0:0:0:0:
316,64,101265,2,0,L|437:77,1,110,4|0,0:0|0:0,0:0:0:0:
168,200,101745,102,0,P|147:136|184:87,1,110,10|2,0:0|0:0,0:0:0:0:
31,0,102225,2,0,B|69:58|69:58|13:138|59:224,1,220,6|8,0:0|0:0,0:0:0:0:
48,200,102945,1,0,0:0:0:0:
247,271,103185,6,0,P|255:237|171:257,1,165,6|0,0:0|0:0,0:0:0:0:
189,320,103665,101,8,0:0:0:0:
348,383,103905,1,0,0:0:0:0:
483,277,104145,1,6,0:0:0:0:
419,209,104385,1,2,0:0:0:0:
483,145,104625,2,0,P|496:112|484:70,1,65.9999979858399,10|2,0:0|0:0,0:0:0:0:
365,24,105105,1,6,0:0:0:0:
377,95,105345,1,2,0:0:0:0:
246,35,105585,6,0,P|200:21|171:39,1,65.9999979858399,10|0,0:0|0:0,0:0:0:0:
75,96,106065,2,0,P|121:110|150:92,1,65.9999979858399,6|0,0:0|0:0,0:0:0:0:
235,159,106545,102,0,P|266:200|258:247,1,98.9999969787599,10|0,0:0|0:0,0:0:0:0:
283,330,107025,2,0,P|252:289|260:242,1,98.9999969787599,6|0,0:0|0:0,0:0:0:0:
351,225,107505,6,0,L|411:217,1,49.4999984893799,10|0,0:0|0:0,0:0:0:0:
449,225,107985,2,0,L|389:217,1,49.4999984893799,10|0,0:0|0:0,0:0:0:0:
316,147,108465,102,0,P|361:133|395:133,1,74.2499977340699,10|0,0:0|0:0,0:0:0:0:
459,147,108945,2,0,P|414:133|380:133,1,74.2499977340699,10|0,0:0|0:0,0:0:0:0:
303,19,109425,6,0,B|298:48|277:72|277:72|318:43|364:59|344:69|399:71|444:51,1,230.99999295044,10|0,0:0|0:0,0:0:0:0:
450,47,110385,1,0,0:0:0:0:
458,20,110625,1,0,0:0:0:0:
431,0,110865,1,0,0:0:0:0:
423,27,111105,1,0,0:0:0:0:
248,32,111345,22,0,B|196:206|196:206|294:177|294:177|320:121|409:97|466:143|478:214,1,500.499977088929,6|0,3:2|0:0,0:0:0:0:
295,374,112305,2,0,B|158:331|158:331|202:268|282:273|282:273|331:327|412:295|412:295|414:240|343:210,1,500.499977088929,10|0,0:0|0:0,0:0:0:0:
378,216,113265,38,0,L|386:152,1,55,6|0,0:0|0:0,0:0:0:0:
473,169,113625,2,0,L|465:105,1,55,2|0,0:0|0:0,0:0:0:0:
385,55,113985,53,2,0:1:0:0:
470,34,114105,1,2,0:1:0:0:
377,58,114225,2,10,P|354:49|342:22,1,49.4999984893799,8|0,0:0|0:0,0:1:0:0:
338,10,114705,54,0,B|320:68|391:78|364:63|408:58|485:106|465:222|336:248|299:158,1,346.49998942566,2|0,0:0|0:0,0:0:0:0:
260,36,115185,70,0,B|71:-11|71:-11|117:71|117:71|169:96|197:165|146:224|93:233,1,500.499977088929,6|0,3:2|0:0,0:0:0:0:
27,291,116145,2,0,B|167:321|167:321|185:251|253:213|253:213|338:249|324:323|324:323|257:340|237:278,1,500.499977088929,10|0,0:0|0:0,0:0:0:0:
251,307,117105,38,0,L|264:373,1,55,6|0,0:0|0:0,0:0:0:0:
387,382,117465,2,0,L|400:316,1,55,2|0,0:0|0:0,0:0:0:0:
320,207,117825,53,2,0:0:0:0:
335,276,117945,1,0,0:0:0:0:
398,236,118065,1,10,0:2:0:0:
385,166,118185,2,2,B|373:127|373:127|435:111,1,82.5000031471254,2|0,0:1|0:1,0:1:0:0:
426,115,118425,2,2,B|466:104|466:104|454:65,1,82.5000031471254,2|0,0:1|0:0,0:1:0:0:
450,55,118785,54,2,P|420:44|401:45,1,44,2|0,0:1|0:1,0:1:0:0:
285,98,119025,70,0,B|172:76|172:76|149:59|149:59|36:41|36:41|6:101|53:144|86:149|86:149|125:132|166:158,1,461.999985900879,6|0,3:2|0:0,0:0:0:0:
170,354,119985,2,0,B|45:389|45:389|-22:337|34:270|34:270|94:308|156:266|156:266|146:219|99:214,1,461.999985900879,10|0,0:0|0:0,0:0:0:0:
106,219,120945,37,6,0:0:0:0:
202,153,121185,1,2,0:1:0:0:
207,191,121305,1,2,0:1:0:0:
319,211,121545,1,2,0:1:0:0:
325,177,121665,1,2,0:1:0:0:
293,143,121785,2,2,P|287:116|296:81,1,49.4999984893799,2|0,0:1|0:0,0:1:0:0:
461,44,122025,2,0,P|475:70|469:113,1,55,10|0,0:0|0:0,0:0:0:0:
478,101,122385,54,2,B|500:57|464:-25|324:19|356:117|391:144|391:144|430:184|409:248,1,346.49998942566,2|0,0:0|0:0,0:0:0:0:
294,313,122865,6,0,B|180:326|180:326|153:340|153:340|14:358|14:358|78:288|71:230|71:230|101:261|152:260,1,500.499977088929,6|0,3:2|0:0,0:0:0:0:
227,232,123825,2,0,P|262:209|288:166,1,71.4999967269899,10|0,0:0|0:0,0:0:0:0:
235,73,124065,2,0,B|182:9|102:49|102:49|77:124|146:177|146:177|213:153|236:95,1,357.49998363495,6|0,0:0|0:0,0:0:0:0:
300,112,124785,37,6,0:0:0:0:
353,163,125025,2,2,L|351:173,2,6.875,0|0|0,0:0|0:0|0:0,0:0:0:0:
393,103,125265,2,0,L|390:79,1,24.74999924469,2|0,0:0|0:0,0:0:0:0:
434,168,125505,2,0,L|431:193,1,24.74999924469,2|0,0:0|0:0,0:0:0:0:
479,87,125745,2,0,L|473:51,1,35.749998363495,2|0,0:0|0:0,0:0:0:0:
512,179,125985,2,0,L|506:214,1,35.749998363495,2|0,0:0|0:0,0:0:0:0:
355,301,126225,1,8,0:1:0:0:
390,79,126465,1,8,0:1:0:0:
118,29,126705,102,0,B|88:72|125:115|125:115|173:133|194:186|162:245|125:247,1,247.500009441376,14|0,0:0|0:0,0:0:0:0:
208,37,127185,2,0,B|230:85|186:120|186:120|135:130|106:178|128:242|163:251,1,247.500009441376,14|0,0:0|0:0,0:0:0:0:
215,329,127665,2,0,B|250:310|274:263|258:205|208:199|208:199|187:240|130:240,1,247.500009441376,14|0,0:0|0:0,0:0:0:0:
59,315,128145,22,0,P|33:278|61:194,1,123.750004720688,14|0,0:0|0:0,0:0:0:0:
48,204,128385,2,0,B|60:189|89:189|89:189|100:235|172:246,1,123.750004720688,2|0,0:0|0:0,0:0:0:0:
307,352,128625,102,0,L|430:328,1,110,6|0,0:0|0:0,0:0:0:0:
485,261,128985,2,0,L|362:237,1,110,2|2,0:0|0:1,0:0:0:0:
280,182,129345,53,2,0:1:0:0:
351,136,129465,1,2,0:1:0:0:
272,172,129585,2,6,P|265:146|278:97,1,55,4|2,0:0|0:1,0:1:0:0:
382,46,129825,1,2,0:1:0:0:
220,301,130065,54,2,B|162:331|113:292|113:292|65:261|-5:290|-13:361|61:389|80:346,1,313.499991628647,6|0,0:0|0:0,0:0:0:0:
171,232,130545,102,0,B|218:224|235:188|235:188|219:158|226:90|291:69|329:91,1,247.500009441376,14|0,0:0|0:0,0:0:0:0:
378,288,131025,2,0,B|340:257|344:217|344:217|372:199|400:137|355:87|310:86,1,247.500009441376,14|0,0:0|0:0,0:0:0:0:
214,35,131505,2,0,B|182:101|231:159|283:152|283:152|325:132|320:77,1,247.500009441376,14|0,0:0|0:0,0:0:0:0:
436,65,131985,22,0,P|422:135|374:164,1,123.750004720688,14|0,0:0|0:0,0:0:0:0:
381,162,132225,2,0,B|361:169|340:161|340:161|301:129|327:66,1,123.750004720688,2|0,0:0|0:1,0:1:0:0:
95,118,132465,102,0,L|76:258,1,110,6|0,0:0|0:0,0:0:0:0:
173,361,132825,2,0,L|157:252,1,110,2|0,0:0|0:0,0:0:0:0:
248,145,133185,2,0,L|240:199,1,55,2|0,0:0|0:0,0:0:0:0:
232,272,133425,1,4,0:0:0:0:
389,307,133665,53,2,0:1:0:0:
407,234,133785,2,2,L|341:244,1,55,2|0,0:1|0:0,0:1:0:0:
453,362,134025,53,2,0:1:0:0:
470,289,134145,1,2,0:1:0:0:
487,216,134265,1,2,0:1:0:0:
415,144,134385,102,0,B|372:114|329:151|329:151|311:199|258:220|199:188|197:151,1,247.500009441376,14|0,0:0|0:0,0:0:0:0:
407,234,134865,2,0,B|359:255|324:211|324:211|314:160|266:131|202:153|193:188,1,247.500009441376,14|0,0:0|0:0,0:0:0:0:
145,247,135345,2,0,B|137:294|181:313|181:313|223:294|243:238|225:183|188:156,1,247.500009441376,14|0,0:0|0:0,0:0:0:0:
133,106,135825,22,0,B|117:64|158:33|158:33|192:48|201:72,1,123.750004720688,14|0,0:0|0:0,0:0:0:0:
190,55,136065,2,0,P|216:109|195:184,1,123.750004720688,2|0,0:0|0:0,0:0:0:0:
95,182,136305,101,6,0:0:0:0:
22,93,136545,1,2,0:1:0:0:
26,126,136665,1,2,0:1:0:0:
0,221,136905,53,2,0:1:0:0:
4,254,137025,1,2,0:1:0:0:
31,281,137145,2,2,P|63:289|101:280,1,55,2|4,0:1|0:0,0:1:0:0:
252,304,137385,2,2,P|257:334|251:353,1,49.4999984893799,2|0,0:1|0:1,0:1:0:0:
256,364,137745,54,0,B|280:313|247:269|254:283|194:255|217:155|298:120|363:153|346:242|305:246,1,313.499991628647,6|0,0:0|0:0,0:0:0:0:
184,325,138225,6,0,B|138:329|75:285|70:214|94:163|94:163|168:166|186:128|186:128|230:32|106:5|79:130|186:128|186:128|218:77|277:90|277:90|300:153|258:190|258:190|257:216|309:252,1,825
300,235,140145,70,0,L|386:225,1,65.9999979858399,6|0,0:0|0:0,0:0:0:0:
418,148,140505,2,0,L|355:141,1,55,2|0,0:0|0:0,0:0:0:0:
286,76,140865,2,0,L|313:73,1,27.5,2|0,0:0|0:0,0:0:0:0:
448,18,141105,54,0,B|447:52|447:52|478:35,2,65.9999979858399,10|2|2,0:0|0:0|0:0,0:0:0:0:
