osu file format v14

[General]
AudioFilename: audio.mp3
AudioLeadIn: 0
PreviewTime: 65145
Countdown: 0
SampleSet: Soft
StackLeniency: 0.3
Mode: 0
LetterboxInBreaks: 0
EpilepsyWarning: 1
WidescreenStoryboard: 1

[Editor]
Bookmarks: 3839,19199,34559,49919,51449,65279,80639,87945,95999,111329,126689,142049
DistanceSpacing: 1
BeatDivisor: 4
GridSize: 16
TimelineZoom: 1.399999

[Metadata]
Title:Contra (feat. Sara Skinner) (Cut Ver.)
TitleUnicode:Contra (feat. Sara Skinner) (Cut Ver.)
Artist:Pixel Terror
ArtistUnicode:Pixel Terror
Creator:VenerableNyanta
Version:hakashii's Hard
Source:Rocket League
Tags:le mirai best of 2018 pop house monstercat RLCSX nyanta thiev tech electronic EDM english SirMirai Cacturne hakashii
BeatmapID:3204563
BeatmapSetID:1325570

[Difficulty]
HPDrainRate:4
CircleSize:4
OverallDifficulty:6.6
ApproachRate:7.5
SliderMultiplier:1.6
SliderTickRate:1

[Events]
//Background and Video events
0,0,"VKTRyTo.jpg",0,0
//Break Periods
//Storyboard Layer 0 (Background)
//Storyboard Layer 1 (Fail)
//Storyboard Layer 2 (Pass)
//Storyboard Layer 3 (Foreground)
Sprite,Foreground,Centre,"sb\italicGlow\_013.png",0,0 S,0,65264,,0.4 M,30,65264,65684,569,422,569,392 F,1,65264,65684,0,1 M,17,65684,66644,569,392,569,396 R,17,65684,69524,-0.06,0.06 M,17,66644,67604,569,396,569,392 M,17,67604,68564,569,392,569,396 M,17,68564,69524,569,396,569,392 M,17,69524,70484,569,392,569,396 R,17,69524,73364,0.06,-0.06 M,17,70484,71444,569,396,569,392 M,17,71444,72404,569,392,569,396 M,17,72404,73364,569,396,569,392 M,17,73364,74324,569,392,569,396 R,17,73364,77204,-0.06,0.06 M,17,74324,75284,569,396,569,392 M,17,75284,76244,569,392,569,396 M,17,76244,77204,569,396,569,392 M,17,77204,78164,569,392,569,396 R,17,77204,81044,0.06,-0.06 M,17,78164,79124,569,396,569,392 M,17,79124,80084,569,392,569,396 M,17,80084,81044,569,396,569,392 M,17,81044,82004,569,392,569,396 R,17,81044,84884,-0.06,0.06 M,17,82004,82964,569,396,569,392 M,17,82964,83924,569,392,569,396 M,17,83924,84884,569,396,569,392 M,17,84884,85844,569,392,569,396 R,17,84884,88724,0.06,-0.06 M,17,85844,86804,569,396,569,392 M,17,86804,87764,569,392,569,396 M,17,87764,88724,569,396,569,392 M,17,88724,89684,569,392,569,396 R,17,88724,92564,-0.06,0.06 M,17,89684,90644,569,396,569,392 M,17,90644,91604,569,392,569,396 M,17,91604,92564,569,396,569,392 M,17,92564,93524,569,392,569,396 R,17,92564,96404,0.06,-0.06 M,17,93524,94484,569,396,569,392 M,29,94605,95025,569,392,569,362 F,2,94605,95025,1,0
Sprite,Foreground,Centre,"sb\italicGlow\_013.png",0,0 S,0,111345,,0.4 M,30,111345,111765,569,422,569,392 F,1,111345,111765,0,1 M,17,111765,112725,569,392,569,396 R,17,111765,115605,-0.06,0.06 M,17,112725,113685,569,396,569,392 M,17,113685,114645,569,392,569,396 M,17,114645,115605,569,396,569,392 M,17,115605,116565,569,392,569,396 R,17,115605,119445,0.06,-0.06 M,17,116565,117525,569,396,569,392 M,17,117525,118485,569,392,569,396 M,17,118485,119445,569,396,569,392 M,17,119445,120405,569,392,569,396 R,17,119445,123285,-0.06,0.06 M,17,120405,121365,569,396,569,392 M,17,121365,122325,569,392,569,396 M,17,122325,123285,569,396,569,392 M,17,123285,124245,569,392,569,396 R,17,123285,127125,0.06,-0.06 M,17,124245,125205,569,396,569,392 M,17,125205,126165,569,392,569,396 M,17,126165,127125,569,396,569,392 M,17,127125,128085,569,392,569,396 R,17,127125,130965,-0.06,0.06 M,17,128085,129045,569,396,569,392 M,17,129045,130005,569,392,569,396 M,17,130005,130965,569,396,569,392 M,17,130965,131925,569,392,569,396 R,17,130965,134805,0.06,-0.06 M,17,131925,132885,569,396,569,392 M,17,132885,133845,569,392,569,396 M,17,133845,134805,569,396,569,392 M,17,134805,135765,569,392,569,396 R,17,134805,138645,-0.06,0.06 M,17,135765,136725,569,396,569,392 M,17,136725,137685,569,392,569,396 M,17,137685,138645,569,396,569,392 M,17,138645,139605,569,392,569,396 R,17,138645,142485,0.06,-0.06 M,29,139725,140145,569,392,569,362 F,2,139725,140145,1,0
Sprite,Foreground,Centre,"sb\italicOutline\_000.png",320,240 S,0,3825,,0.52 F,15,3825,4075,0,1 F,15,7414,7664,1,0
Sprite,Foreground,Centre,"sb\italicGlow\_000.png",0,0 S,0,3825,,0.4 M,30,3825,4245,320,338,320,308 F,1,3825,4245,0,1 M,29,7244,7664,320,308,320,278 F,2,7244,7664,1,0
Sprite,Foreground,Centre,"sb\italicOutline\_012.png",320,240 S,0,7664,,0.52 F,15,7664,7914,0,1 F,15,11255,11505,1,0
Sprite,Foreground,Centre,"sb\italicGlow\_001.png",0,0 S,0,7664,,0.4 M,30,7664,8084,320,338,320,308 F,1,7664,8084,0,1 M,29,11085,11505,320,308,320,278 F,2,11085,11505,1,0
Sprite,Foreground,Centre,"sb\italicOutline\_001.png",320,240 S,0,11505,,0.52 F,15,11505,11755,0,1 F,15,17975,18225,1,0
Sprite,Foreground,Centre,"sb\italicGlow\_002.png",0,0 S,0,11505,,0.4 M,30,11505,11925,320,338,320,308 F,1,11505,11925,0,1 M,29,17805,18225,320,308,320,278 F,2,17805,18225,1,0
//Storyboard Layer 4 (Overlay)
//Storyboard Sound Samples

[TimingPoints]
3825,480,4,2,0,50,1,0
19065,-125,4,2,0,50,0,0
19185,-125,4,2,0,50,0,0
19545,-125,4,2,0,5,0,0
19665,-111.111111111111,4,2,1,60,0,0
20625,-125,4,2,1,60,0,0
22065,-111.111111111111,4,2,1,60,0,0
22545,-125,4,2,1,60,0,0
26745,-125,4,2,1,5,0,0
26865,-125,4,2,9,60,0,0
27345,-111.111111111111,4,2,1,60,0,0
28305,-125,4,2,1,60,0,0
32625,-125,4,2,1,70,0,0
34065,-125,4,2,1,45,0,0
34545,-100,4,2,3,50,0,0
34785,-100,4,2,1,50,0,0
35025,-111.111111111111,4,2,1,50,0,0
36825,-111.111111111111,4,2,1,5,0,0
36945,-111.111111111111,4,2,1,50,0,0
38265,-111.111111111111,4,2,1,5,0,0
38385,-111.111111111111,4,2,1,50,0,0
40425,-111.111111111111,4,2,1,5,0,0
40545,-111.111111111111,4,2,1,50,0,0
42225,-99.9999999999999,4,2,1,60,0,0
42585,-99.9999999999999,4,2,1,5,0,0
42705,-111.111111111111,4,2,1,60,0,0
44505,-111.111111111111,4,2,1,5,0,0
44625,-111.111111111111,4,2,1,60,0,0
47442,-111.111111111111,4,2,1,60,0,0
49305,-111.111111111111,4,2,1,5,0,0
49425,-111.111111111111,4,2,1,60,0,0
49905,-142.857142857143,4,2,3,50,0,0
50385,-142.857142857143,4,2,2,50,0,0
51825,-142.857142857143,4,2,2,20,0,0
52305,-142.857142857143,4,2,2,30,0,0
52785,-142.857142857143,4,2,2,40,0,0
53265,-142.857142857143,4,2,2,50,0,0
54105,-142.857142857143,4,2,2,5,0,0
54225,-142.857142857143,4,2,2,50,0,0
55665,-142.857142857143,4,2,2,20,0,0
56145,-142.857142857143,4,2,2,30,0,0
56625,-142.857142857143,4,2,2,40,0,0
57105,-142.857142857143,4,2,2,50,0,0
57585,-125,4,2,2,60,0,0
59505,-111.111111111111,4,2,2,60,0,0
61425,-99.9999999999999,4,2,2,60,0,0
63825,-99.9999999999999,4,2,2,70,0,0
64305,-99.9999999999999,4,2,2,50,0,0
65265,-76.9230769230769,4,2,5,65,0,1
65625,-76.9230769230769,4,2,5,5,0,1
65745,-83.3333333333333,4,2,4,50,0,1
68625,-76.9230769230769,4,2,4,50,0,1
68985,-76.9230769230769,4,2,4,5,0,1
69105,-76.9230769230769,4,2,4,50,0,1
69585,-83.3333333333333,4,2,4,50,0,1
70005,-83.3333333333333,4,2,4,5,0,1
70065,-83.3333333333333,4,2,4,50,0,1
72945,-76.9230769230769,4,2,5,50,0,1
73305,-76.9230769230769,4,2,5,5,0,1
73425,-83.3333333333333,4,2,4,50,0,1
76245,-83.3333333333333,4,2,4,5,0,1
76305,-76.9230769230769,4,2,4,50,0,1
76665,-76.9230769230769,4,2,4,50,0,1
76785,-83.3333333333333,4,2,4,50,0,1
80565,-83.3333333333333,4,2,4,5,0,1
80625,-76.9230769230769,4,2,4,50,0,1
81105,-83.3333333333333,4,2,4,50,0,1
83985,-76.9230769230769,4,2,4,50,0,1
84345,-76.9230769230769,4,2,4,5,0,1
84465,-83.3333333333333,4,2,4,50,0,1
88305,-76.9230769230769,4,2,4,50,0,1
88665,-76.9230769230769,4,2,4,5,0,1
88785,-83.3333333333333,4,2,4,50,0,1
90165,-83.3333333333333,4,2,4,5,0,1
90225,-83.3333333333333,4,2,4,50,0,1
91545,-83.3333333333333,4,2,4,50,0,1
91665,-76.9230769230769,4,2,4,50,0,1
92025,-76.9230769230769,4,2,4,50,0,1
92145,-83.3333333333333,4,2,4,50,0,1
92505,-83.3333333333333,4,2,4,5,0,1
92625,-83.3333333333333,4,2,4,50,0,1
95025,-83.3333333333333,4,2,1,50,0,1
95985,-100,4,2,3,50,0,0
96225,-100,4,2,6,50,0,0
96345,-100,4,2,6,5,0,0
96465,-111.111111111111,4,2,6,50,0,0
98265,-111.111111111111,4,2,6,5,0,0
98385,-111.111111111111,4,2,6,50,0,0
99225,-111.111111111111,4,2,6,5,0,0
99345,-111.111111111111,4,2,6,50,0,0
100665,-111.111111111111,4,2,6,5,0,0
100785,-111.111111111111,4,2,6,50,0,0
102585,-111.111111111111,4,2,6,5,0,0
102705,-111.111111111111,4,2,6,50,0,0
103545,-111.111111111111,4,2,6,5,0,0
103665,-99.9999999999999,4,2,6,50,0,0
104145,-111.111111111111,4,2,6,50,0,0
105945,-111.111111111111,4,2,6,5,0,0
106065,-111.111111111111,4,2,6,50,0,0
106905,-111.111111111111,4,2,6,5,0,0
107025,-111.111111111111,4,2,6,50,0,0
110265,-111.111111111111,4,2,6,5,0,0
110385,-142.857142857143,4,2,6,50,0,0
111345,-76.9230769230769,4,2,7,50,0,1
112185,-76.9230769230769,4,2,7,5,0,1
112305,-83.3333333333333,4,2,7,50,0,1
113265,-83.3333333333333,4,2,4,50,0,1
114645,-83.3333333333333,4,2,4,5,0,1
114705,-83.3333333333333,4,2,4,50,0,1
115185,-76.9230769230769,4,2,7,50,0,1
116025,-76.9230769230769,4,2,7,5,0,1
116145,-83.3333333333333,4,2,7,50,0,1
117105,-83.3333333333333,4,2,4,50,0,1
119025,-76.9230769230769,4,2,7,50,0,1
119865,-76.9230769230769,4,2,7,5,0,1
119985,-83.3333333333333,4,2,7,50,0,1
120945,-83.3333333333333,4,2,4,50,0,1
122265,-83.3333333333333,4,2,4,5,0,1
122385,-83.3333333333333,4,2,4,50,0,1
122745,-83.3333333333333,4,2,4,5,0,1
122865,-83.3333333333333,4,2,7,50,0,1
124785,-83.3333333333333,4,2,4,50,0,1
126705,-76.9230769230769,4,2,8,50,0,1
128745,-76.9230769230769,4,2,4,50,0,1
130485,-76.9230769230769,4,2,4,5,0,1
130545,-76.9230769230769,4,2,8,50,0,1
132465,-76.9230769230769,4,2,4,50,0,1
134385,-76.9230769230769,4,2,8,50,0,1
136545,-76.9230769230769,4,2,4,50,0,1
138105,-76.9230769230769,4,2,4,5,0,1
138225,-76.9230769230769,4,2,4,50,0,1
138705,-83.3333333333333,4,2,4,50,0,1
139185,-90.9090909090909,4,2,4,50,0,1
139665,-100,4,2,4,50,0,1
141945,-100,4,2,4,5,0,0
142065,-333.333333333333,4,2,4,50,0,0

[Colours]
Combo1 : 255,104,233
Combo2 : 232,30,116
Combo3 : 139,218,33
Combo4 : 216,216,216
Combo5 : 163,243,12
Combo6 : 86,209,175
Combo7 : 17,213,223
Combo8 : 211,135,218

[HitObjects]
128,313,19185,38,0,B|149:294|148:268|148:268|150:293|179:308,1,96,2|0,0:0|0:0,0:0:0:0:
215,321,19665,2,0,B|313:309|239:271|347:259,2,143.999995605469,2|2|2,0:0|0:0|0:0,0:0:0:0:
201,206,21105,1,2,0:0:0:0:
201,206,21345,2,0,L|216:133,2,64,2|2|2,0:0|0:0|0:0,0:0:0:0:
349,242,22065,2,0,P|334:127|329:91,1,143.999995605469,2|2,0:0|0:0,0:0:0:0:
472,58,23025,22,0,B|448:78|448:78|447:83|447:83|424:108,1,64,2|0,0:0|0:0,0:0:0:0:
330,99,23505,2,0,B|276:90|276:90|256:70|256:70|139:54|195:118|89:104,1,256,2|0,0:0|0:0,0:0:0:0:
8,284,24945,85,2,0:0:0:0:
8,284,25185,1,2,0:0:0:0:
66,225,25425,2,0,L|204:244,1,128,2|2,0:0|0:0,0:0:0:0:
272,384,26385,2,0,P|251:325|209:323,1,96,2|0,0:0|0:0,0:0:0:0:
204,323,26865,22,0,P|243:312|258:293,1,64,2|0,0:0|0:0,0:0:0:0:
304,174,27345,2,0,B|360:145|413:190|391:253|379:232,2,143.999995605469,2|2|2,0:0|0:0|0:0,0:0:0:0:
146,100,28785,1,2,0:0:0:0:
68,133,29025,2,0,P|34:130|3:124,2,64,2|2|2,0:0|0:0|0:0,0:0:0:0:
146,100,29745,2,0,B|231:89|167:52|267:40,1,128,2|2,0:0|0:0,0:0:0:0:
256,192,30705,12,2,34065,0:0:0:0:
448,147,34545,6,0,B|461:142|471:123|471:123|452:253,1,160,10|8,0:0|0:0,0:0:0:0:
455,367,35505,2,0,P|437:347|382:338,1,71.9999978027344,2|0,0:0|0:0,0:0:0:0:
278,284,35985,2,0,P|238:301|213:330,1,71.9999978027344,10|2,0:0|0:0,0:0:0:0:
364,354,36465,102,0,P|359:256|356:224,1,107.999996704102,2|0,0:0|0:0,0:0:0:0:
361,216,36945,2,0,P|342:170|355:149,1,71.9999978027344,10|0,0:0|0:0,0:0:0:0:
472,60,37425,2,0,P|432:105|417:103,1,71.9999978027344,2|0,0:0|0:0,0:0:0:0:
333,57,37905,2,0,B|263:43|286:92|208:73,1,107.999996704102,10|0,0:0|0:0,0:0:0:0:
196,63,38385,6,0,B|161:69|161:69|160:73|160:73|117:80,2,71.9999978027344,6|2|10,0:0|0:0|0:0,0:0:0:0:
49,183,39105,1,2,0:0:0:0:
49,183,39345,2,0,P|38:120|21:33,1,143.999995605469,2|8,0:0|0:0,0:0:0:0:
128,78,40065,1,2,0:0:0:0:
128,78,40305,102,0,L|142:177,1,71.9999978027344,2|0,0:0|0:0,0:0:0:0:
108,229,40785,2,0,P|108:268|127:301,1,71.9999978027344,8|0,0:0|0:0,0:0:0:0:
194,353,41265,2,0,P|248:310|316:325,1,143.999995605469,2|2,0:0|0:0,0:0:0:0:
421,161,42225,6,0,B|413:157|404:133|404:133|387:244,1,120,4|0,0:0|0:0,0:0:0:0:
406,253,42705,2,0,L|477:244,1,71.9999978027344,10|2,0:0|0:0,0:0:0:0:
431,359,43185,2,0,L|359:350,1,71.9999978027344,2|0,0:0|0:0,0:0:0:0:
260,313,43665,2,0,L|180:332,1,71.9999978027344,10|2,0:0|0:0,0:0:0:0:
26,311,44145,102,0,P|46:242|85:237,1,107.999996704102,2|0,0:0|0:0,0:0:0:0:
105,235,44625,2,0,P|62:226|52:200,1,71.9999978027344,10|0,0:0|0:0,0:0:0:0:
96,84,45105,2,0,P|170:73|244:60,1,143.999995605469,2|8,0:0|0:0,0:0:0:0:
473,122,46065,6,0,B|489:91|489:91|470:47,2,71.9999978027344,6|2|10,0:0|0:0|0:0,0:0:0:0:
384,166,46785,2,0,B|309:139|364:116|273:82,1,143.999995605469,2|0,0:0|0:0,0:0:0:0:
169,7,47505,1,8,0:0:0:0:
169,7,47745,102,0,P|135:28|100:33,1,71.9999978027344,2|2,0:0|0:0,0:0:0:0:
10,74,48225,2,0,P|37:105|47:137,1,71.9999978027344,2|0,0:0|0:0,0:0:0:0:
150,167,48705,2,0,P|98:271|93:349,1,179.999994506836,2|0,0:0|0:0,0:0:0:0:
107,361,49425,2,0,P|114:323|101:290,1,71.9999978027344,2|0,0:0|0:0,0:0:0:0:
0,232,49905,22,0,P|33:190|47:133,2,111.999996582031,10|0|0,0:0|0:0|0:0,0:0:0:0:
2,315,51225,2,0,P|36:311|83:265,1,83.9999974365235
150,167,51825,54,0,B|176:183|176:183|206:185|209:186,1,55.9999982910157
261,266,52305,2,0,B|299:259|299:259|332:236,1,55.9999982910157
386,278,52785,2,0,B|410:251|410:251|410:220,1,55.9999982910157
486,207,53265,2,0,B|473:173|473:173|476:170|476:170|460:140,1,55.9999982910157
496,87,53745,54,0,B|495:72|495:72|457:33|457:33|442:35,1,83.9999974365235
409,45,54225,2,0,B|358:36|358:36|349:23|349:23|292:12,1,111.999996582031
276,144,55065,2,0,P|297:203|309:242,1,83.9999974365235
381,242,55665,54,0,L|389:180,2,55.9999982910157,10|0|10,0:0|0:0|0:0,0:0:0:0:
334,316,56385,1,0,0:0:0:0:
334,316,56625,2,0,B|285:304|285:304|259:274|259:274|225:266,1,111.999996582031,10|10,0:0|0:0,0:0:0:0:
161,290,57345,1,0,0:0:0:0:
167,302,57465,1,0,0:0:0:0:
172,312,57585,54,0,B|138:334|138:334|103:325,1,64,8|0,0:0|0:0,0:0:0:0:
20,194,58065,2,0,B|38:163|38:163|134:183,1,128,8|8,0:0|0:0,0:0:0:0:
260,211,59025,1,8,0:0:0:0:
260,211,59505,54,0,B|291:210|291:210|293:206|293:206|339:204,1,71.9999978027344,8|0,0:0|0:0,0:0:0:0:
477,156,59985,2,0,B|447:154|447:154|444:151|444:151|398:149,1,71.9999978027344,8|0,0:0|0:0,0:0:0:0:
315,33,60465,2,0,B|317:63|317:63|320:66|320:66|322:112,1,71.9999978027344,8|0,0:0|0:0,0:0:0:0:
260,211,60945,2,0,L|195:195,2,47.9999985351563,10|10|10,0:0|0:0|0:0,0:0:0:0:
348,187,61425,54,0,B|380:214|380:214|372:255,1,80,10|10,0:0|0:0,0:0:0:0:
223,379,61905,2,0,B|197:353|197:353|221:296,1,80,10|10,0:0|0:0,0:0:0:0:
400,250,62385,2,0,B|377:273|377:273|320:267,1,80,10|10,0:0|0:0,0:0:0:0:
232,176,62865,2,0,B|196:159|196:159|159:177,1,80,10|0,0:0|0:0,0:0:0:0:
110,245,63225,1,2,0:0:0:0:
110,245,63345,54,0,L|103:284,3,40,8|8|8|8,0:0|0:0|0:0|0:0,0:0:0:0:
62,176,63825,2,0,L|51:125,3,40,10|10|10|10,0:0|0:0|0:0|0:0,0:0:0:0:
0,229,64305,86,0,B|10:268|10:268|7:270|7:270|33:394,1,160,2|2,0:0|0:0,0:0:0:0:
30,383,65265,2,0,P|55:324|148:343,1,155.999992858887,6|0,0:0|0:0,0:0:0:0:
163,368,65745,2,0,P|213:375|248:340,1,95.9999970703126,10|2,0:0|0:0,0:0:0:0:
355,215,66225,1,4,0:0:0:0:
355,215,66465,2,0,L|421:238,1,47.9999985351563,2|0,0:0|0:0,0:0:0:0:
468,263,66705,2,0,B|501:226|501:226|482:168,1,95.9999970703126,10|2,2:0|2:0,0:0:0:0:
424,75,67185,86,0,B|365:84|365:84|362:87|362:87|315:97,1,95.9999970703126,4|0,3:2|0:0,0:0:0:0:
289,117,67545,1,2,3:2:0:0:
289,117,67665,2,0,B|231:110|228:110|228:110|226:106|226:106|184:100,1,95.9999970703126,8|2,3:2|0:1,0:0:0:0:
18,60,68145,6,0,P|72:13|130:60,1,143.999995605469,6|0,0:1|0:1,0:0:0:0:
116,63,68625,2,0,B|109:85|109:85|105:93|105:93|119:126|119:126|128:134|128:134|133:166|133:166|136:175|136:175|112:218,1,155.999992858887,10|0,0:0|0:0,0:0:0:0:
103,244,69105,6,0,P|149:226|201:265,1,103.999995239258,6|0,0:0|0:0,0:0:0:0:
305,369,69585,2,0,B|353:359|353:359|386:319|386:319|437:308,1,143.999995605469,10|0,0:0|0:0,0:0:0:0:
471,315,70065,1,6,0:0:0:0:
471,315,70305,2,0,P|466:287|461:247,1,47.9999985351563,2|0,0:0|0:0,0:0:0:0:
424,190,70545,2,0,P|429:154|435:85,1,95.9999970703126,10|2,0:0|2:0,0:0:0:0:
347,207,71025,86,0,B|322:222|322:222|250:192,1,95.9999970703126,4|0,3:2|0:0,0:0:0:0:
231,158,71385,1,2,3:2:0:0:
231,158,71505,2,0,B|234:132|234:132|163:121|163:121|154:176,1,143.999995605469,8|0,3:2|0:0,0:0:0:0:
124,234,71985,6,0,L|16:209,1,95.9999970703126,2|0,0:1|0:1,0:0:0:0:
12,247,72345,1,2,0:1:0:0:
12,247,72465,2,0,L|30:351,1,95.9999970703126,2|2,0:1|0:1,0:0:0:0:
177,377,72945,6,0,B|229:364|229:364|261:319|261:319|318:303,1,155.999992858887,6|0,0:0|0:0,0:0:0:0:
337,290,73425,2,0,P|396:303|450:310,1,95.9999970703126,10|2,0:0|0:0,0:0:0:0:
461,168,73905,1,6,0:0:0:0:
461,168,74145,2,0,L|403:183,1,47.9999985351563,2|0,0:0|0:0,0:0:0:0:
339,201,74385,2,0,L|238:183,1,95.9999970703126,10|2,0:0|0:0,0:0:0:0:
180,53,74865,86,0,P|146:8|96:5,1,95.9999970703126,4|2,3:2|2:1,0:0:0:0:
72,30,75225,1,2,2:1:0:0:
72,30,75345,2,0,P|29:37|19:37,2,47.9999985351563,10|2|2,0:0|0:1|0:1,0:0:0:0:
86,177,75825,6,0,P|63:218|51:334,1,143.999995605469,6|0,0:1|0:0,0:0:0:0:
48,312,76305,2,0,B|70:277|70:277|196:312,1,155.999992858887,10|0,0:0|0:0,0:0:0:0:
250,349,76785,6,0,L|363:333,1,95.9999970703126,6|0,0:0|0:0,0:0:0:0:
496,257,77265,2,0,L|397:238,1,95.9999970703126,10|2,0:0|0:0,0:0:0:0:
304,192,77745,1,6,0:0:0:0:
304,192,77985,2,0,L|319:136,1,47.9999985351563,2|0,0:0|0:0,0:0:0:0:
384,110,78225,2,0,B|377:72|377:72|374:70|374:70|362:9,1,95.9999970703126,10|2,0:0|0:0,0:0:0:0:
245,0,78705,86,0,P|201:4|174:51,1,95.9999970703126,4|0,3:2|0:0,0:0:0:0:
146,84,79065,1,0,3:2:0:0:
146,84,79185,2,0,P|190:121|188:166,1,95.9999970703126,8|0,3:2|3:2,0:0:0:0:
147,276,79665,2,0,L|95:284,2,47.9999985351563,0|2|0,0:0|0:1|0:1,0:0:0:0:
225,311,80025,1,2,0:1:0:0:
225,311,80145,2,0,B|275:322|275:322|278:326|278:326|379:349,1,143.999995605469,2|0,0:1|0:0,0:0:0:0:
442,364,80625,22,0,B|451:267|384:313|398:215,1,155.999992858887,6|0,0:0|0:0,0:0:0:0:
383,193,81105,2,0,P|393:146|402:93,1,95.9999970703126,10|2,0:0|0:0,0:0:0:0:
310,132,81585,2,0,P|288:160|227:158,1,95.9999970703126,6|2,0:0|0:0,0:0:0:0:
188,151,81945,1,0,0:0:0:0:
188,151,82065,2,0,P|132:155|88:160,1,95.9999970703126,10|2,0:0|0:0,0:0:0:0:
0,44,82545,86,0,B|36:19|36:19|94:48,1,95.9999970703126,4|0,3:2|0:0,0:0:0:0:
121,67,82905,1,0,3:2:0:0:
121,67,83025,2,0,B|105:108|93:159,1,95.9999970703126,8|2,3:2|0:1,0:0:0:0:
46,242,83505,2,0,P|56:318|56:348,1,95.9999970703126,2|2,0:1|0:1,0:0:0:0:
165,367,83985,2,2,B|194:349|194:349|199:357|200:357|248:350|248:350|255:356|255:356|311:368,1,155.999992858887,10|0,0:0|0:0,0:0:0:0:
346,381,84465,22,0,P|391:360|393:308,1,95.9999970703126,6|0,0:0|0:0,0:0:0:0:
254,178,84945,2,0,P|259:231|299:245,1,95.9999970703126,10|2,0:0|0:0,0:0:0:0:
414,291,85425,2,0,P|408:227|406:185,1,95.9999970703126,6|2,0:0|0:0,0:0:0:0:
382,165,85785,1,0,0:0:0:0:
382,165,85905,2,0,P|383:126|390:67,1,95.9999970703126,10|2,0:0|0:0,0:0:0:0:
254,178,86385,86,0,B|212:206|212:206|163:185,1,95.9999970703126,4|0,3:2|0:0,0:0:0:0:
128,173,86745,1,2,3:2:0:0:
128,173,86865,2,0,B|98:202|98:202|127:266,1,95.9999970703126,8|0,3:2|3:2,0:0:0:0:
181,313,87345,1,4,3:2:0:0:
181,313,87585,6,0,L|232:308,1,47.9999985351563,2|2,0:1|0:1,0:0:0:0:
263,290,87825,2,0,L|310:299,3,47.9999985351563,8|2|2|0,0:0|0:1|0:1|0:0,0:0:0:0:
334,322,88305,6,0,B|379:317|379:317|389:308|389:308|486:296,1,155.999992858887,6|0,0:0|0:0,0:0:0:0:
511,264,88785,2,0,P|481:226|488:173,1,95.9999970703126,10|2,0:0|0:0,0:0:0:0:
384,22,89265,2,0,P|372:71|322:100,1,95.9999970703126,6|2,0:0|0:0,0:0:0:0:
305,133,89625,1,0,0:0:0:0:
305,133,89745,2,0,P|250:114|164:114,1,143.999995605469,10|0,0:0|0:0,0:0:0:0:
122,137,90225,85,0,0:0:0:0:
87,266,90465,1,2,0:1:0:0:
69,255,90585,1,2,0:1:0:0:
47,263,90705,2,0,P|33:292|28:315,2,47.9999985351563,10|2|2,0:0|0:1|0:1,0:0:0:0:
156,228,91185,6,0,B|261:242|200:268|302:279,1,143.999995605469,6|0,0:1|0:1,0:0:0:0:
322,260,91665,2,0,P|327:206|277:191,1,103.999995239258,10|0,0:0|0:0,0:0:0:0:
347,337,92145,6,0,P|414:336|462:271,1,143.999995605469,6|0,0:0|0:0,0:0:0:0:
486,250,92625,2,0,P|473:200|475:143,1,95.9999970703126,10|2,0:0|0:0,0:0:0:0:
512,0,93105,2,0,P|501:40|437:54,1,95.9999970703126,6|2,0:0|0:0,0:0:0:0:
414,87,93465,1,0,0:0:0:0:
414,87,93585,2,0,P|369:73|316:87,1,95.9999970703126,10|2,0:0|0:0,0:0:0:0:
168,54,94065,86,0,B|64:32|131:11|31:0,1,143.999995605469,4|0,3:2|3:2,0:0:0:0:
5,36,94545,2,0,L|16:88,1,47.9999985351563,10|0,3:2|0:0,0:0:0:0:
47,117,94785,2,0,L|39:183,1,47.9999985351563
20,208,95025,1,2,0:0:0:0:
20,208,95985,86,0,B|61:218|61:218|95:246|95:246|146:258,1,120,10|0,0:0|0:0,0:0:0:0:
152,280,96465,2,0,L|243:269,1,71.9999978027344,4|0,0:0|0:0,0:0:0:0:
440,327,96945,2,0,P|483:299|516:301,2,71.9999978027344,10|2|6,0:0|0:0|0:0,0:0:0:0:
367,360,97665,1,2,0:0:0:0:
294,239,97905,2,0,P|288:187|328:124,1,107.999996704102,10|0,0:0|0:0,0:0:0:0:
337,110,98385,2,0,P|334:158|308:172,1,71.9999978027344,6|0,0:0|0:0,0:0:0:0:
206,231,98865,6,0,B|129:215|189:198|91:184,1,107.999996704102,10|0,0:0|0:0,0:0:0:0:
78,171,99345,2,0,P|39:193|2:190,1,71.9999978027344,4|0,0:0|0:0,0:0:0:0:
17,59,99825,1,10,0:0:0:0:
99,87,100065,1,2,0:0:0:0:
168,29,100305,2,0,B|221:7|221:7|273:47,1,107.999996704102,6|0,0:0|0:0,0:0:0:0:
293,58,100785,102,0,L|372:47,1,71.9999978027344,8|0,0:0|0:0,0:0:0:0:
512,134,101265,2,0,L|426:126,1,71.9999978027344,4|0,0:0|0:0,0:0:0:0:
310,217,101745,1,10,0:0:0:0:
239,144,101985,1,2,0:0:0:0:
165,218,102225,2,0,B|89:204|136:179|41:160,1,107.999996704102,6|0,0:0|0:0,0:0:0:0:
36,179,102705,2,0,P|70:217|64:249,1,71.9999978027344,8|0,0:0|0:0,0:0:0:0:
5,368,103185,2,0,P|36:323|82:340,1,107.999996704102,6|0,0:0|0:0,0:0:0:0:
103,354,103665,6,0,P|135:364|181:345,1,80,8|0,0:0|0:0,0:0:0:0:
235,274,104145,2,0,P|271:249|304:254,1,71.9999978027344,6|0,0:0|0:0,0:0:0:0:
373,322,104625,1,10,0:0:0:0:
373,322,104865,1,2,0:0:0:0:
452,266,105105,2,0,P|491:271|516:304,1,71.9999978027344,6|0,0:0|0:0,0:0:0:0:
373,322,105585,102,0,P|375:260|381:202,1,107.999996704102,10|0,0:0|0:0,0:0:0:0:
403,182,106065,2,0,P|393:140|387:98,1,71.9999978027344,6|0,0:0|0:0,0:0:0:0:
311,38,106545,2,0,B|238:56|289:84|204:104,1,107.999996704102,10|0,0:0|0:0,0:0:0:0:
199,114,107025,2,0,P|173:82|130:78,1,71.9999978027344,6|0,0:0|0:0,0:0:0:0:
48,180,107505,6,0,P|87:178|132:174,1,71.9999978027344,10|0,0:0|0:0,0:0:0:0:
244,233,107985,2,0,P|204:231|163:227,1,71.9999978027344,10|0,0:0|0:0,0:0:0:0:
265,144,108465,2,0,P|317:135|338:133,1,71.9999978027344,10|0,0:0|0:0,0:0:0:0:
401,290,108945,2,0,P|362:285|318:280,1,71.9999978027344,10|0,0:0|0:0,0:0:0:0:
451,100,109425,2,0,P|477:296|487:360,1,251.999992309571,10|0,0:0|0:0,0:0:0:0:
492,366,110385,102,0,P|500:310|501:299,2,55.9999982910157
401,290,111105,1,0,0:0:0:0:
305,361,111345,38,0,B|300:298|231:207|181:325|75:280|54:206|128:112|192:155|195:199,1,363.999983337403,6|0,3:2|0:0,0:0:0:0:
213,194,112305,1,10,0:0:0:0:
295,97,112545,1,0,0:0:0:0:
373,164,112785,1,0,0:0:0:0:
440,110,113025,1,0,0:0:0:0:
499,163,113265,102,0,B|524:183|542:273|453:276|465:218|495:221,2,143.999995605469,6|2|2,0:0|0:0|0:1,0:0:0:0:
440,110,114105,1,2,0:1:0:0:
430,122,114225,2,10,B|366:120|366:120|336:142|336:142|265:140,1,143.999995605469,8|0,0:0|0:0,0:1:0:0:
253,156,114705,2,0,P|220:103|186:102,1,95.9999970703126,2|0,0:0|0:0,0:0:0:0:
61,195,115185,6,0,B|108:195|232:295|176:431|82:402|54:338|96:275|162:283,1,363.999983337403,6|0,3:2|0:0,0:0:0:0:
188,265,116145,1,10,0:0:0:0:
267,334,116385,1,0,0:0:0:0:
322,258,116625,1,0,0:0:0:0:
401,297,116865,1,0,0:0:0:0:
471,242,117105,102,0,B|461:206|461:206|456:203|456:203|438:142,1,95.9999970703126,6|0,0:0|0:0,0:0:0:0:
511,103,117465,1,2,0:0:0:0:
511,103,117585,2,0,B|497:135|497:135|421:117,1,95.9999970703126,0|2,0:0|0:0,0:0:0:0:
296,47,118065,2,0,L|182:68,1,95.9999970703126,10|0,0:2|0:1,0:0:0:0:
136,108,118425,1,2,0:1:0:0:
136,108,118545,2,0,L|25:93,1,95.9999970703126,0|2,0:0|0:1,0:0:0:0:
219,155,119025,6,0,B|298:142|397:183|246:286|388:320|548:333|501:161|384:185|408:221,1,363.999983337403,6|0,3:2|0:0,0:0:0:0:
400,185,119985,1,10,0:0:0:0:
445,110,120225,1,0,0:0:0:0:
373,73,120465,1,0,0:0:0:0:
390,0,120705,1,0,0:0:0:0:
298,21,120945,102,0,L|186:10,1,95.9999970703126,6|2,0:0|0:1,0:0:0:0:
141,67,121305,1,2,0:1:0:0:
141,67,121424,2,0,L|92:72,1,47.9999985351563,0|2,0:0|0:1,0:0:0:0:
18,30,121665,2,0,P|4:51|0:74,1,47.9999985351563,2|2,0:1|0:1,0:0:0:0:
41,150,121905,54,0,B|32:185|32:185|15:205|15:205|0:320,1,143.999995605469,8|0,0:0|0:0,0:0:0:0:
22,327,122385,2,2,P|60:273|155:295,1,143.999995605469,2|0,0:0|0:0,0:0:0:0:
195,314,122865,70,0,B|291:299|299:170|299:170|350:247|357:351|357:351|380:293|421:282|421:282|452:318|488:307|488:307,1,527.999983886719,6|0,3:2|0:0,0:0:0:0:
466,321,124305,2,0,P|501:305|507:235,1,95.9999970703126,2|0,0:0|0:0,0:0:0:0:
480,145,124785,1,6,0:0:0:0:
480,145,125745,38,0,B|442:161|442:161|431:176|431:176|387:188|387:188,1,95.9999970703126,2|2,0:0|0:0,0:0:0:0:
265,288,126225,2,0,L|273:227,1,47.9999985351563,8|0,0:1|0:0,0:0:0:0:
240,214,126465,2,0,L|232:154,1,47.9999985351563,8|0,0:1|0:0,0:0:0:0:
243,93,126705,6,0,B|189:64|189:64|89:120,1,155.999992858887,14|0,0:0|0:0,0:0:0:0:
24,142,127185,2,0,B|92:105|92:105|141:195,1,155.999992858887,14|0,0:0|0:0,0:0:0:0:
169,245,127665,2,0,B|125:214|125:214|53:244,1,103.999995239258,14|0,0:0|0:0,0:0:0:0:
73,368,128145,2,0,L|217:353,1,103.999995239258,14|2,0:0|0:0,0:0:0:0:
276,266,128625,1,6,0:0:0:0:
398,361,128865,1,0,0:0:0:0:
398,361,128985,1,2,0:0:0:0:
398,361,129105,2,0,P|400:332|403:310,3,51.999997619629,0|2|2|2,0:0|0:1|0:1|0:1,0:0:0:0:
474,384,129585,102,6,B|511:371|511:371|487:240,1,155.999992858887,4|0,0:0|0:0,0:1:0:0:
446,139,130065,2,2,P|389:212|316:191,1,155.999992858887,6|0,0:0|0:0,0:0:0:0:
306,190,130545,6,0,B|293:129|293:129|266:106|266:106|259:47,1,155.999992858887,14|0,0:0|0:0,0:0:0:0:
187,0,131025,2,0,B|171:50|171:50|51:31,1,155.999992858887,14|0,0:0|0:0,0:0:0:0:
3,145,131505,2,0,B|45:113|45:113|101:144,1,103.999995239258,14|0,0:0|0:0,0:0:0:0:
206,210,131985,2,0,B|257:195|257:195|267:199|267:199|328:185,1,103.999995239258,14|2,0:0|0:0,0:0:0:0:
505,42,132465,102,0,P|466:9|400:39,1,103.999995239258,6|0,0:0|0:0,0:0:0:0:
362,76,132825,1,2,0:0:0:0:
373,88,132945,2,0,P|381:119|396:192,1,103.999995239258,0|2,0:0|0:0,0:0:0:0:
437,307,133425,1,4,0:0:0:0:
323,376,133665,2,0,L|261:362,1,51.999997619629,2|2,0:1|0:1,0:0:0:0:
226,341,133905,2,0,L|235:279,3,51.999997619629,0|2|2|2,0:0|0:1|0:1|0:1,0:0:0:0:
149,371,134385,6,0,B|97:355|97:355|120:243,1,155.999992858887,14|0,0:0|0:0,0:0:0:0:
167,191,134865,2,0,B|209:187|209:187|199:48,1,155.999992858887,14|0,0:0|0:0,0:0:0:0:
129,17,135345,2,0,B|77:-2|77:-2|14:32,1,103.999995239258,14|0,0:0|0:0,0:0:0:0:
45,187,135825,2,0,B|95:178|95:178|101:182|101:182|159:168,1,103.999995239258,14|2,0:0|0:0,0:0:0:0:
221,69,136305,1,6,0:0:0:0:
329,165,136545,1,2,0:1:0:0:
329,165,136665,1,2,0:1:0:0:
329,165,136785,2,0,L|336:114,3,51.999997619629,0|2|2|2,0:0|0:1|0:1|0:1,0:0:0:0:
264,215,137265,102,0,B|264:237|264:237|274:247|274:247|279:373,1,155.999992858887,4|0,0:0|0:1,0:0:0:0:
388,384,137745,2,0,P|408:333|516:323,1,155.999992858887,6|0,0:0|0:0,0:0:0:0:
499,313,138225,38,0,P|492:262|476:211,1,103.999995239258,2|2,0:0|0:0,0:0:0:0:
464,111,138705,2,0,P|411:69|368:62,1,95.9999970703126,2|2,0:0|0:0,0:0:0:0:
267,23,139185,2,0,P|217:44|191:89,1,88.000002685547,2|2,0:0|0:0,0:0:0:0:
116,142,139665,2,0,P|114:188|141:224,1,80,2|2,0:0|0:0,0:0:0:0:
220,286,140145,70,0,B|257:270|257:270|277:233|277:233|325:213,2,120,6|2|2,0:0|0:0|0:0,0:0:0:0:
109,366,141105,2,0,B|84:321|84:321|106:297|106:297|122:225|122:225|98:210|98:210|69:117,1,280,10|0,0:0|0:0,0:0:0:0:
172,78,142065,86,0,B|133:85|112:38|112:38|192:-26|184:36|240:6|240:6|237:7|237:7|221:58|270:53|270:110|239:161|239:161|243:161|243:161|265:199|328:210|369:176|369:176|367:179|367:179|347:205|371:245|371:245|372:243|372:243|452:203|429:267|514:208|514:208|515:205|515:205|509:192,1,767.999976562501,2|0,0:0|0:0,0:0:0:0:
