osu file format v14

[General]
AudioFilename: audio.mp3
AudioLeadIn: 0
PreviewTime: -1
Countdown: 0
SampleSet: Normal
StackLeniency: 0.7
Mode: 1
LetterboxInBreaks: 0
WidescreenStoryboard: 0

[Editor]
DistanceSpacing: 1.1
BeatDivisor: 3
GridSize: 32
TimelineZoom: 3

[Metadata]
Title:Enigma
TitleUnicode:Enigma
Artist:Pixel Terror & Aviella
ArtistUnicode:Pixel Terror & Aviella
Creator:LBB22
Version:Inner Oni
Source:
Tags:Pixel Terror & Aviella Enigma Rocket League EDM
BeatmapID:4552834
BeatmapSetID:2159342

[Difficulty]
HPDrainRate:5
CircleSize:4
OverallDifficulty:6
ApproachRate:10
SliderMultiplier:1.4
SliderTickRate:1

[Events]
//Background and Video events
0,0,"bg.jpg",0,0
//Break Periods
//Storyboard Layer 0 (Background)
//Storyboard Layer 1 (Fail)
//Storyboard Layer 2 (Pass)
//Storyboard Layer 3 (Foreground)
//Storyboard Layer 4 (Overlay)
//Storyboard Sound Samples

[TimingPoints]
63,211.267605633803,4,1,0,70,1,0
908,-100,4,1,0,70,0,0
1753,-66.6666666666667,4,1,0,70,0,0
2598,-50,4,1,0,70,0,0
3443,-166.666666666667,4,1,0,70,0,0
30485,-142.857142857143,4,1,0,85,0,0
36823,-100,4,1,0,100,0,0
37034,-133.333333333333,4,1,0,100,0,0
40732,-131.578947368421,4,1,0,100,0,0
40837,-129.87012987013,4,1,0,100,0,0
40943,-128.205128205128,4,1,0,100,0,0
41048,-126.582278481013,4,1,0,100,0,0
41154,-125,4,1,0,100,0,0
41260,-123.456790123457,4,1,0,100,0,0
41365,-121.951219512195,4,1,0,100,0,0
41471,-120.481927710843,4,1,0,100,0,0
41577,-119.047619047619,4,1,0,100,0,0
41682,-117.647058823529,4,1,0,100,0,0
41788,-116.279069767442,4,1,0,100,0,0
41893,-114.942528735632,4,1,0,100,0,0
41999,-113.636363636364,4,1,0,100,0,0
42105,-112.359550561798,4,1,0,100,0,0
42210,-111.111111111111,4,1,0,100,0,0
42316,-109.89010989011,4,1,0,25,0,0
42527,-107.52688172043,4,1,0,40,0,0
42739,-105.263157894737,4,1,0,55,0,0
42950,-103.092783505155,4,1,0,70,0,0
43161,-101.010101010101,4,1,0,85,0,0
43372,-99.009900990099,4,1,0,100,0,0
44006,-81.9672131147541,4,1,0,100,0,1
44059,-83.3333333333333,4,1,0,100,0,1
44112,-84.7457627118644,4,1,0,100,0,1
44165,-86.2068965517241,4,1,0,100,0,1
44217,-87.719298245614,4,1,0,100,0,1
44270,-89.2857142857143,4,1,0,100,0,1
44323,-90.9090909090909,4,1,0,100,0,1
44429,-94.3396226415094,4,1,0,100,0,1
44534,-98.0392156862745,4,1,0,100,0,1
44587,-100,4,1,0,100,0,1
44640,-102.040816326531,4,1,0,100,0,1
44693,-104.166666666667,4,1,0,100,0,1
44746,-106.382978723404,4,1,0,100,0,1
44798,-108.695652173913,4,1,0,100,0,1
44851,-111.111111111111,4,1,0,100,0,1
45696,-79.3650793650794,4,1,0,100,0,1
45767,-81.3008130081301,4,1,0,100,0,1
45837,-83.3333333333333,4,1,0,100,0,1
45908,-85.4700854700855,4,1,0,100,0,1
45978,-87.719298245614,4,1,0,100,0,1
46048,-90.0900900900901,4,1,0,100,0,1
46119,-92.5925925925926,4,1,0,100,0,1
46189,-95.2380952380952,4,1,0,100,0,1
46260,-98.0392156862745,4,1,0,100,0,1
46330,-101.010101010101,4,1,0,100,0,1
46401,-104.166666666667,4,1,0,100,0,1
46471,-107.52688172043,4,1,0,100,0,1
46541,-111.111111111111,4,1,0,100,0,1
50765,-81.9672131147541,4,1,0,100,0,1
50818,-83.3333333333333,4,1,0,100,0,1
50871,-84.7457627118644,4,1,0,100,0,1
50925,-86.2068965517241,4,1,0,100,0,1
50976,-87.719298245614,4,1,0,100,0,1
51029,-89.2857142857143,4,1,0,100,0,1
51082,-90.9090909090909,4,1,0,100,0,1
51188,-94.3396226415094,4,1,0,100,0,1
51293,-98.0392156862745,4,1,0,100,0,1
51346,-100,4,1,0,100,0,1
51399,-102.040816326531,4,1,0,100,0,1
51452,-104.166666666667,4,1,0,100,0,1
51505,-106.382978723404,4,1,0,100,0,1
51557,-108.695652173913,4,1,0,100,0,1
51610,-111.111111111111,4,1,0,100,0,1
52455,-79.3650793650794,4,1,0,100,0,1
52526,-81.3008130081301,4,1,0,100,0,1
52596,-83.3333333333333,4,1,0,100,0,1
52667,-85.4700854700855,4,1,0,100,0,1
52737,-87.719298245614,4,1,0,100,0,1
52807,-90.0900900900901,4,1,0,100,0,1
52878,-92.5925925925926,4,1,0,100,0,1
52948,-95.2380952380952,4,1,0,100,0,1
53019,-98.0392156862745,4,1,0,100,0,1
53089,-101.010101010101,4,1,0,100,0,1
53160,-104.166666666667,4,1,0,100,0,1
53230,-107.52688172043,4,1,0,100,0,1
53300,-111.111111111111,4,1,0,100,0,1
57525,-81.9672131147541,4,1,0,100,0,1
57578,-83.3333333333333,4,1,0,100,0,1
57631,-84.7457627118644,4,1,0,100,0,1
57686,-86.2068965517241,4,1,0,100,0,1
57736,-87.719298245614,4,1,0,100,0,1
57789,-89.2857142857143,4,1,0,100,0,1
57842,-90.9090909090909,4,1,0,100,0,1
57948,-94.3396226415094,4,1,0,100,0,1
58053,-98.0392156862745,4,1,0,100,0,1
58106,-100,4,1,0,100,0,1
58159,-102.040816326531,4,1,0,100,0,1
58212,-104.166666666667,4,1,0,100,0,1
58265,-106.382978723404,4,1,0,100,0,1
58317,-108.695652173913,4,1,0,100,0,1
58370,-111.111111111111,4,1,0,100,0,1
59215,-79.3650793650794,4,1,0,100,0,1
59286,-81.3008130081301,4,1,0,100,0,1
59356,-83.3333333333333,4,1,0,100,0,1
59427,-85.4700854700855,4,1,0,100,0,1
59497,-87.719298245614,4,1,0,100,0,1
59567,-90.0900900900901,4,1,0,100,0,1
59638,-92.5925925925926,4,1,0,100,0,1
59708,-95.2380952380952,4,1,0,100,0,1
59779,-98.0392156862745,4,1,0,100,0,1
59849,-101.010101010101,4,1,0,100,0,1
59920,-104.166666666667,4,1,0,100,0,1
59990,-107.52688172043,4,1,0,100,0,1
60060,-111.111111111111,4,1,0,100,0,1
64286,-81.9672131147541,4,1,0,100,0,1
64339,-83.3333333333333,4,1,0,100,0,1
64392,-84.7457627118644,4,1,0,100,0,1
64446,-86.2068965517241,4,1,0,100,0,1
64497,-87.719298245614,4,1,0,100,0,1
64550,-89.2857142857143,4,1,0,100,0,1
64603,-90.9090909090909,4,1,0,100,0,1
64709,-94.3396226415094,4,1,0,100,0,1
64763,-96.1538461538461,4,1,0,100,0,1
64814,-98.0392156862745,4,1,0,100,0,1
64867,-100,4,1,0,100,0,1
64920,-102.040816326531,4,1,0,100,0,1
64973,-104.166666666667,4,1,0,100,0,1
65026,-106.382978723404,4,1,0,100,0,1
65078,-108.695652173913,4,1,0,100,0,1
65131,-111.111111111111,4,1,0,100,0,1
65976,-79.3650793650794,4,1,0,100,0,1
66047,-81.3008130081301,4,1,0,100,0,1
66117,-83.3333333333333,4,1,0,100,0,1
66188,-85.4700854700855,4,1,0,100,0,1
66258,-87.719298245614,4,1,0,100,0,1
66328,-90.0900900900901,4,1,0,100,0,1
66399,-92.5925925925926,4,1,0,100,0,1
66469,-95.2380952380952,4,1,0,100,0,1
66540,-98.0392156862745,4,1,0,100,0,1
66610,-101.010101010101,4,1,0,100,0,1
66681,-104.166666666667,4,1,0,100,0,1
66751,-107.52688172043,4,1,0,100,0,1
66821,-111.111111111111,4,1,0,100,0,1
67668,-83.3333333333333,4,1,0,100,0,1
67879,-71.4285714285714,4,1,0,100,0,1
68091,-62.5,4,1,0,100,0,1
68302,-55.5555555555556,4,1,0,100,0,1
68513,-50,4,1,0,100,0,1
68724,-45.4545454545455,4,1,0,100,0,1
68936,-41.6666666666667,4,1,0,100,0,1
69147,-38.4615384615385,4,1,0,100,0,1
70203,-133.333333333333,4,1,0,100,0,1
71048,-133.333333333333,4,1,0,100,0,0
91541,-129.87012987013,4,1,0,100,0,0
91753,-126.582278481013,4,1,0,100,0,0
91964,-123.456790123457,4,1,0,100,0,0
92175,-120.481927710843,4,1,0,100,0,0
92386,-117.647058823529,4,1,0,100,0,0
92598,-114.942528735632,4,1,0,100,0,0
92651,-113.636363636364,4,1,0,100,0,0
92703,-112.359550561798,4,1,0,100,0,0
92809,-109.89010989011,4,1,0,100,0,0
93020,-107.52688172043,4,1,0,100,0,0
93073,-106.382978723404,4,1,0,100,0,0
93126,-105.263157894737,4,1,0,100,0,0
93232,-103.092783505155,4,1,0,100,0,0
93443,-101.010101010101,4,1,0,100,0,0
93496,-100,4,1,0,100,0,0
93548,-99.009900990099,4,1,0,100,0,0
93654,-97.0873786407767,4,1,0,100,0,0
93865,-95.2380952380952,4,1,0,100,0,0
93918,-94.3396226415094,4,1,0,100,0,0
93971,-93.4579439252336,4,1,0,100,0,0
94077,-91.743119266055,4,1,0,100,0,0
94288,-88.4955752212389,4,1,0,100,0,0
94499,-85.4700854700855,4,1,0,100,0,0
94605,-84.0336134453781,4,1,0,100,0,0
94710,-82.6446280991736,4,1,0,100,0,0
94922,-70.9219858156028,4,1,0,100,0,0
95133,-62.111801242236,4,1,0,100,0,0
95344,-55.2486187845304,4,1,0,100,0,0
95555,-49.7512437810945,4,1,0,100,0,0
95767,-45.2488687782805,4,1,0,100,0,0
95978,-41.49377593361,4,1,0,100,0,0
96189,-38.3141762452107,4,1,0,100,0,0
97246,-133.333333333333,4,1,0,70,0,0
98091,-133.333333333333,4,1,0,70,0,0
99781,214.285714285714,4,1,0,70,1,0
99781,-131.578947368421,4,1,0,70,0,0
103209,208.333333333333,4,1,0,70,1,0
103209,-135.135135135135,4,1,0,70,0,0
106542,214.285714285714,4,1,0,70,1,0
106542,-131.578947368421,4,1,0,70,0,0
109970,208.333333333333,4,1,0,70,1,0
109970,-135.135135135135,4,1,0,70,0,0
113303,211.267605633803,4,1,0,70,1,0
113303,-133.333333333333,4,1,0,70,0,0
124711,-100,4,1,0,100,0,0
125133,-80,4,1,0,100,0,1
125331,-86.9565217391304,4,1,0,100,0,1
126401,-100,4,1,0,100,0,1
126823,-86.9565217391304,4,1,0,100,0,1
128091,-100,4,1,0,100,0,1
128513,-86.9565217391304,4,1,0,100,0,1
128936,-100,4,1,0,100,0,1
129358,-86.9565217391304,4,1,0,100,0,1
129781,-100,4,1,0,100,0,1
130203,-86.9565217391304,4,1,0,100,0,1
130626,-100,4,1,0,100,0,1
131049,-86.9565217391304,4,1,0,100,0,1
131471,-100,4,1,0,100,0,1
131894,-86.9565217391304,4,1,0,100,0,1
133161,-100,4,1,0,100,0,1
133584,-86.9565217391304,4,1,0,100,0,1
134851,-100,4,1,0,100,0,1
135274,-100,4,1,0,100,0,0
136119,-117.647058823529,4,1,0,100,0,0
136964,-142.857142857143,4,1,0,100,0,0
137809,-142.857142857143,4,1,0,70,0,0
138654,-142.857142857143,4,1,0,85,0,0
144992,-100,4,1,0,100,0,0
145203,-133.333333333333,4,1,0,100,0,0
148901,-131.578947368421,4,1,0,100,0,0
149006,-129.87012987013,4,1,0,100,0,0
149112,-128.205128205128,4,1,0,100,0,0
149218,-126.582278481013,4,1,0,100,0,0
149323,-125,4,1,0,100,0,0
149429,-123.456790123457,4,1,0,100,0,0
149534,-121.951219512195,4,1,0,100,0,0
149640,-120.481927710843,4,1,0,100,0,0
149746,-119.047619047619,4,1,0,100,0,0
149851,-117.647058823529,4,1,0,100,0,0
149957,-116.279069767442,4,1,0,100,0,0
150063,-114.942528735632,4,1,0,100,0,0
150168,-113.636363636364,4,1,0,100,0,0
150274,-112.359550561798,4,1,0,100,0,0
150380,-111.111111111111,4,1,0,100,0,0
150485,-109.89010989011,4,1,0,100,0,0
150696,-107.52688172043,4,1,0,100,0,0
150908,-105.263157894737,4,1,0,100,0,0
151119,-103.092783505155,4,1,0,100,0,0
151330,-101.010101010101,4,1,0,100,0,0
151542,-99.009900990099,4,1,0,100,0,0
152174,-81.9672131147541,4,1,0,100,0,1
152228,-83.3333333333333,4,1,0,100,0,1
152281,-84.7457627118644,4,1,0,100,0,1
152334,-86.2068965517241,4,1,0,100,0,1
152386,-87.719298245614,4,1,0,100,0,1
152439,-89.2857142857143,4,1,0,100,0,1
152492,-90.9090909090909,4,1,0,100,0,1
152598,-94.3396226415094,4,1,0,100,0,1
152703,-98.0392156862745,4,1,0,100,0,1
152756,-100,4,1,0,100,0,1
152809,-102.040816326531,4,1,0,100,0,1
152862,-104.166666666667,4,1,0,100,0,1
152915,-106.382978723404,4,1,0,100,0,1
152967,-108.695652173913,4,1,0,100,0,1
153020,-111.111111111111,4,1,0,100,0,1
153863,-79.3650793650794,4,1,0,100,0,1
153934,-81.3008130081301,4,1,0,100,0,1
154004,-83.3333333333333,4,1,0,100,0,1
154074,-85.4700854700855,4,1,0,100,0,1
154144,-87.719298245614,4,1,0,100,0,1
154216,-90.0900900900901,4,1,0,100,0,1
154287,-92.5925925925926,4,1,0,100,0,1
154357,-95.2380952380952,4,1,0,100,0,1
154428,-98.0392156862745,4,1,0,100,0,1
154498,-101.010101010101,4,1,0,100,0,1
154569,-104.166666666667,4,1,0,100,0,1
154639,-107.52688172043,4,1,0,100,0,1
154710,-111.111111111111,4,1,0,100,0,1
158932,-81.9672131147541,4,1,0,100,0,1
158985,-83.3333333333333,4,1,0,100,0,1
159038,-84.7457627118644,4,1,0,100,0,1
159095,-86.2068965517241,4,1,0,100,0,1
159143,-87.719298245614,4,1,0,100,0,1
159196,-89.2857142857143,4,1,0,100,0,1
159249,-90.9090909090909,4,1,0,100,0,1
159354,-94.3396226415094,4,1,0,100,0,1
159460,-98.0392156862745,4,1,0,100,0,1
159513,-100,4,1,0,100,0,1
159566,-102.040816326531,4,1,0,100,0,1
159618,-104.166666666667,4,1,0,100,0,1
159671,-106.382978723404,4,1,0,100,0,1
159724,-108.695652173913,4,1,0,100,0,1
159777,-111.111111111111,4,1,0,100,0,1
160622,-79.3650793650794,4,1,0,100,0,1
160692,-81.3008130081301,4,1,0,100,0,1
160763,-83.3333333333333,4,1,0,100,0,1
160833,-85.4700854700855,4,1,0,100,0,1
160904,-87.719298245614,4,1,0,100,0,1
160974,-90.0900900900901,4,1,0,100,0,1
161045,-92.5925925925926,4,1,0,100,0,1
161115,-95.2380952380952,4,1,0,100,0,1
161185,-98.0392156862745,4,1,0,100,0,1
161256,-101.010101010101,4,1,0,100,0,1
161326,-104.166666666667,4,1,0,100,0,1
161397,-107.52688172043,4,1,0,100,0,1
161467,-111.111111111111,4,1,0,100,0,1
165640,-125,4,1,0,60,0,1
166115,-81.9672131147541,4,1,0,100,0,1
166166,-84.7457627118644,4,1,0,100,0,1
166219,-87.719298245614,4,1,0,100,0,1
166271,-90.9090909090909,4,1,0,100,0,1
166324,-94.3396226415094,4,1,0,100,0,1
166377,-98.0392156862745,4,1,0,100,0,1
166430,-102.040816326531,4,1,0,100,0,1
166483,-106.382978723404,4,1,0,100,0,1
166536,-111.111111111111,4,1,0,100,0,1
167383,-79.3650793650794,4,1,0,100,0,1
167453,-81.3008130081301,4,1,0,100,0,1
167524,-83.3333333333333,4,1,0,100,0,1
167594,-85.4700854700855,4,1,0,100,0,1
167665,-87.719298245614,4,1,0,100,0,1
167735,-90.0900900900901,4,1,0,100,0,1
167806,-92.5925925925926,4,1,0,100,0,1
167876,-95.2380952380952,4,1,0,100,0,1
167946,-98.0392156862745,4,1,0,100,0,1
168017,-101.010101010101,4,1,0,100,0,1
168087,-104.166666666667,4,1,0,100,0,1
168158,-107.52688172043,4,1,0,100,0,1
168228,-111.111111111111,4,1,0,100,0,1
172453,-81.9672131147541,4,1,0,100,0,1
172506,-83.3333333333333,4,1,0,100,0,1
172559,-84.7457627118644,4,1,0,100,0,1
172616,-86.2068965517241,4,1,0,100,0,1
172665,-87.719298245614,4,1,0,100,0,1
172718,-89.2857142857143,4,1,0,100,0,1
172770,-90.9090909090909,4,1,0,100,0,1
172876,-94.3396226415094,4,1,0,100,0,1
172982,-98.0392156862745,4,1,0,100,0,1
173034,-100,4,1,0,100,0,1
173087,-102.040816326531,4,1,0,100,0,1
173140,-104.166666666667,4,1,0,100,0,1
173193,-106.382978723404,4,1,0,100,0,1
173246,-108.695652173913,4,1,0,100,0,1
173299,-111.111111111111,4,1,0,100,0,1
174144,-79.3650793650794,4,1,0,100,0,1
174214,-81.3008130081301,4,1,0,100,0,1
174284,-83.3333333333333,4,1,0,100,0,1
174355,-85.4700854700855,4,1,0,100,0,1
174425,-87.719298245614,4,1,0,100,0,1
174496,-90.0900900900901,4,1,0,100,0,1
174566,-92.5925925925926,4,1,0,100,0,1
174637,-95.2380952380952,4,1,0,100,0,1
174707,-98.0392156862745,4,1,0,100,0,1
174777,-101.010101010101,4,1,0,100,0,1
174848,-104.166666666667,4,1,0,100,0,1
174918,-107.52688172043,4,1,0,100,0,1
174989,-111.111111111111,4,1,0,100,0,1
175834,-83.3333333333333,4,1,0,100,0,1
176045,-71.4285714285714,4,1,0,100,0,1
176256,-62.5,4,1,0,100,0,1
176468,-55.5555555555556,4,1,0,100,0,1
176679,-50,4,1,0,100,0,1
176890,-45.4545454545455,4,1,0,100,0,1
177101,-41.6666666666667,4,1,0,100,0,1
177313,-38.4615384615385,4,1,0,100,0,1
178373,-153.846153846154,4,1,0,100,0,0
179218,-153.846153846154,4,1,0,100,0,0
203091,-125,4,1,0,100,0,0
203303,-105.263157894737,4,1,0,100,0,0
203514,-90.9090909090909,4,1,0,100,0,0
203725,-80,4,1,0,100,0,0
203936,-71.4285714285714,4,1,0,100,0,0
204148,-64.5161290322581,4,1,0,100,0,0
204359,-58.8235294117647,4,1,0,100,0,0
205415,-133.333333333333,4,1,0,100,0,0
206260,-133.333333333333,4,1,0,100,0,0
207317,-133.333333333333,4,1,0,70,0,0

[HitObjects]
256,192,3443,5,0,0:0:0:0:
256,192,3655,1,2,0:0:0:0:
256,192,3866,1,0,0:0:0:0:
256,192,4077,1,2,0:0:0:0:
256,192,4289,1,2,0:0:0:0:
256,192,4500,1,0,0:0:0:0:
256,192,4711,1,2,0:0:0:0:
256,192,4922,1,0,0:0:0:0:
256,192,5134,1,2,0:0:0:0:
256,192,5345,1,2,0:0:0:0:
256,192,5556,1,0,0:0:0:0:
256,192,5767,1,2,0:0:0:0:
256,192,5979,1,2,0:0:0:0:
256,192,6190,1,2,0:0:0:0:
256,192,6401,1,0,0:0:0:0:
256,192,6613,1,0,0:0:0:0:
256,192,6824,1,0,0:0:0:0:
256,192,7035,1,2,0:0:0:0:
256,192,7246,1,2,0:0:0:0:
256,192,7458,1,0,0:0:0:0:
256,192,7669,1,2,0:0:0:0:
256,192,7880,1,2,0:0:0:0:
256,192,8091,1,0,0:0:0:0:
256,192,8303,1,2,0:0:0:0:
256,192,8514,1,0,0:0:0:0:
256,192,8725,1,0,0:0:0:0:
256,192,8936,1,2,0:0:0:0:
256,192,9148,1,0,0:0:0:0:
256,192,9359,1,2,0:0:0:0:
256,192,9570,1,2,0:0:0:0:
256,192,9782,1,0,0:0:0:0:
256,192,9993,1,2,0:0:0:0:
256,192,10204,1,0,0:0:0:0:
256,192,10416,1,2,0:0:0:0:
256,192,10627,1,2,0:0:0:0:
256,192,10838,1,0,0:0:0:0:
256,192,11050,1,2,0:0:0:0:
256,192,11261,1,0,0:0:0:0:
256,192,11472,1,2,0:0:0:0:
256,192,11683,1,2,0:0:0:0:
256,192,11895,1,0,0:0:0:0:
256,192,12106,1,0,0:0:0:0:
256,192,12317,1,2,0:0:0:0:
256,192,12528,1,2,0:0:0:0:
256,192,12740,1,0,0:0:0:0:
256,192,12951,1,0,0:0:0:0:
256,192,13162,1,0,0:0:0:0:
256,192,13374,1,2,0:0:0:0:
256,192,13585,1,0,0:0:0:0:
256,192,13796,1,2,0:0:0:0:
256,192,14007,1,2,0:0:0:0:
256,192,14219,1,0,0:0:0:0:
256,192,14430,1,2,0:0:0:0:
256,192,14641,1,2,0:0:0:0:
256,192,14852,1,0,0:0:0:0:
256,192,15064,1,2,0:0:0:0:
256,192,15275,1,0,0:0:0:0:
256,192,15486,1,0,0:0:0:0:
256,192,15697,1,2,0:0:0:0:
256,192,15909,1,2,0:0:0:0:
256,192,16120,1,0,0:0:0:0:
256,192,16331,1,2,0:0:0:0:
256,192,16543,1,0,0:0:0:0:
256,192,16754,1,2,0:0:0:0:
256,192,16858,1,2,0:0:0:0:
256,192,16965,1,0,0:0:0:0:
256,192,17176,1,2,0:0:0:0:
256,192,17387,1,2,0:0:0:0:
256,192,17598,1,0,0:0:0:0:
256,192,17810,1,2,0:0:0:0:
256,192,18021,1,2,0:0:0:0:
256,192,18232,1,0,0:0:0:0:
256,192,18443,1,2,0:0:0:0:
256,192,18654,1,0,0:0:0:0:
256,192,18866,1,2,0:0:0:0:
256,192,19077,1,2,0:0:0:0:
256,192,19289,1,0,0:0:0:0:
256,192,19500,1,0,0:0:0:0:
256,192,19711,1,2,0:0:0:0:
256,192,19923,1,0,0:0:0:0:
256,192,20134,1,2,0:0:0:0:
256,192,20345,1,0,0:0:0:0:
256,192,20556,1,2,0:0:0:0:
256,192,20767,1,2,0:0:0:0:
256,192,20979,1,0,0:0:0:0:
256,192,21190,1,2,0:0:0:0:
256,192,21401,1,2,0:0:0:0:
256,192,21613,1,0,0:0:0:0:
256,192,21824,1,2,0:0:0:0:
256,192,22035,1,0,0:0:0:0:
256,192,22246,1,2,0:0:0:0:
256,192,22458,1,2,0:0:0:0:
256,192,22669,1,0,0:0:0:0:
256,192,22880,1,2,0:0:0:0:
256,192,23091,1,2,0:0:0:0:
256,192,23303,1,0,0:0:0:0:
256,192,23514,1,2,0:0:0:0:
256,192,23725,1,0,0:0:0:0:
256,192,23936,1,2,0:0:0:0:
256,192,24147,1,2,0:0:0:0:
256,192,24358,1,0,0:0:0:0:
256,192,24570,1,2,0:0:0:0:
256,192,24781,1,2,0:0:0:0:
256,192,24992,1,0,0:0:0:0:
256,192,25203,1,2,0:0:0:0:
256,192,25414,1,0,0:0:0:0:
256,192,25626,1,0,0:0:0:0:
256,192,25837,1,2,0:0:0:0:
256,192,26049,1,2,0:0:0:0:
256,192,26260,1,0,0:0:0:0:
256,192,26471,1,2,0:0:0:0:
256,192,26683,1,0,0:0:0:0:
256,192,26894,1,2,0:0:0:0:
256,192,27105,1,0,0:0:0:0:
256,192,27316,1,2,0:0:0:0:
256,192,27527,1,2,0:0:0:0:
256,192,27739,1,0,0:0:0:0:
256,192,27950,1,2,0:0:0:0:
256,192,28161,1,0,0:0:0:0:
256,192,28267,1,0,0:0:0:0:
256,192,28373,1,2,0:0:0:0:
256,192,28479,1,0,0:0:0:0:
256,192,28584,1,2,0:0:0:0:
256,192,28690,1,2,0:0:0:0:
256,192,30486,1,2,0:0:0:0:
256,192,30697,1,0,0:0:0:0:
256,192,30908,1,0,0:0:0:0:
256,192,31331,1,0,0:0:0:0:
256,192,31753,1,0,0:0:0:0:
256,192,32176,1,2,0:0:0:0:
256,192,32387,1,0,0:0:0:0:
256,192,32598,1,0,0:0:0:0:
256,192,33021,1,0,0:0:0:0:
256,192,33443,1,0,0:0:0:0:
256,192,33655,1,0,0:0:0:0:
256,192,33866,1,2,0:0:0:0:
256,192,34077,1,0,0:0:0:0:
256,192,34289,1,0,0:0:0:0:
256,192,34711,1,0,0:0:0:0:
256,192,35134,1,0,0:0:0:0:
256,192,35555,1,2,0:0:0:0:
256,192,35767,1,0,0:0:0:0:
256,192,35979,1,0,0:0:0:0:
256,192,36401,1,0,0:0:0:0:
256,192,36824,1,6,0:0:0:0:
256,192,37035,1,0,0:0:0:0:
256,192,37141,1,0,0:0:0:0:
256,192,37246,1,2,0:0:0:0:
256,192,37457,1,0,0:0:0:0:
256,192,37668,1,2,0:0:0:0:
256,192,37774,1,2,0:0:0:0:
256,192,37879,1,0,0:0:0:0:
256,192,38091,1,2,0:0:0:0:
256,192,38302,1,0,0:0:0:0:
256,192,38408,1,0,0:0:0:0:
256,192,38513,1,2,0:0:0:0:
256,192,38619,1,2,0:0:0:0:
256,192,38724,1,0,0:0:0:0:
256,192,38936,1,2,0:0:0:0:
256,192,39147,1,0,0:0:0:0:
256,192,39358,1,2,0:0:0:0:
256,192,39464,1,2,0:0:0:0:
256,192,39569,1,0,0:0:0:0:
256,192,39781,1,2,0:0:0:0:
256,192,39992,1,0,0:0:0:0:
256,192,40098,1,0,0:0:0:0:
256,192,40203,1,2,0:0:0:0:
256,192,40309,1,2,0:0:0:0:
256,192,40415,1,0,0:0:0:0:
256,192,40626,1,2,0:0:0:0:
256,192,40732,1,0,0:0:0:0:
256,192,40837,1,2,0:0:0:0:
256,192,40943,1,2,0:0:0:0:
256,192,41048,1,0,0:0:0:0:
256,192,41154,1,2,0:0:0:0:
256,192,41260,1,0,0:0:0:0:
256,192,41365,1,0,0:0:0:0:
256,192,41471,1,2,0:0:0:0:
256,192,41577,1,2,0:0:0:0:
256,192,41682,1,0,0:0:0:0:
256,192,41788,1,2,0:0:0:0:
256,192,41893,1,0,0:0:0:0:
256,192,41999,1,2,0:0:0:0:
256,192,42105,1,2,0:0:0:0:
256,192,42210,1,2,0:0:0:0:
256,192,42316,1,0,0:0:0:0:
256,192,42528,1,2,0:0:0:0:
256,192,42739,1,0,0:0:0:0:
256,192,42951,1,2,0:0:0:0:
256,192,43162,1,0,0:0:0:0:
256,192,43373,1,2,0:0:0:0:
256,192,44006,1,2,0:0:0:0:
256,192,44059,1,2,0:0:0:0:
256,192,44112,1,0,0:0:0:0:
256,192,44165,1,0,0:0:0:0:
256,192,44217,1,2,0:0:0:0:
256,192,44323,1,2,0:0:0:0:
256,192,44429,1,0,0:0:0:0:
256,192,44534,1,2,0:0:0:0:
256,192,44587,1,2,0:0:0:0:
256,192,44640,1,0,0:0:0:0:
256,192,44693,1,0,0:0:0:0:
256,192,44746,1,0,0:0:0:0:
256,192,44798,1,0,0:0:0:0:
256,192,44851,1,2,0:0:0:0:
256,192,45063,1,2,0:0:0:0:
256,192,45274,1,0,0:0:0:0:
256,192,45485,1,0,0:0:0:0:
256,192,45591,1,0,0:0:0:0:
256,192,45696,1,2,0:0:0:0:
256,192,45767,1,2,0:0:0:0:
256,192,45837,1,0,0:0:0:0:
256,192,45908,1,2,0:0:0:0:
256,192,45978,1,0,0:0:0:0:
256,192,46048,1,0,0:0:0:0:
256,192,46119,1,2,0:0:0:0:
256,192,46189,1,2,0:0:0:0:
256,192,46260,1,2,0:0:0:0:
256,192,46330,1,0,0:0:0:0:
256,192,46401,1,0,0:0:0:0:
256,192,46471,1,0,0:0:0:0:
256,192,46541,1,2,0:0:0:0:
256,192,46753,1,0,0:0:0:0:
256,192,46964,1,2,0:0:0:0:
256,192,47034,1,0,0:0:0:0:
256,192,47105,1,0,0:0:0:0:
256,192,47175,1,2,0:0:0:0:
256,192,47246,1,0,0:0:0:0:
256,192,47316,1,0,0:0:0:0:
256,192,47386,1,2,0:0:0:0:
256,192,47492,1,0,0:0:0:0:
256,192,47545,1,2,0:0:0:0:
256,192,47598,1,0,0:0:0:0:
256,192,47703,1,0,0:0:0:0:
256,192,47809,1,2,0:0:0:0:
256,192,47862,1,0,0:0:0:0:
256,192,47915,1,0,0:0:0:0:
256,192,47967,1,0,0:0:0:0:
256,192,48020,1,2,0:0:0:0:
256,192,48126,1,2,0:0:0:0:
256,192,48232,1,0,0:0:0:0:
256,192,48337,1,2,0:0:0:0:
256,192,48390,1,2,0:0:0:0:
256,192,48443,1,0,0:0:0:0:
256,192,48548,1,0,0:0:0:0:
256,192,48654,1,2,0:0:0:0:
256,192,48760,1,0,0:0:0:0:
256,192,48813,1,0,0:0:0:0:
256,192,48865,1,2,0:0:0:0:
256,192,48918,1,2,0:0:0:0:
256,192,48971,1,0,0:0:0:0:
256,192,49024,1,0,0:0:0:0:
256,192,49077,1,2,0:0:0:0:
256,192,49288,1,0,0:0:0:0:
256,192,49341,1,0,0:0:0:0:
256,192,49393,1,0,0:0:0:0:
256,192,49446,1,0,0:0:0:0:
256,192,49499,1,2,0:0:0:0:
256,192,49710,1,2,0:0:0:0:
256,192,49763,1,2,0:0:0:0:
256,192,49816,1,2,0:0:0:0:
256,192,49869,1,2,0:0:0:0:
256,192,49922,1,0,0:0:0:0:
256,192,50027,1,0,0:0:0:0:
256,192,50133,1,2,0:0:0:0:
256,192,50239,1,2,0:0:0:0:
256,192,50344,1,0,0:0:0:0:
256,192,50555,1,0,0:0:0:0:
256,192,50767,1,2,0:0:0:0:
256,192,50820,1,2,0:0:0:0:
256,192,50872,1,0,0:0:0:0:
256,192,50925,1,0,0:0:0:0:
256,192,50978,1,0,0:0:0:0:
256,192,51084,1,2,0:0:0:0:
256,192,51190,1,0,0:0:0:0:
256,192,51295,1,2,0:0:0:0:
256,192,51348,1,2,0:0:0:0:
256,192,51401,1,0,0:0:0:0:
256,192,51454,1,2,0:0:0:0:
256,192,51507,1,0,0:0:0:0:
256,192,51559,1,0,0:0:0:0:
256,192,51612,1,2,0:0:0:0:
256,192,51824,1,2,0:0:0:0:
256,192,52035,1,0,0:0:0:0:
256,192,52246,1,0,0:0:0:0:
256,192,52352,1,0,0:0:0:0:
256,192,52457,1,2,0:0:0:0:
256,192,52528,1,2,0:0:0:0:
256,192,52598,1,2,0:0:0:0:
256,192,52669,1,0,0:0:0:0:
256,192,52739,1,0,0:0:0:0:
256,192,52809,1,0,0:0:0:0:
256,192,52880,1,2,0:0:0:0:
256,192,52950,1,2,0:0:0:0:
256,192,53021,1,0,0:0:0:0:
256,192,53091,1,2,0:0:0:0:
256,192,53162,1,0,0:0:0:0:
256,192,53232,1,0,0:0:0:0:
256,192,53302,1,2,0:0:0:0:
256,192,53514,1,0,0:0:0:0:
256,192,53725,1,2,0:0:0:0:
256,192,53795,1,0,0:0:0:0:
256,192,53866,1,0,0:0:0:0:
256,192,53936,1,2,0:0:0:0:
256,192,54007,1,0,0:0:0:0:
256,192,54077,1,0,0:0:0:0:
256,192,54147,1,2,0:0:0:0:
256,192,54253,1,0,0:0:0:0:
256,192,54306,1,2,0:0:0:0:
256,192,54358,1,2,0:0:0:0:
256,192,54464,1,0,0:0:0:0:
256,192,54570,1,2,0:0:0:0:
256,192,54623,1,2,0:0:0:0:
256,192,54676,1,0,0:0:0:0:
256,192,54728,1,0,0:0:0:0:
256,192,54781,1,2,0:0:0:0:
256,192,54887,1,0,0:0:0:0:
256,192,54993,1,2,0:0:0:0:
256,192,55098,1,2,0:0:0:0:
256,192,55151,1,2,0:0:0:0:
256,192,55204,1,0,0:0:0:0:
256,192,55309,1,0,0:0:0:0:
256,192,55415,1,2,0:0:0:0:
256,192,55521,1,2,0:0:0:0:
256,192,55574,1,2,0:0:0:0:
256,192,55626,1,0,0:0:0:0:
256,192,55679,1,0,0:0:0:0:
256,192,55732,1,2,0:0:0:0:
256,192,55785,1,2,0:0:0:0:
256,192,55837,1,0,0:0:0:0:
256,192,56048,1,2,0:0:0:0:
256,192,56101,1,2,0:0:0:0:
256,192,56154,1,0,0:0:0:0:
256,192,56206,1,0,0:0:0:0:
256,192,56260,1,2,0:0:0:0:
256,192,56471,1,0,0:0:0:0:
256,192,56524,1,0,0:0:0:0:
256,192,56576,1,2,0:0:0:0:
256,192,56629,1,2,0:0:0:0:
256,192,56682,1,0,0:0:0:0:
256,192,56788,1,0,0:0:0:0:
256,192,56894,1,2,0:0:0:0:
256,192,57000,1,0,0:0:0:0:
256,192,57105,1,2,0:0:0:0:
256,192,57316,1,2,0:0:0:0:
256,192,57527,1,0,0:0:0:0:
256,192,57580,1,0,0:0:0:0:
256,192,57633,1,2,0:0:0:0:
256,192,57686,1,0,0:0:0:0:
256,192,57738,1,2,0:0:0:0:
256,192,57844,1,2,0:0:0:0:
256,192,57950,1,0,0:0:0:0:
256,192,58055,1,2,0:0:0:0:
256,192,58108,1,2,0:0:0:0:
256,192,58161,1,0,0:0:0:0:
256,192,58214,1,0,0:0:0:0:
256,192,58267,1,0,0:0:0:0:
256,192,58319,1,0,0:0:0:0:
256,192,58372,1,2,0:0:0:0:
256,192,58584,1,2,0:0:0:0:
256,192,58795,1,0,0:0:0:0:
256,192,59006,1,0,0:0:0:0:
256,192,59112,1,0,0:0:0:0:
256,192,59217,1,2,0:0:0:0:
256,192,59288,1,2,0:0:0:0:
256,192,59358,1,0,0:0:0:0:
256,192,59429,1,2,0:0:0:0:
256,192,59499,1,0,0:0:0:0:
256,192,59569,1,0,0:0:0:0:
256,192,59640,1,2,0:0:0:0:
256,192,59710,1,2,0:0:0:0:
256,192,59781,1,2,0:0:0:0:
256,192,59851,1,0,0:0:0:0:
256,192,59922,1,0,0:0:0:0:
256,192,59992,1,0,0:0:0:0:
256,192,60062,1,2,0:0:0:0:
256,192,60274,1,0,0:0:0:0:
256,192,60485,1,2,0:0:0:0:
256,192,60555,1,0,0:0:0:0:
256,192,60626,1,0,0:0:0:0:
256,192,60696,1,2,0:0:0:0:
256,192,60767,1,0,0:0:0:0:
256,192,60837,1,0,0:0:0:0:
256,192,60907,1,2,0:0:0:0:
256,192,61013,1,0,0:0:0:0:
256,192,61066,1,2,0:0:0:0:
256,192,61119,1,0,0:0:0:0:
256,192,61224,1,0,0:0:0:0:
256,192,61330,1,2,0:0:0:0:
256,192,61383,1,2,0:0:0:0:
256,192,61436,1,2,0:0:0:0:
256,192,61488,1,2,0:0:0:0:
256,192,61541,1,0,0:0:0:0:
256,192,61647,1,2,0:0:0:0:
256,192,61753,1,2,0:0:0:0:
256,192,61858,1,0,0:0:0:0:
256,192,61911,1,0,0:0:0:0:
256,192,61964,1,2,0:0:0:0:
256,192,62069,1,0,0:0:0:0:
256,192,62175,1,2,0:0:0:0:
256,192,62281,1,0,0:0:0:0:
256,192,62334,1,0,0:0:0:0:
256,192,62386,1,2,0:0:0:0:
256,192,62439,1,0,0:0:0:0:
256,192,62492,1,2,0:0:0:0:
256,192,62545,1,2,0:0:0:0:
256,192,62598,1,0,0:0:0:0:
256,192,62809,1,0,0:0:0:0:
256,192,62862,1,0,0:0:0:0:
256,192,62914,1,0,0:0:0:0:
256,192,62967,1,0,0:0:0:0:
256,192,63020,1,2,0:0:0:0:
256,192,63231,1,2,0:0:0:0:
256,192,63284,1,2,0:0:0:0:
256,192,63337,1,2,0:0:0:0:
256,192,63390,1,2,0:0:0:0:
256,192,63443,1,0,0:0:0:0:
256,192,63548,1,0,0:0:0:0:
256,192,63654,1,2,0:0:0:0:
256,192,63760,1,2,0:0:0:0:
256,192,63865,1,0,0:0:0:0:
256,192,64077,1,2,0:0:0:0:
256,192,64288,1,0,0:0:0:0:
256,192,64341,1,0,0:0:0:0:
256,192,64393,1,2,0:0:0:0:
256,192,64446,1,0,0:0:0:0:
256,192,64499,1,2,0:0:0:0:
256,192,64605,1,2,0:0:0:0:
256,192,64710,1,0,0:0:0:0:
256,192,64816,1,2,0:0:0:0:
256,192,64869,1,2,0:0:0:0:
256,192,64922,1,0,0:0:0:0:
256,192,64974,1,2,0:0:0:0:
256,192,65027,1,0,0:0:0:0:
256,192,65080,1,0,0:0:0:0:
256,192,65133,1,2,0:0:0:0:
256,192,65344,1,0,0:0:0:0:
256,192,65450,1,2,0:0:0:0:
256,192,65555,1,0,0:0:0:0:
256,192,65767,1,0,0:0:0:0:
256,192,65872,1,0,0:0:0:0:
256,192,65978,1,2,0:0:0:0:
256,192,66048,1,2,0:0:0:0:
256,192,66119,1,0,0:0:0:0:
256,192,66189,1,2,0:0:0:0:
256,192,66260,1,0,0:0:0:0:
256,192,66330,1,0,0:0:0:0:
256,192,66400,1,2,0:0:0:0:
256,192,66471,1,2,0:0:0:0:
256,192,66541,1,2,0:0:0:0:
256,192,66612,1,0,0:0:0:0:
256,192,66682,1,0,0:0:0:0:
256,192,66753,1,0,0:0:0:0:
256,192,66823,1,2,0:0:0:0:
256,192,67034,1,0,0:0:0:0:
256,192,67140,1,2,0:0:0:0:
256,192,67245,1,0,0:0:0:0:
256,192,67351,1,2,0:0:0:0:
256,192,67457,1,0,0:0:0:0:
256,192,67668,1,6,0:0:0:0:
256,192,67879,1,6,0:0:0:0:
256,192,68091,1,6,0:0:0:0:
256,192,68302,1,6,0:0:0:0:
256,192,68513,1,6,0:0:0:0:
256,192,68724,1,6,0:0:0:0:
256,192,68936,1,6,0:0:0:0:
256,192,69147,1,6,0:0:0:0:
256,192,71048,1,4,0:0:0:0:
256,192,71471,1,2,0:0:0:0:
256,192,71893,1,0,0:0:0:0:
256,192,72316,1,2,0:0:0:0:
256,192,72369,1,2,0:0:0:0:
256,192,72527,1,2,0:0:0:0:
256,192,72580,1,0,0:0:0:0:
256,192,72739,1,2,0:0:0:0:
256,192,72791,1,2,0:0:0:0:
256,192,72950,1,2,0:0:0:0:
256,192,73003,1,0,0:0:0:0:
256,192,73161,1,2,0:0:0:0:
256,192,73214,1,2,0:0:0:0:
256,192,73372,1,2,0:0:0:0:
256,192,73425,1,0,0:0:0:0:
256,192,73584,1,2,0:0:0:0:
256,192,73636,1,2,0:0:0:0:
256,192,73795,1,2,0:0:0:0:
256,192,73848,1,0,0:0:0:0:
256,192,74006,1,2,0:0:0:0:
256,192,74429,1,4,0:0:0:0:
256,192,74851,1,2,0:0:0:0:
256,192,75063,1,2,0:0:0:0:
256,192,75168,1,2,0:0:0:0:
256,192,75274,1,0,0:0:0:0:
256,192,75485,1,2,0:0:0:0:
256,192,75696,1,2,0:0:0:0:
256,192,75749,1,2,0:0:0:0:
256,192,75907,1,2,0:0:0:0:
256,192,75960,1,0,0:0:0:0:
256,192,76119,1,2,0:0:0:0:
256,192,76171,1,2,0:0:0:0:
256,192,76330,1,2,0:0:0:0:
256,192,76383,1,0,0:0:0:0:
256,192,76541,1,2,0:0:0:0:
256,192,76647,1,0,0:0:0:0:
256,192,76753,1,0,0:0:0:0:
256,192,76858,1,2,0:0:0:0:
256,192,76964,1,0,0:0:0:0:
256,192,77175,1,2,0:0:0:0:
256,192,77386,1,2,0:0:0:0:
256,192,77492,1,2,0:0:0:0:
256,192,77598,1,0,0:0:0:0:
256,192,77668,1,2,0:0:0:0:
256,192,77739,1,2,0:0:0:0:
256,192,77809,1,0,0:0:0:0:
256,192,78020,1,2,0:0:0:0:
256,192,78126,1,0,0:0:0:0:
256,192,78232,1,2,0:0:0:0:
256,192,78337,1,2,0:0:0:0:
256,192,78443,1,0,0:0:0:0:
256,192,78548,1,2,0:0:0:0:
256,192,78654,1,0,0:0:0:0:
256,192,78865,1,2,0:0:0:0:
256,192,79077,1,2,0:0:0:0:
256,192,79130,1,2,0:0:0:0:
256,192,79288,1,2,0:0:0:0:
256,192,79341,1,0,0:0:0:0:
256,192,79500,1,2,0:0:0:0:
256,192,79552,1,2,0:0:0:0:
256,192,79711,1,2,0:0:0:0:
256,192,79764,1,0,0:0:0:0:
256,192,79922,1,2,0:0:0:0:
256,192,79975,1,2,0:0:0:0:
256,192,80133,1,2,0:0:0:0:
256,192,80186,1,0,0:0:0:0:
256,192,80345,1,2,0:0:0:0:
256,192,80397,1,2,0:0:0:0:
256,192,80556,1,2,0:0:0:0:
256,192,80609,1,0,0:0:0:0:
256,192,80767,1,2,0:0:0:0:
256,192,80872,1,2,0:0:0:0:
256,192,80978,1,0,0:0:0:0:
256,192,81084,1,2,0:0:0:0:
256,192,81189,1,0,0:0:0:0:
256,192,81401,1,2,0:0:0:0:
256,192,81506,1,0,0:0:0:0:
256,192,81612,1,2,0:0:0:0:
256,192,81823,1,2,0:0:0:0:
256,192,81929,1,2,0:0:0:0:
256,192,82034,1,0,0:0:0:0:
256,192,82140,1,2,0:0:0:0:
256,192,82246,1,2,0:0:0:0:
256,192,82351,1,0,0:0:0:0:
256,192,82457,1,2,0:0:0:0:
256,192,82668,1,2,0:0:0:0:
256,192,82739,1,0,0:0:0:0:
256,192,82809,1,0,0:0:0:0:
256,192,82879,1,2,0:0:0:0:
256,192,83091,1,2,0:0:0:0:
256,192,83161,1,2,0:0:0:0:
256,192,83232,1,2,0:0:0:0:
256,192,83302,1,0,0:0:0:0:
256,192,83513,1,0,0:0:0:0:
256,192,83619,1,0,0:0:0:0:
256,192,83724,1,2,0:0:0:0:
256,192,83936,1,2,0:0:0:0:
256,192,84147,1,2,0:0:0:0:
256,192,84358,1,2,0:0:0:0:
256,192,84570,1,4,0:0:0:0:
256,192,84993,1,2,0:0:0:0:
256,192,85415,1,0,0:0:0:0:
256,192,85837,1,2,0:0:0:0:
256,192,85890,1,2,0:0:0:0:
256,192,85943,1,2,0:0:0:0:
256,192,86048,1,0,0:0:0:0:
256,192,86260,1,2,0:0:0:0:
256,192,86313,1,2,0:0:0:0:
256,192,86366,1,2,0:0:0:0:
256,192,86471,1,0,0:0:0:0:
256,192,86682,1,2,0:0:0:0:
256,192,86735,1,2,0:0:0:0:
256,192,86788,1,2,0:0:0:0:
256,192,86893,1,0,0:0:0:0:
256,192,87105,1,2,0:0:0:0:
256,192,87158,1,2,0:0:0:0:
256,192,87211,1,2,0:0:0:0:
256,192,87316,1,0,0:0:0:0:
256,192,87528,1,2,0:0:0:0:
256,192,87951,1,4,0:0:0:0:
256,192,88373,1,2,0:0:0:0:
256,192,88585,1,2,0:0:0:0:
256,192,88690,1,2,0:0:0:0:
256,192,88796,1,0,0:0:0:0:
256,192,89007,1,2,0:0:0:0:
256,192,89113,1,0,0:0:0:0:
256,192,89218,1,2,0:0:0:0:
256,192,89271,1,2,0:0:0:0:
256,192,89323,1,2,0:0:0:0:
256,192,89429,1,0,0:0:0:0:
256,192,89641,1,2,0:0:0:0:
256,192,89693,1,2,0:0:0:0:
256,192,89746,1,2,0:0:0:0:
256,192,89852,1,0,0:0:0:0:
256,192,90063,1,2,0:0:0:0:
256,192,90169,1,0,0:0:0:0:
256,192,90275,1,0,0:0:0:0:
256,192,90380,1,2,0:0:0:0:
256,192,90486,1,0,0:0:0:0:
256,192,90696,1,2,0:0:0:0:
256,192,90908,1,2,0:0:0:0:
256,192,91014,1,2,0:0:0:0:
256,192,91120,1,0,0:0:0:0:
256,192,91190,1,2,0:0:0:0:
256,192,91261,1,2,0:0:0:0:
256,192,91331,1,0,0:0:0:0:
256,192,91541,1,0,0:0:0:0:
256,192,91753,1,0,0:0:0:0:
256,192,91964,1,0,0:0:0:0:
256,192,92175,1,0,0:0:0:0:
256,192,92386,1,0,0:0:0:0:
256,192,92599,1,2,0:0:0:0:
256,192,92652,1,2,0:0:0:0:
256,192,92703,1,2,0:0:0:0:
256,192,92810,1,0,0:0:0:0:
256,192,93022,1,2,0:0:0:0:
256,192,93074,1,2,0:0:0:0:
256,192,93126,1,2,0:0:0:0:
256,192,93232,1,0,0:0:0:0:
256,192,93444,1,2,0:0:0:0:
256,192,93497,1,2,0:0:0:0:
256,192,93548,1,2,0:0:0:0:
256,192,93655,1,0,0:0:0:0:
256,192,93867,1,2,0:0:0:0:
256,192,93919,1,2,0:0:0:0:
256,192,93971,1,2,0:0:0:0:
256,192,94078,1,0,0:0:0:0:
256,192,94289,1,2,0:0:0:0:
256,192,94499,1,0,0:0:0:0:
256,192,94605,1,0,0:0:0:0:
256,192,94711,1,6,0:0:0:0:
256,192,94922,1,6,0:0:0:0:
256,192,95133,1,6,0:0:0:0:
256,192,95344,1,6,0:0:0:0:
256,192,95555,1,6,0:0:0:0:
256,192,95766,1,6,0:0:0:0:
256,192,95978,1,6,0:0:0:0:
256,192,96189,1,6,0:0:0:0:
256,192,98091,1,0,0:0:0:0:
256,192,98936,1,2,0:0:0:0:
256,192,99781,1,0,0:0:0:0:
256,192,100209,1,0,0:0:0:0:
256,192,100638,1,2,0:0:0:0:
256,192,101066,1,2,0:0:0:0:
256,192,101495,1,0,0:0:0:0:
256,192,101709,1,2,0:0:0:0:
256,192,101923,1,2,0:0:0:0:
256,192,102138,1,0,0:0:0:0:
256,192,102352,1,2,0:0:0:0:
256,192,102566,1,2,0:0:0:0:
256,192,102781,1,0,0:0:0:0:
256,192,102995,1,2,0:0:0:0:
256,192,103209,1,0,0:0:0:0:
256,192,104042,1,2,0:0:0:0:
256,192,104875,1,0,0:0:0:0:
256,192,105709,1,2,0:0:0:0:
256,192,106542,1,0,0:0:0:0:
256,192,106970,1,0,0:0:0:0:
256,192,107399,1,2,0:0:0:0:
256,192,107827,1,2,0:0:0:0:
256,192,108256,1,0,0:0:0:0:
256,192,108470,1,2,0:0:0:0:
256,192,108684,1,2,0:0:0:0:
256,192,108899,1,0,0:0:0:0:
256,192,109113,1,2,0:0:0:0:
256,192,109327,1,2,0:0:0:0:
256,192,109542,1,0,0:0:0:0:
256,192,109756,1,2,0:0:0:0:
256,192,109970,1,0,0:0:0:0:
256,192,110803,1,2,0:0:0:0:
256,192,111636,1,0,0:0:0:0:
256,192,111845,1,0,0:0:0:0:
256,192,112053,1,2,0:0:0:0:
256,192,112261,1,2,0:0:0:0:
256,192,112470,1,2,0:0:0:0:
256,192,112678,1,0,0:0:0:0:
256,192,112886,1,0,0:0:0:0:
256,192,113095,1,2,0:0:0:0:
256,192,113303,1,0,0:0:0:0:
256,192,113936,1,0,0:0:0:0:
256,192,114359,1,0,0:0:0:0:
256,192,114570,1,0,0:0:0:0:
256,192,114781,1,2,0:0:0:0:
256,192,115204,1,0,0:0:0:0:
256,192,115415,1,2,0:0:0:0:
256,192,115837,1,0,0:0:0:0:
256,192,116471,1,0,0:0:0:0:
256,192,116894,1,2,0:0:0:0:
256,192,117105,1,0,0:0:0:0:
256,192,117528,1,0,0:0:0:0:
256,192,118373,1,0,0:0:0:0:
256,192,118584,1,0,0:0:0:0:
256,192,118796,1,2,0:0:0:0:
256,192,119007,1,2,0:0:0:0:
256,192,119218,1,2,0:0:0:0:
256,192,119429,1,0,0:0:0:0:
256,192,119641,1,0,0:0:0:0:
256,192,119852,1,2,0:0:0:0:
256,192,120063,1,0,0:0:0:0:
256,192,120697,1,0,0:0:0:0:
256,192,121120,1,0,0:0:0:0:
256,192,121331,1,0,0:0:0:0:
256,192,121542,1,2,0:0:0:0:
256,192,121965,1,0,0:0:0:0:
256,192,122176,1,2,0:0:0:0:
256,192,122387,1,2,0:0:0:0:
256,192,122598,1,0,0:0:0:0:
256,192,122809,1,0,0:0:0:0:
256,192,123021,1,2,0:0:0:0:
256,192,123232,1,0,0:0:0:0:
256,192,124711,1,6,0:0:0:0:
256,192,125133,1,4,0:0:0:0:
256,192,125415,1,4,0:0:0:0:
256,192,125697,1,4,0:0:0:0:
256,192,125978,1,4,0:0:0:0:
256,192,126401,1,0,0:0:0:0:
256,192,126542,1,2,0:0:0:0:
256,192,126682,1,2,0:0:0:0:
256,192,126823,1,4,0:0:0:0:
256,192,127105,1,4,0:0:0:0:
256,192,127387,1,4,0:0:0:0:
256,192,127668,1,4,0:0:0:0:
256,192,128091,1,2,0:0:0:0:
256,192,128232,1,2,0:0:0:0:
256,192,128372,1,0,0:0:0:0:
256,192,128513,2,0,L|480:192,1,214.666670761108
256,192,128936,1,0,0:0:0:0:
256,192,129077,1,2,0:0:0:0:
256,192,129218,1,2,0:0:0:0:
256,192,129358,2,0,L|480:192,1,214.666670761108
256,192,129781,1,0,0:0:0:0:
256,192,129922,1,2,0:0:0:0:
256,192,129992,1,0,0:0:0:0:
256,192,130063,1,2,0:0:0:0:
256,192,130203,2,0,L|480:192,1,214.666670761108
256,192,130626,1,0,0:0:0:0:
256,192,130767,1,2,0:0:0:0:
256,192,130838,1,2,0:0:0:0:
256,192,130908,1,2,0:0:0:0:
256,192,131049,2,0,L|480:192,1,214.666670761108
256,192,131471,1,0,0:0:0:0:
256,192,131612,1,0,0:0:0:0:
256,192,131753,1,2,0:0:0:0:
256,192,131894,1,4,0:0:0:0:
256,192,132175,1,4,0:0:0:0:
256,192,132457,1,4,0:0:0:0:
256,192,132739,1,4,0:0:0:0:
256,192,133161,1,0,0:0:0:0:
256,192,133302,1,2,0:0:0:0:
256,192,133443,1,2,0:0:0:0:
256,192,133584,1,4,0:0:0:0:
256,192,133865,1,4,0:0:0:0:
256,192,134147,1,4,0:0:0:0:
256,192,134429,1,4,0:0:0:0:
256,192,134851,1,2,0:0:0:0:
256,192,134992,1,2,0:0:0:0:
256,192,135133,1,0,0:0:0:0:
256,192,135274,8,0,137387,0:0:0:0:
256,192,137810,5,0,0:0:0:0:
256,192,138020,1,0,0:0:0:0:
256,192,138232,1,0,0:0:0:0:
256,192,138443,1,0,0:0:0:0:
256,192,138654,1,2,0:0:0:0:
256,192,138865,1,0,0:0:0:0:
256,192,139077,1,0,0:0:0:0:
256,192,139499,1,0,0:0:0:0:
256,192,139922,1,0,0:0:0:0:
256,192,140345,1,2,0:0:0:0:
256,192,140556,1,0,0:0:0:0:
256,192,140767,1,0,0:0:0:0:
256,192,141190,1,0,0:0:0:0:
256,192,141612,1,0,0:0:0:0:
256,192,141824,1,0,0:0:0:0:
256,192,142035,1,2,0:0:0:0:
256,192,142246,1,0,0:0:0:0:
256,192,142458,1,0,0:0:0:0:
256,192,142880,1,0,0:0:0:0:
256,192,143303,1,0,0:0:0:0:
256,192,143724,1,2,0:0:0:0:
256,192,143936,1,0,0:0:0:0:
256,192,144148,1,0,0:0:0:0:
256,192,144570,1,0,0:0:0:0:
256,192,144993,1,6,0:0:0:0:
256,192,145204,1,0,0:0:0:0:
256,192,145310,1,0,0:0:0:0:
256,192,145415,1,2,0:0:0:0:
256,192,145626,1,0,0:0:0:0:
256,192,145837,1,2,0:0:0:0:
256,192,145943,1,2,0:0:0:0:
256,192,146048,1,0,0:0:0:0:
256,192,146260,1,2,0:0:0:0:
256,192,146471,1,0,0:0:0:0:
256,192,146577,1,0,0:0:0:0:
256,192,146682,1,2,0:0:0:0:
256,192,146788,1,2,0:0:0:0:
256,192,146893,1,0,0:0:0:0:
256,192,147105,1,2,0:0:0:0:
256,192,147316,1,0,0:0:0:0:
256,192,147527,1,2,0:0:0:0:
256,192,147633,1,2,0:0:0:0:
256,192,147738,1,0,0:0:0:0:
256,192,147950,1,2,0:0:0:0:
256,192,148161,1,0,0:0:0:0:
256,192,148267,1,0,0:0:0:0:
256,192,148372,1,2,0:0:0:0:
256,192,148478,1,2,0:0:0:0:
256,192,148584,1,0,0:0:0:0:
256,192,148795,1,2,0:0:0:0:
256,192,148901,1,0,0:0:0:0:
256,192,149006,1,2,0:0:0:0:
256,192,149112,1,2,0:0:0:0:
256,192,149217,1,0,0:0:0:0:
256,192,149323,1,2,0:0:0:0:
256,192,149429,1,0,0:0:0:0:
256,192,149534,1,0,0:0:0:0:
256,192,149640,1,2,0:0:0:0:
256,192,149746,1,2,0:0:0:0:
256,192,149851,1,0,0:0:0:0:
256,192,149957,1,2,0:0:0:0:
256,192,150062,1,0,0:0:0:0:
256,192,150168,1,2,0:0:0:0:
256,192,150274,1,2,0:0:0:0:
256,192,150379,1,2,0:0:0:0:
256,192,150485,1,0,0:0:0:0:
256,192,150697,1,2,0:0:0:0:
256,192,150908,1,0,0:0:0:0:
256,192,151120,1,2,0:0:0:0:
256,192,151331,1,0,0:0:0:0:
256,192,151542,1,2,0:0:0:0:
256,192,152175,1,2,0:0:0:0:
256,192,152228,1,2,0:0:0:0:
256,192,152281,1,0,0:0:0:0:
256,192,152334,1,0,0:0:0:0:
256,192,152387,1,2,0:0:0:0:
256,192,152492,1,2,0:0:0:0:
256,192,152598,1,0,0:0:0:0:
256,192,152703,1,2,0:0:0:0:
256,192,152756,1,2,0:0:0:0:
256,192,152809,1,0,0:0:0:0:
256,192,152862,1,0,0:0:0:0:
256,192,152915,1,0,0:0:0:0:
256,192,152968,1,0,0:0:0:0:
256,192,153020,1,2,0:0:0:0:
256,192,153232,1,2,0:0:0:0:
256,192,153443,1,0,0:0:0:0:
256,192,153654,1,0,0:0:0:0:
256,192,153760,1,0,0:0:0:0:
256,192,153865,1,2,0:0:0:0:
256,192,153936,1,2,0:0:0:0:
256,192,154007,1,0,0:0:0:0:
256,192,154077,1,2,0:0:0:0:
256,192,154147,1,0,0:0:0:0:
256,192,154217,1,0,0:0:0:0:
256,192,154288,1,2,0:0:0:0:
256,192,154358,1,2,0:0:0:0:
256,192,154429,1,2,0:0:0:0:
256,192,154499,1,0,0:0:0:0:
256,192,154570,1,0,0:0:0:0:
256,192,154640,1,0,0:0:0:0:
256,192,154710,1,2,0:0:0:0:
256,192,154922,1,0,0:0:0:0:
256,192,155133,1,2,0:0:0:0:
256,192,155203,1,0,0:0:0:0:
256,192,155274,1,0,0:0:0:0:
256,192,155344,1,2,0:0:0:0:
256,192,155415,1,0,0:0:0:0:
256,192,155485,1,0,0:0:0:0:
256,192,155555,1,2,0:0:0:0:
256,192,155661,1,0,0:0:0:0:
256,192,155714,1,2,0:0:0:0:
256,192,155767,1,0,0:0:0:0:
256,192,155872,1,0,0:0:0:0:
256,192,155978,1,2,0:0:0:0:
256,192,156031,1,0,0:0:0:0:
256,192,156084,1,0,0:0:0:0:
256,192,156136,1,0,0:0:0:0:
256,192,156189,1,2,0:0:0:0:
256,192,156295,1,2,0:0:0:0:
256,192,156401,1,0,0:0:0:0:
256,192,156506,1,2,0:0:0:0:
256,192,156559,1,2,0:0:0:0:
256,192,156612,1,0,0:0:0:0:
256,192,156717,1,0,0:0:0:0:
256,192,156823,1,2,0:0:0:0:
256,192,156929,1,0,0:0:0:0:
256,192,156982,1,0,0:0:0:0:
256,192,157034,1,2,0:0:0:0:
256,192,157087,1,2,0:0:0:0:
256,192,157140,1,0,0:0:0:0:
256,192,157193,1,0,0:0:0:0:
256,192,157246,1,2,0:0:0:0:
256,192,157457,1,0,0:0:0:0:
256,192,157510,1,0,0:0:0:0:
256,192,157562,1,0,0:0:0:0:
256,192,157615,1,0,0:0:0:0:
256,192,157668,1,2,0:0:0:0:
256,192,157879,1,2,0:0:0:0:
256,192,157932,1,2,0:0:0:0:
256,192,157985,1,2,0:0:0:0:
256,192,158038,1,2,0:0:0:0:
256,192,158091,1,0,0:0:0:0:
256,192,158196,1,0,0:0:0:0:
256,192,158302,1,2,0:0:0:0:
256,192,158408,1,2,0:0:0:0:
256,192,158513,1,0,0:0:0:0:
256,192,158724,1,0,0:0:0:0:
256,192,158936,1,2,0:0:0:0:
256,192,158989,1,2,0:0:0:0:
256,192,159042,1,0,0:0:0:0:
256,192,159095,1,0,0:0:0:0:
256,192,159147,1,0,0:0:0:0:
256,192,159253,1,2,0:0:0:0:
256,192,159359,1,0,0:0:0:0:
256,192,159464,1,2,0:0:0:0:
256,192,159517,1,2,0:0:0:0:
256,192,159570,1,0,0:0:0:0:
256,192,159623,1,2,0:0:0:0:
256,192,159676,1,0,0:0:0:0:
256,192,159728,1,0,0:0:0:0:
256,192,159781,1,2,0:0:0:0:
256,192,159993,1,2,0:0:0:0:
256,192,160204,1,0,0:0:0:0:
256,192,160415,1,0,0:0:0:0:
256,192,160521,1,0,0:0:0:0:
256,192,160626,1,2,0:0:0:0:
256,192,160697,1,2,0:0:0:0:
256,192,160767,1,2,0:0:0:0:
256,192,160838,1,0,0:0:0:0:
256,192,160908,1,0,0:0:0:0:
256,192,160978,1,0,0:0:0:0:
256,192,161049,1,2,0:0:0:0:
256,192,161119,1,2,0:0:0:0:
256,192,161190,1,0,0:0:0:0:
256,192,161260,1,2,0:0:0:0:
256,192,161331,1,0,0:0:0:0:
256,192,161401,1,0,0:0:0:0:
256,192,161471,1,2,0:0:0:0:
256,192,161683,1,0,0:0:0:0:
256,192,161894,1,2,0:0:0:0:
256,192,161964,1,0,0:0:0:0:
256,192,162035,1,0,0:0:0:0:
256,192,162105,1,2,0:0:0:0:
256,192,162176,1,0,0:0:0:0:
256,192,162246,1,0,0:0:0:0:
256,192,162316,1,2,0:0:0:0:
256,192,162422,1,0,0:0:0:0:
256,192,162475,1,2,0:0:0:0:
256,192,162527,1,2,0:0:0:0:
256,192,162633,1,0,0:0:0:0:
256,192,162739,1,2,0:0:0:0:
256,192,162792,1,2,0:0:0:0:
256,192,162845,1,0,0:0:0:0:
256,192,162897,1,0,0:0:0:0:
256,192,162950,1,2,0:0:0:0:
256,192,163056,1,0,0:0:0:0:
256,192,163162,1,2,0:0:0:0:
256,192,163267,1,2,0:0:0:0:
256,192,163320,1,2,0:0:0:0:
256,192,163373,1,0,0:0:0:0:
256,192,163478,1,0,0:0:0:0:
256,192,163584,1,2,0:0:0:0:
256,192,163690,1,2,0:0:0:0:
256,192,163743,1,2,0:0:0:0:
256,192,163795,1,0,0:0:0:0:
256,192,163848,1,0,0:0:0:0:
256,192,163901,1,2,0:0:0:0:
256,192,163954,1,2,0:0:0:0:
256,192,164006,1,0,0:0:0:0:
256,192,164217,1,2,0:0:0:0:
256,192,164270,1,2,0:0:0:0:
256,192,164323,1,0,0:0:0:0:
256,192,164375,1,0,0:0:0:0:
256,192,164429,1,2,0:0:0:0:
256,192,164640,1,0,0:0:0:0:
256,192,164693,1,0,0:0:0:0:
256,192,164745,1,2,0:0:0:0:
256,192,164798,1,2,0:0:0:0:
256,192,164851,1,0,0:0:0:0:
256,192,164957,1,0,0:0:0:0:
256,192,165063,1,2,0:0:0:0:
256,192,165169,1,0,0:0:0:0:
256,192,165274,1,2,0:0:0:0:
256,192,165696,1,2,0:0:0:0:
256,192,165749,1,0,0:0:0:0:
256,192,165803,1,2,0:0:0:0:
256,192,165855,1,0,0:0:0:0:
256,192,165908,1,2,0:0:0:0:
256,192,166119,1,2,0:0:0:0:
256,192,166172,1,2,0:0:0:0:
256,192,166224,1,2,0:0:0:0:
256,192,166277,1,2,0:0:0:0:
256,192,166331,1,0,0:0:0:0:
256,192,166383,1,0,0:0:0:0:
256,192,166436,1,0,0:0:0:0:
256,192,166489,1,0,0:0:0:0:
256,192,166542,1,2,0:0:0:0:
256,192,166753,1,2,0:0:0:0:
256,192,166964,1,0,0:0:0:0:
256,192,167175,1,0,0:0:0:0:
256,192,167281,1,0,0:0:0:0:
256,192,167386,1,2,0:0:0:0:
256,192,167457,1,2,0:0:0:0:
256,192,167527,1,0,0:0:0:0:
256,192,167598,1,2,0:0:0:0:
256,192,167668,1,0,0:0:0:0:
256,192,167738,1,0,0:0:0:0:
256,192,167809,1,2,0:0:0:0:
256,192,167879,1,2,0:0:0:0:
256,192,167950,1,2,0:0:0:0:
256,192,168020,1,0,0:0:0:0:
256,192,168091,1,0,0:0:0:0:
256,192,168161,1,0,0:0:0:0:
256,192,168231,1,2,0:0:0:0:
256,192,168443,1,0,0:0:0:0:
256,192,168654,1,2,0:0:0:0:
256,192,168724,1,0,0:0:0:0:
256,192,168795,1,0,0:0:0:0:
256,192,168865,1,2,0:0:0:0:
256,192,168936,1,0,0:0:0:0:
256,192,169006,1,0,0:0:0:0:
256,192,169076,1,2,0:0:0:0:
256,192,169182,1,0,0:0:0:0:
256,192,169235,1,2,0:0:0:0:
256,192,169288,1,0,0:0:0:0:
256,192,169393,1,0,0:0:0:0:
256,192,169499,1,2,0:0:0:0:
256,192,169552,1,2,0:0:0:0:
256,192,169605,1,2,0:0:0:0:
256,192,169657,1,2,0:0:0:0:
256,192,169710,1,0,0:0:0:0:
256,192,169816,1,2,0:0:0:0:
256,192,169922,1,2,0:0:0:0:
256,192,170027,1,0,0:0:0:0:
256,192,170080,1,0,0:0:0:0:
256,192,170133,1,2,0:0:0:0:
256,192,170238,1,0,0:0:0:0:
256,192,170344,1,2,0:0:0:0:
256,192,170450,1,0,0:0:0:0:
256,192,170503,1,0,0:0:0:0:
256,192,170555,1,2,0:0:0:0:
256,192,170608,1,0,0:0:0:0:
256,192,170661,1,2,0:0:0:0:
256,192,170714,1,2,0:0:0:0:
256,192,170767,1,0,0:0:0:0:
256,192,170978,1,0,0:0:0:0:
256,192,171031,1,0,0:0:0:0:
256,192,171083,1,0,0:0:0:0:
256,192,171136,1,0,0:0:0:0:
256,192,171189,1,2,0:0:0:0:
256,192,171400,1,2,0:0:0:0:
256,192,171453,1,2,0:0:0:0:
256,192,171506,1,2,0:0:0:0:
256,192,171559,1,2,0:0:0:0:
256,192,171612,1,0,0:0:0:0:
256,192,171717,1,0,0:0:0:0:
256,192,171823,1,2,0:0:0:0:
256,192,171929,1,2,0:0:0:0:
256,192,172034,1,0,0:0:0:0:
256,192,172246,1,2,0:0:0:0:
256,192,172457,1,0,0:0:0:0:
256,192,172510,1,0,0:0:0:0:
256,192,172562,1,2,0:0:0:0:
256,192,172616,1,0,0:0:0:0:
256,192,172668,1,2,0:0:0:0:
256,192,172774,1,2,0:0:0:0:
256,192,172879,1,0,0:0:0:0:
256,192,172985,1,2,0:0:0:0:
256,192,173038,1,2,0:0:0:0:
256,192,173091,1,0,0:0:0:0:
256,192,173143,1,2,0:0:0:0:
256,192,173196,1,0,0:0:0:0:
256,192,173249,1,0,0:0:0:0:
256,192,173302,1,2,0:0:0:0:
256,192,173513,1,0,0:0:0:0:
256,192,173619,1,2,0:0:0:0:
256,192,173724,1,0,0:0:0:0:
256,192,173936,1,0,0:0:0:0:
256,192,174041,1,0,0:0:0:0:
256,192,174147,1,2,0:0:0:0:
256,192,174217,1,2,0:0:0:0:
256,192,174288,1,0,0:0:0:0:
256,192,174358,1,2,0:0:0:0:
256,192,174429,1,0,0:0:0:0:
256,192,174499,1,0,0:0:0:0:
256,192,174569,1,2,0:0:0:0:
256,192,174640,1,2,0:0:0:0:
256,192,174710,1,2,0:0:0:0:
256,192,174781,1,0,0:0:0:0:
256,192,174851,1,0,0:0:0:0:
256,192,174922,1,0,0:0:0:0:
256,192,174992,1,2,0:0:0:0:
256,192,175203,1,0,0:0:0:0:
256,192,175309,1,2,0:0:0:0:
256,192,175414,1,0,0:0:0:0:
256,192,175520,1,2,0:0:0:0:
256,192,175626,1,0,0:0:0:0:
256,192,175837,1,6,0:0:0:0:
256,192,176048,1,6,0:0:0:0:
256,192,176260,1,6,0:0:0:0:
256,192,176471,1,6,0:0:0:0:
256,192,176682,1,6,0:0:0:0:
256,192,176893,1,6,0:0:0:0:
256,192,177105,1,6,0:0:0:0:
256,192,177316,1,6,0:0:0:0:
256,192,179218,1,0,0:0:0:0:
256,192,179641,1,2,0:0:0:0:
256,192,180063,1,0,0:0:0:0:
256,192,180486,1,2,0:0:0:0:
256,192,180803,1,2,0:0:0:0:
256,192,180908,1,0,0:0:0:0:
256,192,181119,1,0,0:0:0:0:
256,192,181331,1,2,0:0:0:0:
256,192,181753,1,0,0:0:0:0:
256,192,181964,1,0,0:0:0:0:
256,192,182070,1,0,0:0:0:0:
256,192,182176,1,2,0:0:0:0:
256,192,182493,1,2,0:0:0:0:
256,192,182598,1,0,0:0:0:0:
256,192,182810,1,0,0:0:0:0:
256,192,183021,1,2,0:0:0:0:
256,192,183232,1,2,0:0:0:0:
256,192,183338,1,2,0:0:0:0:
256,192,183443,1,0,0:0:0:0:
256,192,183655,1,0,0:0:0:0:
256,192,183866,1,2,0:0:0:0:
256,192,184183,1,2,0:0:0:0:
256,192,184288,1,0,0:0:0:0:
256,192,184500,1,0,0:0:0:0:
256,192,184711,1,2,0:0:0:0:
256,192,184922,1,0,0:0:0:0:
256,192,185028,1,0,0:0:0:0:
256,192,185133,1,2,0:0:0:0:
256,192,185345,1,0,0:0:0:0:
256,192,185450,1,0,0:0:0:0:
256,192,185556,1,2,0:0:0:0:
256,192,185662,1,0,0:0:0:0:
256,192,185767,1,2,0:0:0:0:
256,192,185873,1,2,0:0:0:0:
256,192,185979,1,0,0:0:0:0:
256,192,186401,1,2,0:0:0:0:
256,192,186612,1,2,0:0:0:0:
256,192,186718,1,2,0:0:0:0:
256,192,186824,1,0,0:0:0:0:
256,192,187035,1,0,0:0:0:0:
256,192,187246,1,2,0:0:0:0:
256,192,187563,1,2,0:0:0:0:
256,192,187669,1,0,0:0:0:0:
256,192,187880,1,0,0:0:0:0:
256,192,188091,1,2,0:0:0:0:
256,192,188514,1,0,0:0:0:0:
256,192,188725,1,0,0:0:0:0:
256,192,188831,1,0,0:0:0:0:
256,192,188936,1,2,0:0:0:0:
256,192,189042,1,2,0:0:0:0:
256,192,189148,1,0,0:0:0:0:
256,192,189253,1,2,0:0:0:0:
256,192,189359,1,0,0:0:0:0:
256,192,189570,1,0,0:0:0:0:
256,192,189781,1,2,0:0:0:0:
256,192,189993,1,2,0:0:0:0:
256,192,190098,1,2,0:0:0:0:
256,192,190204,1,0,0:0:0:0:
256,192,190415,1,0,0:0:0:0:
256,192,190626,1,2,0:0:0:0:
256,192,190838,1,2,0:0:0:0:
256,192,190908,1,0,0:0:0:0:
256,192,190979,1,0,0:0:0:0:
256,192,191049,1,2,0:0:0:0:
256,192,191260,1,2,0:0:0:0:
256,192,191331,1,2,0:0:0:0:
256,192,191401,1,2,0:0:0:0:
256,192,191472,1,0,0:0:0:0:
256,192,191683,1,2,0:0:0:0:
256,192,191894,1,0,0:0:0:0:
256,192,192739,1,0,0:0:0:0:
256,192,192950,1,0,0:0:0:0:
256,192,193162,1,2,0:0:0:0:
256,192,193584,1,0,0:0:0:0:
256,192,193690,1,2,0:0:0:0:
256,192,193795,1,0,0:0:0:0:
256,192,194007,1,2,0:0:0:0:
256,192,194324,1,2,0:0:0:0:
256,192,194429,1,0,0:0:0:0:
256,192,194640,1,0,0:0:0:0:
256,192,194852,1,2,0:0:0:0:
256,192,195274,1,0,0:0:0:0:
256,192,195485,1,0,0:0:0:0:
256,192,195591,1,0,0:0:0:0:
256,192,195697,1,2,0:0:0:0:
256,192,196014,1,2,0:0:0:0:
256,192,196119,1,0,0:0:0:0:
256,192,196331,1,0,0:0:0:0:
256,192,196542,1,2,0:0:0:0:
256,192,196753,1,2,0:0:0:0:
256,192,196859,1,2,0:0:0:0:
256,192,196964,1,0,0:0:0:0:
256,192,197176,1,0,0:0:0:0:
256,192,197387,1,2,0:0:0:0:
256,192,197598,1,0,0:0:0:0:
256,192,197704,1,2,0:0:0:0:
256,192,197809,1,0,0:0:0:0:
256,192,198021,1,0,0:0:0:0:
256,192,198232,1,2,0:0:0:0:
256,192,198443,1,0,0:0:0:0:
256,192,198549,1,0,0:0:0:0:
256,192,198654,1,2,0:0:0:0:
256,192,198866,1,0,0:0:0:0:
256,192,198971,1,0,0:0:0:0:
256,192,199077,1,2,0:0:0:0:
256,192,199183,1,0,0:0:0:0:
256,192,199288,1,2,0:0:0:0:
256,192,199394,1,2,0:0:0:0:
256,192,199500,1,0,0:0:0:0:
256,192,199711,1,0,0:0:0:0:
256,192,199922,1,2,0:0:0:0:
256,192,200133,1,2,0:0:0:0:
256,192,200239,1,2,0:0:0:0:
256,192,200345,1,0,0:0:0:0:
256,192,200556,1,0,0:0:0:0:
256,192,200767,1,2,0:0:0:0:
256,192,200979,1,0,0:0:0:0:
256,192,201084,1,2,0:0:0:0:
256,192,201190,1,0,0:0:0:0:
256,192,201401,1,0,0:0:0:0:
256,192,201612,1,2,0:0:0:0:
256,192,201824,1,0,0:0:0:0:
256,192,201929,1,0,0:0:0:0:
256,192,202035,1,0,0:0:0:0:
256,192,202246,1,0,0:0:0:0:
256,192,202352,1,0,0:0:0:0:
256,192,202457,1,2,0:0:0:0:
256,192,202563,1,2,0:0:0:0:
256,192,202669,1,0,0:0:0:0:
256,192,202774,1,0,0:0:0:0:
256,192,202880,1,6,0:0:0:0:
256,192,203091,1,6,0:0:0:0:
256,192,203303,1,6,0:0:0:0:
256,192,203514,1,6,0:0:0:0:
256,192,203725,1,6,0:0:0:0:
256,192,203936,1,6,0:0:0:0:
256,192,204147,1,6,0:0:0:0:
256,192,204358,1,6,0:0:0:0:
256,192,206260,1,0,0:0:0:0:
