osu file format v14

[General]
AudioFilename: Pitty - Na Sua Estante.mp3
AudioLeadIn: 0
PreviewTime: 149067
Countdown: 0
SampleSet: Soft
StackLeniency: 0.7
Mode: 0
LetterboxInBreaks: 1
WidescreenStoryboard: 0

[Editor]
Bookmarks: 67275,67982,127275,127841
DistanceSpacing: 1.6
BeatDivisor: 4
GridSize: 4
TimelineZoom: 1

[Metadata]
Title:Na Sua Estante
TitleUnicode:Na Sua Estante
Artist:Pitty
ArtistUnicode:Pitty
Creator:iHatePeople
Version:No Break
Source:Anacrônico
Tags:Single Rock Alternativo Soft Alternate PT BR Português Suave
BeatmapID:702672
BeatmapSetID:315089

[Difficulty]
HPDrainRate:6
CircleSize:4
OverallDifficulty:7
ApproachRate:8
SliderMultiplier:2
SliderTickRate:2

[Events]
//Background and Video events
0,0,"for_sedda___zelda_and_dark_souls_ep_cover_by_mintyfreshmangos-d7nerrq.jpg",0,0
//Break Periods
//Storyboard Layer 0 (Background)
//Storyboard Layer 1 (Fail)
//Storyboard Layer 2 (Pass)
//Storyboard Layer 3 (Foreground)
//Storyboard Sound Samples

[TimingPoints]
19728,566.037735849057,4,2,0,50,1,0
19728,-100,4,2,0,50,0,0
65011,-100,4,2,0,60,0,1
101237,-100,4,2,0,30,0,0
108029,-100,4,2,0,60,0,0
148784,-100,4,2,0,80,0,1
149067,-100,4,2,0,60,0,1
181897,-100,4,2,0,50,0,0
185011,-100,4,2,0,50,0,1
212180,-100,4,2,0,50,0,0

[HitObjects]
48,192,20011,6,0,L|160:192,1,100
208,272,20577,2,0,P|263:285|305:271,1,100,8|0,0:0|0:0,0:0:0:0:
256,184,21143,1,0,0:0:0:0:
208,96,21426,2,0,P|255:82|303:95,1,100,8|0,0:0|0:0,0:0:0:0:
460,144,21992,2,0,P|408:160|348:136,1,100,8|0,0:0|0:0,0:0:0:0:
412,292,22558,5,0,0:0:0:0:
412,292,22841,2,0,P|324:324|356:240,1,200,8|0,0:0|0:0,0:0:0:0:
160,160,23690,1,8,0:0:0:0:
208,284,23973,5,0,0:0:0:0:
208,284,24256,2,0,P|153:298|97:274,1,100,8|0,0:0|0:0,0:0:0:0:
240,208,24822,2,0,P|288:204|361:210,1,100,0|8,0:0|0:0,0:0:0:0:
464,124,25388,1,0,0:0:0:0:
344,36,25671,2,0,P|295:38|245:34,1,100,0|8,0:0|0:0,0:0:0:0:
96,12,26237,1,0,0:0:0:0:
44,152,26520,2,0,P|92:166|139:155,1,100,8|0,0:0|0:0,0:0:0:0:
256,264,27086,2,0,L|256:164,1,100,0|8,0:0|0:0,0:0:0:0:
128,192,27652,5,2,0:0:0:0:
256,80,27935,1,2,0:0:0:0:
368,192,28218,1,2,0:0:0:0:
256,304,28501,1,2,0:0:0:0:
158,279,28784,6,0,P|98:293|43:257,1,100,8|0,0:0|0:0,0:0:0:0:
112,200,29350,1,0,0:0:0:0:
171,125,29633,2,0,P|210:90|264:88,1,100,8|0,0:0|0:0,0:0:0:0:
248,184,30199,1,0,0:0:0:0:
400,272,30765,6,0,P|368:320|304:320,1,100,0|8,0:0|0:0,0:0:0:0:
256,256,31331,1,0,0:0:0:0:
182,328,31614,2,0,P|135:314|112:272,1,100,0|8,0:0|0:0,0:0:0:0:
184,188,32180,1,0,0:0:0:0:
111,112,32463,2,0,P|135:69|182:56,1,100,0|8,0:0|0:0,0:0:0:0:
292,68,33029,5,0,0:0:0:0:
376,140,33312,2,0,P|414:109|462:93,1,100,8|0,0:0|0:0,0:0:0:0:
466,287,33878,2,0,P|419:271|371:227,1,100,0|8,0:0|0:0,0:0:0:0:
272,272,34444,1,0,0:0:0:0:
160,240,34728,1,0,0:0:0:0:
152,144,35011,2,0,P|197:125|216:80,1,100,8|0,0:0|0:0,0:0:0:0:
296,80,35577,2,0,P|315:125|360:144,1,100,8|0,0:0|0:0,0:0:0:0:
300,208,36143,2,0,P|255:189|210:208,1,100,0|8,0:0|0:0,0:0:0:0:
196,280,36709,5,2,0:0:0:0:
316,280,36992,1,2,0:0:0:0:
356,168,37275,1,10,0:0:0:0:
256,100,37558,1,2,0:0:0:0:
156,168,37841,1,2,0:0:0:0:
87,259,38124,6,0,P|127:295|212:296,1,100
256,88,38690,2,0,L|256:208,1,100,8|0,0:0|0:0,0:0:0:0:
425,259,39256,2,0,P|385:295|300:296,1,100,0|8,0:0|0:0,0:0:0:0:
256,128,39822,1,0,0:0:0:0:
152,68,40105,1,8,0:0:0:0:
44,120,40388,5,0,0:0:0:0:
176,168,40671,1,0,0:0:0:0:
170,285,40954,2,0,P|280:326|348:278,1,200,8|0,0:0|0:0,0:0:0:0:
256,152,41803,1,8,0:0:0:0:
472,24,42652,5,0,0:0:0:0:
424,144,42935,2,0,P|368:184|320:184,1,100,0|8,0:0|0:0,0:0:0:0:
304,296,43501,2,0,P|255:287|191:303,1,100
173,186,44067,2,0,P|124:176|88:144,1,100,8|0,0:0|0:0,0:0:0:0:
256,48,44633,1,8,0:0:0:0:
208,312,44916,6,0,P|256:296|303:316,1,100
376,288,45482,2,0,P|376:344|344:384,1,100,8|0,0:0|0:0,0:0:0:0:
160,378,46048,2,0,P|133:337|136:288,1,100,0|8,0:0|0:0,0:0:0:0:
24,80,46614,5,0,0:0:0:0:
100,144,46897,2,0,P|140:168|212:176,1,100,8|0,0:0|0:0,0:0:0:0:
344,184,47463,1,0,0:0:0:0:
264,48,47746,1,8,0:0:0:0:
192,177,48029,2,0,P|188:224|204:276,1,100
336,248,48595,5,8,0:0:0:0:
88,288,48878,2,0,P|118:327|174:343,1,100,0|8,0:0|0:0,0:0:0:0:
176,248,49444,1,0,0:0:0:0:
424,288,49728,2,0,P|394:327|338:343,1,100,0|8,0:0|0:0,0:0:0:0:
336,248,50294,1,0,0:0:0:0:
144,181,50577,1,0,0:0:0:0:
344,112,50860,1,8,0:0:0:0:
144,181,51143,6,0,P|178:215|186:264,1,100,0|8,0:0|0:0,0:0:0:0:
168,112,51709,2,0,B|200:128|216:144|216:144|256:120|296:144|296:144|312:128|344:112,1,200,0|8,0:0|0:0,0:0:0:0:
368,181,52558,2,0,P|331:221|327:273,1,100
256,208,53124,1,8,0:0:0:0:
256,60,53407,5,0,0:0:0:0:
360,216,53690,2,0,P|304:256|296:296,1,100,8|0,0:0|0:0,0:0:0:0:
152,216,54256,2,0,P|208:256|216:296,1,100,0|8,0:0|0:0,0:0:0:0:
301,41,54822,2,0,P|255:24|209:41,1,100
256,200,55388,2,0,L|256:304,2,100,8|0|4,0:0|0:0|0:0,0:0:0:0:
256,200,56520,5,0,0:0:0:0:
152,152,56803,2,0,P|140:200|156:256,1,100,8|0,0:0|0:0,0:0:0:0:
360,152,57369,2,0,P|372:200|356:256,1,100,8|0,0:0|0:0,0:0:0:0:
256,32,57935,1,0,0:0:0:0:
347,192,58218,6,0,L|459:192,1,100,8|0,0:0|0:0,0:0:0:0:
167,192,58784,2,0,L|55:192,1,100,0|8,0:0|0:0,0:0:0:0:
392,200,59350,1,4,0:0:0:0:
256,32,59633,1,0,0:0:0:0:
112,200,59916,1,4,0:0:0:0:
392,200,60199,6,0,P|431:166|439:88,2,100,8|4|0,0:0|0:0|0:0,0:0:0:0:
120,200,61048,2,0,P|81:166|73:88,2,100,8|4|0,0:0|0:0|0:0,0:0:0:0:
256,272,61897,1,0,0:0:0:0:
200,360,62180,2,0,B|160:379|122:370|101:341,1,100,4|0,0:0|0:0,0:0:0:0:
312,360,62746,2,0,B|352:379|390:370|411:341,1,100,4|0,0:0|0:0,0:0:0:0:
256,200,63312,1,8,0:0:0:0:
160,284,63595,2,4,B|208:260|256:292|256:292|304:260|352:284,1,200
347,98,64444,5,0,0:0:0:0:
306,94,64586,1,0,0:0:0:0:
266,86,64728,1,0,0:0:0:0:
226,79,64869,1,0,0:0:0:0:
186,73,65011,1,4,0:0:0:0:
176,320,65294,6,0,P|248:296|264:248,1,100,8|0,0:0|0:0,0:0:0:0:
332,148,65860,1,8,0:0:0:0:
188,184,66143,1,0,0:0:0:0:
287,309,66426,1,0,0:0:0:0:
436,250,66709,2,0,L|460:126,1,100,8|0,0:0|0:0,0:0:0:0:
272,126,67275,1,8,0:0:0:0:
272,126,67416,1,0,0:0:0:0:
272,126,67558,6,0,B|147:144,1,100
61,282,68124,1,8,0:0:0:0:
227,349,68407,1,0,0:0:0:0:
378,251,68690,1,0,0:0:0:0:
338,75,68973,1,8,0:0:0:0:
126,179,69256,5,0,0:0:0:0:
126,179,69539,2,0,P|166:139|174:91,1,100,8|0,0:0|0:0,0:0:0:0:
96,48,70105,2,0,P|152:96|192:96,1,100,0|8,0:0|0:0,0:0:0:0:
415,48,70671,2,0,P|384:85|336:98,1,100,8|0,0:0|0:0,0:0:0:0:
385,178,71237,2,0,P|348:144|337:96,1,100,8|0,0:0|0:0,0:0:0:0:
168,288,71803,6,0,P|256:328|352:280,1,200,8|0,0:0|0:0,0:0:0:0:
116,224,72652,2,0,B|176:216|208:192|208:192|256:224|304:192|304:192|336:216|396:223,1,300,8|8,0:0|0:0,0:0:0:0:
256,128,73784,2,0,L|256:8,2,100,0|4|0,0:0|0:0|0:0,0:0:0:0:
144,224,74633,6,0,P|95:239|43:216,1,100,0|8,0:0|0:0,0:0:0:0:
256,344,75199,2,0,L|384:344,1,100
104,308,75765,1,8,0:0:0:0:
384,308,76048,1,0,0:0:0:0:
292,80,76331,2,0,P|424:112|444:180,1,200,8|0,0:0|0:0,0:0:0:0:
448,328,77180,2,0,P|424:368|352:368,1,100,8|0,0:0|0:0,0:0:0:0:
180,332,77746,1,0,0:0:0:0:
300,196,78029,5,8,0:0:0:0:
96,176,78312,1,0,0:0:0:0:
252,268,78595,2,0,P|301:283|358:260,1,100,8|0,0:0|0:0,0:0:0:0:
470,185,79161,1,0,0:0:0:0:
351,71,79444,2,0,P|302:56|245:79,1,100,8|0,0:0|0:0,0:0:0:0:
208,336,80011,5,0,0:0:0:0:
304,336,80294,1,8,0:0:0:0:
168,280,80577,1,0,0:0:0:0:
344,280,80860,1,8,0:0:0:0:
128,224,81143,1,0,0:0:0:0:
384,224,81426,1,0,0:0:0:0:
128,160,81709,5,8,0:0:0:0:
384,160,81992,1,0,0:0:0:0:
168,104,82275,1,0,0:0:0:0:
344,104,82558,1,8,0:0:0:0:
208,48,82841,1,4,0:0:0:0:
304,48,83124,1,4,0:0:0:0:
158,236,83407,6,0,P|142:190|160:144,1,100
256,12,83973,1,8,0:0:0:0:
352,144,84256,2,0,P|369:193|351:238,1,100
256,384,84822,1,8,0:0:0:0:
255,179,85105,5,0,0:0:0:0:
168,297,85388,2,0,P|114:300|54:284,1,100,8|0,0:0|0:0,0:0:0:0:
255,131,85954,1,0,0:0:0:0:
343,296,86237,2,0,P|393:299|442:290,1,100,8|0,0:0|0:0,0:0:0:0:
256,61,86803,1,0,0:0:0:0:
256,61,87086,1,8,0:0:0:0:
148,255,87369,5,0,0:0:0:0:
148,255,87652,2,0,P|203:268|315:161,1,200,8|0,0:0|0:0,0:0:0:0:
192,128,88501,1,8,0:0:0:0:
448,56,88784,2,0,P|418:159|328:192,1,200,0|8,0:0|0:0,0:0:0:0:
256,192,89633,5,0,0:0:0:0:
64,328,89916,2,0,P|94:225|184:192,1,200,8|0,0:0|0:0,0:0:0:0:
216,104,90765,2,0,B|272:140|268:208|268:208|328:240|328:240|264:312|336:360,1,300,8|8,0:0|0:0,0:0:0:0:
173,191,91897,1,4,0:0:0:0:
344,160,92180,1,4,0:0:0:0:
32,328,92746,6,0,P|112:352|144:328,1,100,0|8,0:0|0:0,0:0:0:0:
96,232,93312,2,0,P|96:168|128:128,1,100
216,208,93878,1,8,0:0:0:0:
368,64,94161,1,0,0:0:0:0:
392,184,94444,2,0,P|347:188|288:152,1,100,8|0,0:0|0:0,0:0:0:0:
344,292,95011,1,0,0:0:0:0:
172,152,95294,2,0,L|164:40,2,100,8|0|0,0:0|0:0|0:0,0:0:0:0:
283,277,96143,5,8,0:0:0:0:
416,232,96426,2,0,P|416:168|384:128,1,100,0|8,0:0|0:0,0:0:0:0:
480,328,96992,2,0,P|400:352|368:328,1,100
432,112,97558,5,8,0:0:0:0:
424,280,97841,1,0,0:0:0:0:
312,152,98124,1,0,0:0:0:0:
296,328,98407,1,8,0:0:0:0:
192,176,98690,1,0,0:0:0:0:
136,344,98973,1,8,0:0:0:0:
56,184,99256,1,0,0:0:0:0:
136,344,99539,5,0,0:0:0:0:
192,176,99822,1,8,0:0:0:0:
296,328,100105,1,0,0:0:0:0:
334,146,100388,1,0,0:0:0:0:
444,292,100671,1,8,0:0:0:0:
320,280,100954,1,0,0:0:0:0:
256,192,101237,1,8,0:0:0:0:
332,320,101520,5,0,0:0:0:0:
182,320,101803,1,0,0:0:0:0:
256,192,102086,1,8,0:0:0:0:
168,48,102369,5,0,0:0:0:0:
336,48,102652,1,0,0:0:0:0:
256,192,102935,1,8,0:0:0:0:
256,372,103218,5,0,0:0:0:0:
256,192,103501,1,8,0:0:0:0:
136,280,103784,5,0,0:0:0:0:
36,36,104067,1,0,0:0:0:0:
256,192,104350,1,8,0:0:0:0:
376,280,104633,5,0,0:0:0:0:
476,36,104916,1,0,0:0:0:0:
256,192,105199,1,8,0:0:0:0:
256,192,105482,1,0,0:0:0:0:
157,43,105765,5,8,0:0:0:0:
342,68,106048,1,8,0:0:0:0:
144,119,106331,1,8,0:0:0:0:
367,139,106614,1,8,0:0:0:0:
130,196,106897,1,8,0:0:0:0:
392,213,107180,5,8,0:0:0:0:
157,267,107463,1,8,0:0:0:0:
357,280,107746,1,8,0:0:0:0:
192,335,108029,1,12,0:0:0:0:
112,272,112558,6,0,P|184:288|224:256,1,100,8|0,0:0|0:0,0:0:0:0:
188,104,113124,2,0,P|143:80|73:126,1,100,0|8,0:0|0:0,0:0:0:0:
48,216,113690,2,0,B|96:208|96:208|112:160|136:152|136:152|176:200|176:200|128:240,1,200,0|8,0:0|0:0,0:0:0:0:
256,192,114539,1,0,0:0:0:0:
464,208,114822,2,0,B|416:200|416:200|400:152|376:144|376:144|336:192|336:192|384:232,1,200,8|0,0:0|0:0,0:0:0:0:
256,348,115671,5,8,0:0:0:0:
152,240,115954,1,0,0:0:0:0:
360,240,116237,1,0,0:0:0:0:
256,176,116520,1,8,0:0:0:0:
256,136,116661,1,0,0:0:0:0:
256,100,116803,1,0,0:0:0:0:
256,60,116944,1,0,0:0:0:0:
256,20,117086,1,8,0:0:0:0:
160,156,117369,6,0,P|212:136|260:136,1,100
415,259,117935,2,0,P|375:211|375:159,1,100,8|0,0:0|0:0,0:0:0:0:
416,12,118501,1,0,0:0:0:0:
264,48,118784,6,0,P|284:116|316:144,1,100,8|0,0:0|0:0,0:0:0:0:
353,321,119350,2,0,P|404:287|432:227,1,100,8|0,0:0|0:0,0:0:0:0:
410,217,119775,1,0,0:0:0:0:
394,180,119916,2,0,P|330:174|277:185,1,100,0|8,0:0|0:0,0:0:0:0:
129,292,120482,1,0,0:0:0:0:
327,316,120765,1,0,0:0:0:0:
54,161,121048,1,8,0:0:0:0:
236,52,121331,5,0,0:0:0:0:
236,52,121473,1,0,0:0:0:0:
236,52,121614,2,0,B|276:83|276:83|325:93,1,100,8|0,0:0|0:0,0:0:0:0:
480,124,122180,2,0,L|440:228,1,100,0|8,0:0|0:0,0:0:0:0:
296,216,122746,1,0,0:0:0:0:
202,334,123029,6,0,P|153:311|109:257,1,100,0|8,0:0|0:0,0:0:0:0:
202,50,123595,6,0,P|153:73|109:127,1,100,0|8,0:0|0:0,0:0:0:0:
176,255,124161,1,0,0:0:0:0:
335,255,124444,1,0,0:0:0:0:
310,50,124728,2,0,P|359:73|403:127,1,100,8|0,0:0|0:0,0:0:0:0:
402,283,125294,6,0,P|368:320|308:328,1,100,0|8,0:0|0:0,0:0:0:0:
223,212,125860,1,0,0:0:0:0:
133,88,126143,6,0,B|92:50|35:45,2,100,8|0|0,0:0|0:0|0:0,0:0:0:0:
316,261,126992,1,8,0:0:0:0:
455,87,127275,1,8,0:0:0:0:
476,308,127558,1,8,0:0:0:0:
316,261,127841,1,8,0:0:0:0:
359,280,128124,6,0,L|242:298,1,100,0|8,0:0|0:0,0:0:0:0:
156,186,128690,2,0,P|116:218|103:293,1,100
240,170,129256,2,0,P|341:159|406:57,1,200,8|0,0:0|0:0,0:0:0:0:
277,46,130105,1,8,0:0:0:0:
104,188,130388,5,0,0:0:0:0:
72,156,130671,2,0,L|184:172,1,100,8|0,0:0|0:0,0:0:0:0:
320,240,131237,1,0,0:0:0:0:
256,104,131520,1,8,0:0:0:0:
387,197,131803,2,0,P|392:272|376:296,1,100
320,240,132369,2,0,P|264:256|200:208,1,100,8|0,0:0|0:0,0:0:0:0:
96,168,132935,5,8,0:0:0:0:
152,56,133218,2,0,L|271:95,1,100
423,166,133784,2,0,P|487:250|455:330,1,200,8|0,0:0|0:0,0:0:0:0:
383,259,134633,1,0,0:0:0:0:
256,72,134916,1,8,0:0:0:0:
32,272,135482,6,0,P|88:312|136:312,1,100
120,112,136048,1,8,0:0:0:0:
264,256,136331,2,0,P|320:296|368:296,1,100
400,104,136897,2,0,P|352:184|360:216,1,100,8|0,0:0|0:0,0:0:0:0:
256,56,137463,1,8,0:0:0:0:
256,192,137746,5,0,0:0:0:0:
256,328,138029,1,8,0:0:0:0:
40,224,138312,1,0,0:0:0:0:
144,16,138595,1,8,0:0:0:0:
256,192,138878,1,0,0:0:0:0:
368,16,139161,1,8,0:0:0:0:
472,224,139444,1,0,0:0:0:0:
304,312,139728,6,0,P|256:328|192:288,1,100,4|0,0:0|0:0,0:0:0:0:
256,32,140294,2,0,L|256:144,1,100,0|8,0:0|0:0,0:0:0:0:
120,136,140860,2,0,L|218:230,1,100
392,136,141426,2,0,L|294:230,1,100,8|0,0:0|0:0,0:0:0:0:
120,232,141992,1,8,0:0:0:0:
392,136,142275,1,0,0:0:0:0:
115,151,142558,2,0,P|162:166|193:205,1,100,0|8,0:0|0:0,0:0:0:0:
397,213,143124,2,0,P|350:198|320:160,1,100
255,338,143690,1,8,0:0:0:0:
256,180,143973,5,4,0:0:0:0:
256,140,144114,1,0,0:0:0:0:
256,100,144256,2,0,L|256:-12,1,100,4|0,0:0|0:0,0:0:0:0:
84,240,144822,1,4,0:0:0:0:
210,113,145105,2,0,P|246:97|309:119,1,100,4|0,0:0|0:0,0:0:0:0:
436,238,145671,1,4,0:0:0:0:
256,204,145954,5,4,0:0:0:0:
256,244,146095,1,0,0:0:0:0:
256,284,146237,2,0,L|256:396,1,100,0|4,0:0|0:0,0:0:0:0:
336,180,146803,2,0,P|273:129|177:181,1,200,4|4,0:0|0:0,0:0:0:0:
256,208,147652,1,0,0:0:0:0:
444,32,147935,5,0,0:0:0:0:
424,68,148077,1,0,0:0:0:0:
404,104,148218,1,4,0:0:0:0:
384,140,148360,1,0,0:0:0:0:
364,176,148501,1,0,0:0:0:0:
344,212,148643,1,0,0:0:0:0:
324,248,148784,5,4,0:0:0:0:
256,312,149067,1,8,0:0:0:0:
192,248,149350,2,0,P|143:265|90:238,1,100,0|8,0:0|0:0,0:0:0:0:
264,134,149916,2,0,P|247:85|274:32,1,100
374,208,150482,2,0,P|423:191|476:218,1,100,8|0,0:0|0:0,0:0:0:0:
247,158,151048,6,0,B|231:182|259:228|259:228|231:289|231:289|253:304|253:342,1,200,8|0,0:0|0:0,0:0:0:0:
82,84,151897,6,0,B|120:84|135:62|135:62|196:90|196:90|242:62|287:87,1,200,8|0,0:0|0:0,0:0:0:0:
368,248,152746,1,4,0:0:0:0:
176,240,153029,1,0,0:0:0:0:
176,240,153312,6,0,P|147:291|168:348,1,100,8|0,0:0|0:0,0:0:0:0:
237,300,153878,2,0,P|320:304|344:288,1,100,0|8,0:0|0:0,0:0:0:0:
282,220,154444,2,0,L|282:168|282:116,2,100,0|0|8,0:0|0:0|0:0,0:0:0:0:
400,316,155294,1,0,0:0:0:0:
440,195,155577,6,0,P|469:156|434:120,1,100,8|0,0:0|0:0,0:0:0:0:
356,120,156143,1,0,0:0:0:0:
356,159,156284,1,0,0:0:0:0:
356,199,156426,2,0,B|284:247|212:135|148:199,1,200,8|0,0:0|0:0,0:0:0:0:
165,146,157133,1,0,0:0:0:0:
166,108,157275,2,0,B|278:68|326:184|370:100,1,200,8|4,0:0|0:0,0:0:0:0:
448,336,158407,6,0,L|344:312,1,100,0|8,0:0|0:0,0:0:0:0:
253,184,158973,1,0,0:0:0:0:
159,324,159256,2,0,L|47:298,1,100,0|8,0:0|0:0,0:0:0:0:
48,127,159822,1,0,0:0:0:0:
284,258,160105,2,0,P|368:207|357:98,1,200,8|0,0:0|0:0,0:0:0:0:
135,110,160954,1,8,0:0:0:0:
367,113,161237,1,0,0:0:0:0:
252,290,161520,1,0,0:0:0:0:
135,110,161803,5,8,0:0:0:0:
88,293,162086,2,8,P|190:291|198:283,1,100,0|8,0:0|0:0,0:0:0:0:
135,210,162652,2,0,L|135:74,2,100,0|0|8,0:0|0:0|0:0,0:0:0:0:
255,309,163501,5,0,0:0:0:0:
390,193,163784,1,0,0:0:0:0:
439,343,164067,1,8,0:0:0:0:
255,231,164350,5,0,0:0:0:0:
114,121,164633,1,8,0:0:0:0:
56,284,164916,1,0,0:0:0:0:
254,171,165199,1,0,0:0:0:0:
440,58,165482,1,8,0:0:0:0:
408,215,165765,1,0,0:0:0:0:
256,150,166048,5,0,0:0:0:0:
130,43,166331,1,8,0:0:0:0:
57,185,166614,1,0,0:0:0:0:
256,150,166897,1,4,0:0:0:0:
256,336,167180,5,0,0:0:0:0:
208,264,167463,2,0,P|264:248|312:272,3,100,0|8|0|0,0:0|0:0|0:0|0:0,0:0:0:0:
256,96,168595,1,8,0:0:0:0:
72,176,168878,1,0,0:0:0:0:
72,176,169161,2,0,P|143:274|216:270,1,200,8|0,0:0|0:0,0:0:0:0:
176,176,170011,2,0,B|280:144|320:240|320:240|384:200|436:241,1,300,8|4,0:0|0:0,0:0:0:0:
384,304,171143,5,0,0:0:0:0:
384,304,171426,2,0,B|384:192|384:192|328:176|304:128,1,200,8|0,0:0|0:0,0:0:0:0:
312,143,172275,1,4,0:0:0:0:
232,194,172558,2,0,P|216:154|256:82,1,100
231,282,173124,2,0,P|177:267|152:224,1,100,4|0,0:0|0:0,0:0:0:0:
71,196,173690,6,0,P|115:153|235:201,1,200,8|0,0:0|0:0,0:0:0:0:
152,272,174539,1,4,0:0:0:0:
152,272,174822,1,0,0:0:0:0:
152,116,175105,1,4,0:0:0:0:
152,116,175388,2,0,L|152:12,1,100
152,272,175954,1,4,0:0:0:0:
360,232,176520,6,0,P|320:288|256:288,1,100,0|8,0:0|0:0,0:0:0:0:
152,272,177086,2,0,P|192:216|256:216,1,100
248,384,177652,1,8,0:0:0:0:
296,128,177935,1,0,0:0:0:0:
160,192,178218,2,0,B|208:224|256:200|256:200|304:224|350:190,1,200,8|0,0:0|0:0,0:0:0:0:
256,356,179067,1,8,0:0:0:0:
256,316,179209,1,0,0:0:0:0:
256,276,179350,2,0,L|256:156,1,100
256,24,179916,5,8,0:0:0:0:
136,104,180199,2,0,P|168:168|200:176,1,100,0|8,0:0|0:0,0:0:0:0:
320,176,180765,1,0,0:0:0:0:
424,224,181048,2,0,P|464:336|328:336,1,300
396,296,182180,1,8,0:0:0:0:
288,208,182463,6,0,L|376:280,1,100,0|8,0:0|0:0,0:0:0:0:
296,128,183029,1,0,0:0:0:0:
184,40,183312,2,0,L|272:112,1,100,0|8,0:0|0:0,0:0:0:0:
432,248,183878,1,0,0:0:0:0:
440,48,184161,1,8,0:0:0:0:
304,160,184444,5,8,1:0:0:0:
264,184,184586,1,0,0:0:0:0:
216,200,184728,1,0,0:0:0:0:
168,184,184869,1,0,0:0:0:0:
128,160,185011,2,0,P|120:96|152:56,1,100,4|0,0:0|0:0,0:0:0:0:
168,240,185577,6,0,B|192:320|192:320|256:308|256:308|340:336,1,200
432,364,186426,1,0,0:0:0:0:
432,208,186709,2,0,L|432:88,1,100,8|0,1:0|0:0,0:0:0:0:
288,120,187275,2,0,L|184:48,1,100
48,48,187841,1,0,0:0:0:0:
96,200,188124,2,0,L|96:312,1,100,8|0,1:0|0:0,0:0:0:0:
256,124,188690,1,0,0:0:0:0:
208,328,188973,2,0,B|256:360|308:328,1,100,8|0,1:0|0:0,0:0:0:0:
424,191,189539,5,8,0:0:0:0:
254,54,189822,1,0,0:0:0:0:
88,191,190105,1,0,0:0:0:0:
256,352,190388,1,8,1:0:0:0:
336,208,190671,5,0,0:0:0:0:
176,208,190954,1,0,0:0:0:0:
256,352,191237,1,8,1:0:0:0:
480,192,191520,5,0,0:0:0:0:
344,88,191803,1,0,0:0:0:0:
168,88,192086,1,0,0:0:0:0:
32,192,192369,1,0,0:0:0:0:
256,352,192652,1,8,1:0:0:0:
356,176,192935,5,0,0:0:0:0:
156,176,193218,1,0,0:0:0:0:
256,352,193501,1,8,1:0:0:0:
256,192,193784,5,0,0:0:0:0:
255,192,194067,2,0,P|176:224|52:180,1,200,4|0,0:0|0:0,0:0:0:0:
256,32,194916,1,8,0:0:0:0:
257,192,195199,2,0,P|336:224|460:180,1,200,0|8,0:0|1:0,0:0:0:0:
256,336,196048,1,0,0:0:0:0:
176,240,196331,6,0,P|112:216|96:192,1,100,8|0,0:0|0:0,0:0:0:0:
152,48,196897,1,0,0:0:0:0:
336,240,197180,2,0,P|400:216|416:192,1,100,8|0,0:0|0:0,0:0:0:0:
360,48,197746,1,0,0:0:0:0:
256,204,198029,2,0,L|256:104,1,100,8|0,1:0|0:0,0:0:0:0:
256,360,198595,1,0,0:0:0:0:
301,264,198878,2,0,P|256:282|208:262,1,100
256,32,199444,1,8,1:0:0:0:
336,176,199728,5,0,0:0:0:0:
176,176,200011,1,0,0:0:0:0:
256,32,200294,1,8,1:0:0:0:
480,192,200577,5,0,0:0:0:0:
344,296,200860,1,0,0:0:0:0:
168,296,201143,1,0,0:0:0:0:
32,192,201426,1,0,0:0:0:0:
256,32,201709,1,8,1:0:0:0:
356,208,201992,5,0,0:0:0:0:
156,208,202275,1,0,0:0:0:0:
256,32,202558,1,8,1:0:0:0:
256,264,202841,5,0,0:0:0:0:
256,264,203124,2,0,L|256:160,2,100,4|0|0,0:0|0:0|0:0,0:0:0:0:
432,232,203973,1,8,0:0:0:0:
299,330,204256,2,0,P|259:346|195:306,1,100
168,120,204822,6,8,B|224:104|256:72|256:72|288:104|352:120,1,200,8|4,1:0|2:0,0:0:0:0:
256,208,205671,1,0,0:0:0:0:
416,272,205954,1,0,0:0:0:0:
304,336,206237,2,0,P|256:352|184:312,1,100,8|0,0:0|0:0,0:0:0:0:
176,141,206803,6,0,L|164:29,1,100,0|8,0:0|1:0,0:0:0:0:
336,243,207369,2,0,L|348:355,1,100,0|8,0:0|1:0,0:0:0:0:
157,129,207935,2,0,L|145:17,1,100,0|0,0:0|1:0,0:0:0:0:
355,255,208501,2,0,L|367:367,1,100,8|0,0:0|1:0,0:0:0:0:
135,117,209067,2,0,L|123:5,1,100,0|8,0:0|1:0,0:0:0:0:
335,228,209633,2,0,P|256:279|176:229,1,200
104,100,210482,1,0,0:0:0:0:
336,92,210765,1,8,1:0:0:0:
336,92,211048,6,0,P|392:100|456:84,1,100
256,32,211614,1,8,1:0:0:0:
236,68,211755,1,0,0:0:0:0:
236,108,211897,1,0,0:0:0:0:
252,144,212038,1,0,0:0:0:0:
284,172,212180,1,4,0:0:0:0:
304,329,212746,6,0,P|256:348|212:328,1,100,0|8,0:0|1:0,0:0:0:0:
256,264,213312,1,0,0:0:0:0:
460,64,213595,2,0,P|472:120|432:164,1,100,0|8,0:0|1:0,0:0:0:0:
328,248,214161,1,0,0:0:0:0:
176,252,214444,1,8,0:0:0:0:
52,64,214728,2,0,P|40:120|80:164,1,100
204,272,215294,1,8,1:0:0:0:
352,276,215577,1,0,0:0:0:0:
174,147,215860,2,0,P|180:96|212:56,1,100,0|8,0:0|1:0,1:0:0:0:
256,128,216426,5,0,0:0:0:0:
301,60,216709,2,0,P|255:43|209:59,2,100,8|0|0,0:0|0:0|0:0,0:0:0:0:
256,192,217558,12,0,220954,0:0:0:0:
