osu file format v14

[General]
AudioFilename: audio.mp3
AudioLeadIn: 0
PreviewTime: 34581
Countdown: 0
SampleSet: Soft
StackLeniency: 0.7
Mode: 0
LetterboxInBreaks: 0
WidescreenStoryboard: 0

[Editor]
Bookmarks: 38057,58544,70252,84886,105374,108300,128788,140496
DistanceSpacing: 1
BeatDivisor: 4
GridSize: 32
TimelineZoom: 2.4

[Metadata]
Title:outcome
TitleUnicode:outcome
Artist:Pitfall
ArtistUnicode:Pitfall
Creator:Azinlen
Version:normal
Source:
Tags:d0llywood1 hyperpop hyper pop hip-hop hiphop hip hop pop rap english
BeatmapID:3341052
BeatmapSetID:1606039

[Difficulty]
HPDrainRate:3
CircleSize:3
OverallDifficulty:3
ApproachRate:5
SliderMultiplier:0.999999999999999
SliderTickRate:1

[Events]
//Background and Video events
0,0,"bg.jpg",0,0
//Break Periods
2,70478,80786
//Storyboard Layer 0 (Background)
//Storyboard Layer 1 (Fail)
//Storyboard Layer 2 (Pass)
//Storyboard Layer 3 (Foreground)
//Storyboard Layer 4 (Overlay)
//Storyboard Sound Samples

[TimingPoints]
35157,365.853658536585,4,2,1,80,1,0
35157,-100,4,2,1,60,0,0
38056,-100,4,2,1,80,0,0
70250,-100,4,2,1,50,0,0
81959,-100,4,2,1,60,0,0
84913,-100,4,2,1,60,0,0
84938,365.853658536585,4,2,1,80,1,0
108310,-100,4,2,1,80,0,0
128847,365.853658536585,4,2,1,80,1,0
140527,-100,4,2,1,80,0,0

[Colours]
Combo1 : 239,222,222
Combo2 : 204,234,215
Combo3 : 239,223,186

[HitObjects]
443,72,35157,6,0,L|338:94,1,99.9999999999999,2|2,0:0|0:0,0:0:0:0:
270,25,35888,1,8,0:0:0:0:
195,91,36254,1,2,0:0:0:0:
273,153,36620,2,0,P|287:202|252:250,1,99.9999999999999,2|2,0:0|0:0,0:0:0:0:
166,218,37352,2,0,L|68:197,1,99.9999999999999,8|2,0:0|0:0,0:0:0:0:
46,294,38083,6,0,L|144:312,1,99.9999999999999,6|2,3:2|0:0,0:0:0:0:
198,321,38632,1,2,3:2:0:0:
198,321,38815,2,0,P|234:347|291:334,1,99.9999999999999,8|2,0:0|3:3,0:0:0:0:
344,256,39547,2,0,L|334:196,1,50,2|8,0:2|0:1,0:0:0:0:
329,156,39913,1,4,3:2:0:0:
364,62,40279,2,0,L|416:54,2,50,6|0|2,3:2|3:2|0:2,0:0:0:0:
329,33,40827,1,8,0:1:0:0:
329,33,41010,6,0,L|172:47,1,150,6|2,3:2|3:2,0:0:0:0:
129,49,41742,2,0,P|156:92|129:154,1,99.9999999999999,10|2,0:0|3:3,0:0:0:0:
76,210,42474,2,0,L|87:272,1,50,2|8,0:2|0:1,0:0:0:0:
79,309,42840,2,0,P|126:280|177:297,1,99.9999999999999,4|2,3:2|3:2,0:0:0:0:
205,321,43388,1,0,0:0:0:0:
205,321,43571,2,0,L|267:336,1,50,2|2,0:2|0:2,0:0:0:0:
297,357,43937,6,0,L|455:326,1,150,6|2,3:2|3:2,0:0:0:0:
493,316,44669,1,8,0:0:0:0:
445,228,45035,1,2,3:3:0:0:
490,139,45401,2,0,L|501:78,1,50,2|8,0:2|0:1,0:0:0:0:
508,40,45766,1,4,3:2:0:0:
411,15,46132,2,0,L|350:28,1,50,2|0,3:2|3:2,0:0:0:0:
314,41,46498,1,2,0:2:0:0:
216,19,46864,6,0,P|227:64|196:118,1,99.9999999999999,6|2,3:2|0:0,0:0:0:0:
162,133,47413,1,2,3:2:0:0:
162,133,47596,2,0,L|175:237,1,99.9999999999999,10|6,0:0|3:2,0:0:0:0:
126,315,48327,2,0,L|74:301,2,50,2|8|0,0:2|0:1|3:2,0:0:0:0:
162,349,48876,1,0,0:0:0:0:
162,349,49059,2,0,L|267:333,1,99.9999999999999,2|2,3:2|0:2,0:0:0:0:
359,318,49791,6,0,P|326:273|334:227,1,99.9999999999999,6|2,3:2|0:0,0:0:0:0:
372,202,50340,1,2,3:2:0:0:
372,202,50523,2,0,L|385:97,1,99.9999999999999,8|2,0:0|3:3,0:0:0:0:
386,52,51071,2,0,P|413:78|516:42,2,150,6|4|4,3:2|3:2|3:2,0:0:0:0:
240,16,52718,6,0,L|81:42,1,150,6|2,3:2|3:2,0:0:0:0:
42,47,53449,2,0,P|61:100|43:142,1,99.9999999999999,10|2,0:0|3:3,0:0:0:0:
8,228,54181,1,2,0:2:0:0:
61,312,54547,1,4,3:2:0:0:
142,254,54913,2,0,L|252:274,1,99.9999999999999,2|2,3:2|0:3,0:0:0:0:
273,309,55462,1,2,0:3:0:0:
273,309,55644,6,0,L|431:286,2,150,6|2|2,3:2|3:2|3:3,0:0:0:0:
303,213,57108,2,0,L|319:157,1,50,2|8,0:2|0:1,0:0:0:0:
332,117,57474,1,4,3:2:0:0:
46,26,58571,6,0,L|58:130,1,99.9999999999999,4|8,3:2|0:2,0:0:0:0:
66,225,59303,2,0,P|102:246|159:226,1,99.9999999999999,8|2,3:1|0:0,0:0:0:0:
198,139,60035,2,0,L|252:152,1,50,2|2,0:0|0:3,0:0:0:0:
296,159,60401,1,2,0:0:0:0:
364,86,60766,1,8,0:1:0:0:
431,159,61132,2,0,L|423:208,1,50,8|2,0:2|2:3,0:0:0:0:
455,246,61498,6,0,L|357:265,1,99.9999999999999,4|2,3:2|0:3,0:0:0:0:
279,329,62230,1,8,3:1:0:0:
199,268,62596,2,0,P|150:256|95:285,1,99.9999999999999,2|2,2:3|0:0,0:0:0:0:
67,305,63144,1,2,0:3:0:0:
67,305,63327,2,0,P|88:268|51:165,1,150,2|2,3:2|3:2,0:0:0:0:
7,29,64425,6,0,L|177:60,1,150,4|2,3:2|0:3,0:0:0:0:
202,40,65157,2,0,L|310:21,1,99.9999999999999,8|8,3:1|0:2,0:0:0:0:
383,78,65888,1,2,0:0:0:0:
302,137,66254,1,2,3:2:0:0:
376,203,66620,2,0,P|439:219|478:197,1,99.9999999999999,8|2,0:1|0:3,0:0:0:0:
512,185,67169,1,2,0:3:0:0:
512,185,67352,6,0,L|491:301,1,99.9999999999999,4|2,3:2|0:3,0:0:0:0:
425,356,68084,1,8,3:1:0:0:
345,295,68449,1,8,3:2:0:0:
253,336,68815,2,0,L|193:349,1,50,2|2,0:0|0:3,0:0:0:0:
154,356,69181,2,0,P|110:318|122:224,2,150,2|2|4,3:2|3:2|3:2,0:0:0:0:
256,192,81986,12,8,84181,0:0:0:0:
473,78,84938,6,0,L|359:62,1,99.9999999999999,6|2,3:2|0:0,0:0:0:0:
325,51,85486,1,2,3:2:0:0:
325,51,85669,1,8,0:0:0:0:
236,97,86035,1,2,3:3:0:0:
305,168,86401,2,0,L|318:235,1,50,2|8,0:2|0:1,0:0:0:0:
326,266,86767,1,4,3:2:0:0:
252,333,87133,1,6,3:2:0:0:
252,333,87316,2,0,P|208:307|157:323,1,99.9999999999999,0|8,3:2|0:1,0:0:0:0:
116,337,87864,6,0,L|141:226,1,99.9999999999999,6|2,3:2|0:0,0:0:0:0:
67,167,88596,2,0,L|57:106,1,50,10|2,0:0|0:2,0:0:0:0:
48,68,88962,1,2,3:3:0:0:
137,24,89328,2,0,L|191:30,1,50,2|8,0:2|0:1,0:0:0:0:
218,68,89694,2,0,P|270:44|312:57,1,99.9999999999999,4|2,3:2|3:2,0:0:0:0:
361,140,90425,2,0,L|430:130,1,50,2|2,0:2|0:2,0:0:0:0:
445,96,90791,6,0,P|426:125|460:233,1,150,6|2,3:2|3:2,0:0:0:0:
493,259,91523,1,8,0:0:0:0:
504,358,91889,2,0,L|396:329,1,99.9999999999999,2|2,3:3|0:2,0:0:0:0:
361,336,92437,1,8,0:1:0:0:
361,336,92620,2,0,L|258:351,1,99.9999999999999,4|2,3:2|3:2,0:0:0:0:
212,360,93169,1,0,3:2:0:0:
82,284,93718,6,0,P|62:243|80:182,1,99.9999999999999,6|2,3:2|0:0,0:0:0:0:
151,129,94450,1,10,0:0:0:0:
227,193,94816,1,6,3:2:0:0:
296,121,95181,2,0,L|290:50,1,50,2|8,0:2|0:1,0:0:0:0:
285,21,95547,1,0,3:2:0:0:
383,38,95913,2,0,L|388:105,1,50,2|0,3:2|3:2,0:0:0:0:
420,125,96279,2,0,L|425:192,1,50,2|2,0:2|0:2,0:0:0:0:
463,206,96645,6,0,P|402:190|341:255,1,150,6|2,3:2|3:2,0:0:0:0:
320,289,97377,1,8,0:0:0:0:
241,351,97742,1,2,3:3:0:0:
241,351,97925,2,0,L|137:333,1,99.9999999999999,6|8,3:2|0:1,0:0:0:0:
93,326,98474,2,0,P|125:282|113:229,1,99.9999999999999,4|2,3:2|3:2,0:0:0:0:
73,217,99023,1,4,3:2:0:0:
27,127,99389,1,8,0:1:0:0:
27,127,99572,6,0,L|149:113,1,99.9999999999999,6|2,3:2|0:0,0:0:0:0:
200,48,100303,1,10,0:0:0:0:
275,113,100669,2,0,L|331:127,1,50,2|2,3:3|0:3,0:0:0:0:
371,111,101035,2,0,P|353:151|380:217,1,99.9999999999999,2|4,0:2|3:2,0:0:0:0:
403,237,101584,1,0,0:0:0:0:
403,237,101767,1,2,3:2:0:0:
482,297,102133,1,2,0:2:0:0:
397,350,102498,6,0,L|289:337,1,99.9999999999999,6|2,3:2|2:0,0:0:0:0:
256,308,103047,1,2,3:2:0:0:
256,308,103230,2,0,L|156:319,1,99.9999999999999,8|2,0:0|3:3,0:0:0:0:
60,290,103962,1,2,0:2:0:0:
121,210,104328,2,0,P|148:163|125:117,1,99.9999999999999,4|8,3:2|0:1,0:0:0:0:
94,89,104877,2,0,L|206:69,1,99.9999999999999,2|0,3:0|0:0,0:0:0:0:
242,65,105425,5,4,3:2:0:0:
341,59,105791,1,2,0:3:0:0:
393,144,106157,1,8,0:1:0:0:
492,150,106523,1,2,0:0:0:0:
448,240,106889,6,0,L|436:299,1,50,2|2,0:0|0:3,0:0:0:0:
424,337,107255,1,2,0:0:0:0:
327,361,107620,2,0,L|267:352,1,50,8|0,0:1|0:0,0:0:0:0:
227,345,107986,2,0,L|177:352,1,50,2|2,0:3|0:3,0:0:0:0:
129,364,108352,6,0,P|89:330|96:264,1,99.9999999999999,4|2,3:2|0:3,0:0:0:0:
111,242,108901,1,2,0:3:0:0:
111,242,109084,1,8,3:1:0:0:
53,160,109450,1,8,0:2:0:0:
132,99,109816,2,0,L|194:108,1,50,2|2,0:0|0:3,0:0:0:0:
215,143,110181,2,0,P|249:78|327:61,2,150,2|2|4,3:2|3:2|3:2,0:0:0:0:
286,213,111645,5,2,0:3:0:0:
359,145,112011,2,0,L|468:134,1,99.9999999999999,8|10,3:1|0:2,0:0:0:0:
488,230,112742,2,0,L|470:287,1,50,2|2,0:0|0:3,0:0:0:0:
472,327,113108,2,0,P|451:301|374:304,1,99.9999999999999,2|8,3:2|0:1,0:0:0:0:
346,322,113657,1,0,0:0:0:0:
346,322,113840,2,0,L|283:336,1,50,2|0,0:3|0:0,0:0:0:0:
253,357,114206,6,0,L|271:246,1,99.9999999999999,4|2,3:2|0:3,0:0:0:0:
281,209,114755,1,2,0:3:0:0:
281,209,114937,1,8,3:1:0:0:
199,151,115303,1,8,3:2:0:0:
122,215,115669,6,0,L|58:203,1,50,2|2,0:0|0:3,0:0:0:0:
23,195,116035,1,2,3:2:0:0:
15,95,116401,2,0,L|69:89,1,50,8|2,0:1|3:2,0:0:0:0:
106,61,116767,2,0,L|160:55,1,50,0|2,0:0|0:3,0:0:0:0:
203,38,117133,6,0,P|244:62|308:48,1,99.9999999999999,4|2,3:2|0:3,0:0:0:0:
381,6,117864,1,8,3:1:0:0:
464,59,118230,1,8,0:2:0:0:
386,121,118596,2,0,L|397:175,1,50,2|2,0:0|0:3,0:0:0:0:
408,218,118962,1,2,3:2:0:0:
372,311,119328,2,0,P|330:291|273:303,1,99.9999999999999,8|2,0:1|0:3,0:0:0:0:
193,351,120059,6,0,P|151:371|94:359,1,99.9999999999999,4|2,3:2|0:3,0:0:0:0:
33,287,120791,1,8,3:1:0:0:
112,226,121157,1,2,0:0:0:0:
43,153,121523,2,0,L|56:98,1,50,2|2,0:0|0:3,0:0:0:0:
27,61,121889,2,0,P|82:92|151:40,1,150,2|0,3:2|3:2,0:0:0:0:
294,14,122986,6,0,L|404:28,1,99.9999999999999,4|2,3:2|0:3,0:0:0:0:
492,40,123718,1,8,3:1:0:0:
419,109,124084,1,8,0:2:0:0:
489,179,124450,2,0,L|477:237,1,50,2|2,0:0|0:3,0:0:0:0:
470,277,124816,2,0,P|417:259|343:372,1,200,2|2,3:2|0:3,0:0:0:0:
239,368,125913,6,0,L|83:346,2,150,4|2|8,3:2|3:2|0:2,0:0:0:0:
243,167,127742,2,0,L|139:177,1,99.9999999999999,2|8,3:2|0:1,0:0:0:0:
93,182,128291,2,0,P|101:132|68:84,1,99.9999999999999,2|2,3:2|0:3,0:0:0:0:
34,54,128847,6,0,L|138:32,1,99.9999999999999,2|2,0:0|0:0,0:0:0:0:
204,102,129578,2,0,L|301:122,1,99.9999999999999,8|2,0:0|0:0,0:0:0:0:
398,94,130310,1,2,0:0:0:0:
398,194,130676,1,2,0:0:0:0:
306,233,131042,2,0,P|285:269|296:328,1,99.9999999999999,8|2,0:0|0:0,0:0:0:0:
202,365,131773,6,0,L|104:344,1,99.9999999999999,2|2,0:0|0:0,0:0:0:0:
45,262,132505,2,0,P|67:218|57:170,1,99.9999999999999,8|2,0:0|0:3,0:0:0:0:
0,87,133237,1,2,0:0:0:0:
90,44,133603,1,2,0:3:0:0:
149,123,133968,2,0,L|257:103,1,99.9999999999999,8|2,0:0|0:0,0:0:0:0:
328,46,134700,6,0,L|426:64,1,99.9999999999999,2|2,0:0|0:0,0:0:0:0:
497,134,135432,1,8,0:0:0:0:
421,199,135798,1,0,0:3:0:0:
477,281,136164,2,0,P|454:328|404:341,1,99.9999999999999,2|2,0:0|0:0,0:0:0:0:
329,284,136895,2,0,L|230:302,1,99.9999999999999,8|2,0:0|0:0,0:0:0:0:
148,359,137627,6,0,L|49:340,1,99.9999999999999,2|2,0:0|0:0,0:0:0:0:
6,250,138359,1,8,0:0:0:0:
89,197,138725,1,2,0:3:0:0:
17,127,139090,1,2,0:0:0:0:
94,63,139456,2,0,P|141:77|185:49,2,99.9999999999999,2|8|2,0:0|0:0|0:0,0:0:0:0:
8,10,140554,5,4,3:2:0:0:
