osu file format v14

[General]
AudioFilename: audio.mp3
AudioLeadIn: 0
PreviewTime: 172947
Countdown: 0
SampleSet: Soft
StackLeniency: 0.5
Mode: 0
LetterboxInBreaks: 0
WidescreenStoryboard: 1

[Editor]
Bookmarks: 14547,21747,70797,72147,80247,113547,120747,133347,162597,163797,169797,170997,196947,197247,199047,199947,202347,202647,207447,208047,209847,210147,210747,213447
DistanceSpacing: 0.8
BeatDivisor: 4
GridSize: 8
TimelineZoom: 2.1

[Metadata]
Title:Psalm dla Ciebie
TitleUnicode:Psalm dla Ciebie
Artist:Piotr Rubik, Malgorzata Markiewicz, Janusz Radek
ArtistUnicode:Piotr Rubik, Malgorzata Markiewicz, Janusz Radek
Creator:-NeBu-
Version:Yusomi's Pieczec na sercu
Source:
Tags:piotr rubik malgorzata markiewicz janusz radek polish poland psalterz wrzesniowy 2006 CptSqBany [Red Panda] -NeBu- Chalwa Yusomi Piggey ReFaller Bubblun -Kyu Asrasz
BeatmapID:1297260
BeatmapSetID:586156

[Difficulty]
HPDrainRate:4
CircleSize:4
OverallDifficulty:9.3
ApproachRate:9.7
SliderMultiplier:1.8
SliderTickRate:1

[Events]
//Background and Video events
0,0,"piotr-rubik-wejherowo.jpg",0,0
Video,-403,"zzzzzzzzzzzzzzzz.mp4"
//Break Periods
//Storyboard Layer 0 (Background)
//Storyboard Layer 1 (Fail)
//Storyboard Layer 2 (Pass)
//Storyboard Layer 3 (Foreground)
//Storyboard Sound Samples

[TimingPoints]
147,600,4,2,3,25,1,0
9147,-66.6666666666667,4,2,3,25,0,0
45147,300,4,2,3,55,1,0
66747,-76.9230769230769,4,2,3,55,0,0
73947,-66.6666666666667,4,2,3,55,0,0
81147,-57.1428571428571,4,2,3,55,0,0
102747,600,4,2,3,50,1,0
102747,-55.5555555555556,4,2,3,50,0,0
136947,300,4,2,3,50,1,0
136947,-76.9230769230769,4,2,3,50,0,0
172947,-50,4,2,3,50,0,0
219672,-50,4,2,3,5,0,0

[Colours]
Combo1 : 238,196,149
Combo2 : 68,88,227
Combo3 : 63,63,63

[HitObjects]
101,235,9147,6,2,P|111:273|112:313,1,67.5000025749208
209,270,9447,2,0,P|206:309|195:347,1,67.5000025749208,0|0,0:0|0:0,0:0:0:0:
300,336,9747,1,2,0:0:0:0:
181,46,10047,5,8,0:0:0:0:
262,196,10197,1,0,0:0:0:0:
264,100,10347,1,8,0:0:0:0:
86,198,10497,1,0,0:0:0:0:
338,151,10647,1,8,0:0:0:0:
122,120,10797,1,0,0:0:0:0:
168,326,10947,6,2,L|175:169,1,135.000005149842
181,49,11397,1,0,0:0:0:0:
261,296,11547,2,0,P|313:349|387:345,1,135.000005149842,0|0,0:0|0:0,0:0:0:0:
413,261,12147,2,0,P|361:208|287:212,1,135.000005149842,0|0,0:0|0:0,0:0:0:0:
168,326,12597,1,0,0:0:0:0:
78,384,12747,2,2,L|68:242,1,135.000005149842
68,249,13197,1,0,0:0:0:0:
254,95,13347,5,0,0:0:0:0:
222,384,13497,1,0,0:0:0:0:
254,95,13647,2,0,L|256:189,1,67.5000025749208,0|0,0:0|0:0,0:0:0:0:
161,291,13947,2,0,L|163:197,1,67.5000025749208,0|0,0:0|0:0,0:0:0:0:
343,12,14247,1,0,0:0:0:0:
407,81,14397,1,0,0:0:0:0:
407,175,14547,6,2,L|266:190,1,135.000005149842
88,119,14997,1,0,0:0:0:0:
56,25,15147,2,0,B|96:20|96:20|195:50,1,135.000005149842,0|0,0:0|0:0,0:0:0:0:
186,47,15597,5,0,0:0:0:0:
441,2,15747,1,8,0:0:0:0:
382,167,15897,1,0,0:0:0:0:
426,336,16047,1,8,0:0:0:0:
323,270,16197,1,0,0:0:0:0:
204,294,16347,2,2,P|118:313|47:215,1,202.500007724762
98,24,16947,6,0,P|111:62|114:100,1,67.5000025749208,0|0,0:0|0:0,0:0:0:0:
209,65,17247,2,0,P|209:105|200:142,1,67.5000025749208,0|0,0:0|0:0,0:0:0:0:
301,138,17547,1,0,0:0:0:0:
504,24,17847,6,0,P|491:62|488:100,1,67.5000025749208,0|0,0:0|0:0,0:0:0:0:
393,65,18147,2,2,P|394:140|416:208,1,135.000005149842
289,326,18597,1,0,0:0:0:0:
295,232,18747,1,0,0:0:0:0:
74,56,19047,2,0,P|63:117|71:150,1,67.5000025749208,0|0,0:0|0:0,0:0:0:0:
96,188,19347,6,0,P|127:254|103:327,1,135.000005149842,0|0,0:0|0:0,0:0:0:0:
46,347,19947,6,2,L|237:342,1,135.000005149842
260,376,20397,1,0,0:0:0:0:
231,35,20547,1,0,0:0:0:0:
244,290,20847,2,0,P|246:254|238:211,1,67.5000025749208,0|0,0:0|0:0,0:0:0:0:
313,161,21147,2,0,P|303:126|282:87,1,67.5000025749208,0|0,0:0|0:0,0:0:0:0:
156,82,21447,2,0,P|141:112|132:144,1,67.5000025749208,0|0,0:0|0:0,0:0:0:0:
18,311,21747,6,2,P|97:284|154:318,1,135.000005149842
200,354,22197,2,0,L|303:362,2,67.5000025749208,0|0|0,0:0|0:0|0:0,0:0:0:0:
129,227,22647,2,2,P|123:163|179:99,1,135.000005149842
279,143,23097,2,2,P|285:207|229:271,1,135.000005149842
235,61,23547,1,8,0:0:0:0:
326,36,23697,1,0,0:0:0:0:
406,85,23847,1,8,0:0:0:0:
497,60,23997,1,0,0:0:0:0:
474,152,24147,1,8,0:0:0:0:
228,355,24447,6,2,P|218:315|217:275,1,67.5000025749208
298,245,24747,2,0,P|300:203|312:165,1,67.5000025749208,0|0,0:0|0:0,0:0:0:0:
398,162,25047,1,8,0:0:0:0:
208,199,25347,2,2,P|121:200|72:163,1,135.000005149842
3,103,25797,1,0,0:0:0:0:
1,363,25947,1,8,0:0:0:0:
1,363,26247,6,0,P|51:355|109:352,1,67.5000025749208
111,276,26547,2,0,P|161:283|219:287,1,67.5000025749208,0|0,0:0|0:0,0:0:0:0:
245,352,26847,1,0,0:0:0:0:
411,257,26997,1,0,0:0:0:0:
338,384,27147,2,2,L|323:224,1,135.000005149842
268,186,27597,1,0,0:0:0:0:
478,367,27747,1,8,0:0:0:0:
248,265,28047,6,0,P|197:261|164:266,1,67.5000025749208,0|0,0:0|0:0,0:0:0:0:
354,176,28347,2,0,P|386:167|417:153,1,67.5000025749208,0|0,0:0|0:0,0:0:0:0:
84,17,28647,1,0,0:0:0:0:
28,93,28797,1,0,0:0:0:0:
51,184,28947,6,2,L|202:172,1,135.000005149842
425,0,29397,1,0,0:0:0:0:
364,72,29547,2,0,P|349:110|349:155,1,67.5000025749208,0|0,0:0|0:0,0:0:0:0:
460,363,29847,5,8,0:0:0:0:
367,171,29997,1,0,0:0:0:0:
460,192,30147,1,8,0:0:0:0:
367,384,30297,1,0,0:0:0:0:
293,325,30447,1,8,0:0:0:0:
501,277,30597,1,0,0:0:0:0:
119,368,30747,6,2,L|111:224,1,135.000005149842
49,171,31197,1,8,0:0:0:0:
90,0,31347,2,2,P|96:87|141:132,1,135.000005149842
239,298,31947,2,0,P|242:262|243:204,1,67.5000025749208,0|0,0:0|0:0,0:0:0:0:
197,34,32247,1,0,0:0:0:0:
192,165,32397,1,0,0:0:0:0:
315,368,32547,2,0,P|328:334|347:279,1,67.5000025749208,0|0,0:0|0:0,0:0:0:0:
428,353,32847,5,8,0:0:0:0:
239,298,32997,1,0,0:0:0:0:
47,344,33147,2,0,P|91:347|119:344,1,67.5000025749208,0|0,0:0|0:0,0:0:0:0:
239,298,33447,1,8,0:0:0:0:
249,204,33597,1,0,0:0:0:0:
161,79,33747,6,2,P|188:102|230:115,1,67.5000025749208
340,242,34047,2,0,P|346:207|336:164,1,67.5000025749208,0|0,0:0|0:0,0:0:0:0:
391,5,34347,2,2,P|357:16|306:108,1,135.000005149842
405,105,34797,1,0,0:0:0:0:
177,14,34947,1,8,0:0:0:0:
177,14,35247,6,0,P|181:58|182:106,1,67.5000025749208,0|0,0:0|0:0,0:0:0:0:
128,152,35547,2,0,P|123:196|123:244,1,67.5000025749208,0|0,0:0|0:0,0:0:0:0:
150,303,35847,1,8,0:0:0:0:
344,249,36147,2,2,L|160:234,1,135.000005149842
392,329,36597,1,0,0:0:0:0:
368,70,36747,1,8,0:0:0:0:
503,3,37047,6,4,P|455:4|417:17,1,67.5000025749208
297,130,37347,2,4,P|249:129|211:116,1,67.5000025749208
22,30,37647,1,2,0:0:0:0:
22,30,37947,6,2,L|34:195,1,135.000005149842
54,257,38397,1,0,0:0:0:0:
16,343,38547,1,8,0:0:0:0:
229,380,38847,2,4,P|225:337|225:298,1,67.5000025749208
384,36,39147,2,4,P|348:60|314:80,1,67.5000025749208
114,224,39447,1,0,0:0:0:0:
303,298,39597,1,0,0:0:0:0:
503,267,39747,6,2,P|441:244|367:258,1,135.000005149842
303,298,40197,1,0,0:0:0:0:
223,276,40347,1,8,0:0:0:0:
57,1,40647,6,0,P|108:62|111:98,1,67.5000025749208,0|0,0:0|0:0,0:0:0:0:
24,189,40947,2,0,P|51:114|81:93,1,67.5000025749208,0|0,0:0|0:0,0:0:0:0:
139,131,41247,1,8,0:0:0:0:
15,374,41397,1,0,0:0:0:0:
115,268,41547,2,2,P|206:243|279:257,1,135.000005149842
449,337,41997,2,2,P|381:338|318:315,1,135.000005149842
333,231,42447,6,0,L|336:151,1,67.5000025749208,0|0,0:0|0:0,0:0:0:0:
256,367,42747,1,8,0:0:0:0:
358,243,42897,2,0,L|343:125,1,67.5000025749208,0|0,0:0|0:0,0:0:0:0:
308,90,43197,1,8,0:0:0:0:
227,39,43347,6,2,L|69:28,1,135.000005149842
1,222,43797,1,0,0:0:0:0:
84,143,43947,2,0,P|132:134|168:132,1,67.5000025749208,0|0,0:0|0:0,0:0:0:0:
177,317,44247,5,8,0:0:0:0:
12,81,44397,1,0,0:0:0:0:
235,179,44547,1,8,0:0:0:0:
29,306,44697,1,0,0:0:0:0:
118,14,44847,1,8,0:0:0:0:
187,355,44997,1,0,0:0:0:0:
276,63,45147,6,2,P|345:57|426:147,1,180
119,207,45597,1,0,0:0:0:0:
108,103,45747,2,0,L|120:-12,1,90,0|0,0:0|0:0,0:0:0:0:
320,162,46047,2,2,B|345:229|345:229|298:342,1,180
119,207,46497,2,0,L|243:221,1,90,0|0,0:0|0:0,0:0:0:0:
22,361,46797,1,0,0:0:0:0:
20,137,46947,6,2,P|29:88|45:40,1,90
229,129,47247,2,0,P|220:178|204:226,1,90,0|0,0:0|0:0,0:0:0:0:
122,0,47547,1,8,0:0:0:0:
312,102,47847,2,2,B|377:136|377:136|501:105,1,180
385,30,48297,1,0,0:0:0:0:
452,294,48447,2,0,L|470:185,1,90
214,13,48747,6,2,B|212:52|231:74|231:74|225:109|225:109|252:143|251:201,1,180
78,194,49197,2,2,B|149:180|149:180|192:198|192:198|292:171,1,180
410,224,49647,2,0,P|368:242|314:234,1,90,0|0,0:0|0:0,0:0:0:0:
143,87,49947,1,8,0:0:0:0:
353,144,50097,1,0,0:0:0:0:
97,181,50247,1,8,0:0:0:0:
322,50,50397,1,0,0:0:0:0:
206,356,50547,2,2,L|195:153,1,180
239,90,50997,1,0,0:0:0:0:
293,302,51147,6,2,P|393:351|463:330,1,180
219,255,51597,1,0,0:0:0:0:
150,311,51747,2,8,L|39:315,1,90
70,95,52047,1,2,0:0:0:0:
141,225,52197,1,0,0:0:0:0:
28,66,52347,6,2,L|194:78,1,90
266,26,52647,1,0,0:0:0:0:
138,148,52797,1,0,0:0:0:0:
244,120,52947,2,8,L|410:108,1,90
479,0,53247,2,2,P|450:98|477:180,1,180
507,289,53697,2,0,P|464:263|414:245,1,90,0|0,0:0|0:0,0:0:0:0:
199,263,53997,1,0,0:0:0:0:
347,384,54147,6,2,L|353:181,1,180
396,130,54597,1,0,0:0:0:0:
271,304,54747,2,2,P|232:342|187:346,1,90
0,212,55047,2,8,P|39:174|84:170,1,90
80,341,55347,2,8,L|71:252,1,90
155,121,55647,2,4,L|145:210,1,90
464,384,55947,6,2,L|454:294,1,90
401,5,56247,1,8,0:0:0:0:
358,318,56397,1,0,0:0:0:0:
469,65,56547,2,2,L|459:154,1,90
403,223,56847,1,8,0:0:0:0:
236,162,56997,1,0,0:0:0:0:
74,236,57147,5,8,0:0:0:0:
287,231,57297,1,0,0:0:0:0:
182,13,57447,1,8,0:0:0:0:
200,362,57597,1,0,0:0:0:0:
301,114,57747,2,2,P|212:85|193:232,1,270
301,114,58347,6,0,L|399:113,1,90,0|0,0:0|0:0,0:0:0:0:
460,50,58647,1,8,0:0:0:0:
214,8,58797,1,0,0:0:0:0:
397,264,58947,1,8,0:0:0:0:
390,2,59097,1,0,0:0:0:0:
331,311,59247,1,8,0:0:0:0:
252,82,59397,1,0,0:0:0:0:
122,295,59547,6,2,L|213:287,1,90
281,224,59847,1,0,0:0:0:0:
467,358,59997,1,0,0:0:0:0:
373,348,60147,2,0,P|365:297|376:224,1,90,0|0,0:0|0:0,0:0:0:0:
476,4,60447,2,2,P|459:118|374:155,1,180
319,113,60897,2,2,B|260:83|260:83|118:90,1,180
0,339,61347,6,0,P|52:322|87:295,1,90,0|0,0:0|0:0,0:0:0:0:
68,132,61647,2,0,P|56:185|62:229,1,90,0|0,0:0|0:0,0:0:0:0:
144,355,61947,1,8,0:0:0:0:
382,307,62247,2,2,L|178:289,1,180
444,243,62697,1,0,0:0:0:0:
484,372,62847,1,8,0:0:0:0:
153,227,63147,6,0,P|142:184|146:125,1,90,0|0,0:0|0:0,0:0:0:0:
359,234,63447,2,0,P|360:278|349:322,1,90,0|0,0:0|0:0,0:0:0:0:
57,317,63747,1,8,0:0:0:0:
57,317,64047,6,2,B|127:262|188:313|173:313|248:380|350:308|326:209|248:189|188:231|238:273,1,360
349,322,64947,6,2,P|360:258|296:161,1,180
176,180,65397,1,0,0:0:0:0:
412,150,65547,2,0,P|460:130|489:88,1,90,0|0,0:0|0:0,0:0:0:0:
264,39,65847,5,8,0:0:0:0:
402,59,65997,1,0,0:0:0:0:
166,96,66147,1,8,0:0:0:0:
323,100,66297,1,0,0:0:0:0:
87,54,66447,1,8,0:0:0:0:
243,137,66597,1,0,0:0:0:0:
30,0,66747,6,2,B|-4:52|24:98|24:98|12:146|12:146|43:181|33:241,1,233.999989288331
159,384,67197,1,0,0:0:0:0:
220,165,67347,2,0,P|152:135|71:147,1,116.999994644165,0|0,0:0|0:0,0:0:0:0:
333,283,67647,2,2,P|401:313|482:301,1,116.999994644165
245,79,67947,1,8,0:0:0:0:
274,343,68097,1,0,0:0:0:0:
379,91,68247,1,8,0:0:0:0:
139,248,68397,1,0,0:0:0:0:
468,241,68547,6,2,P|459:109|371:93,1,233.999989288331
268,210,68997,1,0,0:0:0:0:
385,335,69147,2,0,L|542:361,1,116.999994644165
184,228,69447,2,8,L|27:254,1,116.999994644165
338,260,69747,6,0,P|356:201|349:121,1,116.999994644165,0|0,0:0|0:0,0:0:0:0:
183,53,70047,1,0,0:0:0:0:
238,382,70197,1,0,0:0:0:0:
409,51,70347,2,2,B|323:43|323:43|298:64|298:64|175:53,1,233.999989288331
242,300,70797,5,0,0:0:0:0:
457,143,70947,2,0,P|497:111|510:25,1,116.999994644165,0|0,0:0|0:0,0:0:0:0:
183,53,71247,1,8,0:0:0:0:
326,363,71397,1,0,0:0:0:0:
357,12,71547,1,8,0:0:0:0:
165,271,71697,1,0,0:0:0:0:
451,191,71847,1,8,0:0:0:0:
31,144,71997,1,0,0:0:0:0:
221,356,72147,6,2,B|255:326|263:284|263:284|243:238|263:207|263:207|310:180|301:128,1,233.999989288331
116,10,72597,1,0,0:0:0:0:
74,256,72747,2,8,P|93:304|139:348,1,116.999994644165
269,78,73047,5,8,0:0:0:0:
9,198,73197,1,0,0:0:0:0:
371,307,73347,1,8,0:0:0:0:
110,6,73497,1,0,0:0:0:0:
133,382,73647,1,0,0:0:0:0:
232,3,73797,1,0,0:0:0:0:
29,321,73947,6,2,B|92:281|153:294|153:294|214:332|214:332|246:313|295:319,1,270.000010299683
512,281,74397,1,0,0:0:0:0:
208,102,74547,2,0,L|219:256,1,135.000005149842,0|0,0:0|0:0,0:0:0:0:
449,384,74847,2,8,P|437:330|385:256,1,135.000005149842,0|0,0:0|0:0,0:0:0:0:
20,130,75147,2,8,P|48:177|120:231,1,135.000005149842
411,166,75447,1,0,0:0:0:0:
153,51,75597,1,0,0:0:0:0:
297,372,75747,6,2,B|301:331|287:296|287:296|312:255|312:255|266:174|302:93,1,270.000010299683
510,9,76197,1,0,0:0:0:0:
503,197,76347,2,0,P|454:247|378:268,1,135.000005149842
216,0,76647,2,0,P|286:11|339:54,1,135.000005149842,0|0,0:0|0:0,0:0:0:0:
263,336,76947,5,8,0:0:0:0:
134,172,77097,1,0,0:0:0:0:
264,358,77247,1,8,0:0:0:0:
256,90,77397,1,0,0:0:0:0:
74,251,77547,2,2,B|128:305|203:257|188:256|256:203|328:261,1,270.000010299683
32,355,77997,1,0,0:0:0:0:
134,172,78147,2,0,L|141:14,1,135.000005149842,0|0,0:0|0:0,0:0:0:0:
38,228,78447,1,8,0:0:0:0:
362,187,78597,1,0,0:0:0:0:
50,26,78747,5,8,0:0:0:0:
131,332,78897,1,0,0:0:0:0:
227,86,79047,1,8,0:0:0:0:
15,242,79197,1,0,0:0:0:0:
257,370,79347,2,2,B|290:354|331:368|331:368|362:336|418:341|418:341|467:375|519:361,1,270.000010299683
343,18,79797,1,8,0:0:0:0:
295,161,79947,2,2,P|322:221|308:294,1,135.000005149842
126,367,80247,5,8,0:0:0:0:
193,25,80397,1,0,0:0:0:0:
416,265,80547,1,8,0:0:0:0:
41,306,80697,1,0,0:0:0:0:
371,22,80847,1,8,0:0:0:0:
243,384,80997,1,0,0:0:0:0:
38,32,81147,6,2,B|102:21|102:21|136:32|136:32|221:20,1,157.500001502037
503,283,81447,2,2,P|454:355|364:385,1,157.500001502037
216,137,81747,2,2,P|284:82|379:82,1,157.500001502037
150,381,82047,1,0,0:0:0:0:
75,15,82197,1,0,0:0:0:0:
98,276,82347,6,0,L|113:97,1,157.500001502037
411,322,82647,1,8,0:0:0:0:
15,368,82797,1,0,0:0:0:0:
320,15,82947,5,8,0:0:0:0:
288,381,83097,1,0,0:0:0:0:
26,37,83247,1,8,0:0:0:0:
506,157,83397,1,0,0:0:0:0:
84,254,83547,1,8,0:0:0:0:
434,341,83697,1,0,0:0:0:0:
199,5,83847,6,2,B|197:38|202:63|202:63|189:101|185:151|185:151|207:192|209:244,1,236.250002253056
181,304,84147,2,2,P|167:219|207:116,1,157.500001502037
484,196,84447,2,2,P|471:281|401:366,1,157.500001502037
111,83,84747,6,0,B|171:50|171:50|272:76,1,157.500001502037
325,347,85047,1,8,0:0:0:0:
10,153,85197,1,0,0:0:0:0:
309,2,85347,5,8,0:0:0:0:
218,381,85497,1,0,0:0:0:0:
34,0,85647,1,8,0:0:0:0:
80,382,85797,1,0,0:0:0:0:
181,11,85947,5,4,0:0:0:0:
173,89,86022,1,0,0:0:0:0:
165,167,86097,1,4,0:0:0:0:
157,246,86172,1,0,0:0:0:0:
149,324,86247,1,4,0:0:0:0:
57,18,86397,1,8,0:0:0:0:
244,283,86547,6,2,P|308:353|441:300,1,236.250002253056
482,219,86847,2,2,P|477:128|435:69,1,157.500001502037
156,362,87147,1,8,0:0:0:0:
508,297,87297,1,0,0:0:0:0:
328,56,87447,2,0,P|263:120|247:191,1,157.500001502037,0|0,0:0|0:0,0:0:0:0:
156,362,87747,2,2,L|146:188,1,157.500001502037
42,0,88047,2,2,L|32:174,1,157.500001502037
21,374,88347,5,8,0:0:0:0:
132,65,88497,1,0,0:0:0:0:
326,383,88647,1,8,0:0:0:0:
247,0,88797,1,0,0:0:0:0:
88,317,88947,5,8,0:0:0:0:
487,301,89097,1,0,0:0:0:0:
84,25,89247,1,8,0:0:0:0:
352,366,89397,1,0,0:0:0:0:
484,67,89547,5,8,0:0:0:0:
35,324,89697,1,0,0:0:0:0:
487,301,89847,2,0,B|441:330|441:330|326:318,1,157.500001502037,0|0,0:0|0:0,0:0:0:0:
11,99,90147,2,0,P|68:42|149:22,1,157.500001502037,0|0,0:0|0:0,0:0:0:0:
228,349,90447,5,8,0:0:0:0:
65,198,90597,1,0,0:0:0:0:
253,370,90747,1,8,0:0:0:0:
290,3,90897,1,0,0:0:0:0:
0,261,91047,2,2,B|46:290|46:290|161:278,1,157.500001502037
452,207,91347,1,0,0:0:0:0:
136,173,91497,1,0,0:0:0:0:
507,310,91647,1,0,0:0:0:0:
231,56,91797,1,0,0:0:0:0:
289,366,91947,6,2,P|326:275|306:201,1,157.500001502037
115,25,92247,2,2,P|107:122|149:187,1,157.500001502037
512,88,92547,2,2,L|357:49,1,157.500001502037
46,254,92847,1,0,0:0:0:0:
440,175,92997,1,0,0:0:0:0:
135,172,93147,6,2,L|287:210,1,157.500001502037
465,361,93447,1,8,0:0:0:0:
238,32,93597,1,0,0:0:0:0:
235,366,93747,1,8,0:0:0:0:
453,56,93897,1,0,0:0:0:0:
51,131,94047,1,8,0:0:0:0:
401,359,94197,1,0,0:0:0:0:
240,5,94347,5,8,0:0:0:0:
117,369,94497,1,0,0:0:0:0:
465,150,94647,1,8,0:0:0:0:
12,64,94797,1,0,0:0:0:0:
269,384,94947,1,8,0:0:0:0:
240,5,95097,1,0,0:0:0:0:
253,284,95247,2,0,L|265:127,1,157.500001502037,0|0,0:0|0:0,0:0:0:0:
464,149,95547,6,0,P|474:227|452:302,1,157.500001502037
269,383,95847,2,2,P|196:353|143:297,1,157.500001502037
161,94,96147,2,2,P|84:61|-27:76,1,157.500001502037
87,378,96447,5,8,0:0:0:0:
229,0,96597,1,0,0:0:0:0:
0,217,96747,1,8,0:0:0:0:
392,189,96897,1,0,0:0:0:0:
38,8,97047,1,8,0:0:0:0:
221,380,97197,1,0,0:0:0:0:
498,45,97347,6,0,B|401:17|401:17|308:31,1,157.500001502037,0|0,0:0|0:0,0:0:0:0:
29,333,97647,2,0,B|129:329|129:329|214:287,1,157.500001502037,0|0,0:0|0:0,0:0:0:0:
93,2,97947,2,2,P|67:70|84:154,1,157.500001502037
269,382,98247,1,0,0:0:0:0:
219,0,98397,1,0,0:0:0:0:
248,249,98547,2,2,L|264:61,1,157.500001502037
471,227,98847,2,2,L|487:415,1,157.500001502037
450,23,99147,5,8,0:0:0:0:
86,230,99297,1,0,0:0:0:0:
502,155,99447,1,8,0:0:0:0:
97,6,99597,1,0,0:0:0:0:
272,343,99747,1,8,0:0:0:0:
385,0,99897,1,0,0:0:0:0:
262,367,100047,5,8,0:0:0:0:
26,88,100197,1,0,0:0:0:0:
453,180,100347,1,8,0:0:0:0:
7,293,100497,1,0,0:0:0:0:
241,3,100647,2,0,P|274:83|271:180,1,157.500001502037,0|0,0:0|0:0,0:0:0:0:
49,384,100947,6,0,P|101:315|187:269,1,157.500001502037
493,361,101247,1,0,0:0:0:0:
183,182,101397,1,0,0:0:0:0:
476,2,101547,2,0,L|442:215,1,157.500001502037
408,381,101847,5,8,0:0:0:0:
347,0,101997,1,0,0:0:0:0:
501,271,102147,1,8,0:0:0:0:
113,219,102297,1,0,0:0:0:0:
366,22,102447,5,8,0:0:0:0:
359,100,102522,1,0,0:0:0:0:
353,178,102597,1,4,0:0:0:0:
346,257,102672,1,0,0:0:0:0:
340,335,102747,6,0,P|280:301|296:199,1,161.999995056153
441,373,103197,1,0,0:0:0:0:
200,357,103347,2,0,B|118:344|118:344|16:368,1,161.999995056153
149,126,103947,2,0,B|119:203|119:203|47:279,1,161.999995056153
121,41,104397,1,8,0:0:0:0:
206,63,104547,2,2,L|373:71,1,161.999995056153
505,278,104997,1,0,0:0:0:0:
336,174,105147,5,8,0:0:0:0:
382,285,105297,1,0,0:0:0:0:
336,174,105447,2,8,L|243:159,1,80.9999975280763
25,345,105747,2,8,L|118:330,1,80.9999975280763
166,164,106047,2,8,L|86:176,1,80.9999975280763
194,336,106347,2,0,L|273:348,1,80.9999975280763,0|0,0:0|0:0,0:0:0:0:
403,283,106647,2,8,L|412:241,1,40.4999987640381
396,194,106797,1,8,0:0:0:0:
328,136,106947,2,0,P|272:185|284:295,1,161.999995056153
408,105,107547,5,8,0:0:0:0:
273,48,107697,1,0,0:0:0:0:
138,105,107847,1,8,0:0:0:0:
3,48,107997,1,0,0:0:0:0:
124,266,108147,2,2,L|139:90,1,161.999995056153
59,319,108597,1,0,0:0:0:0:
206,286,108747,2,0,P|259:305|300:333,1,80.9999975280763,0|0,0:0|0:0,0:0:0:0:
368,359,109047,2,0,P|421:340|462:312,1,80.9999975280763,0|0,0:0|0:0,0:0:0:0:
337,160,109347,5,8,0:0:0:0:
235,184,109497,1,0,0:0:0:0:
409,235,109647,1,8,0:0:0:0:
439,134,109797,1,0,0:0:0:0:
323,3,109947,6,2,P|313:71|339:164,1,161.999995056153
409,235,110397,1,0,0:0:0:0:
235,184,110547,2,0,P|187:168|135:169,1,80.9999975280763,0|0,0:0|0:0,0:0:0:0:
71,229,110847,1,0,0:0:0:0:
336,159,110997,1,0,0:0:0:0:
59,44,111147,2,0,L|65:134,1,80.9999975280763,0|0,0:0|0:0,0:0:0:0:
120,324,111447,1,0,0:0:0:0:
228,210,111597,1,0,0:0:0:0:
71,229,111747,6,2,B|130:217|130:217|158:226|158:226|241:208,1,161.999995056153
407,178,112197,1,0,0:0:0:0:
304,344,112347,2,0,P|252:296|229:202,1,161.999995056153
277,55,112947,2,0,P|289:98|285:146,1,80.9999975280763,0|0,0:0|0:0,0:0:0:0:
399,0,113247,2,0,P|397:44|378:89,1,80.9999975280763
183,107,113547,6,2,L|13:91,1,161.999995056153,0|0,0:0|0:0,0:0:0:0:
167,207,113997,1,0,0:0:0:0:
266,176,114147,2,0,P|286:138|288:88,1,80.9999975280763,0|0,0:0|0:0,0:0:0:0:
454,2,114447,5,8,0:0:0:0:
407,115,114597,1,0,0:0:0:0:
453,228,114747,2,0,P|410:229|365:252,1,80.9999975280763,0|0,0:0|0:0,0:0:0:0:
236,311,115047,1,8,0:0:0:0:
325,323,115197,1,0,0:0:0:0:
162,358,115347,6,2,L|51:368,1,80.9999975280763
290,241,115647,1,0,0:0:0:0:
325,323,115797,1,0,0:0:0:0:
202,229,115947,2,0,L|192:118,1,80.9999975280763,0|0,0:0|0:0,0:0:0:0:
117,18,116247,2,2,P|110:69|131:107,1,80.9999975280763
265,90,116547,2,2,P|272:39|251:1,1,80.9999975280763
192,54,116847,1,8,0:0:0:0:
310,163,116997,1,0,0:0:0:0:
463,115,117147,6,2,L|360:100,1,80.9999975280763
247,237,117447,1,0,0:0:0:0:
386,234,117597,1,0,0:0:0:0:
503,325,117747,2,0,L|400:340,1,80.9999975280763,0|0,0:0|0:0,0:0:0:0:
187,307,118047,1,8,0:0:0:0:
166,183,118197,1,0,0:0:0:0:
199,338,118347,2,0,P|212:280|231:251,1,80.9999975280763,0|0,0:0|0:0,0:0:0:0:
409,157,118647,2,0,P|396:215|377:244,1,80.9999975280763,0|0,0:0|0:0,0:0:0:0:
302,238,118947,5,8,0:0:0:0:
212,52,119247,1,0,0:0:0:0:
191,143,119397,1,0,0:0:0:0:
212,52,119547,2,2,B|275:40|275:40|397:58,2,161.999995056153
39,4,120447,1,0,0:0:0:0:
85,159,120597,1,0,0:0:0:0:
29,311,120747,6,2,P|120:294|202:324,1,161.999995056153
263,274,121197,1,0,0:0:0:0:
404,337,121347,2,0,P|362:342|307:319,1,80.9999975280763,0|0,0:0|0:0,0:0:0:0:
456,233,121647,1,0,0:0:0:0:
485,379,121797,1,0,0:0:0:0:
436,214,121947,2,8,L|444:127,1,80.9999975280763
403,54,122247,1,0,0:0:0:0:
507,299,122397,1,0,0:0:0:0:
361,128,122547,6,2,P|281:101|200:114,1,161.999995056153
125,204,122997,1,0,0:0:0:0:
107,42,123147,2,2,L|127:228,1,161.999995056153
0,304,123747,2,0,P|38:291|71:260,1,80.9999975280763,0|0,0:0|0:0,0:0:0:0:
253,300,124047,2,0,P|215:287|182:256,1,80.9999975280763,0|0,0:0|0:0,0:0:0:0:
124,203,124347,5,8,0:0:0:0:
128,321,124647,1,0,0:0:0:0:
205,180,124797,1,0,0:0:0:0:
159,25,124947,1,8,0:0:0:0:
16,83,125247,2,0,L|110:78,1,80.9999975280763,0|0,0:0|0:0,0:0:0:0:
216,84,125547,2,0,L|310:89,1,80.9999975280763,0|0,0:0|0:0,0:0:0:0:
491,15,125847,1,0,0:0:0:0:
359,36,125997,1,8,0:0:0:0:
491,15,126147,6,2,L|478:182,1,161.999995056153
507,253,126597,1,0,0:0:0:0:
398,173,126747,2,0,P|359:155|305:150,1,80.9999975280763,0|0,0:0|0:0,0:0:0:0:
77,276,127047,2,0,L|87:374,1,80.9999975280763,0|0,0:0|0:0,0:0:0:0:
229,168,127347,2,0,L|239:70,1,80.9999975280763,0|0,0:0|0:0,0:0:0:0:
144,206,127647,1,0,0:0:0:0:
328,223,127797,1,0,0:0:0:0:
149,104,127947,6,2,P|68:141|43:212,1,161.999995056153
144,206,128397,1,0,0:0:0:0:
229,168,128547,2,0,L|239:70,1,80.9999975280763,0|0,0:0|0:0,0:0:0:0:
452,13,128847,2,0,P|418:48|405:85,1,80.9999975280763,0|0,0:0|0:0,0:0:0:0:
479,264,129147,6,0,P|500:220|501:181,1,80.9999975280763,0|0,0:0|0:0,0:0:0:0:
354,180,129447,1,0,0:0:0:0:
443,346,129597,1,0,0:0:0:0:
427,158,129747,2,2,L|253:142,1,161.999995056153
194,193,130197,1,0,0:0:0:0:
11,6,130347,2,0,L|21:86,1,80.9999975280763,0|0,0:0|0:0,0:0:0:0:
143,274,130647,5,8,0:0:0:0:
173,115,130797,1,0,0:0:0:0:
46,209,130947,1,8,0:0:0:0:
277,230,131097,1,0,0:0:0:0:
143,43,131247,2,0,P|107:73|98:127,1,80.9999975280763,0|0,0:0|0:0,0:0:0:0:
143,274,131547,6,2,L|173:110,1,161.999995056153
20,95,131997,1,0,0:0:0:0:
219,310,132147,2,2,P|301:325|362:276,1,161.999995056153
484,375,132597,1,0,0:0:0:0:
448,288,132747,2,0,L|443:201,1,80.9999975280763,0|0,0:0|0:0,0:0:0:0:
390,49,133047,1,0,0:0:0:0:
401,359,133197,1,0,0:0:0:0:
508,146,133347,6,2,P|419:120|364:165,1,161.999995056153
272,325,133797,2,2,L|282:131,1,161.999995056153
214,16,134247,2,2,P|217:70|228:109,2,80.9999975280763
146,164,134697,1,0,0:0:0:0:
345,38,134847,1,8,0:0:0:0:
229,267,134997,1,0,0:0:0:0:
415,219,135147,6,0,L|311:206,1,80.9999975280763,0|0,0:0|0:0,0:0:0:0:
60,347,135447,2,0,L|140:336,1,80.9999975280763,0|0,0:0|0:0,0:0:0:0:
204,95,135747,2,0,P|193:134|200:186,1,80.9999975280763,0|0,0:0|0:0,0:0:0:0:
286,348,136047,5,8,0:0:0:0:
295,126,136197,1,0,0:0:0:0:
123,238,136347,1,8,0:0:0:0:
401,276,136497,1,0,0:0:0:0:
166,79,136647,1,8,0:0:0:0:
283,377,136797,1,0,0:0:0:0:
370,53,136947,6,0,B|382:128|382:128|368:188,1,116.999994644165
238,299,137247,1,0,0:0:0:0:
295,126,137397,1,0,0:0:0:0:
440,262,137547,2,0,L|275:251,1,116.999994644165,0|0,0:0|0:0,0:0:0:0:
108,188,137847,2,2,P|198:180|233:307,1,233.999989288331
36,271,138297,1,0,0:0:0:0:
178,45,138447,1,0,0:0:0:0:
160,259,138597,1,0,0:0:0:0:
0,102,138747,6,2,P|60:93|116:97,1,116.999994644165
349,329,139047,2,2,P|289:319|237:297,1,116.999994644165
342,50,139347,2,2,L|347:203,1,116.999994644165
366,358,139647,5,8,0:0:0:0:
263,100,139797,1,0,0:0:0:0:
456,252,139947,1,8,0:0:0:0:
164,276,140097,1,0,0:0:0:0:
478,290,140247,1,8,0:0:0:0:
267,215,140397,1,0,0:0:0:0:
464,372,140547,6,2,B|458:326|478:291|478:291|456:251|456:251|491:205|474:132,1,233.999989288331
403,9,140997,2,2,P|317:76|358:178,1,233.999989288331
505,36,141447,1,8,0:0:0:0:
404,100,141597,1,0,0:0:0:0:
228,42,141747,5,8,0:0:0:0:
127,106,141897,1,0,0:0:0:0:
278,236,142047,1,8,0:0:0:0:
241,17,142197,1,0,0:0:0:0:
9,176,142347,6,2,B|73:167|73:167|106:191|106:191|250:166,1,233.999989288331
303,115,142797,1,0,0:0:0:0:
507,327,142947,2,0,L|385:301,1,116.999994644165,0|0,0:0|0:0,0:0:0:0:
47,256,143247,1,0,0:0:0:0:
114,351,143397,1,0,0:0:0:0:
227,380,143547,2,0,L|370:365,1,116.999994644165,0|0,0:0|0:0,0:0:0:0:
406,134,143847,1,0,0:0:0:0:
312,285,143997,1,0,0:0:0:0:
478,204,144147,6,2,P|505:151|476:65,1,116.999994644165
300,37,144447,1,0,0:0:0:0:
406,134,144597,1,0,0:0:0:0:
231,107,144747,2,2,L|62:92,1,116.999994644165
12,328,145047,2,2,P|88:237|28:137,1,233.999989288331
140,349,145497,1,0,0:0:0:0:
234,357,145647,2,2,L|375:336,1,116.999994644165
453,127,145947,2,0,P|378:138|343:174,1,116.999994644165,0|0,0:0|0:0,0:0:0:0:
425,380,146247,2,0,P|492:346|515:301,1,116.999994644165,0|0,0:0|0:0,0:0:0:0:
251,120,146547,6,0,L|240:262,1,116.999994644165,0|0,0:0|0:0,0:0:0:0:
301,41,146847,1,8,0:0:0:0:
194,312,146997,1,0,0:0:0:0:
349,164,147147,1,8,0:0:0:0:
142,117,147297,1,0,0:0:0:0:
339,258,147447,2,0,P|405:259|465:244,1,116.999994644165,0|0,0:0|0:0,0:0:0:0:
210,197,147747,6,2,P|144:196|84:211,1,116.999994644165
284,321,148047,1,0,0:0:0:0:
240,116,148197,1,0,0:0:0:0:
36,268,148347,2,0,L|50:389,1,116.999994644165,0|0,0:0|0:0,0:0:0:0:
365,255,148647,6,2,P|279:215|182:297,1,233.999989288331
284,321,149097,1,0,0:0:0:0:
462,384,149247,2,0,L|476:268,1,116.999994644165,0|0,0:0|0:0,0:0:0:0:
393,0,149547,2,0,L|406:116,1,116.999994644165,0|0,0:0|0:0,0:0:0:0:
486,172,149847,1,8,0:0:0:0:
319,113,149997,1,0,0:0:0:0:
144,145,150147,6,0,P|200:167|266:172,1,116.999994644165,0|0,0:0|0:0,0:0:0:0:
229,31,150447,1,8,0:0:0:0:
89,242,150597,1,0,0:0:0:0:
341,114,150747,1,8,0:0:0:0:
80,75,150897,1,0,0:0:0:0:
251,324,151047,1,8,0:0:0:0:
259,3,151197,1,0,0:0:0:0:
114,215,151347,6,2,P|172:205|247:203,1,116.999994644165
333,291,151647,2,2,P|391:301|466:303,1,116.999994644165
265,132,151947,1,0,0:0:0:0:
283,354,152097,1,0,0:0:0:0:
497,242,152247,2,2,P|448:140|311:111,1,233.999989288331
81,161,152697,1,0,0:0:0:0:
170,226,152847,2,0,L|335:211,1,116.999994644165,0|0,0:0|0:0,0:0:0:0:
376,22,153147,2,0,L|259:11,1,116.999994644165
96,54,153447,5,8,0:0:0:0:
209,308,153597,1,0,0:0:0:0:
233,85,153747,1,8,0:0:0:0:
88,259,153897,1,0,0:0:0:0:
312,197,154047,1,8,0:0:0:0:
118,140,154197,1,0,0:0:0:0:
209,308,154347,1,8,0:0:0:0:
218,198,154497,2,2,B|59:229|59:229|132:248,1,233.999989288331
298,266,154947,6,0,P|363:279|411:313,1,116.999994644165,0|0,0:0|0:0,0:0:0:0:
218,198,155247,2,0,P|196:135|202:76,1,116.999994644165,0|0,0:0|0:0,0:0:0:0:
421,0,155547,2,0,P|423:58|402:112,1,116.999994644165,0|0,0:0|0:0,0:0:0:0:
291,35,155847,5,8,0:0:0:0:
492,166,155997,1,0,0:0:0:0:
306,170,156147,1,0,0:0:0:0:
431,272,156297,1,0,0:0:0:0:
285,318,156447,1,8,0:0:0:0:
402,112,156597,1,0,0:0:0:0:
509,330,156747,6,2,B|439:356|439:356|231:304,1,233.999989288331
130,222,157197,1,0,0:0:0:0:
1,347,157347,2,0,P|56:306|131:301,1,116.999994644165,0|0,0:0|0:0,0:0:0:0:
234,382,157647,5,8,0:0:0:0:
261,90,157797,1,0,0:0:0:0:
87,384,157947,1,8,0:0:0:0:
391,272,158097,1,0,0:0:0:0:
155,44,158247,1,8,0:0:0:0:
186,305,158397,1,0,0:0:0:0:
462,167,158547,6,2,B|414:119|342:130|342:130|309:186|247:177,1,233.999989288331
85,110,158997,1,0,0:0:0:0:
241,3,159147,2,0,P|297:11|336:54,1,116.999994644165,0|0,0:0|0:0,0:0:0:0:
302,269,159447,5,8,0:0:0:0:
256,89,159597,1,0,0:0:0:0:
412,226,159747,1,8,0:0:0:0:
162,204,159897,1,0,0:0:0:0:
404,92,160047,1,8,0:0:0:0:
276,350,160197,1,0,0:0:0:0:
58,178,160347,6,2,P|127:102|249:142,1,233.999989288331
383,339,160797,2,2,B|311:330|311:330|276:350|276:350|248:322|248:322|160:311,1,233.999989288331
0,247,161247,5,8,0:0:0:0:
298,159,161397,1,0,0:0:0:0:
106,378,161547,1,8,0:0:0:0:
66,116,161697,1,0,0:0:0:0:
277,350,161847,1,8,0:0:0:0:
28,333,161997,1,0,0:0:0:0:
201,92,162147,6,2,B|189:125|198:160|198:160|167:196|167:196|188:247|162:326,1,233.999989288331
0,139,162597,2,2,L|134:131,1,116.999994644165
289,197,162897,1,0,0:0:0:0:
91,243,163047,1,8,0:0:0:0:
265,52,163197,1,0,0:0:0:0:
207,313,163347,5,8,0:0:0:0:
107,26,163497,1,0,0:0:0:0:
407,230,163647,1,8,0:0:0:0:
12,225,163797,1,0,0:0:0:0:
337,37,163947,5,8,0:0:0:0:
192,355,164097,1,0,0:0:0:0:
124,151,164247,1,8,0:0:0:0:
187,384,164397,1,0,0:0:0:0:
321,139,164547,6,0,B|337:182|337:182|322:269,1,116.999994644165,0|0,0:0|0:0,0:0:0:0:
284,365,164847,1,8,0:0:0:0:
222,99,164997,1,0,0:0:0:0:
446,313,165147,1,8,0:0:0:0:
121,258,165297,1,0,0:0:0:0:
416,65,165447,1,0,0:0:0:0:
377,366,165597,1,0,0:0:0:0:
212,74,165747,6,2,P|185:157|301:230,1,233.999989288331
296,22,166197,1,4,0:0:0:0:
131,24,166347,2,2,L|7:40,1,116.999994644165
290,232,166647,2,0,P|311:170|304:103,1,116.999994644165,0|0,0:0|0:0,0:0:0:0:
80,144,166947,2,0,P|78:202|98:256,1,116.999994644165,0|0,0:0|0:0,0:0:0:0:
264,341,167247,1,0,0:0:0:0:
201,163,167397,1,0,0:0:0:0:
32,334,167547,6,2,L|170:335,1,116.999994644165
400,364,167847,1,0,0:0:0:0:
192,272,167997,1,0,0:0:0:0:
445,284,168147,2,0,L|307:285,1,116.999994644165
192,106,168447,2,0,P|249:121|312:186,1,116.999994644165,0|0,0:0|0:0,0:0:0:0:
90,284,168747,2,0,P|74:227|99:140,1,116.999994644165,0|0,0:0|0:0,0:0:0:0:
274,235,169047,1,0,0:0:0:0:
8,295,169197,1,0,0:0:0:0:
87,53,169347,6,2,B|192:9|192:9|313:69,1,233.999989288331
240,340,169797,1,0,0:0:0:0:
192,106,169947,1,8,0:0:0:0:
295,255,170097,1,0,0:0:0:0:
41,162,170247,1,8,0:0:0:0:
327,147,170397,1,0,0:0:0:0:
105,365,170547,5,8,0:0:0:0:
108,81,170697,1,0,0:0:0:0:
349,329,170847,1,8,0:0:0:0:
67,275,170997,1,0,0:0:0:0:
374,358,171147,5,8,0:0:0:0:
261,146,171297,1,0,0:0:0:0:
245,322,171447,1,8,0:0:0:0:
457,193,171597,1,0,0:0:0:0:
175,189,171747,5,8,0:0:0:0:
467,323,171897,1,0,0:0:0:0:
294,49,172047,1,8,0:0:0:0:
339,378,172197,1,0,0:0:0:0:
444,94,172347,5,8,0:0:0:0:
226,373,172497,1,0,0:0:0:0:
374,9,172647,1,8,0:0:0:0:
323,296,172797,1,0,0:0:0:0:
217,6,172947,6,2,B|234:83|234:83|223:111|223:111|241:185,1,180
487,365,173247,2,2,P|431:267|356:213,1,180
32,365,173547,2,2,P|144:365|229:327,1,180
314,1,173847,1,0,0:0:0:0:
359,338,173997,1,0,0:0:0:0:
385,62,174147,6,2,L|367:249,1,180
139,79,174447,1,8,0:0:0:0:
499,34,174597,1,0,0:0:0:0:
219,330,174747,1,8,0:0:0:0:
307,0,174897,1,0,0:0:0:0:
454,328,175047,1,8,0:0:0:0:
14,228,175197,1,0,0:0:0:0:
501,97,175347,5,8,0:0:0:0:
0,0,175497,1,0,0:0:0:0:
333,367,175647,2,2,P|382:278|319:87,1,270
264,64,175947,2,2,L|59:89,1,180
0,360,176247,2,2,L|178:381,1,180
421,78,176547,6,2,B|402:50|402:50|411:226,1,180
465,372,176847,1,8,0:0:0:0:
15,219,176997,1,0,0:0:0:0:
492,12,177147,1,8,0:0:0:0:
80,85,177297,1,0,0:0:0:0:
330,368,177447,1,8,0:0:0:0:
319,0,177597,1,0,0:0:0:0:
471,289,177747,5,8,0:0:0:0:
51,225,177897,1,0,0:0:0:0:
395,60,178047,1,8,0:0:0:0:
164,381,178197,1,0,0:0:0:0:
102,2,178347,2,2,B|73:60|73:60|116:210,1,180
383,376,178647,2,2,L|391:156,1,180
13,299,178947,6,2,B|125:311|125:311|227:280,2,180
273,161,179397,1,0,0:0:0:0:
273,161,179472,1,0,0:0:0:0:
273,161,179547,1,0,0:0:0:0:
214,384,179697,1,0,0:0:0:0:
86,112,179847,1,0,0:0:0:0:
451,107,179997,1,0,0:0:0:0:
1,379,180147,5,8,0:0:0:0:
145,1,180297,1,0,0:0:0:0:
408,382,180447,1,8,0:0:0:0:
511,1,180597,1,0,0:0:0:0:
1,156,180747,1,8,0:0:0:0:
511,309,180897,1,0,0:0:0:0:
162,0,181047,1,8,0:0:0:0:
252,384,181197,1,0,0:0:0:0:
509,81,181347,5,8,0:0:0:0:
2,279,181497,1,0,0:0:0:0:
415,329,181647,2,2,B|418:262|418:262|437:242|437:242|441:154,1,180,0|0,0:0|0:0,0:0:0:0:
54,7,181947,2,2,P|79:105|149:152,1,180
346,236,182172,1,0,0:0:0:0:
346,236,182247,2,2,B|278:208|278:208|151:223,1,180
25,358,182547,6,0,B|93:386|93:386|220:371,1,180,0|0,0:0|0:0,0:0:0:0:
169,35,182847,1,8,0:0:0:0:
105,289,182997,1,0,0:0:0:0:
392,0,183147,1,8,0:0:0:0:
468,359,183297,1,0,0:0:0:0:
30,181,183447,1,0,0:0:0:0:
404,180,183597,1,0,0:0:0:0:
1,292,183747,6,2,B|56:302|56:302|92:284|92:284|185:302,1,180
510,140,184047,2,2,P|454:80|360:82,1,180
332,372,184347,1,0,0:0:0:0:
231,62,184497,1,0,0:0:0:0:
267,312,184647,2,0,L|289:128,1,180
210,380,184947,5,8,0:0:0:0:
292,0,185097,1,0,0:0:0:0:
424,326,185247,1,8,0:0:0:0:
76,134,185397,1,0,0:0:0:0:
512,196,185547,2,2,B|471:237|471:237|334:250,1,180
125,56,185847,1,8,0:0:0:0:
427,145,185997,1,0,0:0:0:0:
179,347,186147,1,8,0:0:0:0:
300,0,186297,1,0,0:0:0:0:
420,297,186447,6,2,B|296:313|296:313|207:288,2,180
146,175,186897,1,0,0:0:0:0:
0,357,187047,2,0,L|199:347,1,180,0|0,0:0|0:0,0:0:0:0:
509,52,187347,6,0,P|393:29|328:61,1,180,0|0,0:0|0:0,0:0:0:0:
340,329,187647,2,0,P|456:352|521:320,1,180,0|0,0:0|0:0,0:0:0:0:
234,49,187947,5,8,0:0:0:0:
253,356,188097,1,0,0:0:0:0:
421,63,188247,5,8,0:0:0:0:
126,353,188397,1,0,0:0:0:0:
370,0,188547,5,2,0:0:0:0:
360,89,188622,1,0,0:0:0:0:
349,178,188697,1,2,0:0:0:0:
338,268,188772,1,0,0:0:0:0:
327,357,188847,1,8,0:0:0:0:
176,71,188997,1,8,0:0:0:0:
42,244,189147,6,2,B|106:262|166:233|166:233|228:273|228:273|298:239|384:267,1,360
149,372,189597,1,8,0:0:0:0:
0,81,189747,2,0,P|72:22|168:38,1,180
195,157,190047,2,0,P|123:216|27:200,1,180,0|0,0:0|0:0,0:0:0:0:
419,0,190347,2,0,B|446:45|446:45|417:198,1,180,0|0,0:0|0:0,0:0:0:0:
391,335,190572,1,0,0:0:0:0:
391,335,190647,2,0,B|211:354,1,180,0|0,0:0|0:0,0:0:0:0:
2,145,190947,5,8,0:0:0:0:
476,263,191097,1,0,0:0:0:0:
83,272,191247,1,8,0:0:0:0:
413,84,191397,1,0,0:0:0:0:
99,2,191547,1,8,0:0:0:0:
226,379,191697,1,0,0:0:0:0:
368,10,191847,1,8,0:0:0:0:
0,237,191997,1,0,0:0:0:0:
435,370,192147,6,2,P|468:305|451:180,1,180
102,110,192447,2,2,P|84:180|126:299,1,180
502,55,192747,2,2,B|448:26|448:26|321:41,1,180
0,237,193047,1,0,0:0:0:0:
428,114,193197,1,0,0:0:0:0:
199,0,193347,6,2,L|177:206,1,180,0|0,0:0|0:0,0:0:0:0:
256,381,193647,1,8,0:0:0:0:
509,279,193797,1,0,0:0:0:0:
73,263,193947,1,8,0:0:0:0:
438,74,194097,1,0,0:0:0:0:
153,8,194247,1,8,0:0:0:0:
160,97,194322,1,0,0:0:0:0:
168,187,194397,1,8,0:0:0:0:
176,276,194472,1,0,0:0:0:0:
184,366,194547,6,2,P|259:305|241:223,1,180
82,64,194847,2,2,P|97:159|177:184,1,180
504,57,195147,2,2,B|445:33|445:33|315:45,2,180
351,249,195597,1,0,0:0:0:0:
430,117,195747,5,8,0:0:0:0:
483,373,195897,1,0,0:0:0:0:
221,152,196047,1,8,0:0:0:0:
499,185,196197,1,0,0:0:0:0:
214,379,196347,5,8,0:0:0:0:
176,9,196497,1,0,0:0:0:0:
443,289,196647,1,8,0:0:0:0:
19,227,196797,1,0,0:0:0:0:
458,2,196947,5,8,0:0:0:0:
215,358,197097,1,0,0:0:0:0:
176,9,197247,1,8,0:0:0:0:
505,292,197397,1,0,0:0:0:0:
41,252,197547,5,8,0:0:0:0:
509,87,197697,1,0,0:0:0:0:
59,0,197847,1,0,0:0:0:0:
243,364,197997,1,0,0:0:0:0:
303,35,198147,6,2,B|290:88|290:88|306:113|306:113|278:229,1,180
8,370,198447,2,2,P|55:281|141:237,1,180
498,374,198747,2,2,P|397:377|316:325,1,180
111,133,199047,5,8,0:0:0:0:
492,80,199197,1,0,0:0:0:0:
182,367,199347,5,8,0:0:0:0:
86,3,199497,1,0,0:0:0:0:
398,303,199647,5,8,0:0:0:0:
456,2,199797,1,0,0:0:0:0:
8,202,199947,6,2,B|64:213|64:213|198:192,1,180
512,91,200247,2,2,B|456:80|456:80|322:101,1,180
275,355,200547,6,0,B|304:312|287:263|280:277|252:233|285:184,2,180
235,55,200997,1,0,0:0:0:0:
371,343,201147,2,2,P|468:343|506:268,1,180
154,0,201447,2,2,B|141:63|141:63|187:187,1,180
420,270,201747,5,8,0:0:0:0:
451,0,201897,1,0,0:0:0:0:
74,295,202047,1,8,0:0:0:0:
512,159,202197,1,0,0:0:0:0:
238,0,202347,5,8,0:0:0:0:
271,384,202497,1,0,0:0:0:0:
469,72,202647,1,8,0:0:0:0:
0,176,202797,1,0,0:0:0:0:
501,327,202947,5,0,0:0:0:0:
29,379,203097,1,0,0:0:0:0:
380,7,203247,1,8,0:0:0:0:
357,384,203397,1,0,0:0:0:0:
118,30,203547,6,2,P|205:24|286:81,1,180
61,286,203847,2,2,L|43:98,1,180
468,106,204147,2,2,L|451:286,1,180
77,376,204447,5,8,0:0:0:0:
245,0,204597,1,0,0:0:0:0:
491,375,204747,1,8,0:0:0:0:
0,202,204897,1,0,0:0:0:0:
512,30,205047,1,8,0:0:0:0:
240,384,205197,1,0,0:0:0:0:
160,3,205347,6,2,B|134:127|134:127|161:205,1,180
384,384,205647,2,2,B|410:260|410:260|383:182,1,180
46,300,205947,2,2,B|88:283|135:291|135:291|176:319|233:305,2,180
196,202,206397,1,0,0:0:0:0:
466,376,206547,6,0,L|504:179,1,180
37,23,206847,2,0,L|75:220,1,180
273,380,207147,5,8,0:0:0:0:
436,5,207297,1,0,0:0:0:0:
1,270,207447,1,8,0:0:0:0:
509,177,207597,1,0,0:0:0:0:
126,4,207747,5,8,0:0:0:0:
174,364,207897,1,0,0:0:0:0:
501,66,208047,1,8,0:0:0:0:
9,93,208197,1,0,0:0:0:0:
494,274,208347,5,8,0:0:0:0:
19,350,208497,1,0,0:0:0:0:
374,2,208647,1,8,0:0:0:0:
316,379,208797,1,0,0:0:0:0:
67,8,208947,6,0,P|149:42|191:126,1,180
169,384,209247,2,0,P|101:326|87:233,1,180,0|0,0:0|0:0,3:0:0:0:
334,9,209547,5,8,0:0:0:0:
467,372,209697,1,0,0:0:0:0:
46,160,209847,1,8,0:0:0:0:
502,83,209997,1,0,0:0:0:0:
169,384,210147,5,8,0:0:0:0:
156,0,210297,1,0,0:0:0:0:
512,329,210447,1,8,0:0:0:0:
0,384,210597,1,0,0:0:0:0:
512,0,210747,6,2,P|490:82|482:197,1,180
225,384,211047,2,2,P|254:289|255:187,1,180
67,0,211347,2,2,B|46:114|46:114|58:181,2,180
53,330,211797,1,0,0:0:0:0:
179,29,211947,5,8,0:0:0:0:
362,363,212097,1,0,0:0:0:0:
0,224,212247,1,8,0:0:0:0:
441,106,212397,1,0,0:0:0:0:
132,370,212547,5,8,0:0:0:0:
91,3,212697,1,0,0:0:0:0:
512,318,212847,1,8,0:0:0:0:
46,313,212997,1,0,0:0:0:0:
454,0,213147,5,8,0:0:0:0:
339,384,213297,1,0,0:0:0:0:
173,16,213447,1,8,0:0:0:0:
150,330,213597,1,0,0:0:0:0:
494,93,213747,6,0,B|430:103|430:103|307:67,1,180
0,126,214047,1,0,0:0:0:0:
263,16,214197,1,0,0:0:0:0:
105,260,214347,2,0,P|76:161|112:79,1,180
436,12,214647,1,8,0:0:0:0:
198,377,214797,1,0,0:0:0:0:
180,2,214947,5,8,0:0:0:0:
441,302,215097,1,0,0:0:0:0:
5,215,215247,5,8,0:0:0:0:
343,39,215397,1,0,0:0:0:0:
315,380,215547,5,8,0:0:0:0:
1,35,215697,1,0,0:0:0:0:
512,195,215847,5,8,0:0:0:0:
4,358,215997,1,0,0:0:0:0:
512,0,216147,6,0,P|421:43|341:39,1,180
12,127,216447,1,8,0:0:0:0:
507,262,216597,1,0,0:0:0:0:
6,348,216747,2,0,P|61:258|143:231,1,180
418,38,217047,5,12,0:0:0:0:
149,384,217197,1,0,0:0:0:0:
266,0,217347,5,4,0:0:0:0:
335,384,217497,1,0,0:0:0:0:
142,0,217647,5,4,0:0:0:0:
512,384,217797,1,0,0:0:0:0:
0,0,217947,5,14,0:0:0:0:
256,192,218022,12,0,219747,0:0:0:0:
