osu file format v14

[General]
AudioFilename: audio.mp3
AudioLeadIn: 0
PreviewTime: 172934
Countdown: 0
SampleSet: Soft
StackLeniency: 0.5
Mode: 0
LetterboxInBreaks: 0
WidescreenStoryboard: 1

[Editor]
DistanceSpacing: 1.5
BeatDivisor: 4
GridSize: 4
TimelineZoom: 1

[Metadata]
Title:Psalm dla Ciebie
TitleUnicode:Psalm dla Ciebie
Artist:Piotr Rubik, Malgorzata Markiewicz, Janusz Radek
ArtistUnicode:Piotr Rubik, MaƂgorzata Markiewicz, Janusz Radek
Creator:-NeBu-
Version:Skubi's Oratorium
Source:
Tags:piotr rubik malgorzata markiewicz janusz radek polish poland psalterz wrzesniowy 2006 CptSqBany [Red Panda] -NeBu- Chalwa Yusomi Piggey ReFaller Bubblun -Kyu Asrasz
BeatmapID:1295849
BeatmapSetID:586156

[Difficulty]
HPDrainRate:6
CircleSize:5
OverallDifficulty:9
ApproachRate:9.4
SliderMultiplier:1.8
SliderTickRate:0.5

[Events]
//Background and Video events
0,0,"piotr-rubik-wejherowo.jpg",0,0
Video,-403,"zzzzzzzzzzzzzzzz.mp4"
//Break Periods
2,104729,107589
//Storyboard Layer 0 (Background)
//Storyboard Layer 1 (Fail)
//Storyboard Layer 2 (Pass)
//Storyboard Layer 3 (Foreground)
//Storyboard Sound Samples

[TimingPoints]
16347,600,3,2,2,70,1,0
41397,-100,3,2,2,5,0,0
41547,-66.6666666666667,3,2,2,70,0,0
41847,-66.6666666666667,3,2,2,5,0,0
41997,-50,3,2,2,70,0,0
42297,-50,3,2,2,5,0,0
42447,300,3,2,2,70,1,0
42447,-76.9230769230769,3,2,2,70,0,0
42747,-76.9230769230769,3,2,2,5,0,0
42897,600,3,2,2,70,1,0
42897,-71.4285714285714,3,2,2,70,0,0
43797,-71.4285714285714,3,2,2,5,0,0
44097,-71.4285714285714,3,2,3,60,0,0
44247,-71.4285714285714,3,2,3,30,0,0
44847,-71.4285714285714,3,2,3,60,0,0
45129,300,3,2,2,70,1,1
80229,-100,3,2,3,40,0,0
81129,-100,3,2,2,80,0,1
91029,-100,3,2,3,40,0,1
91479,-100,3,2,3,70,0,1
91929,-100,3,2,2,80,0,1
101830,-100,3,2,3,40,0,1
102279,-100,3,2,3,70,0,1
102729,-100,3,2,2,80,0,0
108129,-200,3,2,2,70,0,0
114429,-133.333333333333,3,2,2,70,0,0
118929,-200,3,2,2,70,0,0
121629,-133.333333333333,3,2,2,70,0,0
123729,-200,3,2,2,70,0,0
133329,-117.647058823529,3,2,2,70,0,0
133779,-83.3333333333333,3,2,2,70,0,0
134229,-66.6666666666667,3,2,2,70,0,0
134679,-125,3,2,3,40,0,0
136929,-100,3,2,2,70,0,1
163029,-71.4285714285714,3,2,2,70,0,1
163929,-55.5555555555556,3,2,2,70,0,1
165729,-83.3333333333333,3,2,2,70,0,1
172029,-100,3,2,3,40,0,0
172929,-100,3,2,2,70,0,1
182829,-100,3,2,3,40,0,1
183729,-100,3,2,2,70,0,1
193629,-100,3,2,3,40,0,0
194529,-100,3,2,2,70,0,1
204429,-100,3,2,3,50,0,1
205329,-100,3,2,2,70,0,1
215229,-100,3,2,3,50,0,0
216129,-100,3,2,2,70,0,1
216279,-100,3,2,2,70,0,1
216429,-100,3,2,3,50,0,0
216729,-100,3,2,2,70,0,1
217029,-100,3,2,3,50,0,0
217029,-100,3,2,3,50,0,0
217329,-100,3,2,3,60,0,1
217629,-100,3,2,3,60,0,0
217929,-100,3,2,3,60,0,1
218829,-100,3,2,3,60,0,0

[Colours]
Combo1 : 143,143,143
Combo2 : 63,70,139
Combo3 : 171,96,27

[HitObjects]
136,68,16347,5,0,0:0:0:0:
136,68,17547,5,0,0:0:0:0:
184,176,17847,1,0,0:0:0:0:
256,84,18147,2,0,P|328:92|380:36,1,135
372,53,19047,5,0,0:0:0:0:
340,176,19347,1,0,0:0:0:0:
256,84,19647,1,0,0:0:0:0:
180,161,19947,2,0,P|116:132|49:158,1,135
57,150,21447,5,0,0:0:0:0:
192,245,21747,2,0,P|248:205|228:121,1,135
196,272,22647,2,0,P|264:228|248:100,1,180
300,320,23547,1,0,0:0:0:0:
300,320,24447,5,0,0:0:0:0:
344,212,24747,1,0,0:0:0:0:
428,296,25047,1,0,0:0:0:0:
256,236,25347,1,0,0:0:0:0:
432,136,25647,1,0,0:0:0:0:
432,136,26247,5,0,0:0:0:0:
388,244,26547,1,0,0:0:0:0:
304,160,26847,1,0,0:0:0:0:
476,220,27147,2,0,P|468:293|400:336,1,135
423,330,28947,6,0,P|352:312|280:360,1,135
298,337,29547,1,0,0:0:0:0:
440,320,29847,2,0,P|360:292|272:336,1,180
448,180,30747,5,0,0:0:0:0:
448,180,31947,5,0,0:0:0:0:
332,176,32247,2,0,P|348:120|418:66,1,135
384,252,32847,1,0,0:0:0:0:
252,180,33147,1,0,0:0:0:0:
252,332,33447,5,0,0:0:0:0:
172,236,33747,1,0,0:0:0:0:
188,376,34047,1,0,0:0:0:0:
252,180,34347,1,0,0:0:0:0:
56,240,34647,1,0,0:0:0:0:
56,240,35247,5,0,0:0:0:0:
108,124,35547,1,0,0:0:0:0:
160,240,35847,1,0,0:0:0:0:
232,84,36147,1,0,0:0:0:0:
300,240,36447,1,0,0:0:0:0:
300,240,37047,5,0,0:0:0:0:
452,160,37347,1,0,0:0:0:0:
316,56,37647,1,0,0:0:0:0:
384,212,37947,1,0,0:0:0:0:
384,212,38247,1,0,0:0:0:0:
212,240,38847,5,0,0:0:0:0:
60,160,39147,1,0,0:0:0:0:
196,56,39447,1,0,0:0:0:0:
128,212,39747,1,0,0:0:0:0:
128,212,40047,1,0,0:0:0:0:
265,268,41247,6,0,P|309:248|329:220,1,67.5
325,224,41547,6,0,P|259:268|184:213,1,168.750006437302
185,216,41997,6,0,P|259:268|329:164,1,225
330,170,42447,6,0,P|276:266|213:128,1,292.499986610413
191,152,42897,6,0,P|219:258|205:135,1,440.999986541748
256,192,44097,5,0,0:0:0:0:
323,124,44247,5,2,0:0:0:0:
323,260,44397,1,2,0:0:0:0:
188,124,44547,5,2,0:0:0:0:
323,124,44697,1,2,0:0:0:0:
188,261,44847,5,0,0:0:0:0:
188,124,44997,1,0,0:0:0:0:
72,260,45147,5,6,0:0:0:0:
8,196,45279,1,0,0:0:0:0:
71,132,45429,1,0,0:0:0:0:
134,195,45579,1,0,0:0:0:0:
8,196,45729,1,0,0:0:0:0:
72,64,45879,1,0,0:0:0:0:
134,195,46029,2,0,P|190:211|218:195,2,90,2|0|0,0:0|0:0|0:0,0:0:0:0:
268,152,46479,2,0,P|309:136|349:154,2,90,2|0|0,0:0|0:0|0:0,0:0:0:0:
308,236,46929,5,6,0:0:0:0:
308,326,47079,1,0,0:0:0:0:
398,326,47229,1,0,0:0:0:0:
398,236,47379,1,0,0:0:0:0:
308,326,47529,1,0,0:0:0:0:
488,328,47679,1,0,0:0:0:0:
488,148,47829,6,0,L|396:120,1,90,2|0,0:0|0:0,0:0:0:0:
256,104,48129,2,0,L|348:76,1,90,2|0,0:0|0:0,0:0:0:0:
492,68,48429,2,0,L|400:40,1,90,2|0,0:0|0:0,0:0:0:0:
220,24,48729,5,6,0:0:0:0:
160,92,48879,1,0,0:0:0:0:
196,176,49029,1,0,0:0:0:0:
256,108,49179,5,0,0:0:0:0:
292,192,49329,1,0,0:0:0:0:
232,260,49479,1,0,0:0:0:0:
196,176,49629,6,0,L|148:64,1,90,6|0,0:0|0:0,0:0:0:0:
120,204,49929,2,0,L|168:316,1,90
267,342,50229,2,0,L|219:230,1,90
196,176,50529,5,6,0:0:0:0:
284,188,50679,1,0,0:0:0:0:
231,259,50829,1,0,0:0:0:0:
337,117,50979,5,0,0:0:0:0:
284,188,51129,1,0,0:0:0:0:
372,200,51279,1,0,0:0:0:0:
196,176,51429,5,2,0:0:0:0:
284,188,51579,1,0,0:0:0:0:
249,105,51729,1,0,0:0:0:0:
319,271,51879,5,0,0:0:0:0:
284,188,52029,1,0,0:0:0:0:
372,200,52179,1,0,0:0:0:0:
340,116,52329,5,6,0:0:0:0:
340,116,52479,1,0,0:0:0:0:
456,28,52629,1,0,0:0:0:0:
456,28,52779,1,0,0:0:0:0:
480,168,52929,1,0,0:0:0:0:
480,168,53079,1,0,0:0:0:0:
340,116,53229,6,0,P|272:120|232:152,2,90,2|0|0,0:0|0:0|0:0,0:0:0:0:
116,184,53679,2,0,P|184:180|224:148,2,90,2|0|0,0:0|0:0|0:0,0:0:0:0:
0,144,54129,5,6,0:0:0:0:
0,144,54279,1,0,0:0:0:0:
148,104,54429,1,0,0:0:0:0:
148,104,54579,1,0,0:0:0:0:
100,260,54729,1,0,0:0:0:0:
100,260,54879,1,0,0:0:0:0:
80,60,55029,6,0,P|132:24|196:40,1,90,2|0,0:0|0:0,0:0:0:0:
223,75,55329,2,0,P|197:40|156:23,1,90,2|0,0:0|0:0,0:0:0:0:
136,193,55629,2,0,L|147:103,1,90,2|0,0:0|0:0,0:0:0:0:
200,212,55929,5,6,0:0:0:0:
128,268,56079,1,0,0:0:0:0:
69,197,56229,1,0,0:0:0:0:
124,292,56379,1,0,0:0:0:0:
200,212,56529,1,0,0:0:0:0:
120,316,56679,1,0,0:0:0:0:
69,197,56829,6,0,L|80:107,1,90,4|0,0:0|0:0,0:0:0:0:
211,122,57129,2,0,L|199:211,1,90
120,316,57429,2,0,L|131:226,1,90
261,240,57729,5,6,0:0:0:0:
250,330,57879,1,0,0:0:0:0:
340,348,58029,1,0,0:0:0:0:
352,259,58179,1,0,0:0:0:0:
440,275,58329,1,0,0:0:0:0:
428,364,58479,1,0,0:0:0:0:
250,330,58629,5,2,0:0:0:0:
352,259,58779,1,0,0:0:0:0:
261,240,58929,1,0,0:0:0:0:
428,364,59079,5,0,0:0:0:0:
340,348,59229,1,0,0:0:0:0:
440,275,59379,1,0,0:0:0:0:
250,330,59529,6,0,L|158:311,1,90,6|0,0:0|0:0,0:0:0:0:
83,202,59829,2,0,L|175:221,1,90
270,148,60129,2,0,L|182:130,1,90
103,20,60429,5,2,0:0:0:0:
103,20,60579,1,0,0:0:0:0:
103,20,60729,1,0,0:0:0:0:
191,38,60879,5,2,0:0:0:0:
94,112,61029,1,0,0:0:0:0:
182,130,61179,1,0,0:0:0:0:
83,202,61329,6,0,L|175:221,1,90,6|0,0:0|0:0,0:0:0:0:
160,310,61629,2,0,L|72:292,1,90
94,112,61929,2,0,L|182:130,1,90
171,220,62229,5,2,0:0:0:0:
127,211,62379,1,0,0:0:0:0:
83,202,62529,1,0,0:0:0:0:
104,21,62679,5,2,0:0:0:0:
148,30,62829,1,0,0:0:0:0:
192,39,62979,1,0,0:0:0:0:
259,238,63129,5,6,0:0:0:0:
182,130,63279,1,0,0:0:0:0:
171,220,63429,5,0,0:0:0:0:
280,96,63579,1,0,0:0:0:0:
259,238,63729,5,0,0:0:0:0:
192,39,63879,1,0,0:0:0:0:
171,220,64029,5,6,0:0:0:0:
348,184,64179,1,0,0:0:0:0:
103,60,64329,5,0,0:0:0:0:
280,96,64479,1,0,0:0:0:0:
5,166,64629,5,0,0:0:0:0:
182,130,64779,1,0,0:0:0:0:
64,252,64929,5,6,0:0:0:0:
103,60,65079,1,0,0:0:0:0:
208,272,65229,5,0,0:0:0:0:
182,130,65379,1,0,0:0:0:0:
128,312,65529,5,0,0:0:0:0:
146,214,65679,1,0,0:0:0:0:
208,272,65829,6,0,L|316:268,1,90,2|0,0:0|0:0,0:0:0:0:
345,220,66129,2,0,L|256:224,1,90
304,176,66429,2,0,L|412:172,1,90,2|0,0:0|0:0,0:0:0:0:
484,172,66729,5,6,0:0:0:0:
438,96,66879,1,0,0:0:0:0:
393,172,67029,1,0,0:0:0:0:
483,20,67179,5,2,0:0:0:0:
438,96,67329,1,0,0:0:0:0:
392,20,67479,1,0,0:0:0:0:
393,172,67629,6,0,L|285:168,1,90,2|0,0:0|0:0,0:0:0:0:
255,120,67929,2,0,L|344:123,1,90
297,76,68229,2,0,L|189:72,1,90,2|0,0:0|0:0,0:0:0:0:
100,64,68529,5,6,0:0:0:0:
148,160,68679,1,0,0:0:0:0:
207,72,68829,1,0,0:0:0:0:
89,248,68979,5,2,0:0:0:0:
148,160,69129,1,0,0:0:0:0:
196,256,69279,1,0,0:0:0:0:
136,344,69429,6,0,L|244:340,1,90,2|0,0:0|0:0,0:0:0:0:
274,292,69729,2,0,L|184:295,1,90
232,248,70029,2,0,L|340:244,1,90,2|0,0:0|0:0,0:0:0:0:
468,240,70329,5,6,0:0:0:0:
392,120,70479,1,0,0:0:0:0:
321,244,70629,1,0,0:0:0:0:
164,4,70779,5,2,0:0:0:0:
240,124,70929,1,0,0:0:0:0:
311,0,71079,1,0,0:0:0:0:
169,248,71229,5,6,0:0:0:0:
93,128,71379,1,0,0:0:0:0:
22,252,71529,1,0,0:0:0:0:
164,4,71679,5,2,0:0:0:0:
240,124,71829,1,0,0:0:0:0:
311,0,71979,1,0,0:0:0:0:
169,248,72129,5,6,0:0:0:0:
56,64,72279,1,0,0:0:0:0:
283,231,72429,5,0,0:0:0:0:
93,128,72579,1,0,0:0:0:0:
373,159,72729,5,0,0:0:0:0:
157,165,72879,1,0,0:0:0:0:
283,231,73029,5,2,0:0:0:0:
157,165,73179,1,0,0:0:0:0:
169,248,73329,5,0,0:0:0:0:
93,128,73479,1,0,0:0:0:0:
62,206,73629,5,2,2:0:0:0:
56,64,73779,1,0,2:0:0:0:
64,276,73929,6,0,P|116:280|164:252,2,90,6|0|0,0:0|0:0|0:0,0:0:0:0:
208,228,74379,2,0,P|249:211|293:216,2,90,2|0|0,0:0|0:0|0:0,0:0:0:0:
360,248,74829,5,2,0:0:0:0:
292,132,74979,1,0,0:0:0:0:
280,288,75129,5,0,0:0:0:0:
348,172,75279,1,0,0:0:0:0:
361,332,75429,5,2,0:0:0:0:
293,216,75579,1,0,0:0:0:0:
208,320,75729,6,0,L|96:296,2,90,6|0|0,0:0|0:0|0:0,0:0:0:0:
144,224,76179,2,0,L|55:205,2,90,2|0|0,0:0|0:0|0:0,0:0:0:0:
100,32,76629,5,2,0:0:0:0:
124,120,76779,1,0,0:0:0:0:
208,152,76929,1,0,0:0:0:0:
304,152,77079,1,0,0:0:0:0:
388,120,77229,1,2,0:0:0:0:
412,32,77379,1,0,0:0:0:0:
208,32,77529,5,6,0:0:0:0:
256,92,77679,1,0,0:0:0:0:
304,32,77829,1,0,0:0:0:0:
208,152,77979,5,2,0:0:0:0:
256,92,78129,1,0,0:0:0:0:
304,152,78279,1,0,0:0:0:0:
256,212,78429,5,6,0:0:0:0:
208,272,78579,1,0,0:0:0:0:
256,332,78729,1,0,0:0:0:0:
304,272,78879,5,2,0:0:0:0:
256,212,79029,1,0,0:0:0:0:
304,152,79179,1,0,0:0:0:0:
352,212,79329,5,6,0:0:0:0:
208,152,79479,1,0,0:0:0:0:
304,152,79629,5,0,0:0:0:0:
160,212,79779,1,0,0:0:0:0:
256,332,79929,5,0,0:0:0:0:
256,92,80079,1,0,0:0:0:0:
304,272,80229,5,2,0:0:0:0:
208,272,80379,1,2,0:0:0:0:
352,212,80529,1,2,0:0:0:0:
160,212,80679,1,0,0:0:0:0:
304,152,80829,1,0,0:0:0:0:
208,152,80979,1,0,0:0:0:0:
256,92,81129,5,6,0:0:0:0:
256,332,81279,1,0,0:0:0:0:
304,152,81429,5,0,0:0:0:0:
208,272,81579,1,0,0:0:0:0:
352,212,81729,5,0,0:0:0:0:
144,212,81879,1,0,0:0:0:0:
304,272,82029,5,8,0:0:0:0:
208,152,82179,1,8,0:0:0:0:
416,92,82329,5,0,0:0:0:0:
304,272,82479,1,0,0:0:0:0:
268,60,82629,5,0,0:0:0:0:
479,66,82779,1,0,0:0:0:0:
316,204,82929,5,2,0:0:0:0:
215,18,83079,1,0,0:0:0:0:
200,296,83229,5,0,0:0:0:0:
205,84,83379,1,0,0:0:0:0:
88,332,83529,5,0,0:0:0:0:
198,150,83679,1,0,0:0:0:0:
4,248,83829,5,6,0:0:0:0:
284,328,83979,1,0,0:0:0:0:
119,43,84129,5,0,0:0:0:0:
88,332,84279,1,0,0:0:0:0:
294,229,84429,5,0,0:0:0:0:
4,248,84579,1,0,0:0:0:0:
284,328,84729,5,8,0:0:0:0:
198,150,84879,1,8,0:0:0:0:
344,112,85029,5,0,0:0:0:0:
232,275,85179,1,0,0:0:0:0:
360,340,85329,5,0,0:0:0:0:
344,112,85479,1,0,0:0:0:0:
420,192,85629,5,2,0:0:0:0:
360,340,85779,1,0,0:0:0:0:
460,320,85929,5,0,0:0:0:0:
420,192,86079,1,0,0:0:0:0:
500,220,86229,5,0,0:0:0:0:
460,320,86379,1,0,0:0:0:0:
420,192,86529,5,6,0:0:0:0:
360,340,86679,1,0,0:0:0:0:
344,112,86829,5,0,0:0:0:0:
232,275,86979,1,0,0:0:0:0:
300,15,87129,5,0,0:0:0:0:
128,140,87279,1,0,0:0:0:0:
340,244,87429,5,8,0:0:0:0:
240,92,87579,1,8,0:0:0:0:
232,275,87729,5,0,0:0:0:0:
344,112,87879,1,0,0:0:0:0:
392,380,88029,5,0,0:0:0:0:
280,188,88179,1,0,0:0:0:0:
500,264,88329,5,2,0:0:0:0:
351,331,88479,1,0,0:0:0:0:
452,192,88629,5,0,0:0:0:0:
282,268,88779,1,0,0:0:0:0:
404,120,88929,5,0,0:0:0:0:
213,206,89079,1,0,0:0:0:0:
452,192,89229,5,6,0:0:0:0:
218,297,89379,1,0,0:0:0:0:
404,120,89529,5,0,0:0:0:0:
149,235,89679,1,0,0:0:0:0:
356,48,89829,5,0,0:0:0:0:
80,172,89979,1,0,0:0:0:0:
288,360,90129,5,8,0:0:0:0:
356,48,90279,1,8,0:0:0:0:
500,264,90429,5,0,0:0:0:0:
144,144,90579,1,0,0:0:0:0:
492,236,90729,5,2,0:0:0:0:
192,216,90879,1,0,0:0:0:0:
471,221,91029,5,2,0:0:0:0:
240,288,91179,1,2,0:0:0:0:
471,355,91329,1,2,0:0:0:0:
240,288,91479,5,0,0:0:0:0:
471,221,91629,1,0,0:0:0:0:
240,154,91779,1,0,0:0:0:0:
471,87,91929,5,6,0:0:0:0:
471,355,92079,1,0,0:0:0:0:
224,232,92229,5,0,0:0:0:0:
456,98,92379,1,0,0:0:0:0:
472,380,92529,5,0,0:0:0:0:
239,246,92679,1,0,0:0:0:0:
416,228,92829,5,8,0:0:0:0:
183,362,92979,1,8,0:0:0:0:
304,116,93129,5,0,0:0:0:0:
360,288,93279,1,0,0:0:0:0:
276,136,93429,5,0,0:0:0:0:
303,333,93579,1,0,0:0:0:0:
247,137,93729,5,2,0:0:0:0:
238,355,93879,1,0,0:0:0:0:
372,156,94029,5,0,0:0:0:0:
178,257,94179,1,0,0:0:0:0:
418,273,94329,5,0,0:0:0:0:
233,156,94479,1,0,0:0:0:0:
452,96,94629,5,6,0:0:0:0:
400,364,94779,1,0,0:0:0:0:
366,5,94929,5,0,0:0:0:0:
418,273,95079,1,0,0:0:0:0:
194,8,95229,5,0,0:0:0:0:
452,96,95379,1,0,0:0:0:0:
300,220,95529,5,8,0:0:0:0:
276,40,95679,1,8,0:0:0:0:
204,204,95829,5,0,0:0:0:0:
380,168,95979,1,0,0:0:0:0:
180,180,96129,5,0,0:0:0:0:
391,136,96279,1,0,0:0:0:0:
151,151,96429,5,2,0:0:0:0:
404,98,96579,1,0,0:0:0:0:
164,113,96729,5,0,0:0:0:0:
375,69,96879,1,0,0:0:0:0:
175,81,97029,5,0,0:0:0:0:
351,45,97179,1,0,0:0:0:0:
308,296,97329,5,6,0:0:0:0:
328,116,97479,1,0,0:0:0:0:
392,260,97629,5,0,0:0:0:0:
226,332,97779,1,0,0:0:0:0:
318,205,97929,5,0,0:0:0:0:
463,312,98079,1,0,0:0:0:0:
488,132,98229,5,8,0:0:0:0:
381,277,98379,1,8,0:0:0:0:
348,40,98529,5,0,0:0:0:0:
418,203,98679,1,0,0:0:0:0:
188,116,98829,5,0,0:0:0:0:
364,136,98979,1,0,0:0:0:0:
188,204,99129,5,2,0:0:0:0:
168,16,99279,1,0,0:0:0:0:
112,288,99429,5,0,0:0:0:0:
188,116,99579,1,0,0:0:0:0:
299,356,99729,5,0,0:0:0:0:
188,204,99879,1,0,0:0:0:0:
16,368,100029,5,6,0:0:0:0:
380,200,100179,1,0,0:0:0:0:
32,232,100329,5,0,0:0:0:0:
431,268,100479,1,0,0:0:0:0:
113,122,100629,5,0,0:0:0:0:
441,352,100779,1,0,0:0:0:0:
136,308,100929,5,8,0:0:0:0:
212,48,101079,1,8,0:0:0:0:
224,292,101229,5,0,0:0:0:0:
228,72,101379,1,0,0:0:0:0:
300,248,101529,5,0,0:0:0:0:
257,77,101679,1,0,0:0:0:0:
408,132,101829,5,2,0:0:0:0:
468,76,101979,1,2,0:0:0:0:
392,52,102129,1,2,0:0:0:0:
492,156,102279,5,0,0:0:0:0:
432,212,102429,1,0,0:0:0:0:
508,236,102579,1,0,0:0:0:0:
408,132,102729,5,6,0:0:0:0:
256,192,102879,12,0,104529,0:0:0:0:
208,144,108129,5,0,0:0:0:0:
208,144,109329,2,0,P|168:160|96:136,1,90
152,32,109929,1,0,0:0:0:0:
208,144,110229,1,0,0:0:0:0:
208,144,110829,6,0,P|249:127|293:134,1,90
260,256,111429,1,0,0:0:0:0:
208,144,111729,1,0,0:0:0:0:
192,220,112029,1,0,0:0:0:0:
192,220,113229,5,0,0:0:0:0:
192,220,113529,2,0,P|216:184|168:220,1,180
192,237,114429,2,0,P|197:135|139:218,1,270.000010299683
180,186,115329,1,0,0:0:0:0:
180,186,116229,5,0,0:0:0:0:
368,164,116529,1,0,0:0:0:0:
212,60,116829,1,0,0:0:0:0:
280,236,117129,1,0,0:0:0:0:
332,56,117429,1,0,0:0:0:0:
332,56,118029,5,0,0:0:0:0:
280,236,118329,1,0,0:0:0:0:
436,128,118629,1,0,0:0:0:0:
248,140,118929,2,0,P|188:188|180:256,1,135
177,242,120429,5,0,0:0:0:0:
177,242,120729,2,0,P|264:236|328:276,1,135
305,255,121329,1,0,0:0:0:0:
148,237,121629,2,0,P|245:216|343:264,1,202.500007724762
231,341,122529,1,0,0:0:0:0:
231,341,123729,5,0,0:0:0:0:
312,168,124029,1,0,0:0:0:0:
384,344,124329,2,0,P|324:292|316:220,1,135
313,240,125229,6,0,P|372:224|332:180,1,135
256,184,125829,1,0,0:0:0:0:
199,240,126129,2,0,P|140:224|180:180,1,135
256,184,127029,5,0,0:0:0:0:
192,24,127329,1,0,0:0:0:0:
332,120,127629,1,0,0:0:0:0:
180,120,127929,1,0,0:0:0:0:
320,24,128229,1,0,0:0:0:0:
256,184,128829,5,0,0:0:0:0:
426,208,129129,1,0,0:0:0:0:
273,281,129429,1,0,0:0:0:0:
349,150,129729,1,0,0:0:0:0:
362,319,130029,1,0,0:0:0:0:
256,184,130629,5,0,0:0:0:0:
150,319,130929,1,0,0:0:0:0:
163,150,131229,1,0,0:0:0:0:
238,281,131529,1,0,0:0:0:0:
86,208,131829,1,0,0:0:0:0:
351,191,133029,6,0,L|289:254,1,67.5
290,252,133329,6,0,B|351:191|351:191|264:104,1,191.250003647804
256,95,133779,6,0,B|351:191|351:191|255:287|255:287|236:262,1,269.999991760254
238,270,134229,6,0,B|255:287|255:287|351:191|351:191|256:95|256:95|207:143,1,337.500012874604
207,143,134679,6,0,B|256:95|256:95|351:191|351:191|255:287|255:287|159:192|159:192|202:149,1,504
256,192,135879,5,0,0:0:0:0:
323,124,136029,5,2,0:0:0:0:
323,260,136179,1,2,0:0:0:0:
188,124,136329,5,2,0:0:0:0:
323,124,136479,1,2,0:0:0:0:
188,261,136629,5,0,0:0:0:0:
188,124,136779,1,0,0:0:0:0:
256,332,136929,5,4,0:0:0:0:
188,261,137079,1,0,0:0:0:0:
260,340,137229,5,0,0:0:0:0:
188,192,137379,1,0,0:0:0:0:
264,348,137529,5,0,0:0:0:0:
188,124,137679,1,0,0:0:0:0:
116,348,137829,2,0,P|160:372|212:368,2,90,2|0|0,0:0|0:0|0:0,0:0:0:0:
264,348,138279,2,0,P|308:324|360:328,2,90,2|0|0,0:0|0:0|0:0,0:0:0:0:
412,352,138729,5,4,0:0:0:0:
276,248,138879,1,0,0:0:0:0:
420,348,139029,5,0,0:0:0:0:
216,276,139179,1,0,0:0:0:0:
428,344,139329,5,0,0:0:0:0:
156,304,139479,1,0,0:0:0:0:
432,244,139629,6,0,L|500:304,1,90,2|0,0:0|0:0,0:0:0:0:
408,132,139929,2,0,L|476:192,1,90,2|0,0:0|0:0,0:0:0:0:
384,20,140229,2,0,L|452:80,1,90,2|0,0:0|0:0,0:0:0:0:
324,108,140529,5,4,0:0:0:0:
256,128,140679,1,0,0:0:0:0:
188,108,140829,1,0,0:0:0:0:
100,24,140979,5,0,0:0:0:0:
120,92,141129,1,0,0:0:0:0:
100,160,141279,1,0,0:0:0:0:
20,244,141429,2,4,L|36:120,1,90,4|0,0:0|0:0,0:0:0:0:
88,249,141729,2,0,L|76:338,1,90
158,255,142029,2,0,L|174:131,1,90
214,349,142329,5,4,0:0:0:0:
237,170,142479,1,0,0:0:0:0:
284,355,142629,1,0,0:0:0:0:
301,221,142779,1,0,0:0:0:0:
351,359,142929,1,0,0:0:0:0:
363,270,143079,1,0,0:0:0:0:
284,355,143229,5,2,0:0:0:0:
301,221,143379,1,0,0:0:0:0:
214,349,143529,1,0,0:0:0:0:
237,170,143679,1,0,0:0:0:0:
144,343,143829,1,0,0:0:0:0:
172,118,143979,1,0,0:0:0:0:
105,259,144129,6,0,P|149:227|165:183,1,90,4|0,0:0|0:0,0:0:0:0:
146,36,144429,2,0,P|151:90|181:125,1,90
320,188,144729,2,0,P|270:165|224:174,1,90
342,268,145029,5,2,0:0:0:0:
400,204,145179,1,0,0:0:0:0:
368,124,145329,1,0,0:0:0:0:
400,204,145479,5,2,0:0:0:0:
341,267,145629,1,0,0:0:0:0:
374,348,145779,1,0,0:0:0:0:
433,285,145929,6,0,L|396:192,1,90,4|0,0:0|0:0,0:0:0:0:
341,267,146229,2,0,L|262:204,1,90
252,297,146529,2,0,L|152:282,1,90
73,271,146829,5,2,0:0:0:0:
162,283,146979,1,0,0:0:0:0:
200,156,147129,1,2,0:0:0:0:
270,211,147279,1,0,0:0:0:0:
366,119,147429,1,2,0:0:0:0:
399,201,147579,1,0,0:0:0:0:
340,356,147729,6,0,L|392:224,1,90,4|0,0:0|0:0,0:0:0:0:
420,368,148029,1,0,0:0:0:0:
272,300,148179,1,0,0:0:0:0:
399,201,148329,1,0,0:0:0:0:
340,356,148479,1,0,0:0:0:0:
312,184,148629,6,0,P|379:114|432:120,1,90,4|0,0:0|0:0,0:0:0:0:
340,267,148929,2,0,P|245:243|224:195,1,90
399,201,149229,2,0,P|426:294|394:336,1,90
364,368,149529,5,4,0:0:0:0:
340,267,149679,1,0,0:0:0:0:
277,347,149829,1,0,0:0:0:0:
256,257,149979,1,0,0:0:0:0:
191,328,150129,1,0,0:0:0:0:
172,246,150279,1,0,0:0:0:0:
275,175,150429,5,2,0:0:0:0:
256,257,150579,1,0,0:0:0:0:
368,151,150729,1,0,0:0:0:0:
340,267,150879,1,0,0:0:0:0:
465,107,151029,1,0,0:0:0:0:
424,277,151179,1,0,0:0:0:0:
316,92,151329,6,0,P|364:76|420:96,1,90,4|0,0:0|0:0,0:0:0:0:
294,160,151629,2,0,P|244:171|190:146,1,90
102,84,151929,2,0,P|146:76|188:92,1,90
208,251,152229,5,2,0:0:0:0:
144,223,152379,1,0,0:0:0:0:
140,151,152529,1,0,0:0:0:0:
364,151,152679,5,2,0:0:0:0:
360,223,152829,1,0,0:0:0:0:
296,251,152979,1,0,0:0:0:0:
206,180,153129,6,0,L|298:180,1,90,4|0,0:0|0:0,0:0:0:0:
295,117,153429,2,0,L|203:117,1,90
204,54,153729,2,0,L|294:54,1,90
142,180,154029,5,2,0:0:0:0:
141,117,154179,1,0,0:0:0:0:
140,54,154329,1,0,0:0:0:0:
358,54,154479,5,2,0:0:0:0:
357,117,154629,1,0,0:0:0:0:
356,180,154779,1,0,0:0:0:0:
284,243,154929,5,4,0:0:0:0:
356,180,155079,1,0,0:0:0:0:
212,243,155229,1,0,0:0:0:0:
357,117,155379,1,0,0:0:0:0:
141,243,155529,1,0,0:0:0:0:
358,54,155679,1,0,0:0:0:0:
146,54,155829,5,4,0:0:0:0:
363,243,155979,1,0,0:0:0:0:
147,117,156129,1,0,0:0:0:0:
292,243,156279,1,0,0:0:0:0:
148,180,156429,1,0,0:0:0:0:
220,243,156579,1,0,0:0:0:0:
80,244,156729,6,0,L|148:304,1,90,4|0,0:0|0:0,0:0:0:0:
355,303,157029,2,0,L|423:244,1,90
256,94,157329,2,0,L|256:184,1,90
216,248,157629,5,2,0:0:0:0:
296,248,157779,1,0,0:0:0:0:
168,172,157929,1,0,0:0:0:0:
344,172,158079,1,0,0:0:0:0:
120,96,158229,1,2,0:0:0:0:
392,96,158379,1,0,0:0:0:0:
216,24,158529,6,0,P|208:88|230:136,2,90,4|0|0,0:0|0:0|0:0,0:0:0:0:
296,24,158979,2,0,P|305:67|296:111,2,90,2|0|0,0:0|0:0|0:0,0:0:0:0:
168,172,159429,5,2,0:0:0:0:
344,172,159579,1,0,0:0:0:0:
120,248,159729,1,0,0:0:0:0:
392,248,159879,1,0,0:0:0:0:
72,324,160029,1,2,0:0:0:0:
440,324,160179,1,0,0:0:0:0:
216,360,160329,6,0,P|208:296|230:248,2,90,4|0|0,0:0|0:0|0:0,0:0:0:0:
296,359,160779,2,0,P|305:316|296:272,2,90,2|0|0,0:0|0:0|0:0,0:0:0:0:
120,248,161229,5,2,0:0:0:0:
392,248,161379,1,0,0:0:0:0:
72,172,161529,1,0,0:0:0:0:
440,172,161679,1,0,0:0:0:0:
24,96,161829,1,2,0:0:0:0:
488,96,161979,1,0,0:0:0:0:
204,44,162129,6,0,P|144:84|124:124,2,90,4|0|0,0:0|0:0|0:0,0:0:0:0:
308,44,162579,2,0,P|368:84|388:124,2,90
172,100,163029,6,0,P|119:159|109:207,2,125.999996154785,4|0|0,0:0|0:0|0:0,0:0:0:0:
340,100,163479,2,0,P|392:159|402:207,2,125.999996154785
156,164,163929,6,0,P|112:252|115:313,2,161.999995056153,4|0|0,0:0|0:0|0:0,0:0:0:0:
356,164,164379,2,0,P|399:252|396:313,2,161.999995056153
200,112,164829,5,2,0:0:0:0:
300,28,164979,1,0,0:0:0:0:
274,157,165129,5,0,0:0:0:0:
363,28,165279,1,0,0:0:0:0:
365,206,165429,5,2,0:0:0:0:
427,28,165579,1,0,0:0:0:0:
468,199,165729,2,0,P|396:215|332:183,2,107.999996704102,6|0|0,0:0|0:0|0:0,0:0:0:0:
196,181,166179,2,0,P|268:165|332:197,2,107.999996704102,2|0|0,0:0|0:0|0:0,0:0:0:0:
136,224,166629,5,2,0:0:0:0:
269,90,166779,1,0,0:0:0:0:
193,251,166929,5,0,0:0:0:0:
304,53,167079,1,0,0:0:0:0:
250,278,167229,5,2,0:0:0:0:
317,14,167379,1,0,0:0:0:0:
292,356,167529,2,0,P|229:363|162:290,2,107.999996704102,4|0|0,0:0|0:0|0:0,0:0:0:0:
148,292,167979,2,0,P|125:243|134:191,2,107.999996704102
180,110,168429,5,2,0:0:0:0:
292,356,168579,1,0,0:0:0:0:
308,64,168729,5,0,0:0:0:0:
356,356,168879,1,0,0:0:0:0:
452,32,169029,5,2,0:0:0:0:
419,355,169179,1,0,0:0:0:0:
304,224,169329,5,4,0:0:0:0:
416,180,169479,1,0,0:0:0:0:
388,296,169629,1,0,0:0:0:0:
312,216,169779,5,2,0:0:0:0:
351,330,169929,1,0,0:0:0:0:
442,235,170079,1,0,0:0:0:0:
320,208,170229,5,4,0:0:0:0:
433,297,170379,1,0,0:0:0:0:
294,338,170529,1,0,0:0:0:0:
328,200,170679,5,2,0:0:0:0:
231,308,170829,1,0,0:0:0:0:
386,346,170979,1,0,0:0:0:0:
336,192,171129,5,4,0:0:0:0:
299,127,171279,1,0,0:0:0:0:
223,127,171429,1,0,0:0:0:0:
185,192,171579,1,0,0:0:0:0:
223,258,171729,1,0,0:0:0:0:
299,258,171879,1,0,0:0:0:0:
223,127,172029,5,2,0:0:0:0:
185,192,172179,1,2,0:0:0:0:
336,192,172329,1,2,0:0:0:0:
299,127,172479,1,0,0:0:0:0:
223,258,172629,1,0,0:0:0:0:
299,258,172779,1,0,0:0:0:0:
376,52,172929,5,4,0:0:0:0:
336,192,173079,1,0,0:0:0:0:
436,120,173229,5,0,0:0:0:0:
320,4,173379,1,0,0:0:0:0:
272,120,173529,5,0,0:0:0:0:
476,36,173679,1,0,0:0:0:0:
196,28,173829,5,8,0:0:0:0:
240,192,173979,1,8,0:0:0:0:
264,48,174129,5,0,0:0:0:0:
132,160,174279,1,0,0:0:0:0:
272,120,174429,5,0,0:0:0:0:
101,150,174579,1,0,0:0:0:0:
240,192,174729,5,2,0:0:0:0:
76,132,174879,1,0,0:0:0:0:
180,242,175029,5,0,0:0:0:0:
67,108,175179,1,0,0:0:0:0:
104,258,175329,5,0,0:0:0:0:
73,85,175479,1,0,0:0:0:0:
4,236,175629,5,4,0:0:0:0:
232,132,175779,1,0,0:0:0:0:
300,280,175929,5,0,0:0:0:0:
72,176,176079,1,0,0:0:0:0:
140,324,176229,5,0,0:0:0:0:
368,220,176379,1,0,0:0:0:0:
284,368,176529,5,8,0:0:0:0:
232,132,176679,1,8,0:0:0:0:
468,184,176829,5,0,0:0:0:0:
368,220,176979,1,0,0:0:0:0:
385,10,177129,5,0,0:0:0:0:
388,116,177279,1,0,0:0:0:0:
193,35,177429,5,2,0:0:0:0:
295,65,177579,1,0,0:0:0:0:
157,224,177729,5,0,0:0:0:0:
217,137,177879,1,0,0:0:0:0:
327,317,178029,5,0,0:0:0:0:
263,232,178179,1,0,0:0:0:0:
252,376,178329,5,4,0:0:0:0:
420,340,178479,1,0,0:0:0:0:
164,265,178629,5,0,0:0:0:0:
327,317,178779,1,0,0:0:0:0:
119,168,178929,5,0,0:0:0:0:
234,294,179079,1,0,0:0:0:0:
280,144,179229,5,8,0:0:0:0:
228,308,179379,1,8,0:0:0:0:
396,268,179529,5,0,0:0:0:0:
288,136,179679,1,0,0:0:0:0:
424,168,179829,5,0,0:0:0:0:
316,300,179979,1,0,0:0:0:0:
496,256,180129,5,2,0:0:0:0:
460,80,180279,1,0,0:0:0:0:
444,296,180429,5,0,0:0:0:0:
397,67,180579,1,0,0:0:0:0:
392,336,180729,5,0,0:0:0:0:
334,54,180879,1,0,0:0:0:0:
444,296,181029,5,4,0:0:0:0:
397,67,181179,1,0,0:0:0:0:
392,336,181329,5,0,0:0:0:0:
334,54,181479,1,0,0:0:0:0:
340,376,181629,5,0,0:0:0:0:
271,41,181779,1,0,0:0:0:0:
220,328,181929,5,8,0:0:0:0:
290,105,182079,1,8,0:0:0:0:
296,280,182229,5,0,0:0:0:0:
240,148,182379,1,0,0:0:0:0:
236,240,182529,5,0,0:0:0:0:
296,188,182679,1,0,0:0:0:0:
328,364,182829,5,2,0:0:0:0:
240,148,182979,1,2,0:0:0:0:
180,316,183129,1,2,0:0:0:0:
240,148,183279,5,0,0:0:0:0:
328,364,183429,1,0,0:0:0:0:
404,200,183579,1,0,0:0:0:0:
508,348,183729,5,4,0:0:0:0:
408,216,183879,1,0,0:0:0:0:
340,364,184029,5,0,0:0:0:0:
412,232,184179,1,0,0:0:0:0:
496,352,184329,5,0,0:0:0:0:
416,248,184479,1,0,0:0:0:0:
272,344,184629,5,8,0:0:0:0:
402,326,184779,1,8,0:0:0:0:
380,156,184929,5,0,0:0:0:0:
330,277,185079,1,0,0:0:0:0:
332,112,185229,5,0,0:0:0:0:
311,266,185379,1,0,0:0:0:0:
268,80,185529,5,2,0:0:0:0:
291,265,185679,1,0,0:0:0:0:
184,64,185829,5,0,0:0:0:0:
268,271,185979,1,0,0:0:0:0:
92,72,186129,5,0,0:0:0:0:
253,285,186279,1,0,0:0:0:0:
64,252,186429,5,4,0:0:0:0:
277,91,186579,1,0,0:0:0:0:
72,276,186729,5,0,0:0:0:0:
368,155,186879,1,0,0:0:0:0:
72,300,187029,5,0,0:0:0:0:
452,251,187179,1,0,0:0:0:0:
304,352,187329,5,8,0:0:0:0:
292,172,187479,1,8,0:0:0:0:
384,344,187629,5,0,0:0:0:0:
228,304,187779,1,0,0:0:0:0:
404,320,187929,5,0,0:0:0:0:
216,272,188079,1,0,0:0:0:0:
424,296,188229,5,2,0:0:0:0:
204,240,188379,1,0,0:0:0:0:
416,264,188529,5,0,0:0:0:0:
228,216,188679,1,0,0:0:0:0:
408,232,188829,5,0,0:0:0:0:
252,192,188979,1,0,0:0:0:0:
312,288,189129,5,4,0:0:0:0:
352,132,189279,1,0,0:0:0:0:
137,80,189429,5,0,0:0:0:0:
252,192,189579,1,0,0:0:0:0:
404,32,189729,5,0,0:0:0:0:
250,76,189879,1,0,0:0:0:0:
428,240,190029,5,8,0:0:0:0:
466,84,190179,1,8,0:0:0:0:
235,156,190329,5,0,0:0:0:0:
351,267,190479,1,0,0:0:0:0:
212,232,190629,5,0,0:0:0:0:
250,76,190779,1,0,0:0:0:0:
289,213,190929,5,2,0:0:0:0:
135,259,191079,1,0,0:0:0:0:
319,155,191229,5,0,0:0:0:0:
129,193,191379,1,0,0:0:0:0:
356,100,191529,5,0,0:0:0:0:
124,125,191679,1,0,0:0:0:0:
319,155,191829,5,4,0:0:0:0:
129,193,191979,1,0,0:0:0:0:
356,100,192129,5,0,0:0:0:0:
124,125,192279,1,0,0:0:0:0:
400,52,192429,5,0,0:0:0:0:
120,57,192579,1,0,0:0:0:0:
276,12,192729,5,8,0:0:0:0:
224,164,192879,1,8,0:0:0:0:
324,80,193029,5,0,0:0:0:0:
272,232,193179,1,0,0:0:0:0:
372,148,193329,5,0,0:0:0:0:
320,300,193479,1,0,0:0:0:0:
324,80,193629,5,2,0:0:0:0:
272,232,193779,1,2,0:0:0:0:
372,148,193929,1,2,0:0:0:0:
272,232,194079,5,0,0:0:0:0:
324,80,194229,1,0,0:0:0:0:
224,164,194379,1,0,0:0:0:0:
276,12,194529,5,4,0:0:0:0:
320,300,194679,1,0,0:0:0:0:
204,36,194829,5,0,0:0:0:0:
386,263,194979,1,0,0:0:0:0:
164,100,195129,5,0,0:0:0:0:
435,205,195279,1,0,0:0:0:0:
116,384,195429,5,8,0:0:0:0:
116,384,195579,1,8,0:0:0:0:
164,100,195729,5,2,0:0:0:0:
72,304,195879,1,0,0:0:0:0:
204,88,196029,5,0,0:0:0:0:
167,308,196179,1,0,0:0:0:0:
240,64,196329,5,2,0:0:0:0:
261,286,196479,1,0,0:0:0:0:
268,32,196629,5,0,0:0:0:0:
345,241,196779,1,0,0:0:0:0:
296,0,196929,5,2,0:0:0:0:
416,172,197079,1,2,0:0:0:0:
156,124,197229,5,4,0:0:0:0:
416,172,197379,1,0,0:0:0:0:
144,60,197529,5,0,0:0:0:0:
345,241,197679,1,0,0:0:0:0:
200,24,197829,5,2,0:0:0:0:
261,286,197979,1,0,0:0:0:0:
444,8,198129,5,8,0:0:0:0:
444,8,198279,1,8,0:0:0:0:
465,276,198429,5,2,0:0:0:0:
444,8,198579,1,0,0:0:0:0:
261,216,198729,5,0,0:0:0:0:
438,27,198879,1,0,0:0:0:0:
465,256,199029,5,2,0:0:0:0:
433,44,199179,1,0,0:0:0:0:
277,204,199329,5,0,0:0:0:0:
429,60,199479,1,0,0:0:0:0:
466,239,199629,5,2,0:0:0:0:
425,76,199779,1,2,0:0:0:0:
380,292,199929,5,4,0:0:0:0:
492,140,200079,1,0,0:0:0:0:
512,328,200229,5,0,0:0:0:0:
400,176,200379,1,0,0:0:0:0:
360,384,200529,5,2,0:0:0:0:
248,232,200679,1,0,0:0:0:0:
132,372,200829,5,8,0:0:0:0:
132,372,200979,1,8,0:0:0:0:
92,132,201129,5,2,0:0:0:0:
188,292,201279,1,0,0:0:0:0:
152,52,201429,5,0,0:0:0:0:
96,236,201579,1,0,0:0:0:0:
264,88,201729,5,2,0:0:0:0:
103,243,201879,1,0,0:0:0:0:
344,120,202029,5,0,0:0:0:0:
109,249,202179,1,0,0:0:0:0:
428,180,202329,5,2,0:0:0:0:
115,256,202479,1,2,0:0:0:0:
422,325,202629,5,4,0:0:0:0:
109,249,202779,1,0,0:0:0:0:
491,235,202929,5,0,0:0:0:0:
103,243,203079,1,0,0:0:0:0:
507,118,203229,5,2,0:0:0:0:
96,236,203379,1,0,0:0:0:0:
484,0,203529,5,8,0:0:0:0:
484,0,203679,1,8,0:0:0:0:
422,325,203829,5,2,0:0:0:0:
264,16,203979,1,0,0:0:0:0:
216,364,204129,5,0,0:0:0:0:
424,112,204279,1,0,0:0:0:0:
422,325,204429,5,2,0:0:0:0:
316,260,204579,1,2,0:0:0:0:
192,260,204729,1,2,0:0:0:0:
88,332,204879,5,0,0:0:0:0:
192,260,205029,1,0,0:0:0:0:
220,136,205179,1,0,0:0:0:0:
172,20,205329,5,4,0:0:0:0:
192,260,205479,1,0,0:0:0:0:
288,56,205629,5,0,0:0:0:0:
185,273,205779,1,0,0:0:0:0:
376,150,205929,5,2,0:0:0:0:
178,286,206079,1,0,0:0:0:0:
172,20,206229,5,8,0:0:0:0:
172,20,206379,1,8,0:0:0:0:
296,308,206529,5,2,0:0:0:0:
314,68,206679,1,0,0:0:0:0:
352,260,206829,5,0,0:0:0:0:
247,43,206979,1,0,0:0:0:0:
376,192,207129,5,2,0:0:0:0:
176,56,207279,1,0,0:0:0:0:
368,120,207429,5,0,0:0:0:0:
126,102,207579,1,0,0:0:0:0:
314,68,207729,5,2,0:0:0:0:
95,173,207879,1,2,0:0:0:0:
247,43,208029,5,4,0:0:0:0:
312,320,208179,1,0,0:0:0:0:
107,263,208329,5,0,0:0:0:0:
314,68,208479,1,0,0:0:0:0:
368,275,208629,5,2,0:0:0:0:
95,192,208779,1,0,0:0:0:0:
304,0,208929,5,8,0:0:0:0:
304,0,209079,1,8,0:0:0:0:
196,344,209229,5,2,0:0:0:0:
460,144,209379,1,0,0:0:0:0:
180,88,209529,5,0,0:0:0:0:
460,264,209679,1,0,0:0:0:0:
96,324,209829,5,2,0:0:0:0:
390,173,209979,1,0,0:0:0:0:
84,120,210129,5,0,0:0:0:0:
390,244,210279,1,0,0:0:0:0:
24,224,210429,5,2,0:0:0:0:
324,208,210579,1,2,0:0:0:0:
96,324,210729,5,4,0:0:0:0:
40,48,210879,1,0,0:0:0:0:
120,332,211029,5,0,0:0:0:0:
137,50,211179,1,0,0:0:0:0:
144,344,211329,5,2,0:0:0:0:
233,76,211479,1,0,0:0:0:0:
276,384,211629,5,8,0:0:0:0:
276,384,211779,1,8,0:0:0:0:
324,132,211929,5,2,0:0:0:0:
144,344,212079,1,0,0:0:0:0:
384,168,212229,5,0,0:0:0:0:
122,261,212379,1,0,0:0:0:0:
472,240,212529,5,2,0:0:0:0:
143,179,212679,1,0,0:0:0:0:
448,320,212829,5,0,0:0:0:0:
193,102,212979,1,0,0:0:0:0:
392,376,213129,5,2,0:0:0:0:
280,59,213279,1,2,0:0:0:0:
144,344,213429,5,4,0:0:0:0:
383,62,213579,1,0,0:0:0:0:
68,276,213729,5,0,0:0:0:0:
450,138,213879,1,0,0:0:0:0:
30,168,214029,5,2,0:0:0:0:
470,247,214179,1,0,0:0:0:0:
64,56,214329,5,8,0:0:0:0:
64,56,214479,1,8,0:0:0:0:
144,344,214629,5,2,0:0:0:0:
136,72,214779,1,0,0:0:0:0:
148,348,214929,5,0,0:0:0:0:
196,112,215079,1,0,0:0:0:0:
152,352,215229,5,2,0:0:0:0:
62,196,215379,1,2,0:0:0:0:
152,40,215529,1,2,0:0:0:0:
332,40,215679,5,0,0:0:0:0:
422,196,215829,1,0,0:0:0:0:
332,352,215979,1,0,0:0:0:0:
152,352,216129,5,4,0:0:0:0:
422,196,216279,1,0,0:0:0:0:
152,40,216429,1,2,0:0:0:0:
152,40,216579,1,2,0:0:0:0:
332,352,216729,5,4,0:0:0:0:
62,196,216879,1,0,0:0:0:0:
332,40,217029,1,2,0:0:0:0:
332,40,217179,1,2,0:0:0:0:
152,352,217329,5,6,0:0:0:0:
440,112,217479,1,2,0:0:0:0:
72,272,217629,5,6,0:0:0:0:
488,240,217779,1,2,0:0:0:0:
40,160,217929,5,6,0:0:0:0:
