osu file format v14

[General]
AudioFilename: audio.mp3
AudioLeadIn: 0
PreviewTime: 172947
Countdown: 0
SampleSet: Soft
StackLeniency: 0.3
Mode: 0
LetterboxInBreaks: 0
WidescreenStoryboard: 1

[Editor]
Bookmarks: 147,10947,16347,30747,45147,65847,81147,102747,108147,122547,136947,157647,172947,194547,216147,217947
DistanceSpacing: 3
BeatDivisor: 4
GridSize: 8
TimelineZoom: 1.5

[Metadata]
Title:Psalm dla Ciebie
TitleUnicode:Psalm dla Ciebie
Artist:Piotr Rubik, Malgorzata Markiewicz, Janusz Radek
ArtistUnicode:Piotr Rubik, Malgorzata Markiewicz, Janusz Radek
Creator:-NeBu-
Version:ReFaller's Robi diffa
Source:
Tags:piotr rubik malgorzata markiewicz janusz radek polish poland psalterz wrzesniowy 2006 CptSqBany [Red Panda] -NeBu- Chalwa Yusomi Piggey ReFaller Bubblun -Kyu Asrasz
BeatmapID:1300518
BeatmapSetID:586156

[Difficulty]
HPDrainRate:8
CircleSize:4
OverallDifficulty:8
ApproachRate:9
SliderMultiplier:1.40000000596046
SliderTickRate:1

[Events]
//Background and Video events
0,0,"rubik.png",0,0
Video,-403,"zzzzzzzzzzzzzzzz.mp4"
//Break Periods
2,104447,107547
//Storyboard Layer 0 (Background)
//Storyboard Layer 1 (Fail)
//Storyboard Layer 2 (Pass)
//Storyboard Layer 3 (Foreground)
//Storyboard Sound Samples

[TimingPoints]
147,300,6,2,0,50,1,0
81147,-100,6,2,2,50,0,1
102747,-100,6,2,2,50,0,0
108147,-100,6,2,0,50,0,0
172947,-100,6,2,2,50,0,1
194472,-100,6,2,2,50,0,0
194547,-100,6,2,2,50,0,1
199872,-100,6,2,2,50,0,0
199947,-100,6,2,2,50,0,1
205272,-100,6,2,2,50,0,0
205347,-100,6,2,2,50,0,1
210672,-100,6,2,2,50,0,0
210747,-100,6,2,2,50,0,1
216147,-100,6,2,2,50,0,0
217947,-100,6,2,2,50,0,1
218022,-100,6,2,2,50,0,0

[HitObjects]
144,72,16347,6,0,P|255:143|367:73,2,280.000001192092,4|0|2,0:0|0:0|0:0,0:0:0:0:
256,16,17847,1,0,0:0:0:0:
447,96,18147,2,0,P|386:179|292:223,2,210.000000894069,2|0|0,0:0|0:0|0:0,0:0:0:0:
256,16,19347,1,2,0:0:0:0:
65,96,19647,1,0,0:0:0:0:
256,176,19947,2,0,B|288:224|256:272|256:272|224:320|256:376,2,210.000000894069,2|0|0,0:0|0:0|0:0,0:0:0:0:
160,88,21147,1,2,0:0:0:0:
352,88,21447,1,0,0:0:0:0:
120,176,21747,2,0,P|64:80|120:0,1,210.000000894069,2|0,0:0|0:0,0:0:0:0:
401,4,22647,2,0,P|448:93|392:176,1,210.000000894069,2|0,0:0|0:0,0:0:0:0:
256,320,23547,5,2,0:0:0:0:
256,64,24147,1,2,0:0:0:0:
256,192,24447,1,0,0:0:0:0:
128,192,24747,1,0,0:0:0:0:
256,192,25047,1,0,0:0:0:0:
384,192,25347,2,0,P|408:256|384:320,2,140.000000596046,2|2|0,0:0|0:0|0:0,0:0:0:0:
320,80,26247,1,0,0:0:0:0:
256,192,26547,1,2,0:0:0:0:
192,304,26847,1,0,0:0:0:0:
128,192,27147,2,0,P|88:104|128:0,2,210.000000894069,2|2|0,0:0|0:0|0:0,0:0:0:0:
256,192,28347,1,2,0:0:0:0:
384,192,28647,1,0,0:0:0:0:
352,336,28947,6,0,B|288:352|256:312|256:312|224:352|160:336,1,210.000000894069,2|2,0:0|0:0,0:0:0:0:
192,256,29547,1,0,0:0:0:0:
320,256,29847,2,0,P|360:168|320:64,1,210.000000894069,2|2,0:0|0:0,0:0:0:0:
57,221,30747,6,0,P|107:268|176:264,1,140.000000596046,2|0,0:0|0:0,0:0:0:0:
256,192,31197,1,0,0:0:0:0:
335,263,31347,2,0,P|404:268|454:221,1,140.000000596046
256,56,31947,1,2,0:0:0:0:
256,328,32247,1,0,0:0:0:0:
184,192,32547,2,0,L|324:192,2,140.000000596046,2|2|0,0:0|0:0|0:0,0:0:0:0:
408,192,33447,1,2,0:0:0:0:
104,192,33747,1,0,0:0:0:0:
408,192,34047,1,2,0:0:0:0:
208,336,34347,5,2,0:0:0:0:
68,336,34647,2,0,L|208:336,1,140.000000596046
256,192,35247,1,2,0:0:0:0:
396,192,35547,2,0,L|256:192,1,140.000000596046
208,48,36147,1,2,0:0:0:0:
68,48,36447,2,0,L|208:48,1,140.000000596046,2|0,0:0|0:0,0:0:0:0:
120,296,37047,5,2,0:0:0:0:
392,296,37347,1,2,0:0:0:0:
256,64,37647,1,0,0:0:0:0:
256,192,37947,2,0,B|296:208|328:192|328:192|360:176|392:192,2,140.000000596046,2|0|0,0:0|0:0|0:0,0:0:0:0:
256,64,38847,5,2,0:0:0:0:
120,296,39147,1,2,0:0:0:0:
392,296,39447,1,0,0:0:0:0:
256,192,39747,2,0,B|216:176|184:192|184:192|152:208|120:192,2,140.000000596046,2|0|0,0:0|0:0|0:0,0:0:0:0:
256,320,40647,5,2,0:0:0:0:
392,88,40947,1,0,0:0:0:0:
120,88,41247,1,0,0:0:0:0:
256,320,41547,2,0,B|320:348|320:348|392:320,1,140.000000596046,2|0,0:0|0:0,0:0:0:0:
320,220,41997,2,0,B|256:192|256:192|184:220,1,140.000000596046,2|0,0:0|0:0,0:0:0:0:
126,322,42447,2,0,B|192:348|192:348|256:320,1,140.000000596046,2|0,0:0|0:0,0:0:0:0:
352,136,42897,2,0,B|256:92|256:92|152:136,1,210.000000894069,2|0,0:0|0:0,0:0:0:0:
256,192,43497,12,0,44997,0:0:0:0:
256,160,45147,6,0,L|256:232,1,70.000000298023,4|0,0:0|0:0,0:0:0:0:
352,232,45447,2,0,L|352:162,1,70.000000298023
160,162,45747,2,0,L|160:232,1,70.000000298023
188,304,46047,2,0,L|328:304,1,140.000000596046,2|0,0:0|0:0,0:0:0:0:
324,88,46497,2,0,L|184:88,1,140.000000596046,2|0,0:0|0:0,0:0:0:0:
160,152,46947,6,0,L|160:222,1,70.000000298023,2|0,0:0|0:0,0:0:0:0:
352,222,47247,2,0,L|352:152,1,70.000000298023
256,154,47547,2,0,L|256:224,1,70.000000298023
304,304,47847,2,0,L|374:304,1,70.000000298023,2|0,0:0|0:0,0:0:0:0:
208,304,48147,2,0,L|138:304,1,70.000000298023,2|0,0:0|0:0,0:0:0:0:
304,216,48447,2,0,L|376:216,1,70.000000298023
208,216,48747,6,0,L|64:216,1,140.000000596046,2|0,0:0|0:0,0:0:0:0:
304,136,49197,2,0,L|448:136,1,140.000000596046,2|0,0:0|0:0,0:0:0:0:
256,328,49647,2,0,B|192:264|320:136|256:56,1,280.000001192092,2|0,0:0|0:0,0:0:0:0:
256,192,50547,12,0,52047,0:0:0:0:
192,232,52347,6,0,P|192:264|216:304,1,70.000000298023,2|0,0:0|0:0,0:0:0:0:
303,297,52647,2,0,P|319:266|320:231,1,70.000000298023
288,136,52947,2,0,P|250:128|216:136,1,70.000000298023
320,231,53247,2,0,P|394:246|464:231,1,140.000000596046,2|0,0:0|0:0,0:0:0:0:
219,134,53697,2,0,P|144:118|75:134,1,140.000000596046,2|0,0:0|0:0,0:0:0:0:
56,296,54147,6,0,L|112:344,1,70.000000298023,2|0,0:0|0:0,0:0:0:0:
193,287,54447,2,0,L|256:256,1,70.000000298023
256,256,54747,2,0,L|318:287,1,70.000000298023,2|0,0:0|0:0,0:0:0:0:
402,341,55047,2,0,L|456:296,1,70.000000298023,2|0,0:0|0:0,0:0:0:0:
415,147,55347,2,0,L|400:216,1,70.000000298023,2|0,0:0|0:0,0:0:0:0:
256,94,55647,2,0,L|256:24,1,70.000000298023
96,147,55947,6,0,L|112:216,1,70.000000298023,2|0,0:0|0:0,0:0:0:0:
256,320,56247,2,0,L|186:320,1,70.000000298023
256,192,56547,2,0,L|326:192,1,70.000000298023,2|0,0:0|0:0,0:0:0:0:
464,56,56847,2,0,B|360:-8|152:112|48:40,1,420.000001788138,2|2,0:0|0:0,0:0:0:0:
256,192,57897,12,0,59397,0:0:0:0:
256,288,59547,6,0,L|326:288,1,70.000000298023,2|0,0:0|0:0,0:0:0:0:
192,192,59847,2,0,L|120:192,1,70.000000298023
320,192,60147,2,0,L|390:192,1,70.000000298023,2|0,0:0|0:0,0:0:0:0:
132,322,60447,2,0,P|105:255|132:178,1,140.000000596046,2|0,0:0|0:0,0:0:0:0:
379,61,60897,2,0,P|405:127|379:205,1,140.000000596046,2|0,0:0|0:0,0:0:0:0:
291,348,61347,6,0,L|255:285,1,70.000000298023,2|0,0:0|0:0,0:0:0:0:
285,131,61647,2,0,L|321:193,1,70.000000298023
168,224,61947,2,0,L|235:205,1,70.000000298023
481,274,62247,2,0,B|440:295|392:255|344:272,1,140.000000596046,2|0,0:0|0:0,0:0:0:0:
147,133,62697,2,0,B|189:154|237:114|285:131,1,140.000000596046,2|0,0:0|0:0,0:0:0:0:
256,336,63147,6,0,P|232:312|208:272,1,70.000000298023,2|0,0:0|0:0,0:0:0:0:
284,129,63447,2,0,P|274:163|258:194,1,70.000000298023
90,208,63748,2,0,P|124:199|159:197,1,70.000000298023,2|0,0:0|0:0,0:0:0:0:
320,272,64047,2,0,P|448:256|528:136,1,280.000001192092,2|0,0:0|0:0,0:0:0:0:
256,16,64947,2,0,P|128:32|48:152,1,280.000001192092,2|0,0:0|0:0,0:0:0:0:
368,336,65847,5,0,0:0:0:0:
112,256,66147,1,2,0:0:0:0:
456,160,66447,1,0,0:0:0:0:
224,32,66747,2,0,B|130:10|114:80|12:57,2,210.000000894069,4|0|0,0:0|0:0|0:0,0:0:0:0:
408,128,67947,1,2,0:0:0:0:
64,224,68247,1,0,0:0:0:0:
288,352,68547,2,0,B|381:373|397:303|499:326,2,210.000000894069,2|2|0,0:0|0:0|0:0,0:0:0:0:
144,192,69747,1,2,0:0:0:0:
368,192,70047,1,0,0:0:0:0:
192,72,70347,2,0,P|256:48|320:72,1,140.000000596046,2|0,0:0|0:0,0:0:0:0:
435,263,70797,2,0,B|363:299|112:407|130:156|256:84|381:156|399:407|148:299|76:263,1,630.000002682207,2|2,0:0|0:0,0:0:0:0:
440,96,73047,6,0,L|352:112,1,70.000000298023
296,256,73347,2,0,L|364:243,1,70.000000298023,2|0,0:0|0:0,0:0:0:0:
232,136,73647,2,0,L|144:152,1,70.000000298023
64,304,73947,2,0,P|29:252|32:160,1,140.000000596046,4|0,0:0|0:0,0:0:0:0:
194,8,74397,2,0,P|228:59|226:152,1,140.000000596046,2|0,0:0|0:0,0:0:0:0:
235,267,74847,2,0,L|304:280,1,70.000000298023
232,136,75146,2,0,L|163:123,1,70.000000298023,2|0,0:0|0:0,0:0:0:0:
368,160,75447,2,0,L|436:172,1,70.000000298023
235,267,75747,2,0,L|96:246,1,140.000000596046,2|2,0:0|0:0,0:0:0:0:
256,24,76347,5,0,0:0:0:0:
256,360,76647,1,0,0:0:0:0:
384,264,76947,1,2,0:0:0:0:
164,201,77247,1,0,0:0:0:0:
320,72,77547,2,0,P|256:48|192:72,1,140.000000596046,2|0,0:0|0:0,0:0:0:0:
76,263,77997,2,0,B|148:299|399:407|381:156|256:84|130:156|112:407|363:299|435:263,1,630.000002682207,2|2,0:0|0:0,0:0:0:0:
256,192,79497,12,0,80997,0:0:0:0:
192,288,81147,6,0,L|122:288,1,70.000000298023,4|0,0:1|0:0,0:0:0:0:
320,96,81447,2,0,L|390:96,1,70.000000298023
256,192,81747,2,0,B|206:177|211:104|154:90,1,140.000000596046
352,304,82347,2,0,L|432:288,1,70.000000298023,4|0,0:0|0:0,0:0:0:0:
256,192,82647,2,0,L|187:205,1,70.000000298023
392,176,82947,2,0,L|460:162,1,70.000000298023
260,274,83247,2,0,L|191:287,1,70.000000298023
320,96,83547,2,0,L|388:82,1,70.000000298023,4|0,0:0|0:0,0:0:0:0:
192,96,83847,2,0,L|123:82,1,70.000000298023
256,192,84147,2,0,L|324:205,1,70.000000298023
120,176,84447,2,0,L|51:162,1,70.000000298023
56,328,84747,5,4,0:0:0:0:
480,192,85047,1,0,0:0:0:0:
32,192,85347,1,0,0:0:0:0:
456,328,85647,1,0,0:0:0:0:
56,56,85947,1,4,0:0:0:0:
456,56,86247,1,0,0:0:0:0:
160,304,86547,6,0,B|146:272|146:272|156:237,1,70.000000298023,4|0,0:1|0:0,0:0:0:0:
352,80,86847,2,0,B|365:111|365:111|355:146,1,70.000000298023
208,136,87147,2,0,L|72:104,1,140.000000596046
424,264,87747,2,0,L|439:196,1,70.000000298023,4|0,0:0|0:0,0:0:0:0:
328,240,88047,2,0,L|312:307,1,70.000000298023
88,264,88347,2,0,L|72:196,1,70.000000298023
184,240,88647,2,0,L|199:307,1,70.000000298023
392,344,88947,2,0,P|360:328|320:336,1,70.000000298023,4|0,0:0|0:0,0:0:0:0:
136,360,89247,2,0,P|171:357|202:330,1,70.000000298023
256,136,89547,2,0,L|187:120,1,70.000000298023
311,308,89847,2,0,L|379:323,1,70.000000298023
264,8,90147,5,4,0:0:0:0:
116,255,90447,1,0,0:0:0:0:
396,255,90747,1,0,0:0:0:0:
192,128,91047,2,0,P|125:108|55:110,1,140.000000596046,8|0,0:0|0:0,0:0:0:0:
320,256,91497,2,0,P|386:275|456:273,1,140.000000596046,8|0,0:0|0:0,0:0:0:0:
169,268,91947,6,0,L|101:250,1,70.000000298023,4|0,0:1|0:0,0:0:0:0:
342,115,92247,2,0,L|410:133,1,70.000000298023
256,192,92547,2,0,B|211:165|236:95|183:67,1,140.000000596046
319,325,93147,2,0,L|401:330,1,70.000000298023,4|0,0:0|0:0,0:0:0:0:
256,192,93447,2,0,L|186:187,1,70.000000298023
342,115,93747,2,0,L|412:120,1,70.000000298023
238,272,94047,2,0,L|168:267,1,70.000000298023
391,211,94347,2,0,L|461:216,1,70.000000298023,4|0,0:0|0:0,0:0:0:0:
319,325,94647,2,0,P|292:347|258:352,1,70.000000298023
224,132,94947,2,0,P|248:160|256:196,1,70.000000298023
110,299,95247,2,0,P|137:273|172:267,1,70.000000298023
484,271,95547,5,4,0:0:0:0:
27,112,95847,1,0,0:0:0:0:
472,134,96147,1,0,0:0:0:0:
39,249,96447,1,0,0:0:0:0:
413,8,96747,1,4,0:0:0:0:
98,375,97047,1,0,0:0:0:0:
352,304,97347,6,0,B|365:272|365:272|355:237,1,70.000000298023,4|0,0:1|0:0,0:0:0:0:
160,80,97647,2,0,B|146:111|146:111|156:146,1,70.000000298023
304,136,97947,2,0,L|440:104,1,140.000000596046
199,307,98547,2,0,L|184:240,1,70.000000298023,4|0,0:0|0:0,0:0:0:0:
72,196,98848,2,0,L|88:264,1,70.000000298023
311,308,99147,2,0,L|328:240,1,70.000000298023
439,196,99447,2,0,L|424:264,1,70.000000298023
112,352,99747,2,0,P|81:367|47:363,1,70.000000298023,4|0,0:0|0:0,0:0:0:0:
152,160,100047,2,0,P|179:139|214:137,1,70.000000298023
424,264,100347,2,0,L|496:248,1,70.000000298023
282,122,100647,2,0,L|213:137,1,70.000000298023
248,376,100947,5,4,0:0:0:0:
472,160,101247,1,0,0:0:0:0:
40,160,101547,1,0,0:0:0:0:
382,223,101847,2,0,P|402:290|400:360,1,140.000000596046,8|0,0:0|0:0,0:0:0:0:
128,160,102297,2,0,P|109:93|112:24,1,140.000000596046,8|0,0:0|0:0,0:0:0:0:
256,192,102747,5,4,0:1:0:0:
256,192,102897,12,0,104247,0:0:0:0:
455,221,108147,6,0,P|405:268|336:264,1,140.000000596046,4|0,0:0|0:0,0:0:0:0:
256,192,108597,1,0,0:0:0:0:
177,263,108747,2,0,P|108:268|58:221,1,140.000000596046
256,56,109347,1,2,0:0:0:0:
256,328,109647,1,0,0:0:0:0:
256,192,109947,2,0,B|296:176|328:192|328:192|360:208|392:192,2,140.000000596046,2|0|0,0:0|0:0|0:0,0:0:0:0:
58,222,110847,1,2,0:0:0:0:
256,328,111147,1,2,0:0:0:0:
256,56,111447,1,0,0:0:0:0:
472,128,111747,2,0,B|488:168|472:200|472:200|456:232|472:264,2,140.000000596046,2|0|0,0:0|0:0|0:0,0:0:0:0:
256,56,112647,5,2,0:0:0:0:
168,192,112947,1,0,0:0:0:0:
344,192,113247,1,0,0:0:0:0:
256,343,113547,2,0,P|154:368|48:344,1,210.000000894069,2|0,0:0|0:0,0:0:0:0:
256,56,114447,2,0,P|357:31|464:56,1,210.000000894069,2|2,0:0|0:0,0:0:0:0:
256,192,115347,1,0,0:0:0:0:
256,192,115947,1,0,0:0:0:0:
144,192,116247,5,0,0:0:0:0:
256,304,116547,1,2,0:0:0:0:
368,192,116847,1,0,0:0:0:0:
256,192,117147,2,0,B|240:152|256:120|256:120|272:88|256:56,2,140.000000596046,2|2|0,0:0|0:0|0:0,0:0:0:0:
256,304,118047,1,0,0:0:0:0:
368,192,118347,1,2,0:0:0:0:
144,192,118647,1,0,0:0:0:0:
256,80,118947,2,0,B|315:56|363:80|363:80|411:103|459:80,2,210.000000894069,2|2|0,0:0|0:0|0:0,0:0:0:0:
144,192,120147,1,0,0:0:0:0:
368,192,120447,1,0,0:0:0:0:
256,304,120747,2,0,P|154:328|48:304,1,210.000000894069,2|0,0:0|0:0,0:0:0:0:
256,80,121647,2,0,P|357:55|464:80,1,210.000000894069,2|0,0:0|0:0,0:0:0:0:
191,327,122547,6,0,P|256:351|320:327,1,140.000000596046,2|0,0:0|0:0,0:0:0:0:
256,248,122997,1,0,0:0:0:0:
320,168,123147,2,0,P|255:143|191:167,1,140.000000596046,2|0,0:0|0:0,0:0:0:0:
56,248,123747,1,2,0:0:0:0:
256,248,124047,1,0,0:0:0:0:
456,248,124347,2,0,P|495:139|464:48,1,210.000000894069,2|0,0:0|0:0,0:0:0:0:
256,344,125247,5,0,0:0:0:0:
256,192,125547,1,2,0:0:0:0:
256,344,125847,1,0,0:0:0:0:
56,248,126147,2,0,P|16:139|48:48,1,210.000000894069,2|2,0:0|0:0,0:0:0:0:
368,192,127047,5,0,0:0:0:0:
256,304,127347,1,2,0:0:0:0:
144,192,127647,1,0,0:0:0:0:
256,56,127947,2,0,B|272:88|256:120|256:120|240:152|256:192,2,140.000000596046,2|2|0,0:0|0:0|0:0,0:0:0:0:
136,192,128847,1,2,0:0:0:0:
376,192,129147,1,2,0:0:0:0:
128,192,129447,1,0,0:0:0:0:
256,304,129747,6,0,B|315:327|363:304|363:304|411:280|459:304,2,210.000000894069,2|0|0,0:0|0:0|0:0,0:0:0:0:
256,192,130947,1,2,0:0:0:0:
256,80,131247,1,0,0:0:0:0:
256,80,131547,2,0,B|196:56|148:80|148:80|100:103|52:80,2,210.000000894069,2|0|0,0:0|0:0|0:0,0:0:0:0:
368,192,132747,1,0,0:0:0:0:
144,192,133047,1,2,0:0:0:0:
256,304,133347,2,0,B|320:332|320:332|392:304,1,140.000000596046,2|0,0:0|0:0,0:0:0:0:
320,204,133797,2,0,B|256:176|256:176|184:204,1,140.000000596046,2|0,0:0|0:0,0:0:0:0:
126,306,134247,2,0,B|192:332|192:332|256:304,1,140.000000596046,2|0,0:0|0:0,0:0:0:0:
352,120,134697,2,0,B|256:76|256:76|152:120,1,210.000000894069,2|0,0:0|0:0,0:0:0:0:
256,192,135297,12,0,136797,0:0:0:0:
160,152,136947,6,0,L|160:222,1,70.000000298023,4|0,0:0|0:0,0:0:0:0:
352,222,137247,2,0,L|352:152,1,70.000000298023
256,154,137547,2,0,L|256:224,1,70.000000298023
188,304,137847,2,0,L|328:304,1,140.000000596046,2|0,0:0|0:0,0:0:0:0:
324,88,138297,2,0,L|184:88,1,140.000000596046,2|0,0:0|0:0,0:0:0:0:
160,152,138747,6,0,L|160:222,1,70.000000298023,2|0,0:0|0:0,0:0:0:0:
352,222,139047,2,0,L|352:152,1,70.000000298023,2|0,0:0|0:0,0:0:0:0:
256,154,139347,2,0,L|256:224,1,70.000000298023
304,304,139647,2,0,L|374:304,1,70.000000298023,2|0,0:0|0:0,0:0:0:0:
208,304,139947,2,0,L|138:304,1,70.000000298023,2|0,0:0|0:0,0:0:0:0:
304,216,140247,2,0,L|376:216,1,70.000000298023
208,216,140547,6,0,L|64:216,1,140.000000596046,2|0,0:0|0:0,0:0:0:0:
304,136,140997,2,0,L|448:136,1,140.000000596046,2|0,0:0|0:0,0:0:0:0:
256,328,141447,2,0,B|192:264|320:136|256:56,1,280.000001192092,2|0,0:0|0:0,0:0:0:0:
256,192,142347,12,0,143847,0:0:0:0:
219,134,144147,6,0,P|254:128|288:136,1,70.000000298023,2|0,0:0|0:0,0:0:0:0:
320,231,144448,2,0,P|318:266|303:296,1,70.000000298023
209,297,144747,2,0,P|192:266|191:232,1,70.000000298023,2|0,0:0|0:0,0:0:0:0:
288,136,145047,2,0,P|362:121|432:136,1,140.000000596046,2|0,0:0|0:0,0:0:0:0:
191,232,145497,2,0,P|116:248|47:232,1,140.000000596046,2|0,0:0|0:0,0:0:0:0:
56,88,145947,6,0,L|112:40,1,70.000000298023,2|0,0:0|0:0,0:0:0:0:
193,97,146247,2,0,L|256:128,1,70.000000298023,2|0,0:0|0:0,0:0:0:0:
256,128,146547,2,0,L|318:97,1,70.000000298023
402,43,146847,2,0,L|456:88,1,70.000000298023,2|0,0:0|0:0,0:0:0:0:
432,232,147147,2,0,L|363:217,1,70.000000298023
248,320,147447,2,0,L|317:335,1,70.000000298023
241,196,147747,6,0,L|256:127,1,70.000000298023,2|0,0:0|0:0,0:0:0:0:
128,232,148047,2,0,L|113:301,1,70.000000298023,2|0,0:0|0:0,0:0:0:0:
348,285,148347,2,0,L|363:216,1,70.000000298023
464,56,148647,2,0,B|360:-8|152:112|48:40,1,420.000001788138,2|2,0:0|0:0,0:0:0:0:
256,192,149697,12,0,151197,0:0:0:0:
192,192,151347,6,0,L|122:192,1,70.000000298023,2|0,0:0|0:0,0:0:0:0:
256,288,151647,2,0,L|326:288,1,70.000000298023,2|0,0:0|0:0,0:0:0:0:
390,192,151947,2,0,L|320:192,1,70.000000298023
132,322,152247,2,0,P|105:255|132:178,1,140.000000596046,2|0,0:0|0:0,0:0:0:0:
379,61,152697,2,0,P|405:127|379:205,1,140.000000596046,2|0,0:0|0:0,0:0:0:0:
291,348,153147,6,0,L|255:285,1,70.000000298023,2|0,0:0|0:0,0:0:0:0:
285,131,153447,2,0,L|321:193,1,70.000000298023
168,224,153747,2,0,L|235:205,1,70.000000298023,2|0,0:0|0:0,0:0:0:0:
481,274,154047,2,0,B|440:295|392:255|344:272,1,140.000000596046,2|0,0:0|0:0,0:0:0:0:
147,133,154497,2,0,B|189:154|237:114|285:131,1,140.000000596046,2|0,0:0|0:0,0:0:0:0:
256,336,154947,6,0,P|232:312|208:272,1,70.000000298023,2|0,0:0|0:0,0:0:0:0:
284,129,155247,2,0,P|274:163|258:194,1,70.000000298023,2|0,0:0|0:0,0:0:0:0:
90,208,155548,2,0,P|124:199|159:197,1,70.000000298023
320,272,155847,2,0,P|448:256|528:136,1,280.000001192092,2|0,0:0|0:0,0:0:0:0:
256,16,156747,2,0,P|128:32|48:152,1,280.000001192092,2|0,0:0|0:0,0:0:0:0:
368,336,157647,5,0,0:0:0:0:
112,256,157947,1,2,0:0:0:0:
456,160,158247,1,0,0:0:0:0:
224,32,158547,2,0,B|130:10|114:80|12:57,2,210.000000894069,4|0|0,0:0|0:0|0:0,0:0:0:0:
408,128,159747,1,2,0:0:0:0:
64,224,160047,1,0,0:0:0:0:
288,352,160347,2,0,B|381:373|397:303|499:326,2,210.000000894069,2|2|0,0:0|0:0|0:0,0:0:0:0:
144,192,161547,1,2,0:0:0:0:
368,192,161847,1,0,0:0:0:0:
192,72,162147,2,0,P|256:48|320:72,1,140.000000596046,2|0,0:0|0:0,0:0:0:0:
435,263,162597,2,0,B|363:299|112:407|130:156|256:84|381:156|399:407|148:299|76:263,1,630.000002682207,2|2,0:0|0:0,0:0:0:0:
440,96,164847,6,0,L|352:112,1,70.000000298023,2|0,0:0|0:0,0:0:0:0:
296,256,165147,2,0,L|364:243,1,70.000000298023,2|0,0:0|0:0,0:0:0:0:
232,136,165447,2,0,L|144:152,1,70.000000298023,2|0,0:0|0:0,0:0:0:0:
64,304,165747,2,0,P|29:252|32:160,1,140.000000596046,4|0,0:0|0:0,0:0:0:0:
194,8,166197,2,0,P|228:59|226:152,1,140.000000596046
235,267,166647,2,0,L|304:280,1,70.000000298023
232,136,166946,2,0,L|163:123,1,70.000000298023,2|0,0:0|0:0,0:0:0:0:
368,160,167247,2,0,L|436:172,1,70.000000298023
235,267,167547,2,0,L|96:246,1,140.000000596046,2|2,0:0|0:0,0:0:0:0:
256,24,168147,5,0,0:0:0:0:
256,360,168447,1,0,0:0:0:0:
384,264,168747,1,2,0:0:0:0:
164,201,169047,1,0,0:0:0:0:
320,72,169347,2,0,P|256:48|192:72,1,140.000000596046,2|0,0:0|0:0,0:0:0:0:
76,263,169797,2,0,B|148:299|399:407|381:156|256:84|130:156|112:407|363:299|435:263,1,630.000002682207,2|2,0:0|0:0,0:0:0:0:
256,192,171297,12,0,172797,0:0:0:0:
192,288,172947,6,0,L|122:288,1,70.000000298023,4|0,0:1|0:0,0:0:0:0:
320,96,173247,2,0,L|390:96,1,70.000000298023
256,192,173547,2,0,B|206:177|211:104|154:90,1,140.000000596046
352,304,174147,2,0,L|432:288,1,70.000000298023,4|0,0:0|0:0,0:0:0:0:
256,192,174447,2,0,L|187:205,1,70.000000298023
392,176,174747,2,0,L|460:162,1,70.000000298023
260,274,175047,2,0,L|191:287,1,70.000000298023
320,96,175347,2,0,L|388:82,1,70.000000298023,4|0,0:0|0:0,0:0:0:0:
192,96,175647,2,0,L|123:82,1,70.000000298023
256,192,175947,2,0,L|324:205,1,70.000000298023
120,176,176247,2,0,L|51:162,1,70.000000298023
56,328,176547,5,4,0:0:0:0:
480,192,176847,1,0,0:0:0:0:
32,192,177147,1,0,0:0:0:0:
456,328,177447,1,0,0:0:0:0:
56,56,177747,1,4,0:0:0:0:
456,56,178047,1,0,0:0:0:0:
160,304,178347,6,0,B|146:272|146:272|156:237,1,70.000000298023,4|0,0:1|0:0,0:0:0:0:
352,80,178647,2,0,B|365:111|365:111|355:146,1,70.000000298023
208,136,178947,2,0,L|72:104,1,140.000000596046
424,264,179547,2,0,L|439:196,1,70.000000298023,4|0,0:0|0:0,0:0:0:0:
328,240,179847,2,0,L|312:307,1,70.000000298023
88,264,180147,2,0,L|72:196,1,70.000000298023
184,240,180447,2,0,L|199:307,1,70.000000298023
392,344,180747,2,0,P|360:328|320:336,1,70.000000298023,4|0,0:0|0:0,0:0:0:0:
136,360,181047,2,0,P|171:357|202:330,1,70.000000298023
168,171,181347,2,0,L|184:240,1,70.000000298023
329,239,181647,2,0,L|344:171,1,70.000000298023
264,8,181947,5,4,0:0:0:0:
116,255,182247,1,0,0:0:0:0:
396,255,182547,1,0,0:0:0:0:
192,128,182847,2,0,P|125:108|55:110,1,140.000000596046,8|0,0:0|0:0,0:0:0:0:
320,256,183297,2,0,P|386:275|456:273,1,140.000000596046,8|0,0:0|0:0,0:0:0:0:
169,268,183747,6,0,L|101:250,1,70.000000298023,4|0,0:1|0:0,0:0:0:0:
342,115,184047,2,0,L|410:133,1,70.000000298023
256,192,184347,2,0,B|211:165|236:95|183:67,1,140.000000596046
319,325,184947,2,0,L|401:330,1,70.000000298023,4|0,0:0|0:0,0:0:0:0:
256,192,185247,2,0,L|186:187,1,70.000000298023
342,115,185547,2,0,L|412:120,1,70.000000298023
238,272,185847,2,0,L|168:267,1,70.000000298023
391,211,186147,2,0,L|461:216,1,70.000000298023,4|0,0:0|0:0,0:0:0:0:
319,325,186447,2,0,P|292:347|258:352,1,70.000000298023
224,132,186747,2,0,P|248:160|256:196,1,70.000000298023
110,299,187047,2,0,P|137:273|172:267,1,70.000000298023
484,271,187347,5,4,0:0:0:0:
27,112,187647,1,0,0:0:0:0:
472,134,187947,1,0,0:0:0:0:
39,249,188247,1,0,0:0:0:0:
413,8,188547,1,4,0:0:0:0:
98,375,188847,1,0,0:0:0:0:
352,304,189147,6,0,B|365:272|365:272|355:237,1,70.000000298023,4|0,0:1|0:0,0:0:0:0:
160,80,189447,2,0,B|146:111|146:111|156:146,1,70.000000298023
304,136,189747,2,0,L|440:104,1,140.000000596046
199,307,190347,2,0,L|184:240,1,70.000000298023,4|0,0:0|0:0,0:0:0:0:
72,196,190648,2,0,L|88:264,1,70.000000298023
311,308,190947,2,0,L|328:240,1,70.000000298023
439,196,191247,2,0,L|424:264,1,70.000000298023
112,352,191547,2,0,P|81:367|47:363,1,70.000000298023,4|0,0:0|0:0,0:0:0:0:
152,160,191847,2,0,P|179:139|214:137,1,70.000000298023
439,196,192147,2,0,L|455:124,1,70.000000298023
198,68,192447,2,0,L|213:137,1,70.000000298023
248,376,192747,5,4,0:0:0:0:
472,160,193047,1,0,0:0:0:0:
40,160,193347,1,0,0:0:0:0:
382,223,193647,2,0,P|402:290|400:360,1,140.000000596046,8|0,0:0|0:0,0:0:0:0:
128,160,194097,2,0,P|109:93|112:24,1,140.000000596046,8|0,0:0|0:0,0:0:0:0:
304,320,194547,6,0,B|172:355|156:293|24:328,2,280.000001192092,4|0|4,0:1|0:0|0:0,0:0:0:0:
488,192,196047,1,0,0:0:0:0:
208,224,196347,2,0,P|80:192|32:48,1,280.000001192092,0|4,0:0|0:0,0:0:0:0:
309,31,197247,2,0,P|437:63|485:207,1,280.000001192092
456,328,198147,5,4,0:0:0:0:
56,328,198447,1,0,0:0:0:0:
480,192,198747,1,0,0:0:0:0:
32,192,199047,1,0,0:0:0:0:
456,56,199347,1,4,0:0:0:0:
56,56,199647,1,0,0:0:0:0:
120,200,199947,6,0,B|251:164|267:226|399:191,2,280.000001192092,4|0|4,0:1|0:0|0:0,0:0:0:0:
256,320,201447,1,0,0:0:0:0:
388,64,201747,2,0,P|255:23|123:64,1,280.000001192092,0|4,0:0|0:0,0:0:0:0:
123,319,202647,2,0,P|255:360|388:320,1,280.000001192092
388,96,203547,5,4,0:0:0:0:
108,96,203847,1,0,0:0:0:0:
256,343,204147,1,0,0:0:0:0:
320,128,204447,2,0,P|387:108|457:110,1,140.000000596046,8|0,0:0|0:0,0:0:0:0:
192,256,204897,2,0,P|126:275|56:273,1,140.000000596046,8|0,0:0|0:0,0:0:0:0:
256,320,205347,6,0,B|320:192|192:192|256:32,2,280.000001192092,4|0|4,0:1|0:0|0:0,0:0:0:0:
112,312,206847,1,0,0:0:0:0:
400,312,207147,2,0,P|467:198|400:63,1,280.000001192092,0|4,0:0|0:0,0:0:0:0:
98,72,208047,2,0,P|43:195|112:312,1,280.000001192092
456,328,208947,5,4,0:0:0:0:
56,328,209247,1,0,0:0:0:0:
480,192,209547,1,0,0:0:0:0:
32,192,209847,1,0,0:0:0:0:
456,56,210147,1,4,0:0:0:0:
56,56,210447,1,0,0:0:0:0:
256,64,210747,6,0,B|320:192|192:192|256:352,2,280.000001192092,4|0|4,0:1|0:0|0:0,0:0:0:0:
32,192,212247,1,0,0:0:0:0:
249,333,212547,2,0,B|377:397|377:269|537:332,1,280.000001192092,0|4,0:0|0:0,0:0:0:0:
263,51,213447,2,0,B|135:-13|135:115|-25:51,1,280.000001192092
248,376,214347,5,4,0:0:0:0:
472,160,214647,1,0,0:0:0:0:
40,160,214947,1,0,0:0:0:0:
382,223,215247,2,0,P|402:290|400:360,1,140.000000596046,8|0,0:0|0:0,0:0:0:0:
128,160,215697,2,0,P|109:93|112:24,1,140.000000596046,8|0,0:0|0:0,0:0:0:0:
256,192,216147,5,4,0:1:0:0:
256,192,216297,12,4,217947,0:0:0:0:
