osu file format v14

[General]
AudioFilename: audio.mp3
AudioLeadIn: 0
PreviewTime: 172947
Countdown: 0
SampleSet: Soft
StackLeniency: 0.5
Mode: 0
LetterboxInBreaks: 0
WidescreenStoryboard: 0

[Editor]
Bookmarks: 14547,21747,70797,72147,80247,113547,120747,133347,162597,163797,169797,170997,196947,197247,199047,199947,202347,202647,207447,208047,209847,210147,210747,213447
DistanceSpacing: 1.4
BeatDivisor: 4
GridSize: 4
TimelineZoom: 1.1

[Metadata]
Title:Psalm dla Ciebie
TitleUnicode:Psalm dla Ciebie
Artist:Piotr Rubik, Malgorzata Markiewicz, Janusz Radek
ArtistUnicode:Piotr Rubik, MaƂgorzata Markiewicz, Janusz Radek
Creator:-NeBu-
Version:Poloz mnie na swym ramieniu
Source:
Tags:piotr rubik malgorzata markiewicz janusz radek polish poland psalterz wrzesniowy 2006 CptSqBany [Red Panda] -NeBu- Chalwa Yusomi Piggey ReFaller Bubblun -Kyu Asrasz
BeatmapID:1294709
BeatmapSetID:586156

[Difficulty]
HPDrainRate:4
CircleSize:4.2
OverallDifficulty:9.5
ApproachRate:10
SliderMultiplier:1.8
SliderTickRate:1

[Events]
//Background and Video events
0,0,"14195215_1098078296952028_5041580223705388801_o.jpg",0,0
Video,-403,"zzzzzzzzzzzzzzzz.mp4"
//Break Periods
//Storyboard Layer 0 (Background)
//Storyboard Layer 1 (Fail)
//Storyboard Layer 2 (Pass)
//Storyboard Layer 3 (Foreground)
//Storyboard Sound Samples

[TimingPoints]
147,600,4,2,2,25,1,0
10947,-66.6666666666667,4,2,2,30,0,0
16347,-80,4,2,2,70,0,0
41397,-80,4,2,2,5,0,0
41547,-80,4,2,2,70,0,0
41847,-80,4,2,2,5,0,0
41997,-80,4,2,2,70,0,0
42297,-80,4,2,2,5,0,0
42447,-80,4,2,2,70,0,0
42747,-80,4,2,2,5,0,0
42897,-80,4,2,2,70,0,0
43797,-80,4,2,2,5,0,0
44097,-80,4,2,3,60,0,0
44247,-80,4,2,3,30,0,0
44847,-80,4,2,3,60,0,0
44997,-80,4,2,3,60,0,0
45129,-80,4,2,2,70,0,0
45147,300,4,2,2,70,1,0
70797,-83.3333333333333,4,2,2,70,0,0
73047,-100,4,2,2,70,0,0
79347,-200,4,2,2,70,0,0
80229,-200,4,2,5,40,0,0
81129,-200,4,2,5,80,0,0
81147,-66.6666666666667,4,2,5,80,0,1
91029,-66.6666666666667,4,2,5,40,0,1
91479,-66.6666666666667,4,2,5,70,0,1
91929,-66.6666666666667,4,2,5,80,0,1
101830,-66.6666666666667,4,2,5,40,0,1
102279,-66.6666666666667,4,2,5,70,0,1
102729,-66.6666666666667,4,2,5,80,0,1
102747,600,4,2,2,80,1,0
108129,-100,4,2,2,70,0,0
108147,-66.6666666666667,4,2,2,70,0,0
134679,-66.6666666666667,4,2,3,40,0,0
136797,-66.6666666666667,4,2,3,40,0,0
136929,-66.6666666666667,4,2,2,70,0,0
136947,300,4,2,2,70,1,0
172029,-100,4,2,3,40,0,0
172929,-100,4,2,2,70,0,0
172947,-57.1428571428571,4,2,5,70,0,1
182829,-57.1428571428571,4,2,3,40,0,1
183729,-57.1428571428571,4,2,5,70,0,1
193629,-57.1428571428571,4,2,3,40,0,1
193643,-57.1428571428571,4,2,3,40,0,1
193947,-57.1428571428571,4,2,3,40,0,1
194247,-57.1428571428571,4,2,3,40,0,1
194529,-57.1428571428571,4,2,5,70,0,1
194547,-50,4,2,5,70,0,1
204429,-50,4,2,3,50,0,1
205329,-50,4,2,5,70,0,1
210147,-66.6666666666667,4,2,5,70,0,1
210747,-50,4,2,5,70,0,1
215229,-50,4,2,3,50,0,1
216129,-50,4,2,5,70,0,1
216147,-80,4,2,5,70,0,0
216429,-80,4,2,3,50,0,0
216729,-80,4,2,5,70,0,0
217029,-80,4,2,3,50,0,0
217329,-80,4,2,3,60,0,0
217947,-100,4,2,3,60,0,0

[Colours]
Combo1 : 238,196,149
Combo2 : 68,88,227
Combo3 : 63,63,63

[HitObjects]
116,112,147,6,0,L|216:104,2,90,0|0|0,0:0|0:0|0:0,0:0:0:0:
264,164,1347,6,0,L|372:176,1,90,0|0,0:0|0:0,0:0:0:0:
276,64,1947,5,0,0:0:0:0:
264,164,2247,1,0,0:0:0:0:
252,264,2547,1,0,0:0:0:0:
179,195,2847,2,0,L|266:163,1,90,0|0,0:0|0:0,0:0:0:0:
263,163,3447,1,0,0:0:0:0:
328,96,4047,5,0,0:0:0:0:
356,260,4347,1,0,0:0:0:0:
212,204,4647,2,0,L|112:200,2,90,0|0|0,0:0|0:0|0:0,0:0:0:0:
308,188,5547,1,0,0:0:0:0:
404,172,5847,1,0,0:0:0:0:
504,160,6147,1,0,0:0:0:0:
415,82,6747,2,0,L|403:178,1,90,0|0,0:0|0:0,0:0:0:0:
316,212,7347,5,0,0:0:0:0:
228,168,7647,1,0,0:0:0:0:
148,228,7947,1,0,0:0:0:0:
88,148,8247,2,0,P|80:104|100:60,2,90,0|0|0,0:0|0:0|0:0,0:0:0:0:
168,224,9147,2,0,L|180:288,1,45,0|0,0:0|0:0,0:0:0:0:
347,286,9447,1,0,0:0:0:0:
273,119,9597,1,0,0:0:0:0:
176,268,9747,2,0,L|168:320,1,45,0|0,0:0|0:0,0:0:0:0:
76,360,10047,5,0,0:0:0:0:
32,120,10197,1,0,0:0:0:0:
169,312,10347,5,0,0:0:0:0:
221,16,10497,1,0,0:0:0:0:
276,328,10647,5,0,0:0:0:0:
464,40,10797,1,0,0:0:0:0:
508,368,10947,6,0,L|368:352,1,135.000005149842,0|0,0:0|0:0,0:0:0:0:
256,152,11397,1,0,0:0:0:0:
284,340,11547,1,0,0:0:0:0:
178,111,11697,1,0,0:0:0:0:
128,344,11847,6,0,P|56:360|20:312,1,135.000005149842,0|0,0:0|0:0,0:0:0:0:
178,111,12297,1,0,0:0:0:0:
284,340,12447,1,0,0:0:0:0:
153,269,12597,1,0,0:0:0:0:
21,318,12747,6,0,B|6:247|6:247|25:182,1,135.000005149842,0|0,0:0|0:0,0:0:0:0:
400,96,13197,1,0,0:0:0:0:
284,340,13347,1,0,0:0:0:0:
464,224,13497,1,0,0:0:0:0:
288,32,13647,6,0,L|276:168,1,135.000005149842
204,384,14097,1,0,0:0:0:0:
108,148,14247,1,0,0:0:0:0:
44,384,14397,1,0,0:0:0:0:
285,239,14547,6,0,P|345:219|421:251,1,135.000005149842,0|0,0:0|0:0,0:0:0:0:
256,384,14997,1,0,0:0:0:0:
198,178,15147,1,0,0:0:0:0:
410,241,15297,1,0,0:0:0:0:
256,384,15447,5,0,0:0:0:0:
134,139,15597,1,0,0:0:0:0:
325,344,15747,5,0,0:0:0:0:
203,99,15897,1,0,0:0:0:0:
390,302,16047,5,0,0:0:0:0:
268,57,16197,1,0,0:0:0:0:
390,302,16347,6,0,P|443:294|481:241,1,112.5
407,226,16797,2,0,L|423:170,1,56.25
308,52,17097,1,0,0:0:0:0:
220,212,17247,2,0,B|166:230|166:230|112:212|112:212,1,112.5,0|0,0:0|0:0,0:0:0:0:
113,212,17697,1,0,0:0:0:0:
88,136,17847,2,0,L|72:80,1,56.25,0|0,0:0|0:0,0:0:0:0:
308,52,18147,6,0,L|364:231,1,168.75,0|0,0:0|0:0,0:0:0:0:
316,284,18747,2,0,L|308:344,1,56.25,0|0,0:0|0:0,0:0:0:0:
228,364,19047,5,0,0:0:0:0:
72,210,19197,1,0,0:0:0:0:
152,384,19347,1,0,0:0:0:0:
200,152,19497,1,0,0:0:0:0:
80,360,19647,2,0,L|8:372,1,56.25
200,152,19947,6,0,P|256:136|308:168,1,112.5,0|0,0:0|0:0,0:0:0:0:
120,256,20397,2,0,L|104:144,1,112.5,0|0,0:0|0:0,0:0:0:0:
272,40,20847,1,0,0:0:0:0:
344,248,20997,1,0,0:0:0:0:
138,203,21147,2,0,L|119:255,1,56.25
356,352,21447,1,0,0:0:0:0:
209,169,21597,1,0,0:0:0:0:
340,0,21747,5,0,0:0:0:0:
392,220,21897,1,0,0:0:0:0:
144,70,22047,1,0,0:0:0:0:
208,289,22197,2,0,L|224:344,1,56.25
413,309,22497,1,0,0:0:0:0:
433,108,22647,2,0,L|369:92,1,56.25
116,148,22947,1,0,0:0:0:0:
363,213,23097,1,0,0:0:0:0:
199,27,23247,1,0,0:0:0:0:
304,384,23397,1,0,0:0:0:0:
497,154,23547,6,0,P|509:94|485:50,1,112.5
388,24,23997,2,0,L|328:36,1,56.25,0|0,0:0|0:0,0:0:0:0:
332,35,24297,1,0,0:0:0:0:
128,20,24447,5,0,0:0:0:0:
16,232,24597,1,0,0:0:0:0:
252,92,24747,1,0,0:0:0:0:
60,304,24897,1,0,0:0:0:0:
388,216,25047,1,0,0:0:0:0:
128,364,25197,1,0,0:0:0:0:
252,92,25347,5,0,0:0:0:0:
308,372,25497,1,0,0:0:0:0:
80,164,25647,2,0,L|72:108,1,56.25,0|0,0:0|0:0,0:0:0:0:
236,24,25947,1,0,0:0:0:0:
304,260,26097,1,0,0:0:0:0:
36,96,26247,5,0,0:0:0:0:
344,44,26397,1,0,0:0:0:0:
80,164,26547,5,0,0:0:0:0:
446,193,26697,1,0,0:0:0:0:
252,372,26847,5,0,0:0:0:0:
281,5,26997,1,0,0:0:0:0:
440,288,27147,2,0,L|376:300,1,56.25,0|0,0:0|0:0,0:0:0:0:
124,252,27447,1,0,0:0:0:0:
236,24,27597,2,0,P|314:3|366:81,1,168.75
252,115,28347,2,0,L|186:124,1,56.25
64,144,28647,2,0,L|119:153,1,56.25
392,40,28947,6,0,L|408:160,1,112.5,0|0,0:0|0:0,0:0:0:0:
280,340,29397,1,0,0:0:0:0:
200,158,29547,2,0,P|173:145|144:149,1,56.25,0|0,0:0|0:0,0:0:0:0:
64,320,29847,1,0,0:0:0:0:
340,268,29997,1,0,0:0:0:0:
144,40,30147,1,0,0:0:0:0:
200,376,30297,1,0,0:0:0:0:
368,92,30447,1,0,0:0:0:0:
0,192,30597,1,0,0:0:0:0:
200,376,30747,6,0,B|254:309|200:244|200:244|256:187|216:108|216:108|195:119|184:144,1,337.5,0|0,0:0|0:0,0:0:0:0:
288,248,31947,2,0,P|324:256|344:240,1,56.25,0|0,0:0|0:0,0:0:0:0:
186,139,32247,2,0,B|166:191|166:191|186:259,1,112.5,0|0,0:0|0:0,0:0:0:0:
268,76,32847,2,0,L|196:64,1,56.25,0|0,0:0|0:0,0:0:0:0:
338,246,33147,2,0,L|410:238,1,56.25,0|0,0:0|0:0,0:0:0:0:
280,296,33447,6,0,L|244:288,2,28.125,0|0|0,0:0|0:0|0:0,0:0:0:0:
464,244,33747,1,0,0:0:0:0:
216,172,33897,1,0,0:0:0:0:
400,4,34047,1,0,0:0:0:0:
464,244,34197,1,0,0:0:0:0:
280,296,34347,2,0,L|224:304,1,56.25,0|0,0:0|0:0,0:0:0:0:
340,128,34647,2,0,P|360:180|340:236,1,112.5,0|0,0:0|0:0,0:0:0:0:
224,360,35247,5,0,0:0:0:0:
96,108,35397,1,0,0:0:0:0:
144,380,35547,1,0,0:0:0:0:
280,136,35697,1,0,0:0:0:0:
88,320,35847,1,0,0:0:0:0:
340,208,35997,1,0,0:0:0:0:
96,108,36147,1,0,0:0:0:0:
224,360,36297,1,0,0:0:0:0:
329,74,36447,2,0,P|273:58|218:88,1,112.5,0|0,0:0|0:0,0:0:0:0:
340,328,37047,5,0,0:0:0:0:
432,120,37197,1,0,0:0:0:0:
411,300,37347,5,0,0:0:0:0:
367,76,37497,1,0,0:0:0:0:
461,246,37647,5,0,0:0:0:0:
296,87,37797,1,0,0:0:0:0:
232,336,37947,2,0,L|176:344,1,56.25,0|0,0:0|0:0,0:0:0:0:
89,235,38247,2,0,B|76:181|76:181|92:127,1,112.5,0|0,0:0|0:0,0:0:0:0:
424,100,38847,5,0,0:0:0:0:
91,127,38997,1,0,0:0:0:0:
422,262,39147,5,0,0:0:0:0:
89,235,39297,1,0,0:0:0:0:
489,51,39447,5,0,0:0:0:0:
21,88,39597,1,0,0:0:0:0:
332,356,39747,6,0,L|344:300,1,56.25,0|0,0:0|0:0,0:0:0:0:
320,100,40047,2,0,P|264:92|212:128,1,112.5,0|0,0:0|0:0,0:0:0:0:
189,235,40497,1,0,0:0:0:0:
243,249,40647,2,0,L|187:234,1,56.25
56,132,40947,1,0,0:0:0:0:
136,340,41097,1,0,0:0:0:0:
314,153,41247,2,0,P|324:123|318:97,1,56.25,0|0,0:0|0:0,0:0:0:0:
152,8,41547,5,0,0:0:0:0:
224,312,41697,1,0,0:0:0:0:
259,25,41847,1,0,0:0:0:0:
56,132,41997,2,0,L|76:192,1,56.25,0|0,0:0|0:0,0:0:0:0:
224,312,42297,1,0,0:0:0:0:
327,74,42447,2,0,L|391:62,1,56.25,0|0,0:0|0:0,0:0:0:0:
456,228,42747,1,0,0:0:0:0:
364,376,42897,1,0,0:0:0:0:
256,192,43047,12,0,44997,0:0:0:0:
340,128,45147,5,6,0:0:0:0:
56,80,45297,1,0,0:0:0:0:
328,296,45447,1,0,0:0:0:0:
124,12,45597,1,0,0:0:0:0:
188,356,45747,2,0,P|234:369|284:348,1,90,0|0,0:0|0:0,0:0:0:0:
424,40,46047,2,0,B|412:92|412:92|428:160|428:160|412:220,1,180,0|0,0:0|0:0,0:0:0:0:
148,280,46497,2,0,L|336:296,1,180,0|0,0:0|0:0,0:0:0:0:
452,120,46947,5,0,0:0:0:0:
184,32,47097,1,0,0:0:0:0:
424,264,47247,1,0,0:0:0:0:
256,72,47397,1,0,0:0:0:0:
188,348,47547,1,0,0:0:0:0:
328,108,47697,1,0,0:0:0:0:
432,364,47847,2,0,L|328:376,1,90,0|0,0:0|0:0,0:0:0:0:
237,280,48147,2,0,P|181:268|134:285,1,90,0|0,0:0|0:0,0:0:0:0:
342,374,48447,1,0,0:0:0:0:
386,168,48597,1,0,0:0:0:0:
126,144,48747,6,0,P|94:176|129:292,1,180,0|0,0:0|0:0,0:0:0:0:
438,95,49197,2,0,B|348:61|360:116|254:79,1,180,0|0,0:0|0:0,0:0:0:0:
308,384,49647,1,0,0:0:0:0:
438,95,49797,1,0,0:0:0:0:
126,144,49948,2,0,L|106:236,1,90,0|0,0:0|0:0,0:0:0:0:
360,320,50247,1,0,0:0:0:0:
216,0,50397,1,0,0:0:0:0:
56,284,50547,6,0,P|100:304|148:292,1,90,0|0,0:0|0:0,0:0:0:0:
208,348,50847,2,0,P|253:331|278:288,1,90,0|0,0:0|0:0,0:0:0:0:
365,283,51147,2,0,P|385:239|373:190,1,90,0|0,0:0|0:0,0:0:0:0:
304,56,51447,6,0,B|256:48|256:48|216:60,1,90,0|0,0:0|0:0,0:0:0:0:
120,116,51747,2,0,L|136:212,1,90,0|0,0:0|0:0,0:0:0:0:
228,244,52047,2,0,P|240:288|216:340,1,90,0|0,0:0|0:0,0:0:0:0:
36,336,52347,5,0,0:0:0:0:
120,116,52497,1,0,0:0:0:0:
184,384,52647,1,0,0:0:0:0:
292,64,52797,1,0,0:0:0:0:
120,320,52947,1,0,0:0:0:0:
196,28,53097,1,0,0:0:0:0:
270,346,53247,6,0,L|362:362,1,90,0|0,0:0|0:0,0:0:0:0:
392,44,53547,1,0,0:0:0:0:
199,136,53697,2,0,B|193:184|193:184|215:224,1,90,0|0,0:0|0:0,0:0:0:0:
358,361,53997,1,0,0:0:0:0:
440,104,54147,5,0,0:0:0:0:
164,32,54297,1,0,0:0:0:0:
416,264,54447,1,0,0:0:0:0:
304,0,54597,1,0,0:0:0:0:
264,328,54747,1,0,0:0:0:0:
164,32,54897,1,0,0:0:0:0:
104,364,55047,5,0,0:0:0:0:
248,60,55197,1,0,0:0:0:0:
408,380,55347,1,0,0:0:0:0:
100,132,55497,1,0,0:0:0:0:
464,248,55647,1,0,0:0:0:0:
104,364,55797,1,0,0:0:0:0:
248,60,55947,6,0,B|291:49|291:49|323:67|323:67|376:42|428:72,1,180,0|0,0:0|0:0,0:0:0:0:
256,296,56397,1,0,0:0:0:0:
91,45,56547,2,0,P|131:25|179:33,1,90,0|0,0:0|0:0,0:0:0:0:
438,265,56847,2,0,P|448:188|367:134,1,180,0|0,0:0|0:0,0:0:0:0:
276,280,57297,1,0,0:0:0:0:
445,348,57447,2,0,B|458:306|458:306|435:259,1,90,0|0,0:0|0:0,0:0:0:0:
324,24,57747,5,0,0:0:0:0:
364,252,57897,1,0,0:0:0:0:
211,51,58047,5,0,0:0:0:0:
251,279,58197,1,0,0:0:0:0:
100,79,58347,5,0,0:0:0:0:
140,307,58497,1,0,0:0:0:0:
324,24,58647,5,0,0:0:0:0:
380,344,58797,1,0,0:0:0:0:
211,51,58947,1,0,0:0:0:0:
456,200,59097,1,0,0:0:0:0:
140,307,59247,2,0,P|114:266|121:217,1,90,0|0,0:0|0:0,0:0:0:0:
413,34,59547,6,0,L|313:22,1,90,0|0,0:0|0:0,0:0:0:0:
160,168,59847,1,0,0:0:0:0:
384,244,59997,1,0,0:0:0:0:
248,36,60147,2,0,P|184:28|156:44,1,90,0|0,0:0|0:0,0:0:0:0:
55,317,60447,6,0,B|103:325|103:325|143:305,1,90,0|0,0:0|0:0,0:0:0:0:
248,36,60747,1,0,0:0:0:0:
456,348,60897,2,0,B|408:356|408:356|368:336,1,90,0|0,0:0|0:0,0:0:0:0:
248,36,61197,1,0,0:0:0:0:
108,308,61347,5,0,0:0:0:0:
392,260,61497,1,0,0:0:0:0:
49,59,61647,1,0,0:0:0:0:
426,122,61797,1,0,0:0:0:0:
44,364,61947,1,0,0:0:0:0:
470,291,62097,1,0,0:0:0:0:
180,0,62247,6,0,B|167:47|167:47|184:96,1,90,0|0,0:0|0:0,0:0:0:0:
304,328,62547,1,0,0:0:0:0:
414,32,62697,2,0,L|426:124,1,90,0|0,0:0|0:0,0:0:0:0:
248,380,62997,1,0,0:0:0:0:
148,64,63147,5,0,0:0:0:0:
381,312,63297,1,0,0:0:0:0:
80,228,63447,1,0,0:0:0:0:
348,12,63597,1,0,0:0:0:0:
248,380,63747,2,0,B|201:389|201:389|148:368,1,90,0|0,0:0|0:0,0:0:0:0:
33,155,64047,6,0,B|119:121|117:185|212:138,1,180,0|0,0:0|0:0,0:0:0:0:
452,272,64497,1,0,0:0:0:0:
348,12,64647,2,0,L|332:108,1,90,0|0,0:0|0:0,0:0:0:0:
219,316,64947,2,0,B|207:262|207:262|220:188|220:188|206:138,1,180,0|0,0:0|0:0,0:0:0:0:
206,140,65397,1,0,0:0:0:0:
348,12,65547,2,0,P|397:6|444:32,1,90,0|0,0:0|0:0,0:0:0:0:
496,336,65847,5,0,0:0:0:0:
300,76,65997,1,0,0:0:0:0:
364,376,66147,1,0,0:0:0:0:
428,24,66297,1,0,0:0:0:0:
276,372,66447,1,0,0:0:0:0:
160,0,66597,1,0,0:0:0:0:
24,324,66747,6,0,P|88:360|168:296,1,180,0|0,0:0|0:0,0:0:0:0:
300,0,67197,2,0,L|320:184,1,180,0|0,0:0|0:0,0:0:0:0:
312,340,67647,5,0,0:0:0:0:
184,84,67797,1,0,0:0:0:0:
200,340,67947,5,0,0:0:0:0:
328,84,68097,1,0,0:0:0:0:
396,345,68247,2,0,B|400:347|351:355|351:355|307:338,1,90,0|0,0:0|0:0,0:0:0:0:
112,161,68547,6,0,B|148:149|148:149|187:168|187:168|237:136|300:169,1,180
81,237,68997,2,0,P|45:205|93:81,1,180
424,128,69447,5,0,0:0:0:0:
176,228,69597,1,0,0:0:0:0:
356,36,69747,1,0,0:0:0:0:
280,336,69897,1,0,0:0:0:0:
168,32,70047,2,0,B|117:21|117:21|64:36,1,90,0|0,0:0|0:0,0:0:0:0:
24,288,70347,1,0,0:0:0:0:
168,32,70497,1,0,0:0:0:0:
280,336,70647,1,0,0:0:0:0:
466,76,70797,6,0,B|374:31|290:68|228:105|194:155|188:221|231:254|285:259|349:234|410:172|358:108|226:68|143:79|102:184|102:184|64:166|57:122|57:122|68:81|119:59,1,863.999973632813
392,161,72147,2,0,P|374:235|187:100,1,431.999986816407,0|0,0:0|0:0,0:0:0:0:
356,36,73047,5,0,0:0:0:0:
412,284,73197,1,0,0:0:0:0:
240,108,73347,1,0,0:0:0:0:
364,368,73497,1,0,0:0:0:0:
456,4,73647,1,0,0:0:0:0:
84,112,73797,1,0,0:0:0:0:
364,368,73947,6,0,B|385:334|385:334|371:298|371:298|400:243|367:188,1,180,0|0,0:0|0:0,0:0:0:0:
222,60,74397,2,0,P|170:40|82:124,1,180,0|0,0:0|0:0,0:0:0:0:
296,328,74847,5,0,0:0:0:0:
222,60,74997,1,0,0:0:0:0:
92,352,75147,2,0,B|137:370|137:370|184:360,1,90,0|0,0:0|0:0,0:0:0:0:
324,160,75447,1,0,0:0:0:0:
64,48,75597,1,0,0:0:0:0:
177,361,75747,6,0,B|206:261|143:282|185:177,1,180,0|0,0:0|0:0,0:0:0:0:
255,185,76197,2,0,L|231:1,1,180,0|0,0:0|0:0,0:0:0:0:
80,92,76647,5,0,0:0:0:0:
400,184,76797,1,0,0:0:0:0:
47,182,76947,5,0,0:0:0:0:
367,274,77097,1,0,0:0:0:0:
14,272,77247,5,0,0:0:0:0:
334,364,77397,1,0,0:0:0:0:
200,87,77547,6,0,B|193:45|193:45|218:5,1,90,0|0,0:0|0:0,0:0:0:0:
360,32,77847,1,0,0:0:0:0:
390,160,77997,6,0,B|342:172|334:220|334:220|278:184|190:180|190:180|270:280|270:280|165:247|62:292|62:292|122:350|202:340,1,720,0|0,0:0|0:0,0:0:0:0:
405,234,79347,2,0,P|449:206|373:86,1,225,0|0,0:0|0:0,0:0:0:0:
116,160,80247,5,4,0:0:0:0:
352,280,80397,1,0,0:0:0:0:
192,40,80547,1,4,0:0:0:0:
120,376,80697,1,0,0:0:0:0:
368,156,80847,1,4,0:0:0:0:
46,80,80997,1,0,0:0:0:0:
294,344,81147,6,0,P|370:364|418:336,1,135.000005149842,0|0,0:0|0:0,0:0:0:0:
167,74,81447,6,0,P|91:54|43:82,1,135.000005149842,0|0,0:0|0:0,0:0:0:0:
352,280,81747,2,0,B|336:216|336:216|352:152|352:152|328:16,1,270.000010299683,0|0,0:0|0:0,0:0:0:0:
328,16,82197,1,0,0:0:0:0:
167,74,82347,2,0,L|31:94,1,135.000005149842,0|0,0:0|0:0,0:0:0:0:
352,153,82647,2,0,L|488:173,1,135.000005149842,0|0,0:0|0:0,0:0:0:0:
244,352,82947,5,4,0:0:0:0:
167,74,83097,1,0,0:0:0:0:
428,288,83247,1,4,0:0:0:0:
72,188,83397,1,0,0:0:0:0:
324,0,83547,1,4,0:0:0:0:
244,352,83697,1,0,0:0:0:0:
120,0,83847,5,4,0:0:0:0:
244,352,83997,1,0,0:0:0:0:
324,0,84147,1,4,0:0:0:0:
172,308,84297,1,0,0:0:0:0:
464,172,84447,1,4,0:0:0:0:
220,0,84597,1,0,0:0:0:0:
41,314,84747,6,0,B|109:328|109:328|177:306,1,135.000005149842,0|0,0:0|0:0,0:0:0:0:
304,64,85047,1,4,0:0:0:0:
432,364,85197,1,0,0:0:0:0:
224,16,85347,1,4,0:0:0:0:
320,364,85497,1,0,0:0:0:0:
162,83,85647,6,0,P|86:67|34:103,1,135.000005149842,0|0,0:0|0:0,0:0:0:0:
350,83,85947,2,0,P|426:67|478:103,1,135.000005149842,0|0,0:0|0:0,0:0:0:0:
256,248,86247,2,0,L|256:392,1,135.000005149842,0|0,0:0|0:0,0:0:0:0:
80,136,86547,1,4,0:0:0:0:
360,272,86697,1,0,0:0:0:0:
184,28,86847,1,4,0:0:0:0:
256,383,86997,1,0,0:0:0:0:
356,66,87147,6,0,B|389:50|389:50|415:59|415:59|452:35|488:53,1,135.000005149842,0|0,0:0|0:0,0:0:0:0:
360,272,87447,1,0,0:0:0:0:
276,0,87597,1,0,0:0:0:0:
196,304,87747,2,0,L|56:320,1,135.000005149842,0|0,0:0|0:0,0:0:0:0:
360,272,88047,2,0,L|500:288,1,135.000005149842,0|0,0:0|0:0,0:0:0:0:
160,168,88347,5,4,0:0:0:0:
436,64,88497,1,0,0:0:0:0:
126,186,88647,5,4,0:0:0:0:
472,308,88797,1,0,0:0:0:0:
98,201,88947,5,4,0:0:0:0:
512,32,89097,1,0,0:0:0:0:
98,249,89247,6,0,P|119:311|92:371,1,135.000005149842,0|0,0:0|0:0,0:0:0:0:
413,249,89546,2,0,P|392:311|424:371,1,135.000005149842
196,57,89847,2,0,P|258:36|317:63,1,135.000005149842,0|0,0:0|0:0,0:0:0:0:
419,370,90147,1,0,0:0:0:0:
98,201,90297,1,0,0:0:0:0:
317,63,90447,6,0,B|388:51|388:51|453:79,1,135.000005149842,0|0,0:0|0:0,0:0:0:0:
244,296,90747,1,0,0:0:0:0:
184,4,90897,1,0,0:0:0:0:
128,328,91047,2,0,P|56:340|12:296,2,135.000005149842,0|0|0,0:0|0:0|0:0,0:0:0:0:
384,328,91497,2,0,P|456:340|500:296,2,135.000005149842,0|0|0,0:0|0:0|0:0,0:0:0:0:
256,36,91947,5,4,0:0:0:0:
128,328,92097,1,0,0:0:0:0:
330,242,92247,5,4,0:0:0:0:
38,114,92397,1,0,0:0:0:0:
128,328,92547,2,0,P|193:358|248:335,1,135.000005149842,0|0,0:0|0:0,0:0:0:0:
328,60,92847,1,0,0:0:0:0:
448,384,92997,1,0,0:0:0:0:
163,93,93147,2,0,B|95:81|95:81|31:117,1,135.000005149842,0|0,0:0|0:0,0:0:0:0:
128,328,93447,2,0,B|196:340|196:340|260:304,1,135.000005149842,0|0,0:0|0:0,0:0:0:0:
408,108,93747,5,4,0:0:0:0:
124,12,93897,1,0,0:0:0:0:
316,336,94047,1,4,0:0:0:0:
472,48,94197,1,0,0:0:0:0:
124,228,94347,1,4,0:0:0:0:
488,352,94497,1,0,0:0:0:0:
272,24,94647,5,4,0:0:0:0:
172,376,94797,1,0,0:0:0:0:
436,148,94947,1,4,0:0:0:0:
72,88,95097,1,0,0:0:0:0:
328,372,95247,1,4,0:0:0:0:
160,8,95397,1,0,0:0:0:0:
41,378,95547,2,0,B|109:394|109:394|177:374,1,135.000005149842,0|0,0:0|0:0,0:0:0:0:
432,192,95847,5,4,0:0:0:0:
113,66,95997,1,0,0:0:0:0:
455,181,96147,5,4,0:0:0:0:
66,309,96297,1,0,0:0:0:0:
220,0,96447,5,4,0:0:0:0:
306,368,96597,1,0,0:0:0:0:
113,66,96747,1,4,0:0:0:0:
172,384,96897,1,0,0:0:0:0:
432,192,97047,5,4,0:0:0:0:
113,66,97197,1,0,0:0:0:0:
172,384,97347,2,0,L|323:366,1,135.000005149842,0|0,0:0|0:0,0:0:0:0:
247,80,97647,2,0,L|99:64,1,135.000005149842,0|0,0:0|0:0,0:0:0:0:
400,384,97947,2,0,P|449:320|387:153,1,270.000010299683,0|0,0:0|0:0,0:0:0:0:
392,156,98397,1,0,0:0:0:0:
228,228,98547,6,0,P|148:244|108:200,1,135.000005149842,0|0,0:0|0:0,0:0:0:0:
344,100,98847,2,0,P|429:89|469:131,1,135.000005149842,0|0,0:0|0:0,0:0:0:0:
332,364,99147,1,4,0:0:0:0:
200,48,99297,1,0,0:0:0:0:
420,272,99447,1,4,0:0:0:0:
108,208,99597,1,0,0:0:0:0:
316,0,99747,1,4,0:0:0:0:
256,380,99897,1,0,0:0:0:0:
136,92,100047,6,0,L|-8:72,1,135.000005149842,0|0,0:0|0:0,0:0:0:0:
376,192,100347,2,0,L|520:172,1,135.000005149842,0|0,0:0|0:0,0:0:0:0:
136,304,100647,2,0,L|-8:324,1,135.000005149842,0|0,0:0|0:0,0:0:0:0:
288,16,100947,6,0,B|345:174|244:126|316:292,1,270.000010299683,0|0,0:0|0:0,0:0:0:0:
310,278,101397,1,0,0:0:0:0:
190,328,101547,2,0,B|106:344|106:344|138:300,1,135.000005149842,0|0,0:0|0:0,0:0:0:0:
356,56,101847,5,4,0:0:0:0:
268,376,101997,1,0,0:0:0:0:
140,40,102147,6,0,L|0:16,2,135.000005149842,0|0|0,0:0|0:0|0:0,0:0:0:0:
140,40,102597,1,0,0:0:0:0:
245,45,102747,6,0,B|295:103|249:189|249:189|349:175|372:242|371:300|334:344|285:358|215:320,1,450,0|0,0:0|0:0,0:0:0:0:
277,262,104547,6,0,L|181:258,1,90,2|0,0:0|0:0,0:0:0:0:
132,200,105147,1,4,0:0:0:0:
148,120,105447,1,4,0:0:0:0:
208,64,105747,1,4,0:0:0:0:
288,56,106047,1,4,0:0:0:0:
336,200,106347,2,0,B|383:208|383:208|424:192,2,90,0|0|0,0:0|0:0|0:0,0:0:0:0:
336,200,107247,1,4,0:0:0:0:
268,244,107547,2,0,P|221:253|176:236,1,90,0|0,0:0|0:0,0:0:0:0:
384,36,108147,6,0,P|411:106|393:177,1,135.000005149842,0|0,0:0|0:0,0:0:0:0:
216,260,108597,1,0,0:0:0:0:
388,384,108747,2,0,P|397:351|388:319,1,67.5000025749208,0|0,0:0|0:0,0:0:0:0:
314,107,109047,2,0,B|247:90|247:90|176:108,1,135.000005149842,2|0,0:0|0:0,0:0:0:0:
183,106,109497,1,0,0:0:0:0:
56,308,109647,1,0,0:0:0:0:
0,48,109797,1,0,0:0:0:0:
154,275,109947,6,0,L|234:287,1,67.5000025749208,0|0,0:0|0:0,0:0:0:0:
384,136,110247,1,0,0:0:0:0:
424,384,110397,1,0,0:0:0:0:
292,64,110547,1,0,0:0:0:0:
216,384,110697,1,0,0:0:0:0:
384,136,110847,6,0,L|476:128,1,67.5000025749208,0|0,0:0|0:0,0:0:0:0:
221,269,111147,2,0,L|129:277,1,67.5000025749208,0|0,0:0|0:0,0:0:0:0:
35,101,111447,1,0,0:0:0:0:
196,0,111597,1,0,0:0:0:0:
284,222,111747,6,0,P|291:302|219:347,1,135.000005149842
189,317,112197,2,0,L|121:333,1,67.5000025749208
123,332,112497,1,0,0:0:0:0:
76,236,112647,6,0,L|60:168,1,67.5000025749208,0|0,0:0|0:0,0:0:0:0:
135,149,112947,2,0,L|147:77,1,67.5000025749208,0|0,0:0|0:0,0:0:0:0:
223,88,113247,2,0,L|267:16,1,67.5000025749208,0|0,0:0|0:0,0:0:0:0:
405,119,113547,6,0,B|421:179|421:179|401:219|401:219|425:319,1,202.500007724762,0|0,0:0|0:0,0:0:0:0:
324,340,114447,2,0,P|229:359|167:285,1,202.500007724762,0|0,0:0|0:0,0:0:0:0:
100,220,115047,1,0,0:0:0:0:
84,312,115197,1,0,0:0:0:0:
324,340,115347,6,0,P|344:280|268:176,1,202.500007724762,0|0,0:0|0:0,0:0:0:0:
96,72,115947,1,0,0:0:0:0:
204,284,116097,1,0,0:0:0:0:
292,12,116247,5,0,0:0:0:0:
504,72,116397,1,0,0:0:0:0:
261,94,116547,5,0,0:0:0:0:
473,154,116697,1,0,0:0:0:0:
233,175,116847,5,0,0:0:0:0:
445,235,116997,1,0,0:0:0:0:
353,29,117147,2,0,B|321:9|321:9|277:13,1,67.5000025749208,0|0,0:0|0:0,0:0:0:0:
459,369,117447,2,0,L|443:225,1,135.000005149842,0|0,0:0|0:0,0:0:0:0:
445,235,117897,1,0,0:0:0:0:
312,68,118047,5,0,0:0:0:0:
196,296,118197,1,0,0:0:0:0:
100,32,118347,1,0,0:0:0:0:
46,301,118497,1,0,0:0:0:0:
312,224,118647,2,0,L|388:216,1,67.5000025749208,0|0,0:0|0:0,0:0:0:0:
269,132,118947,6,0,P|234:118|197:124,1,67.5000025749208,0|0,0:0|0:0,0:0:0:0:
84,180,119247,1,0,0:0:0:0:
358,359,119397,6,0,B|378:326|378:326|366:287|366:287|414:231|373:164,1,202.500007724762,0|0,0:0|0:0,0:0:0:0:
264,56,119997,1,0,0:0:0:0:
232,224,120147,2,0,L|216:292,1,67.5000025749208,0|0,0:0|0:0,0:0:0:0:
312,224,120447,2,0,L|292:148,1,67.5000025749208,0|0,0:0|0:0,0:0:0:0:
152,60,120747,5,0,0:0:0:0:
72,320,120897,1,0,0:0:0:0:
340,148,121047,1,0,0:0:0:0:
60,72,121197,1,0,0:0:0:0:
196,368,121347,1,0,0:0:0:0:
308,20,121497,1,0,0:0:0:0:
0,228,121647,5,0,0:0:0:0:
352,380,121797,1,0,0:0:0:0:
180,0,121947,1,0,0:0:0:0:
168,384,122097,1,0,0:0:0:0:
512,148,122247,1,0,0:0:0:0:
180,0,122397,1,0,0:0:0:0:
260,360,122547,6,0,P|292:300|244:180,1,202.500007724762,0|0,0:0|0:0,0:0:0:0:
104,0,123147,1,0,0:0:0:0:
24,221,123297,1,0,0:0:0:0:
246,181,123447,2,0,L|318:205,1,67.5000025749208,0|0,0:0|0:0,0:0:0:0:
512,116,123747,2,0,L|444:128,1,67.5000025749208,0|0,0:0|0:0,0:0:0:0:
360,92,124047,1,0,0:0:0:0:
272,60,124197,1,0,0:0:0:0:
246,181,124347,6,0,P|206:190|170:177,1,67.5000025749208,0|0,0:0|0:0,0:0:0:0:
56,128,124647,1,0,0:0:0:0:
75,260,124797,2,0,P|70:293|83:328,1,67.5000025749208,0|0,0:0|0:0,0:0:0:0:
80,324,125097,1,0,0:0:0:0:
252,332,125247,6,0,L|400:320,1,135.000005149842,0|0,0:0|0:0,0:0:0:0:
304,32,125697,1,0,0:0:0:0:
176,288,125847,2,0,L|164:364,1,67.5000025749208,0|0,0:0|0:0,0:0:0:0:
386,321,126147,6,0,B|399:286|399:286|390:245,1,67.5000025749208,0|0,0:0|0:0,0:0:0:0:
205,176,126447,1,0,0:0:0:0:
16,96,126597,6,0,B|3:61|3:61|12:20,2,67.5000025749208
436,288,127047,5,0,0:0:0:0:
0,184,127197,1,0,0:0:0:0:
416,112,127347,1,0,0:0:0:0:
9,31,127497,1,0,0:0:0:0:
264,360,127647,1,0,0:0:0:0:
388,0,127797,1,0,0:0:0:0:
168,252,127947,6,0,P|160:288|176:328,1,67.5000025749208,0|0,0:0|0:0,0:0:0:0:
426,246,128247,2,0,L|414:94,1,135.000005149842,0|0,0:0|0:0,0:0:0:0:
268,4,128697,1,0,0:0:0:0:
132,240,128847,5,0,0:0:0:0:
360,72,128997,1,0,0:0:0:0:
232,348,129147,1,0,0:0:0:0:
152,16,129297,1,0,0:0:0:0:
60,384,129447,2,0,L|-12:368,1,67.5000025749208,0|0,0:0|0:0,0:0:0:0:
118,310,129747,2,0,P|182:303|235:357,1,135.000005149842,0|0,0:0|0:0,0:0:0:0:
304,376,130197,2,0,B|344:380|344:380|372:368,1,67.5000025749208,0|0,0:0|0:0,0:0:0:0:
428,268,130497,1,0,0:0:0:0:
296,48,130647,5,0,0:0:0:0:
200,372,130797,1,0,0:0:0:0:
80,0,130947,1,0,0:0:0:0:
248,304,131097,1,0,0:0:0:0:
364,4,131247,1,0,0:0:0:0:
512,384,131397,1,0,0:0:0:0:
227,87,131547,6,0,L|151:79,1,67.5000025749208,0|0,0:0|0:0,0:0:0:0:
20,172,131847,1,0,0:0:0:0:
204,304,131997,1,0,0:0:0:0:
227,87,132147,2,0,B|241:51|241:51|235:15,1,67.5000025749208,0|0,0:0|0:0,0:0:0:0:
108,56,132447,6,0,L|28:68,1,67.5000025749208,0|0,0:0|0:0,0:0:0:0:
77,136,132747,2,0,L|10:177,1,67.5000025749208,0|0,0:0|0:0,0:0:0:0:
98,211,133047,2,0,L|82:276,1,67.5000025749208,0|0,0:0|0:0,0:0:0:0:
256,332,133347,6,0,P|293:346|336:328,1,67.5000025749208,0|0,0:0|0:0,0:0:0:0:
512,144,133647,1,0,0:0:0:0:
256,0,133797,2,0,P|221:-2|188:13,1,67.5000025749208
88,169,134097,1,0,0:0:0:0:
191,334,134247,2,0,B|226:343|226:343|271:326,1,67.5000025749208
506,151,134547,1,0,0:0:0:0:
191,10,134697,1,0,0:0:0:0:
256,192,134847,12,0,136797,0:0:0:0:
380,32,136947,5,0,0:0:0:0:
92,172,137097,1,0,0:0:0:0:
484,304,137247,1,0,0:0:0:0:
160,92,137397,1,0,0:0:0:0:
324,380,137547,1,0,0:0:0:0:
268,0,137697,1,0,0:0:0:0:
182,319,137847,6,0,P|92:324|46:235,1,180,0|0,0:0|0:0,0:0:0:0:
188,16,138297,1,0,0:0:0:0:
426,168,138447,2,0,B|440:214|440:214|430:260,1,90,0|0,0:0|0:0,0:0:0:0:
188,344,138747,5,0,0:0:0:0:
92,56,138897,1,0,0:0:0:0:
336,312,139047,1,0,0:0:0:0:
0,156,139197,1,0,0:0:0:0:
280,0,139347,1,0,0:0:0:0:
120,380,139497,5,0,0:0:0:0:
0,0,139647,1,0,0:0:0:0:
452,192,139797,1,0,0:0:0:0:
0,368,139947,1,0,0:0:0:0:
144,0,140097,1,0,0:0:0:0:
299,342,140247,2,0,L|407:358,1,90,0|0,0:0|0:0,0:0:0:0:
280,0,140547,6,0,B|264:52|264:52|276:120|276:120|256:176,1,180,0|0,0:0|0:0,0:0:0:0:
168,380,140997,1,0,0:0:0:0:
24,128,141147,2,0,L|120:112,1,90,0|0,0:0|0:0,0:0:0:0:
352,244,141447,5,0,0:0:0:0:
184,0,141597,1,0,0:0:0:0:
165,295,141747,2,0,P|153:339|173:387,1,90,0|0,0:0|0:0,0:0:0:0:
428,292,142047,1,0,0:0:0:0:
152,200,142197,1,0,0:0:0:0:
344,0,142347,5,0,0:0:0:0:
404,368,142497,1,0,0:0:0:0:
262,16,142647,5,0,0:0:0:0:
322,384,142797,1,0,0:0:0:0:
177,16,142947,5,0,0:0:0:0:
237,384,143097,1,0,0:0:0:0:
324,92,143247,1,0,0:0:0:0:
152,320,143397,1,0,0:0:0:0:
177,16,143547,1,0,0:0:0:0:
8,224,143697,1,0,0:0:0:0:
272,292,143847,2,0,L|366:315,1,90,0|0,0:0|0:0,0:0:0:0:
480,80,144147,5,0,0:0:0:0:
236,172,144297,1,0,0:0:0:0:
512,256,144447,1,0,0:0:0:0:
196,380,144597,1,0,0:0:0:0:
328,44,144747,1,0,0:0:0:0:
468,384,144897,1,0,0:0:0:0:
236,172,145047,2,0,P|172:156|140:172,1,90,0|0,0:0|0:0,0:0:0:0:
288,340,145347,1,0,0:0:0:0:
395,88,145497,2,0,P|459:72|491:88,1,90,0|0,0:0|0:0,0:0:0:0:
479,79,145797,1,0,0:0:0:0:
400,384,145947,5,0,0:0:0:0:
240,48,146097,1,0,0:0:0:0:
152,384,146247,1,0,0:0:0:0:
48,0,146397,1,0,0:0:0:0:
216,320,146547,1,0,0:0:0:0:
380,0,146697,1,0,0:0:0:0:
508,344,146847,6,0,L|412:356,1,90,0|0,0:0|0:0,0:0:0:0:
126,306,147147,2,0,L|234:322,1,90,0|0,0:0|0:0,0:0:0:0:
380,0,147447,1,0,0:0:0:0:
508,344,147597,1,0,0:0:0:0:
212,121,147747,6,0,B|109:84|131:142|24:94,1,180,0|0,0:0|0:0,0:0:0:0:
251,0,148197,1,0,0:0:0:0:
359,190,148347,2,0,L|371:282,1,90,0|0,0:0|0:0,0:0:0:0:
150,360,148647,2,0,B|132:324|132:324|146:283|146:283|118:235|158:181,1,180,0|0,0:0|0:0,0:0:0:0:
150,191,149097,1,0,0:0:0:0:
96,108,149247,2,0,L|185:97,1,90,0|0,0:0|0:0,0:0:0:0:
440,52,149547,5,0,0:0:0:0:
224,344,149697,1,0,0:0:0:0:
304,0,149847,1,0,0:0:0:0:
472,384,149997,1,0,0:0:0:0:
112,32,150147,1,0,0:0:0:0:
512,232,150297,1,0,0:0:0:0:
104,380,150447,5,0,0:0:0:0:
212,0,150597,1,0,0:0:0:0:
392,384,150747,1,0,0:0:0:0:
48,108,150897,1,0,0:0:0:0:
512,232,151047,1,0,0:0:0:0:
0,380,151197,1,0,0:0:0:0:
176,82,151347,6,0,L|268:70,1,90,0|0,0:0|0:0,0:0:0:0:
402,150,151647,2,0,L|306:134,1,90,0|0,0:0|0:0,0:0:0:0:
176,80,151947,1,0,0:0:0:0:
272,284,152097,1,0,0:0:0:0:
344,24,152247,2,0,P|392:16|440:40,1,90,0|0,0:0|0:0,0:0:0:0:
483,211,152547,1,0,0:0:0:0:
272,284,152697,2,0,B|227:293|227:293|180:279,1,90,0|0,0:0|0:0,0:0:0:0:
184,280,152997,1,0,0:0:0:0:
104,40,153147,5,0,0:0:0:0:
0,320,153297,1,0,0:0:0:0:
244,16,153447,1,0,0:0:0:0:
100,384,153597,1,0,0:0:0:0:
350,115,153747,2,0,L|450:107,1,90,0|0,0:0|0:0,0:0:0:0:
320,191,154047,2,0,P|216:203|168:151,1,180,0|0,0:0|0:0,0:0:0:0:
260,122,154497,2,0,L|352:114,1,90,0|0,0:0|0:0,0:0:0:0:
436,272,154797,1,0,0:0:0:0:
152,80,154947,5,0,0:0:0:0:
292,356,155097,1,0,0:0:0:0:
388,4,155247,1,0,0:0:0:0:
224,312,155397,1,0,0:0:0:0:
89,27,155547,2,0,L|-3:19,1,90,0|0,0:0|0:0,0:0:0:0:
292,356,155847,6,0,B|335:284|258:253|300:180,1,180,0|0,0:0|0:0,0:0:0:0:
432,16,156297,1,0,0:0:0:0:
504,272,156447,1,0,0:0:0:0:
317,55,156597,1,0,0:0:0:0:
292,356,156747,2,0,P|220:368|152:292,1,180,0|0,0:0|0:0,0:0:0:0:
92,20,157197,1,0,0:0:0:0:
356,117,157347,2,0,B|376:165|376:165|364:209,1,90,0|0,0:0|0:0,0:0:0:0:
60,280,157647,5,0,0:0:0:0:
244,12,157797,1,0,0:0:0:0:
344,360,157947,1,0,0:0:0:0:
72,80,158097,1,0,0:0:0:0:
508,216,158247,1,0,0:0:0:0:
0,356,158397,1,0,0:0:0:0:
244,12,158547,6,0,B|298:2|298:2|367:32|367:32|439:25,1,180,0|0,0:0|0:0,0:0:0:0:
256,384,158997,2,0,P|217:293|236:216,1,180,0|0,0:0|0:0,0:0:0:0:
359,12,159447,5,0,0:0:0:0:
480,324,159597,1,0,0:0:0:0:
336,0,159747,5,0,0:0:0:0:
180,384,159897,1,0,0:0:0:0:
312,0,160047,5,0,0:0:0:0:
468,384,160197,1,0,0:0:0:0:
286,0,160347,6,0,P|235:-2|199:20,1,90
28,288,160647,1,0,0:0:0:0:
289,361,160797,2,0,L|273:261,1,90,0|0,0:0|0:0,0:0:0:0:
202,16,161097,1,0,0:0:0:0:
136,376,161247,5,0,0:0:0:0:
476,232,161397,1,0,0:0:0:0:
112,112,161547,1,0,0:0:0:0:
364,384,161697,1,0,0:0:0:0:
152,0,161847,1,0,0:0:0:0:
0,384,161997,1,0,0:0:0:0:
364,384,162147,6,0,L|472:368,1,90,0|0,0:0|0:0,0:0:0:0:
504,284,162447,1,0,0:0:0:0:
468,180,162597,2,0,B|394:198|341:135|341:135|254:112|200:168|200:168|135:89|8:76|8:76|16:176|132:245,1,720,0|0,0:0|0:0,0:0:0:0:
159,310,163947,2,0,B|244:357|337:306|337:306|415:355|503:321,1,360,0|0,0:0|0:0,0:0:0:0:
64,0,164847,5,0,0:0:0:0:
140,360,164997,1,0,0:0:0:0:
448,0,165147,5,0,0:0:0:0:
372,360,165297,1,0,0:0:0:0:
16,88,165447,1,0,0:0:0:0:
512,48,165597,1,0,0:0:0:0:
222,384,165747,6,0,L|202:204,1,180,0|0,0:0|0:0,0:0:0:0:
421,10,166197,2,0,P|309:-18|245:14,1,180,0|0,0:0|0:0,0:0:0:0:
8,188,166647,5,0,0:0:0:0:
328,312,166797,1,0,0:0:0:0:
124,16,166947,1,0,0:0:0:0:
236,368,167097,1,0,0:0:0:0:
372,0,167247,1,0,0:0:0:0:
76,380,167397,1,0,0:0:0:0:
34,23,167547,6,0,L|126:15,1,90,0|0,0:0|0:0,0:0:0:0:
256,256,167847,1,0,0:0:0:0:
372,0,167997,2,0,P|395:40|392:87,1,90,0|0,0:0|0:0,0:0:0:0:
393,82,168297,1,0,0:0:0:0:
52,268,168447,5,0,0:0:0:0:
408,384,168597,1,0,0:0:0:0:
212,0,168747,1,0,0:0:0:0:
128,384,168897,1,0,0:0:0:0:
396,88,169047,1,0,0:0:0:0:
0,208,169197,1,0,0:0:0:0:
376,380,169347,2,0,B|420:395|420:395|472:380,1,90,0|0,0:0|0:0,0:0:0:0:
512,196,169647,1,0,0:0:0:0:
396,88,169797,6,0,B|300:36|206:99|206:99|185:79|185:79|176:104|176:104|152:85|152:85|152:104|152:104|124:100|124:100|132:120|132:120|107:129|107:129|119:147|119:147|104:168|104:168|148:192|150:241|108:292|108:292|160:272|160:272|193:232|166:166,1,720,0|0,0:0|0:0,0:0:0:0:
244,167,171147,2,0,B|266:271|202:331|202:331|159:348|159:348|112:366,1,270,0|0,0:0|0:0,0:0:0:0:
48,324,171747,2,0,P|35:278|48:228,1,90,0|0,0:0|0:0,0:0:0:0:
228,28,172047,5,0,0:0:0:0:
348,328,172197,1,0,0:0:0:0:
72,128,172347,1,0,0:0:0:0:
416,72,172497,1,0,0:0:0:0:
200,384,172647,1,0,0:0:0:0:
296,0,172797,1,0,0:0:0:0:
483,346,172947,6,0,P|395:366|347:326,1,157.500001502037,0|0,0:0|0:0,0:0:0:0:
225,131,173247,2,0,B|147:112|147:112|57:131,1,157.500001502037,0|0,0:0|0:0,0:0:0:0:
347,327,173547,2,0,B|363:231|363:231|339:121|339:121|371:3,1,315.000003004074,0|0,0:0|0:0,0:0:0:0:
366,19,173997,1,0,0:0:0:0:
72,100,174147,5,4,0:0:0:0:
424,264,174297,1,0,0:0:0:0:
148,0,174447,1,4,0:0:0:0:
80,376,174597,1,0,0:0:0:0:
272,40,174747,5,4,0:0:0:0:
348,380,174897,1,0,0:0:0:0:
64,0,175047,1,4,0:0:0:0:
224,384,175197,1,0,0:0:0:0:
424,60,175347,1,4,0:0:0:0:
0,104,175497,1,0,0:0:0:0:
476,168,175647,5,4,0:0:0:0:
0,260,175797,1,0,0:0:0:0:
256,0,175947,1,4,0:0:0:0:
336,380,176097,1,0,0:0:0:0:
151,97,176247,2,0,B|63:89|31:161|31:161|120:219|87:317,1,315.000003004074,0|0,0:0|0:0,0:0:0:0:
90,304,176697,1,0,0:0:0:0:
444,224,176847,5,4,0:0:0:0:
176,32,176997,1,0,0:0:0:0:
336,368,177147,1,4,0:0:0:0:
312,0,177297,1,0,0:0:0:0:
207,273,177447,6,0,L|39:317,1,157.500001502037,0|0,0:0|0:0,0:0:0:0:
305,273,177747,2,0,L|473:317,1,157.500001502037,0|0,0:0|0:0,0:0:0:0:
256,192,178047,2,0,L|256:24,1,157.500001502037,0|0,0:0|0:0,0:0:0:0:
72,156,178347,5,4,0:0:0:0:
424,300,178497,1,0,0:0:0:0:
70,308,178647,5,4,0:0:0:0:
422,164,178797,1,0,0:0:0:0:
304,374,178947,2,0,P|272:290|432:166,1,315.000003004074,0|0,0:0|0:0,0:0:0:0:
332,36,179397,1,0,0:0:0:0:
136,164,179547,6,0,B|120:246|120:246|152:328,1,157.500001502037,0|0,0:0|0:0,0:0:0:0:
342,186,179847,6,0,B|358:104|358:104|326:22,1,157.500001502037,0|0,0:0|0:0,0:0:0:0:
0,120,180147,5,4,0:0:0:0:
424,200,180297,1,0,0:0:0:0:
36,232,180447,1,4,0:0:0:0:
448,320,180597,1,0,0:0:0:0:
76,352,180747,1,4,0:0:0:0:
216,4,180897,1,0,0:0:0:0:
396,354,181047,6,0,B|488:370|488:370|440:310,1,157.500001502037,0|0,0:0|0:0,0:0:0:0:
424,200,181347,2,0,B|440:108|440:108|380:156,1,157.500001502037,0|0,0:0|0:0,0:0:0:0:
335,278,181647,2,0,B|243:262|243:262|291:322,1,157.500001502037,0|0,0:0|0:0,0:0:0:0:
512,384,181947,1,0,0:0:0:0:
388,0,182097,1,0,0:0:0:0:
280,316,182247,2,0,P|199:337|140:292,1,157.500001502037,0|0,0:0|0:0,0:0:0:0:
176,136,182547,2,0,P|195:69|148:0,1,157.500001502037,0|0,0:0|0:0,0:0:0:0:
113,77,182847,6,0,B|157:90|157:90|220:75|220:75|270:90,1,157.500001502037,0|0,0:0|0:0,0:0:0:0:
424,304,183147,1,0,0:0:0:0:
476,51,183297,2,0,L|312:27,2,157.500001502037,0|0|0,0:0|0:0|0:0,0:0:0:0:
66,36,183747,5,4,0:0:0:0:
446,344,183897,1,0,0:0:0:0:
410,0,184047,5,4,0:0:0:0:
102,380,184197,1,0,0:0:0:0:
446,344,184347,6,0,B|501:212|375:185|479:29,1,315.000003004074,0|0,0:0|0:0,0:0:0:0:
471,40,184797,1,0,0:0:0:0:
156,116,184947,6,0,B|60:96|60:96|-12:116,1,157.500001502037,0|0,0:0|0:0,0:0:0:0:
356,224,185247,2,0,B|452:204|452:204|524:224,1,157.500001502037,0|0,0:0|0:0,0:0:0:0:
200,376,185547,5,4,0:0:0:0:
92,24,185697,1,0,0:0:0:0:
272,336,185847,1,4,0:0:0:0:
404,0,185997,1,0,0:0:0:0:
340,384,186147,1,4,0:0:0:0:
168,0,186297,1,0,0:0:0:0:
60,336,186447,5,4,0:0:0:0:
448,80,186597,1,0,0:0:0:0:
48,0,186747,1,4,0:0:0:0:
208,384,186897,1,0,0:0:0:0:
448,80,187047,2,0,P|365:-15|206:77,1,315.000003004074,2|0,0:0|0:0,0:0:0:0:
124,296,187497,1,0,0:0:0:0:
0,64,187647,6,0,P|75:36|144:72,1,157.500001502037,0|0,0:0|0:0,0:0:0:0:
296,384,187947,2,0,B|294:340|319:308|319:308|298:275|316:229,1,157.500001502037,0|0,0:0|0:0,0:0:0:0:
172,4,188247,1,4,0:0:0:0:
0,296,188397,1,0,0:0:0:0:
240,64,188547,1,4,0:0:0:0:
72,384,188697,1,0,0:0:0:0:
0,0,188847,1,4,0:0:0:0:
188,384,188997,1,0,0:0:0:0:
392,52,189147,5,4,0:0:0:0:
8,128,189297,1,0,0:0:0:0:
500,272,189447,5,4,0:0:0:0:
64,188,189597,1,0,0:0:0:0:
392,52,189747,6,0,P|509:105|484:287,1,315.000003004074,0|0,0:0|0:0,0:0:0:0:
220,384,190197,1,0,0:0:0:0:
140,28,190347,5,4,0:0:0:0:
20,384,190497,1,0,0:0:0:0:
388,28,190647,1,4,0:0:0:0:
508,384,190797,1,0,0:0:0:0:
196,71,190947,6,0,P|122:48|49:73,1,157.500001502037,0|0,0:0|0:0,0:0:0:0:
315,71,191247,2,0,P|389:48|463:73,1,157.500001502037,0|0,0:0|0:0,0:0:0:0:
256,224,191547,2,0,L|256:400,1,157.500001502037,0|0,0:0|0:0,0:0:0:0:
328,156,191847,6,0,B|405:120|405:120|456:180,1,157.500001502037,0|0,0:0|0:0,0:0:0:0:
236,372,192147,2,0,B|156:384|156:384|100:328,1,157.500001502037,0|0,0:0|0:0,0:0:0:0:
80,123,192447,2,0,B|44:46|44:46|104:-5,1,157.500001502037,0|0,0:0|0:0,0:0:0:0:
422,62,192747,2,0,P|469:201|350:289,1,315.000003004074,0|0,0:0|0:0,0:0:0:0:
224,0,193196,1,0,0:0:0:0:
120,380,193347,2,0,B|83:303|83:303|104:224,1,157.500001502037,0|0,0:0|0:0,0:0:0:0:
260,0,193647,5,4,0:0:0:0:
348,384,193797,1,0,0:0:0:0:
152,0,193947,5,4,0:0:0:0:
446,357,194097,1,0,0:0:0:0:
32,0,194247,5,4,0:0:0:0:
512,288,194397,1,0,0:0:0:0:
93,41,194547,6,0,B|65:93|97:149|97:149|69:213|69:213|97:255|93:319|93:319|141:389|141:389,1,360,0|0,0:0|0:0,0:0:0:0:
456,364,194997,1,0,0:0:0:0:
512,40,195147,2,0,B|432:10|432:10|336:40|336:40|250:-21|151:32,1,360,0|0,0:0|0:0,0:0:0:0:
72,376,195597,1,0,0:0:0:0:
336,40,195747,1,4,0:0:0:0:
204,384,195897,1,0,0:0:0:0:
64,0,196047,1,4,0:0:0:0:
484,272,196197,1,0,0:0:0:0:
0,204,196347,5,4,0:0:0:0:
384,0,196497,1,0,0:0:0:0:
280,380,196647,1,4,0:0:0:0:
148,0,196797,1,0,0:0:0:0:
456,196,196947,1,4,0:0:0:0:
474,255,197022,1,0,0:0:0:0:
450,314,197097,1,4,0:0:0:0:
393,342,197172,1,0,0:0:0:0:
332,327,197247,5,4,0:0:0:0:
148,0,197397,1,0,0:0:0:0:
306,362,197547,1,4,0:0:0:0:
338,0,197697,1,0,0:0:0:0:
96,384,197847,1,4,0:0:0:0:
464,152,197997,1,0,0:0:0:0:
16,48,198147,1,4,0:0:0:0:
488,184,198297,1,0,0:0:0:0:
32,336,198447,5,4,0:0:0:0:
236,0,198597,1,0,0:0:0:0:
176,384,198747,1,4,0:0:0:0:
368,0,198897,1,0,0:0:0:0:
469,328,199047,5,4,0:0:0:0:
411,379,199122,1,0,0:0:0:0:
334,372,199197,1,4,0:0:0:0:
285,314,199272,1,0,0:0:0:0:
293,239,199347,1,4,0:0:0:0:
351,193,199422,1,0,0:0:0:0:
424,210,199497,1,4,0:0:0:0:
448,278,199572,1,0,0:0:0:0:
422,347,199647,1,4,0:0:0:0:
358,382,199722,1,0,0:0:0:0:
286,366,199797,1,4,0:0:0:0:
243,308,199872,1,0,0:0:0:0:
247,234,199947,5,4,0:0:0:0:
360,0,200097,1,0,0:0:0:0:
422,347,200247,1,4,0:0:0:0:
84,64,200397,1,0,0:0:0:0:
512,200,200547,1,4,0:0:0:0:
132,384,200697,1,0,0:0:0:0:
288,0,200847,1,4,0:0:0:0:
358,382,200997,1,0,0:0:0:0:
160,12,201147,1,4,0:0:0:0:
472,260,201297,1,0,0:0:0:0:
67,336,201447,2,0,P|26:260|68:184,1,180
492,96,201747,5,4,0:0:0:0:
164,384,201897,1,0,0:0:0:0:
268,8,202047,1,4,0:0:0:0:
344,352,202197,1,0,0:0:0:0:
381,108,202347,1,4,0:0:0:0:
381,42,202422,1,0,0:0:0:0:
332,0,202497,1,4,0:0:0:0:
267,7,202572,1,0,0:0:0:0:
232,62,202647,5,4,0:0:0:0:
128,384,202797,1,0,0:0:0:0:
0,0,202947,1,4,0:0:0:0:
380,240,203097,1,0,0:0:0:0:
0,104,203247,1,4,0:0:0:0:
368,4,203397,1,0,0:0:0:0:
200,364,203547,1,4,0:0:0:0:
288,0,203697,1,0,0:0:0:0:
384,368,203847,6,0,P|464:380|512:304,1,180,0|0,0:0|0:0,0:0:0:0:
229,49,204147,2,0,B|138:37|138:37|52:79,1,180,0|0,0:0|0:0,0:0:0:0:
248,380,204447,5,4,0:0:0:0:
444,0,204597,1,0,0:0:0:0:
0,108,204747,1,4,0:0:0:0:
424,384,204897,1,0,0:0:0:0:
157,0,205047,2,0,L|133:188,1,180,0|0,0:0|0:0,0:0:0:0:
312,384,205347,5,4,0:0:0:0:
400,0,205497,1,0,0:0:0:0:
512,384,205647,1,4,0:0:0:0:
236,36,205797,1,0,0:0:0:0:
100,384,205947,1,4,0:0:0:0:
404,88,206097,1,0,0:0:0:0:
0,196,206247,1,4,0:0:0:0:
512,296,206397,1,0,0:0:0:0:
100,0,206547,1,4,0:0:0:0:
512,272,206697,1,0,0:0:0:0:
0,116,206847,1,4,0:0:0:0:
376,384,206997,1,0,0:0:0:0:
228,0,207147,5,4,0:0:0:0:
72,380,207297,1,0,0:0:0:0:
512,127,207447,2,0,P|432:83|360:131,1,180,0|0,0:0|0:0,0:0:0:0:
323,261,207747,1,4,0:0:0:0:
255,283,207822,1,0,0:0:0:0:
198,239,207897,1,4,0:0:0:0:
204,167,207972,1,0,0:0:0:0:
266,132,208047,5,4,0:0:0:0:
384,384,208197,1,0,0:0:0:0:
84,168,208347,1,4,0:0:0:0:
480,76,208497,1,0,0:0:0:0:
208,368,208647,1,4,0:0:0:0:
296,0,208797,1,0,0:0:0:0:
464,384,208947,1,4,0:0:0:0:
144,104,209097,1,0,0:0:0:0:
512,192,209247,5,4,0:0:0:0:
84,380,209397,1,0,0:0:0:0:
204,28,209547,1,4,0:0:0:0:
380,384,209697,1,0,0:0:0:0:
502,73,209847,5,4,0:0:0:0:
436,45,209922,1,0,0:0:0:0:
368,58,209997,1,4,0:0:0:0:
319,106,210072,1,0,0:0:0:0:
304,172,210147,2,0,L|240:197,1,67.5000025749208
24,123,210297,2,0,L|92:141,1,67.5000025749208
164,340,210447,2,0,L|138:277,1,67.5000025749208
222,10,210597,2,0,L|236:78,1,67.5000025749208
302,357,210747,5,4,0:0:0:0:
408,8,210897,1,0,0:0:0:0:
504,384,211047,1,4,0:0:0:0:
168,84,211197,1,0,0:0:0:0:
504,208,211347,5,4,0:0:0:0:
108,340,211497,1,0,0:0:0:0:
500,176,211647,1,4,0:0:0:0:
92,0,211797,1,0,0:0:0:0:
272,380,211947,5,4,0:0:0:0:
360,4,212097,1,0,0:0:0:0:
188,384,212247,1,4,0:0:0:0:
0,0,212397,1,0,0:0:0:0:
508,92,212547,5,4,0:0:0:0:
4,292,212697,1,0,0:0:0:0:
508,292,212847,5,4,0:0:0:0:
4,92,212997,1,0,0:0:0:0:
332,380,213147,1,0,0:0:0:0:
338,312,213222,1,0,0:0:0:0:
344,245,213297,1,0,0:0:0:0:
350,178,213372,1,0,0:0:0:0:
356,111,213447,5,0,0:0:0:0:
88,368,213597,1,0,0:0:0:0:
410,217,213747,1,4,0:0:0:0:
104,0,213897,1,0,0:0:0:0:
196,384,214047,1,4,0:0:0:0:
384,0,214197,1,0,0:0:0:0:
0,284,214347,1,4,0:0:0:0:
460,384,214497,1,0,0:0:0:0:
200,0,214647,5,4,0:0:0:0:
120,384,214797,1,0,0:0:0:0:
508,88,214947,5,4,0:0:0:0:
64,0,215097,1,0,0:0:0:0:
352,384,215247,5,4,0:0:0:0:
448,0,215397,1,0,0:0:0:0:
316,380,215547,1,4,0:0:0:0:
140,0,215697,1,0,0:0:0:0:
0,384,215847,1,4,0:0:0:0:
372,0,215997,1,0,0:0:0:0:
512,376,216147,6,0,L|376:384,1,112.5,0|0,0:0|0:0,0:0:0:0:
0,168,216447,1,0,0:0:0:0:
372,0,216597,1,0,0:0:0:0:
323,384,216747,6,0,B|289:334|289:334|302:281,1,112.5,0|0,0:0|0:0,0:0:0:0:
442,0,217047,1,0,0:0:0:0:
512,384,217197,1,0,0:0:0:0:
80,88,217347,5,4,0:0:0:0:
512,0,217497,1,0,0:0:0:0:
0,192,217647,1,4,0:0:0:0:
512,384,217797,1,0,0:0:0:0:
256,0,217947,5,10,0:0:0:0:
