osu file format v14

[General]
AudioFilename: audio.mp3
AudioLeadIn: 0
PreviewTime: 172947
Countdown: 0
SampleSet: Soft
StackLeniency: 0.5
Mode: 0
LetterboxInBreaks: 0
WidescreenStoryboard: 0

[Editor]
Bookmarks: 14660,34460,35060,35660,35960,36560,36860,37160,37460,37760,38060,38360,38810,38960,39260,39860,40160,40760,54260,56060,59660,60560,61460,62360,63260,65960,69560,70460,74660,75860,76460,76760,77660,81710,82910,83810,86060,86660,94760,95660,108260,125360,126260,127160,130760,137060,146060,154160,161360,162260,166310,167510,167660,168260,169797,170997,173660,174710,178460,181160,186560,189260,191360,192860,197360,203060,203660,208160,209060,211460,211760,213560,214460
DistanceSpacing: 1.8
BeatDivisor: 4
GridSize: 4
TimelineZoom: 1

[Metadata]
Title:Psalm dla Ciebie
TitleUnicode:Psalm dla Ciebie
Artist:Piotr Rubik, Malgorzata Markiewicz, Janusz Radek
ArtistUnicode:Piotr Rubik, MaƂgorzata Markiewicz, Janusz Radek
Creator:-NeBu-
Version:Poczuj smak mego pragnienia
Source:
Tags:piotr rubik malgorzata markiewicz janusz radek polish poland psalterz wrzesniowy 2006 CptSqBany [Red Panda] -NeBu- Chalwa Yusomi Piggey ReFaller Bubblun -Kyu Asrasz
BeatmapID:1241418
BeatmapSetID:586156

[Difficulty]
HPDrainRate:6
CircleSize:4
OverallDifficulty:8.5
ApproachRate:9.7
SliderMultiplier:1.8
SliderTickRate:1

[Events]
//Background and Video events
0,0,"rubik.png",0,0
Video,-403,"zzzzzzzzzzzzzzzz.mp4"
//Break Periods
//Storyboard Layer 0 (Background)
//Storyboard Layer 1 (Fail)
//Storyboard Layer 2 (Pass)
//Storyboard Layer 3 (Foreground)
//Storyboard Sound Samples

[TimingPoints]
147,600,4,2,1,25,1,0
10947,-66.6666666666667,4,2,1,30,0,0
16347,-100,4,2,2,70,0,0
41397,-100,4,2,2,5,0,0
41397,-100,4,2,2,5,0,0
41397,-100,4,2,2,5,0,0
41397,-100,4,2,2,5,0,0
41547,-100,4,2,2,70,0,0
41547,-100,4,2,2,70,0,0
41547,-100,4,2,2,70,0,0
41547,-100,4,2,2,70,0,0
41847,-100,4,2,2,5,0,0
41847,-100,4,2,2,5,0,0
41847,-100,4,2,2,5,0,0
41847,-100,4,2,2,5,0,0
41997,-100,4,2,2,70,0,0
41997,-100,4,2,2,70,0,0
41997,-100,4,2,2,70,0,0
41997,-100,4,2,2,70,0,0
42297,-100,4,2,2,5,0,0
42297,-100,4,2,2,5,0,0
42297,-100,4,2,2,5,0,0
42297,-100,4,2,2,5,0,0
42447,-100,4,2,2,70,0,0
42447,-100,4,2,2,70,0,0
42447,-100,4,2,2,70,0,0
42447,-100,4,2,2,70,0,0
42747,-100,4,2,2,5,0,0
42747,-100,4,2,2,5,0,0
42747,-100,4,2,2,5,0,0
42747,-100,4,2,2,5,0,0
42897,-100,4,2,2,70,0,0
42897,-100,4,2,2,70,0,0
42897,-100,4,2,2,70,0,0
42897,-100,4,2,2,70,0,0
43797,-100,4,2,2,5,0,0
43797,-100,4,2,2,5,0,0
43797,-100,4,2,2,5,0,0
43797,-100,4,2,2,5,0,0
44097,-100,4,2,3,60,0,0
44097,-100,4,2,3,60,0,0
44097,-100,4,2,3,60,0,0
44097,-100,4,2,3,60,0,0
44247,-100,4,2,3,30,0,0
44247,-100,4,2,3,30,0,0
44247,-100,4,2,3,30,0,0
44247,-100,4,2,3,30,0,0
44847,-100,4,2,3,60,0,0
44847,-100,4,2,3,60,0,0
44847,-100,4,2,3,60,0,0
44847,-100,4,2,3,60,0,0
45129,-100,4,2,2,70,0,0
45129,-100,4,2,2,70,0,0
45129,-100,4,2,2,70,0,0
45129,-100,4,2,2,70,0,0
45147,300,4,2,2,70,1,0
79347,-200,4,2,2,70,0,0
80229,-200,4,2,3,40,0,0
80229,-200,4,2,3,40,0,0
80229,-200,4,2,3,40,0,0
80229,-200,4,2,3,40,0,0
81129,-200,4,2,2,80,0,0
81129,-200,4,2,2,80,0,0
81129,-200,4,2,2,80,0,0
81129,-200,4,2,2,80,0,0
81147,-80,4,2,2,80,0,1
91029,-80,4,2,3,40,0,1
91029,-80,4,2,3,40,0,1
91029,-80,4,2,3,40,0,1
91029,-80,4,2,3,40,0,1
91479,-80,4,2,3,70,0,1
91479,-80,4,2,3,70,0,1
91479,-80,4,2,3,70,0,1
91479,-80,4,2,3,70,0,1
91929,-80,4,2,2,80,0,1
91929,-80,4,2,2,80,0,1
91929,-80,4,2,2,80,0,1
91929,-80,4,2,2,80,0,1
101830,-80,4,2,3,40,0,1
101830,-80,4,2,3,40,0,1
101830,-80,4,2,3,40,0,1
101830,-80,4,2,3,40,0,1
102279,-80,4,2,3,70,0,1
102279,-80,4,2,3,70,0,1
102279,-80,4,2,3,70,0,1
102279,-80,4,2,3,70,0,1
102729,-80,4,2,2,80,0,1
102729,-80,4,2,2,80,0,1
102729,-80,4,2,2,80,0,1
102729,-80,4,2,2,80,0,1
102747,600,4,2,2,80,1,0
108129,-100,4,2,2,70,0,0
108129,-100,4,2,2,70,0,0
108129,-100,4,2,2,70,0,0
108129,-100,4,2,2,70,0,0
108147,-100,4,2,2,70,0,0
134679,-100,4,2,3,40,0,0
134679,-100,4,2,3,40,0,0
134679,-100,4,2,3,40,0,0
134679,-100,4,2,3,40,0,0
136929,-100,4,2,2,70,0,0
136929,-100,4,2,2,70,0,0
136929,-100,4,2,2,70,0,0
136929,-100,4,2,2,70,0,0
136947,300,4,2,2,70,1,0
172029,-100,4,2,3,40,0,0
172029,-100,4,2,3,40,0,0
172029,-100,4,2,3,40,0,0
172029,-100,4,2,3,40,0,0
172929,-100,4,2,2,70,0,0
172929,-100,4,2,2,70,0,0
172929,-100,4,2,2,70,0,0
172929,-100,4,2,2,70,0,0
172947,-66.6666666666667,4,2,2,70,0,1
182829,-66.6666666666667,4,2,3,40,0,1
182829,-66.6666666666667,4,2,3,40,0,1
182829,-66.6666666666667,4,2,3,40,0,1
182829,-66.6666666666667,4,2,3,40,0,1
183729,-66.6666666666667,4,2,2,70,0,1
183729,-66.6666666666667,4,2,2,70,0,1
183729,-66.6666666666667,4,2,2,70,0,1
183729,-66.6666666666667,4,2,2,70,0,1
193629,-66.6666666666667,4,2,3,40,0,1
193629,-66.6666666666667,4,2,3,40,0,1
193629,-66.6666666666667,4,2,3,40,0,1
193629,-66.6666666666667,4,2,3,40,0,1
193643,-66.6666666666667,4,2,3,40,0,1
193947,-66.6666666666667,4,2,3,40,0,1
194247,-66.6666666666667,4,2,3,40,0,1
194529,-66.6666666666667,4,2,2,70,0,1
194529,-66.6666666666667,4,2,2,70,0,1
194529,-66.6666666666667,4,2,2,70,0,1
194529,-66.6666666666667,4,2,2,70,0,1
194547,-57.1428571428571,4,2,2,70,0,1
204429,-57.1428571428571,4,2,3,50,0,1
204429,-57.1428571428571,4,2,3,50,0,1
204429,-57.1428571428571,4,2,3,50,0,1
204429,-57.1428571428571,4,2,3,50,0,1
205329,-57.1428571428571,4,2,2,70,0,1
205329,-57.1428571428571,4,2,2,70,0,1
205329,-57.1428571428571,4,2,2,70,0,1
205329,-57.1428571428571,4,2,2,70,0,1
215229,-57.1428571428571,4,2,3,50,0,1
215229,-57.1428571428571,4,2,3,50,0,1
215229,-57.1428571428571,4,2,3,50,0,1
215229,-57.1428571428571,4,2,3,50,0,1
216129,-57.1428571428571,4,2,2,70,0,1
216129,-57.1428571428571,4,2,2,70,0,1
216129,-57.1428571428571,4,2,2,70,0,1
216129,-57.1428571428571,4,2,2,70,0,1
216147,-80,4,2,2,70,0,0
216429,-80,4,2,3,50,0,0
216429,-80,4,2,3,50,0,0
216429,-80,4,2,3,50,0,0
216429,-80,4,2,3,50,0,0
216729,-80,4,2,2,70,0,0
216729,-80,4,2,2,70,0,0
216729,-80,4,2,2,70,0,0
216729,-80,4,2,2,70,0,0
217029,-80,4,2,3,50,0,0
217029,-80,4,2,3,50,0,0
217029,-80,4,2,3,50,0,0
217029,-80,4,2,3,50,0,0
217329,-80,4,2,3,60,0,0
217329,-80,4,2,3,60,0,0
217329,-80,4,2,3,60,0,0
217329,-80,4,2,3,60,0,0
217947,-100,4,2,3,60,0,0

[Colours]
Combo1 : 112,80,37
Combo2 : 53,142,23
Combo3 : 205,159,97
Combo4 : 51,102,198

[HitObjects]
116,152,147,5,0,0:0:0:0:
160,260,447,1,0,0:0:0:0:
204,104,747,1,0,0:0:0:0:
249,256,1347,6,0,L|159:259,1,90,0|0,0:0|0:0,0:0:0:0:
244,48,1947,5,0,0:0:0:0:
304,208,2247,1,0,0:0:0:0:
336,76,2547,1,0,0:0:0:0:
208,184,2847,5,0,0:0:0:0:
368,244,3147,1,0,0:0:0:0:
268,100,3447,1,0,0:0:0:0:
285,258,4047,6,0,P|329:264|369:242,1,90,0|0,0:0|0:0,0:0:0:0:
285,78,4647,1,0,0:0:0:0:
245,166,4947,1,0,0:0:0:0:
285,258,5247,1,0,0:0:0:0:
245,166,5547,6,0,L|153:174,2,90,0|0|0,0:0|0:0|0:0,0:0:0:0:
244,165,6747,2,0,L|334:173,1,90,0|0,0:0|0:0,0:0:0:0:
398,245,7347,5,0,0:0:0:0:
250,289,7647,1,0,0:0:0:0:
286,132,7947,1,0,0:0:0:0:
398,245,8247,2,0,L|390:334,1,90,0|0,0:0|0:0,0:0:0:0:
390,334,8847,1,0,0:0:0:0:
328,216,9147,6,0,L|324:160,1,45,8|8,0:0|0:0,0:0:0:0:
284,36,9447,1,0,0:0:0:0:
340,147,9597,1,0,0:0:0:0:
264,16,9747,2,0,L|260:60,1,45,0|0,0:0|0:0,0:0:0:0:
208,240,10047,5,8,0:0:0:0:
176,76,10197,1,0,0:0:0:0:
112,288,10347,5,8,0:0:0:0:
94,121,10497,1,0,0:0:0:0:
27,334,10647,5,8,0:0:0:0:
9,167,10797,1,0,0:0:0:0:
112,288,10947,6,0,B|176:303|176:303|240:264,1,135.000005149842,8|8,0:0|0:0,0:0:0:0:
260,184,11397,1,0,0:0:0:0:
332,132,11547,1,0,0:0:0:0:
420,132,11697,1,0,0:0:0:0:
355,264,11847,6,0,L|331:128,1,135.000005149842,8|8,0:0|0:0,0:0:0:0:
256,88,12297,1,0,0:0:0:0:
256,176,12447,1,0,0:0:0:0:
332,132,12597,1,0,0:0:0:0:
256,88,12747,6,0,P|192:80|144:136,1,135.000005149842,8|8,0:0|0:0,0:0:0:0:
188,308,13197,1,0,0:0:0:0:
127,121,13347,1,0,0:0:0:0:
76,328,13497,1,0,0:0:0:0:
256,88,13647,6,0,P|313:57|380:71,1,135.000005149842,8|8,0:0|0:0,0:0:0:0:
326,138,14097,1,0,0:0:0:0:
272,16,14247,1,0,0:0:0:0:
440,140,14397,1,0,0:0:0:0:
256,88,14547,6,0,B|216:100|216:100|164:96|164:96|124:111,1,135.000005149842,8|8,0:0|0:0,0:0:0:0:
48,244,14997,1,0,0:0:0:0:
167,172,15147,1,0,0:0:0:0:
41,104,15297,1,0,0:0:0:0:
100,300,15447,6,0,P|132:313|167:311,1,67.5000025749208,0|0,0:0|0:0,0:0:0:0:
308,321,15747,2,0,P|276:334|241:332,1,67.5000025749208,0|0,0:0|0:0,0:0:0:0:
211,192,16047,2,0,P|224:224|222:259,1,67.5000025749208,0|0,0:0|0:0,0:0:0:0:
100,300,16347,6,0,P|52:236|136:220,1,180,0|0,0:0|0:0,0:0:0:0:
184,252,17097,1,0,0:0:0:0:
256,228,17247,6,0,L|264:168,1,45,0|0,0:0|0:0,0:0:0:0:
184,252,17547,2,0,L|192:308,1,45,0|0,0:0|0:0,0:0:0:0:
260,328,17847,1,0,0:0:0:0:
320,276,17997,1,0,0:0:0:0:
261,183,18147,6,0,B|249:119|249:119|253:115|253:115|240:40,1,135,0|0,0:0|0:0,0:0:0:0:
209,67,18747,2,0,L|213:15,1,45,0|0,0:0|0:0,0:0:0:0:
132,96,19047,5,0,0:0:0:0:
328,128,19197,1,0,0:0:0:0:
116,208,19347,2,0,P|92:217|56:216,1,45,0|0,0:0|0:0,0:0:0:0:
308,256,19647,2,0,P|331:266|360:264,1,45,0|0,0:0|0:0,0:0:0:0:
301,146,19947,6,0,P|289:170|321:150,1,90,0|8,0:0|0:0,0:0:0:0:
217,173,20397,2,0,P|248:234|312:255,1,135,0|8,0:0|0:0,0:0:0:0:
307,255,20997,1,0,0:0:0:0:
217,173,21147,2,0,B|171:162|171:162,2,45,0|0|0,0:0|0:0|0:0,0:0:0:0:
360,112,21597,1,0,0:0:0:0:
329,317,21747,6,0,L|341:261,1,45,0|8,0:0|0:0,0:0:0:0:
217,173,22047,1,0,0:0:0:0:
338,272,22197,2,0,L|330:216,1,45,0|8,0:0|0:0,0:0:0:0:
296,160,22497,1,0,0:0:0:0:
324,88,22647,6,0,L|280:80,1,45,0|8,0:0|0:0,0:0:0:0:
208,108,22947,1,0,0:0:0:0:
132,120,23097,1,8,0:0:0:0:
68,76,23247,1,0,0:0:0:0:
100,144,23397,1,8,0:0:0:0:
68,212,23547,6,0,P|66:257|90:297,1,90,0|8,0:0|0:0,0:0:0:0:
141,240,23997,2,0,L|196:236,1,45,0|0,0:0|0:0,0:0:0:0:
185,236,24297,1,0,0:0:0:0:
284,132,24447,6,0,P|306:132|329:145,1,45,0|0,0:0|0:0,0:0:0:0:
284,312,24747,2,0,P|262:312|239:299,1,45,0|0,0:0|0:0,0:0:0:0:
373,222,25047,2,0,P|373:244|360:267,1,45,0|0,0:0|0:0,0:0:0:0:
241,301,25347,6,0,L|233:253,1,45,0|8,0:0|0:0,0:0:0:0:
189,191,25647,2,0,L|201:87,1,90,0|0,0:0|0:0,0:0:0:0:
199,101,26097,1,0,0:0:0:0:
100,104,26247,6,0,B|78:118|78:118|68:140|68:140,1,45,0|8,0:0|0:0,0:0:0:0:
24,200,26547,2,0,B|19:225|19:225|28:248|28:248,1,45,0|0,0:0|0:0,0:0:0:0:
146,203,26847,2,0,L|98:207,1,45,0|0,0:0|0:0,0:0:0:0:
192,348,27147,6,0,L|204:256,1,90,0|8,0:0|0:0,0:0:0:0:
221,183,27597,2,0,B|197:123|250:116|211:47,1,135,0|8,0:0|0:0,0:0:0:0:
128,40,28347,5,0,0:0:0:0:
288,20,28647,1,0,0:0:0:0:
216,143,28947,6,0,B|204:251|204:251|216:283,1,135,0|0,0:0|0:0,0:0:0:0:
179,264,29547,2,0,P|163:360|163:360,1,90,0|0,0:0|0:0,0:0:0:0:
84,248,29997,1,0,0:0:0:0:
88,80,30147,1,0,0:0:0:0:
179,264,30297,1,0,0:0:0:0:
220,84,30447,2,0,L|268:72,1,45,0|0,0:0|0:0,0:0:0:0:
181,215,30747,6,0,P|153:175|225:83,1,180,0|8,0:0|0:0,0:0:0:0:
219,83,31497,1,0,0:0:0:0:
251,252,31647,2,0,L|304:272,1,45,0|0,0:0|0:0,0:0:0:0:
181,215,31947,2,0,B|173:263|173:263|197:315,1,90,0|0,0:0|0:0,0:0:0:0:
252,256,32547,1,0,0:0:0:0:
340,242,32847,6,0,L|236:258,1,90,0|0,0:0|0:0,0:0:0:0:
364,168,33297,1,0,0:0:0:0:
196,192,33447,2,0,L|104:180,1,90,0|0,0:0|0:0,0:0:0:0:
106,182,33897,1,0,0:0:0:0:
77,111,34047,6,0,L|17:127,1,45,0|8,0:0|0:0,0:0:0:0:
138,66,34347,2,0,L|122:6,1,45,0|8,0:0|0:0,0:0:0:0:
234,130,34647,2,0,L|322:144,1,90,0|8,0:0|0:0,0:0:0:0:
424,88,35097,1,0,0:0:0:0:
297,222,35247,6,0,L|305:274,1,45,0|8,0:0|0:0,0:0:0:0:
227,174,35547,2,0,L|235:118,1,45,0|0,0:0|0:0,0:0:0:0:
303,266,35847,2,0,L|291:314,1,45,0|0,0:0|0:0,0:0:0:0:
352,164,36147,6,0,L|412:160,1,45,0|8,0:0|0:0,0:0:0:0:
352,164,36447,2,0,L|167:177,1,180,0|0,0:0|0:0,0:0:0:0:
157,167,37197,1,0,0:0:0:0:
79,96,37347,6,0,P|51:95|27:104,1,45,0|0,0:0|0:0,0:0:0:0:
112,163,37647,2,0,P|133:168|156:166,1,45,0|0,0:0|0:0,0:0:0:0:
112,163,37947,2,0,L|124:259,1,90,0|0,0:0|0:0,0:0:0:0:
123,252,38397,1,0,0:0:0:0:
240,300,38547,2,0,L|300:308,1,45,0|0,0:0|0:0,0:0:0:0:
384,116,38847,5,0,0:0:0:0:
296,324,38997,1,0,0:0:0:0:
432,184,39147,5,0,0:0:0:0:
400,384,39297,1,0,0:0:0:0:
312,40,39447,5,0,0:0:0:0:
296,324,39597,1,0,0:0:0:0:
224,100,39747,6,0,L|211:153,1,45,0|0,0:0|0:0,0:0:0:0:
288,59,40047,2,0,P|240:27|148:103,1,180,0|0,0:0|0:0,0:0:0:0:
196,288,40797,1,0,0:0:0:0:
120,152,40947,1,0,0:0:0:0:
140,360,41097,1,0,0:0:0:0:
225,101,41247,6,0,L|233:149,1,45,0|0,0:0|0:0,0:0:0:0:
225,101,41547,2,0,B|252:85|252:85|281:97|281:97|313:72|353:88,1,135,0|0,0:0|0:0,0:0:0:0:
352,112,42147,2,0,L|404:120,1,45,0|0,0:0|0:0,0:0:0:0:
432,272,42447,5,0,0:0:0:0:
349,86,42597,1,0,0:0:0:0:
312,304,42747,2,0,L|260:312,1,45,0|0,0:0|0:0,0:0:0:0:
256,192,43047,12,0,44997,0:0:0:0:
284,88,45147,5,6,0:0:0:0:
220,312,45297,1,0,0:0:0:0:
158,42,45447,1,8,0:0:0:0:
267,248,45597,1,0,0:0:0:0:
328,4,45747,1,8,0:0:0:0:
388,288,45897,1,0,0:0:0:0:
256,116,46047,6,0,B|210:106|210:106|174:131|174:131|130:106|84:136,1,180,8|8,0:0|0:0,0:0:0:0:
133,195,46497,1,0,0:0:0:0:
269,27,46647,2,0,L|253:131,1,90,0|0,0:0|0:0,0:0:0:0:
296,320,46947,5,8,0:0:0:0:
348,92,47097,1,0,0:0:0:0:
228,276,47247,1,8,0:0:0:0:
176,48,47397,1,0,0:0:0:0:
336,256,47547,1,8,0:0:0:0:
133,107,47697,1,0,0:0:0:0:
104,340,47847,6,0,L|8:360,1,90,0|0,0:0|0:0,0:0:0:0:
104,39,48147,1,8,0:0:0:0:
228,276,48297,1,0,0:0:0:0:
316,0,48447,1,8,0:0:0:0:
252,208,48597,1,0,0:0:0:0:
72,192,48747,6,0,L|256:208,1,180,0|0,0:0|0:0,0:0:0:0:
400,40,49197,1,0,0:0:0:0:
440,316,49347,1,0,0:0:0:0:
299,92,49497,1,0,0:0:0:0:
240,280,49647,6,0,L|140:288,1,90,8|8,0:0|0:0,0:0:0:0:
56,56,49947,5,0,0:0:0:0:
240,196,50097,1,0,0:0:0:0:
79,215,50247,5,0,0:0:0:0:
219,31,50397,1,0,0:0:0:0:
319,267,50547,6,0,P|355:283|407:275,1,90,0|0,0:0|0:0,0:0:0:0:
370,209,50847,2,0,P|406:194|437:152,1,90,0|0,0:0|0:0,0:0:0:0:
366,131,51147,2,0,P|381:95|374:42,1,90,0|0,0:0|0:0,0:0:0:0:
311,82,51447,2,0,P|296:45|254:14,1,90,0|0,0:0|0:0,0:0:0:0:
145,74,51747,2,0,L|237:86,1,90,0|0,0:0|0:0,0:0:0:0:
276,149,52047,2,0,L|180:165,1,90,0|0,0:0|0:0,0:0:0:0:
64,36,52347,5,8,0:0:0:0:
8,280,52497,1,0,0:0:0:0:
97,101,52647,1,8,0:0:0:0:
136,344,52797,1,0,0:0:0:0:
62,169,52947,1,8,0:0:0:0:
204,313,53097,1,0,0:0:0:0:
276,120,53247,6,0,B|332:108|332:108|394:123|394:123|451:110,1,180,0|0,0:0|0:0,0:0:0:0:
464,188,53697,2,0,L|480:280,1,90,0|0,0:0|0:0,0:0:0:0:
479,276,53997,1,0,0:0:0:0:
398,331,54147,6,0,B|350:328|350:328|310:339,1,90,0|0,0:0|0:0,0:0:0:0:
221,331,54447,2,0,B|269:328|269:328|309:339,1,90,0|0,0:0|0:0,0:0:0:0:
152,299,54747,2,0,L|136:203,1,90,0|0,0:0|0:0,0:0:0:0:
213,214,55047,2,0,L|231:126,1,90,0|0,0:0|0:0,0:0:0:0:
68,115,55347,2,0,P|104:135|150:126,1,90,0|0,0:0|0:0,0:0:0:0:
312,44,55647,1,0,0:0:0:0:
213,214,55797,1,0,0:0:0:0:
147,43,55947,6,0,B|184:25|184:25|223:47|223:47|266:14|330:53,1,180,0|0,0:0|0:0,0:0:0:0:
412,248,56397,1,0,0:0:0:0:
452,0,56547,1,0,0:0:0:0:
359,186,56697,1,0,0:0:0:0:
144,37,56847,6,0,L|124:221,1,180,8|8,0:0|0:0,0:0:0:0:
248,112,57297,1,0,0:0:0:0:
225,301,57447,1,0,0:0:0:0:
144,37,57597,1,0,0:0:0:0:
124,215,57747,6,0,L|112:308,1,90,8|8,0:0|0:0,0:0:0:0:
244,384,58047,1,0,0:0:0:0:
312,176,58197,1,0,0:0:0:0:
112,304,58347,2,0,L|205:328,1,90,0|0,0:0|0:0,0:0:0:0:
386,128,58647,5,8,0:0:0:0:
192,251,58797,1,0,0:0:0:0:
344,32,58947,1,8,0:0:0:0:
288,328,59097,1,0,0:0:0:0:
193,54,59247,1,8,0:0:0:0:
120,336,59397,1,0,0:0:0:0:
336,208,59547,6,0,B|344:152|344:152|329:86|329:86|345:25,1,180,0|0,0:0|0:0,0:0:0:0:
264,16,59997,2,0,L|171:38,1,90,0|0,0:0|0:0,0:0:0:0:
176,36,60297,1,0,0:0:0:0:
84,124,60447,6,0,B|74:168|74:168|88:216,1,90,8|8,0:0|0:0,0:0:0:0:
232,296,60747,1,0,0:0:0:0:
416,188,60897,6,0,B|426:232|426:232|412:280,1,90,8|8,0:0|0:0,0:0:0:0:
268,360,61197,1,0,0:0:0:0:
234,214,61347,6,0,P|191:198|142:206,1,90,0|0,0:0|0:0,0:0:0:0:
278,274,61647,2,0,P|262:317|270:366,1,90,0|0,0:0|0:0,0:0:0:0:
308,204,61947,2,0,P|351:220|400:212,1,90,0|0,0:0|0:0,0:0:0:0:
132,28,62247,6,0,B|164:107|98:106|152:212,1,180,8|8,0:0|0:0,0:0:0:0:
213,239,62697,2,0,P|167:275|74:212,1,180,8|8,0:0|0:0,0:0:0:0:
212,164,63147,6,0,L|304:152,1,90,0|0,0:0|0:0,0:0:0:0:
380,316,63447,1,0,0:0:0:0:
408,88,63597,1,0,0:0:0:0:
316,270,63747,1,0,0:0:0:0:
228,32,63897,1,0,0:0:0:0:
104,204,64047,6,0,P|148:216|200:192,1,90,8|8,0:0|0:0,0:0:0:0:
95,58,64347,1,0,0:0:0:0:
44,251,64497,1,0,0:0:0:0:
188,201,64647,2,0,B|198:160|198:160|180:109,1,90,0|0,0:0|0:0,0:0:0:0:
33,91,64947,5,0,0:0:0:0:
143,284,65097,1,0,0:0:0:0:
112,52,65247,1,0,0:0:0:0:
176,300,65397,1,0,0:0:0:0:
260,36,65547,2,0,L|244:128,1,90,0|0,0:0|0:0,0:0:0:0:
283,251,65847,5,8,0:0:0:0:
388,100,65997,1,0,0:0:0:0:
296,276,66147,5,8,0:0:0:0:
333,57,66297,1,0,0:0:0:0:
308,294,66447,5,8,0:0:0:0:
466,64,66597,1,0,0:0:0:0:
320,312,66747,6,0,L|140:324,1,180,0|0,0:0|0:0,0:0:0:0:
320,312,67197,2,0,L|418:305,1,90,0|0,0:0|0:0,0:0:0:0:
409,305,67497,1,0,0:0:0:0:
472,40,67647,5,8,0:0:0:0:
378,235,67797,1,0,0:0:0:0:
288,0,67947,1,8,0:0:0:0:
249,340,68097,1,0,0:0:0:0:
160,140,68247,6,0,L|64:132,1,90,0|0,0:0|0:0,0:0:0:0:
193,75,68547,2,0,B|234:61|234:61|268:84|268:84|321:69|365:107,1,180,0|0,0:0|0:0,0:0:0:0:
447,90,68997,2,0,L|347:102,1,90,0|0,0:0|0:0,0:0:0:0:
352,104,69297,1,0,0:0:0:0:
193,75,69447,5,8,0:0:0:0:
258,307,69597,1,0,0:0:0:0:
208,92,69747,5,8,0:0:0:0:
189,332,69897,1,0,0:0:0:0:
220,104,70047,5,8,0:0:0:0:
120,323,70197,1,0,0:0:0:0:
285,149,70347,2,0,L|389:141,1,90,0|0,0:0|0:0,0:0:0:0:
316,336,70647,1,0,0:0:0:0:
224,81,70797,6,0,B|203:160|62:197|14:168|9:92|25:32|99:10|146:47|167:81|156:121|104:189|104:189|97:248|120:305|187:331|258:296,1,720,0|0,0:0|0:0,0:0:0:0:
234,181,72147,2,0,B|289:142|298:73|298:73|297:147|338:221,1,270,0|0,0:0|0:0,0:0:0:0:
224,81,72747,2,0,L|128:93,1,90,0|0,0:0|0:0,0:0:0:0:
80,300,73047,5,8,0:0:0:0:
252,44,73197,1,0,0:0:0:0:
250,295,73347,5,8,0:0:0:0:
78,39,73497,1,0,0:0:0:0:
166,359,73647,5,8,0:0:0:0:
338,103,73797,1,0,0:0:0:0:
78,39,73947,6,0,B|65:81|65:81|74:127|74:127|47:169|65:219,1,180,0|0,0:0|0:0,0:0:0:0:
114,272,74397,2,0,L|203:283,2,90,0|0|0,0:0|0:0|0:0,0:0:0:0:
264,240,74847,5,8,0:0:0:0:
452,204,74997,1,0,0:0:0:0:
216,148,75147,5,8,0:0:0:0:
407,145,75297,1,0,0:0:0:0:
190,47,75447,5,8,0:0:0:0:
378,77,75597,1,0,0:0:0:0:
209,225,75747,6,0,L|189:41,1,180,0|0,0:0|0:0,0:0:0:0:
209,225,76197,2,0,L|220:322,1,90,0|0,0:0|0:0,0:0:0:0:
352,368,76497,1,0,0:0:0:0:
424,232,76647,6,0,P|440:188|432:140,1,90,0|0,0:0|0:0,0:0:0:0:
366,181,76947,2,0,P|346:138|306:110,1,90,0|0,0:0|0:0,0:0:0:0:
288,186,77247,2,0,P|244:170|196:178,1,90,0|0,0:0|0:0,0:0:0:0:
133,142,77547,2,0,L|113:46,1,90,0|0,0:0|0:0,0:0:0:0:
73,194,77847,1,0,0:0:0:0:
144,225,77997,6,0,B|219:235|219:235|280:189|280:189|364:197|395:208|419:234|423:267|398:299|373:311|343:309|323:302|297:263|306:240|344:193|344:193|383:112|383:112|356:45|356:45|324:109,1,720,0|0,0:0|0:0,0:0:0:0:
271,326,79347,2,0,P|315:358|460:301,1,225,0|0,0:0|0:0,0:0:0:0:
400,156,80247,5,8,0:0:0:0:
240,28,80397,1,0,0:0:0:0:
360,284,80547,1,8,0:0:0:0:
396,0,80697,1,0,0:0:0:0:
271,326,80847,1,8,0:0:0:0:
112,0,80997,1,0,0:0:0:0:
293,141,81147,6,0,L|398:86,1,112.5,0|0,0:0|0:0,0:0:0:0:
184,186,81447,2,0,L|77:143,1,112.5,0|0,0:0|0:0,0:0:0:0:
273,256,81747,2,0,L|325:368,1,112.5,0|0,0:0|0:0,0:0:0:0:
368,176,82047,1,0,0:0:0:0:
200,344,82197,1,0,0:0:0:0:
116,36,82347,5,8,0:0:0:0:
424,184,82497,1,0,0:0:0:0:
130,313,82647,5,8,0:0:0:0:
438,165,82797,1,0,0:0:0:0:
132,32,82947,6,0,P|117:83|140:144,1,112.5,0|0,0:0|0:0,0:0:0:0:
376,137,83247,2,0,P|394:85|380:32,1,112.5,0|0,0:0|0:0,0:0:0:0:
255,345,83547,2,0,L|255:213,1,112.5,0|0,0:0|0:0,0:0:0:0:
135,137,83847,6,0,B|79:125|79:125|27:145,1,112.5,0|0,0:0|0:0,0:0:0:0:
377,137,84147,2,0,B|433:125|433:125|485:145,1,112.5,0|0,0:0|0:0,0:0:0:0:
309,55,84447,2,0,P|256:32|200:56,1,112.5,0|0,0:0|0:0,0:0:0:0:
120,292,84747,1,0,0:0:0:0:
255,104,84897,1,0,0:0:0:0:
22,156,85047,5,8,0:0:0:0:
303,274,85197,1,0,0:0:0:0:
148,48,85347,1,8,0:0:0:0:
96,320,85497,1,0,0:0:0:0:
312,160,85647,5,8,0:0:0:0:
40,216,85797,1,0,0:0:0:0:
332,172,85947,5,8,0:0:0:0:
1,103,86097,1,0,0:0:0:0:
112,384,86247,5,8,0:0:0:0:
186,67,86397,1,0,0:0:0:0:
320,252,86547,6,0,P|373:265|424:236,1,112.5,0|0,0:0|0:0,0:0:0:0:
238,231,86847,2,0,P|185:218|134:247,1,112.5,0|0,0:0|0:0,0:0:0:0:
296,176,87147,2,0,P|309:123|280:72,1,112.5,0|0,0:0|0:0,0:0:0:0:
195,291,87447,1,0,0:0:0:0:
365,193,87597,1,0,0:0:0:0:
128,80,87747,5,8,0:0:0:0:
268,304,87897,1,0,0:0:0:0:
291,31,88047,1,8,0:0:0:0:
112,236,88197,1,0,0:0:0:0:
268,304,88347,6,0,L|384:316,1,112.5,0|0,0:0|0:0,0:0:0:0:
112,236,88647,2,0,L|-4:248,1,112.5,0|0,0:0|0:0,0:0:0:0:
283,132,88947,2,0,L|399:144,1,112.5,0|0,0:0|0:0,0:0:0:0:
112,60,89247,2,0,L|-4:72,1,112.5,0|0,0:0|0:0,0:0:0:0:
398,250,89547,2,0,B|414:195|414:195|394:142,1,112.5,0|0,0:0|0:0,0:0:0:0:
112,236,89847,2,0,B|96:291|96:291|116:344,1,112.5,0|0,0:0|0:0,0:0:0:0:
260,160,90147,5,0,0:0:0:0:
208,372,90297,1,0,0:0:0:0:
156,92,90447,1,8,0:0:0:0:
255,309,90597,1,0,0:0:0:0:
320,112,90747,2,0,P|329:56|300:4,1,112.5,0|0,0:0|0:0,0:0:0:0:
161,166,91047,6,0,B|214:191|214:191|269:166|269:166|322:208|385:158,1,225,0|0,0:0|0:0,0:0:0:0:
256,69,91497,1,0,0:0:0:0:
200,328,91647,2,0,L|312:348,1,112.5,0|0,0:0|0:0,0:0:0:0:
372,84,91947,5,8,0:0:0:0:
464,336,92097,1,0,0:0:0:0:
408,60,92247,5,8,0:0:0:0:
316,312,92397,1,0,0:0:0:0:
376,48,92547,5,8,0:0:0:0:
468,300,92697,1,0,0:0:0:0:
316,92,92847,2,0,B|264:75|264:75|207:86,1,112.5,0|0,0:0|0:0,0:0:0:0:
138,304,93147,5,8,0:0:0:0:
260,151,93297,1,0,0:0:0:0:
50,264,93447,1,8,0:0:0:0:
246,384,93597,1,0,0:0:0:0:
260,151,93747,6,0,B|272:95|272:95|220:135,1,112.5,0|0,0:0|0:0,0:0:0:0:
106,281,94047,2,0,B|94:337|94:337|146:297,1,112.5,0|0,0:0|0:0,0:0:0:0:
120,139,94347,2,0,B|64:127|64:127|104:179,1,112.5,0|0,0:0|0:0,0:0:0:0:
250,293,94647,2,0,B|306:305|306:305|266:253,1,112.5,0|0,0:0|0:0,0:0:0:0:
114,33,94947,2,0,B|97:85|97:85|122:145,1,112.5,0|0,0:0|0:0,0:0:0:0:
272,261,95247,2,0,B|289:209|289:209|264:149,1,112.5,0|0,0:0|0:0,0:0:0:0:
119,138,95547,5,0,0:0:0:0:
216,336,95697,1,0,0:0:0:0:
309,93,95847,2,0,P|256:81|205:113,1,112.5,8|8,0:0|0:0,0:0:0:0:
272,261,96147,1,0,0:0:0:0:
424,96,96297,1,0,0:0:0:0:
156,55,96447,5,8,0:0:0:0:
364,143,96597,1,0,0:0:0:0:
112,245,96747,5,8,0:0:0:0:
381,132,96897,1,0,0:0:0:0:
42,0,97047,5,8,0:0:0:0:
398,150,97197,1,0,0:0:0:0:
156,328,97347,6,0,B|136:256|136:256|148:216,1,112.5,0|0,0:0|0:0,0:0:0:0:
356,56,97647,2,0,B|376:128|376:128|364:168,1,112.5,0|0,0:0|0:0,0:0:0:0:
121,47,97947,2,0,P|174:40|220:79,1,112.5,0|0,0:0|0:0,0:0:0:0:
156,328,98247,1,0,0:0:0:0:
365,164,98397,1,0,0:0:0:0:
156,109,98547,5,8,0:0:0:0:
300,284,98697,1,0,0:0:0:0:
356,56,98847,1,8,0:0:0:0:
300,284,98997,1,0,0:0:0:0:
121,47,99147,6,0,P|68:33|11:55,1,112.5,0|0,0:0|0:0,0:0:0:0:
391,47,99447,2,0,P|444:33|501:55,1,112.5,0|0,0:0|0:0,0:0:0:0:
206,165,99747,2,0,L|186:277,1,112.5,0|0,0:0|0:0,0:0:0:0:
302,165,100047,2,0,L|322:277,1,112.5,0|0,0:0|0:0,0:0:0:0:
170,101,100347,2,0,B|114:94|114:94|59:119,1,112.5,0|0,0:0|0:0,0:0:0:0:
342,101,100647,2,0,B|398:94|398:94|453:119,1,112.5,0|0,0:0|0:0,0:0:0:0:
288,320,100947,1,0,0:0:0:0:
240,52,101097,1,0,0:0:0:0:
340,236,101247,5,8,0:0:0:0:
180,96,101397,1,0,0:0:0:0:
280,312,101547,1,8,0:0:0:0:
96,80,101697,1,0,0:0:0:0:
340,236,101847,6,0,B|395:251|395:251|452:232,1,112.5,0|0,0:0|0:0,0:0:0:0:
300,168,102147,1,0,0:0:0:0:
368,128,102297,6,0,B|383:73|383:73|364:16,1,112.5,0|0,0:0|0:0,0:0:0:0:
300,168,102597,1,0,0:0:0:0:
228,116,102747,6,0,B|200:116|180:96|180:96|156:92|133:104|133:104|119:75|88:68|88:68|111:151|208:248|104:288|12:252|20:176|72:112|190:199,1,540,0|0,0:0|0:0,0:0:0:0:
218,225,104847,1,0,0:0:0:0:
273,175,105147,1,0,0:0:0:0:
362,185,105447,6,0,L|258:173,1,90,8|8,0:0|0:0,0:0:0:0:
218,225,106047,1,0,0:0:0:0:
367,269,106347,6,0,B|379:226|379:226|359:177,1,90,8|8,0:0|0:0,0:0:0:0:
361,184,106947,1,0,0:0:0:0:
294,281,107247,6,0,P|326:329|434:297,1,180,0|0,0:0|0:0,0:0:0:0:
225,71,108147,6,0,B|227:120|194:155|194:155|235:189|232:244|232:244|203:270|196:323,1,270,0|0,0:0|0:0,0:0:0:0:
96,328,109347,2,0,L|44:340,1,45,0|0,0:0|0:0,0:0:0:0:
92,248,109647,2,0,L|148:256,1,45,0|0,0:0|0:0,0:0:0:0:
64,184,109947,2,0,L|48:88,1,90,0|0,0:0|0:0,0:0:0:0:
49,95,110397,1,0,0:0:0:0:
108,52,110547,1,0,0:0:0:0:
128,120,110697,1,0,0:0:0:0:
240,188,110847,6,0,B|264:192|264:192|288:180,1,45,0|0,0:0|0:0,0:0:0:0:
210,78,111147,2,0,L|202:130,1,45,0|0,0:0|0:0,0:0:0:0:
321,41,111447,2,0,B|297:37|297:37|273:49,1,45,0|0,0:0|0:0,0:0:0:0:
356,292,111747,2,0,P|366:249|350:204,1,90,0|0,0:0|0:0,0:0:0:0:
287,172,112197,2,0,P|319:140|421:183,1,135,0|0,0:0|0:0,0:0:0:0:
318,277,112947,6,0,P|296:284|270:273,1,45,0|0,0:0|0:0,0:0:0:0:
156,217,113247,2,0,P|177:210|198:217,1,45,0|0,0:0|0:0,0:0:0:0:
120,264,113547,2,0,L|104:128,1,135,0|0,0:0|0:0,0:0:0:0:
392,264,114447,2,0,L|408:128,1,135,0|0,0:0|0:0,0:0:0:0:
401,102,115047,1,0,0:0:0:0:
390,74,115197,1,0,0:0:0:0:
265,39,115347,6,0,B|221:50|221:50|177:43|177:43|132:53,1,135,0|0,0:0|0:0,0:0:0:0:
56,24,115947,1,0,0:0:0:0:
72,98,116097,1,0,0:0:0:0:
72,248,116247,6,0,L|64:300,1,45,0|0,0:0|0:0,0:0:0:0:
135,200,116547,2,0,L|127:136,1,45,0|0,0:0|0:0,0:0:0:0:
192,251,116847,2,0,L|200:303,1,45,0|0,0:0|0:0,0:0:0:0:
243,182,117147,2,0,L|335:174,1,90,0|0,0:0|0:0,0:0:0:0:
228,164,117597,2,0,L|216:108,1,45,0|0,0:0|0:0,0:0:0:0:
272,50,117897,1,0,0:0:0:0:
375,160,118047,6,0,L|323:176,1,45,0|0,0:0|0:0,0:0:0:0:
411,90,118347,2,0,L|456:103,1,45,0|0,0:0|0:0,0:0:0:0:
342,217,118647,2,0,L|330:165,1,45,0|0,0:0|0:0,0:0:0:0:
386,276,118947,2,0,P|345:291|294:272,1,90,0|0,0:0|0:0,0:0:0:0:
312,248,119397,2,0,L|172:264,1,135,0|0,0:0|0:0,0:0:0:0:
127,149,120147,1,0,0:0:0:0:
211,65,120447,2,0,L|271:57,1,45,0|0,0:0|0:0,0:0:0:0:
111,237,120747,6,0,L|128:141,1,90,0|0,0:0|0:0,0:0:0:0:
177,263,121197,1,0,0:0:0:0:
126,148,121347,2,0,L|139:80,1,45,0|0,0:0|0:0,0:0:0:0:
272,48,121647,5,0,0:0:0:0:
177,263,121797,1,0,0:0:0:0:
104,8,121947,1,0,0:0:0:0:
236,216,122097,1,0,0:0:0:0:
68,72,122247,1,0,0:0:0:0:
152,336,122397,1,0,0:0:0:0:
205,142,122547,6,0,B|264:128|300:170|300:170|350:195|396:167|396:167|374:138|333:125,1,270,0|0,0:0|0:0,0:0:0:0:
236,216,123597,1,0,0:0:0:0:
380,284,123747,6,0,L|428:292,1,45,0|0,0:0|0:0,0:0:0:0:
346,130,124047,2,0,L|298:142,1,45,0|0,0:0|0:0,0:0:0:0:
416,161,124347,2,0,B|422:116|422:116|400:77,1,90,0|0,0:0|0:0,0:0:0:0:
340,29,124797,2,0,L|280:37,1,45,0|0,0:0|0:0,0:0:0:0:
368,220,125097,1,0,0:0:0:0:
146,95,125247,6,0,L|188:112,1,45,0|0,0:0|0:0,0:0:0:0:
295,34,125547,1,0,0:0:0:0:
267,284,125697,6,0,L|243:232,1,45,0|0,0:0|0:0,0:0:0:0:
188,112,125997,1,0,0:0:0:0:
128,320,126147,2,0,L|32:332,1,90,0|0,0:0|0:0,0:0:0:0:
136,172,126597,1,0,0:0:0:0:
176,376,126747,1,0,0:0:0:0:
256,162,126897,1,0,0:0:0:0:
89,253,127047,6,0,L|25:245,1,45,0|0,0:0|0:0,0:0:0:0:
244,340,127347,2,0,L|292:332,1,45,0|0,0:0|0:0,0:0:0:0:
256,162,127647,2,0,L|264:114,1,45,0|0,0:0|0:0,0:0:0:0:
202,333,127947,2,0,B|226:345|226:345|250:337,1,45,0|0,0:0|0:0,0:0:0:0:
130,259,128247,2,0,B|106:247|106:247|82:255,1,45,0|0,0:0|0:0,0:0:0:0:
128,334,128547,1,0,0:0:0:0:
256,162,128697,1,0,0:0:0:0:
220,96,128847,6,0,L|162:72,1,45,0|0,0:0|0:0,0:0:0:0:
294,94,129147,2,0,L|336:78,1,45,0|0,0:0|0:0,0:0:0:0:
256,162,129447,2,0,L|250:206,1,45,0|0,0:0|0:0,0:0:0:0:
305,258,129747,2,0,B|320:301|320:301|313:348,1,90,0|0,0:0|0:0,0:0:0:0:
244,312,130197,2,0,L|200:320,2,45,0|0|0,0:0|0:0|0:0,0:0:0:0:
461,298,130647,5,8,0:0:0:0:
305,258,130797,1,0,0:0:0:0:
439,182,130947,5,8,0:0:0:0:
277,183,131097,1,0,0:0:0:0:
400,70,131247,5,8,0:0:0:0:
243,112,131397,1,0,0:0:0:0:
431,271,131547,6,0,L|439:175,1,90,0|0,0:0|0:0,0:0:0:0:
443,136,131997,2,0,L|437:191,1,45,0|0,0:0|0:0,0:0:0:0:
388,244,132297,1,0,0:0:0:0:
308,252,132447,1,0,0:0:0:0:
252,196,132597,1,0,0:0:0:0:
272,116,132747,1,0,0:0:0:0:
216,176,132897,1,0,0:0:0:0:
136,168,133047,2,0,L|80:156,1,45,0|0,0:0|0:0,0:0:0:0:
268,71,133347,6,0,L|272:119,1,45,0|0,0:0|0:0,0:0:0:0:
156,244,133647,1,0,0:0:0:0:
80,12,133797,6,0,L|88:72,1,45,0|0,0:0|0:0,0:0:0:0:
56,304,134097,1,0,0:0:0:0:
271,115,134247,6,0,L|323:127,1,45,0|0,0:0|0:0,0:0:0:0:
444,56,134547,1,0,0:0:0:0:
376,280,134697,1,8,0:0:0:0:
256,192,134847,12,0,136797,0:0:0:0:
384,144,136947,5,8,0:0:0:0:
243,87,137097,1,0,0:0:0:0:
380,320,137247,1,8,0:0:0:0:
364,0,137397,1,0,0:0:0:0:
268,340,137547,1,8,0:0:0:0:
243,87,137697,1,0,0:0:0:0:
208,268,137847,6,0,B|168:260|168:260|136:276|136:276|84:248|28:288,1,180,0|0,0:0|0:0,0:0:0:0:
112,124,138297,1,0,0:0:0:0:
208,268,138447,2,0,L|224:360,1,90,0|0,0:0|0:0,0:0:0:0:
408,304,138747,5,8,0:0:0:0:
284,132,138897,1,0,0:0:0:0:
380,328,139047,5,8,0:0:0:0:
330,71,139197,1,0,0:0:0:0:
348,312,139347,5,8,0:0:0:0:
411,57,139497,1,0,0:0:0:0:
276,372,139647,5,8,0:0:0:0:
199,63,139797,1,0,0:0:0:0:
347,384,139947,5,8,0:0:0:0:
424,75,140097,1,0,0:0:0:0:
188,384,140247,5,8,0:0:0:0:
131,24,140397,1,0,0:0:0:0:
296,192,140547,6,0,B|344:204|344:204|428:192|428:192|476:204,1,180,0|0,0:0|0:0,0:0:0:0:
368,12,140997,1,0,0:0:0:0:
296,192,141147,2,0,B|306:238|306:238|288:296,1,90,0|0,0:0|0:0,0:0:0:0:
128,168,141447,5,8,0:0:0:0:
240,384,141597,1,0,0:0:0:0:
176,92,141747,1,8,0:0:0:0:
293,278,141897,1,0,0:0:0:0:
372,0,142047,1,8,0:0:0:0:
180,296,142197,1,0,0:0:0:0:
196,68,142347,6,0,P|157:42|102:41,1,90,0|0,0:0|0:0,0:0:0:0:
134,113,142647,2,0,P|88:122|48:160,1,90,0|0,0:0|0:0,0:0:0:0:
122,189,142947,2,0,P|96:228|95:283,1,90,0|0,0:0|0:0,0:0:0:0:
328,128,143247,6,0,P|374:120|424:143,1,90,0|0,0:0|0:0,0:0:0:0:
365,194,143547,2,0,P|402:221|422:273,1,90,0|0,0:0|0:0,0:0:0:0:
343,268,143847,2,0,P|350:314|327:364,1,90,0|0,0:0|0:0,0:0:0:0:
136,168,144147,5,8,0:0:0:0:
208,372,144297,1,0,0:0:0:0:
280,88,144447,2,0,P|325:83|364:108,1,90,0|0,0:0|0:0,0:0:0:0:
244,272,144747,1,0,0:0:0:0:
181,58,144897,1,0,0:0:0:0:
500,172,145047,6,0,B|452:193|415:159|415:159|379:194|327:173,1,180,0|0,0:0|0:0,0:0:0:0:
181,58,145497,1,0,0:0:0:0:
300,248,145647,2,0,L|312:344,1,90,0|0,0:0|0:0,0:0:0:0:
144,364,145947,5,8,0:0:0:0:
256,156,146097,1,0,0:0:0:0:
81,300,146247,5,8,0:0:0:0:
270,158,146397,1,0,0:0:0:0:
52,216,146547,5,8,0:0:0:0:
283,167,146697,1,0,0:0:0:0:
60,128,146847,5,8,0:0:0:0:
291,181,146997,1,0,0:0:0:0:
106,51,147147,5,8,0:0:0:0:
292,197,147297,1,0,0:0:0:0:
180,8,147447,5,8,0:0:0:0:
81,300,147597,1,0,0:0:0:0:
284,116,147747,6,0,B|374:105|374:105|468:132,1,180,0|0,0:0|0:0,0:0:0:0:
284,336,148197,1,0,0:0:0:0:
200,40,148347,2,0,L|212:136,1,90,0|0,0:0|0:0,0:0:0:0:
112,320,148647,5,8,0:0:0:0:
20,96,148797,1,0,0:0:0:0:
160,268,148947,1,8,0:0:0:0:
200,40,149097,1,0,0:0:0:0:
276,308,149247,1,8,0:0:0:0:
120,115,149397,1,0,0:0:0:0:
328,200,149547,6,0,L|420:212,1,90,0|0,0:0|0:0,0:0:0:0:
378,280,149847,2,0,L|470:316,1,90,0|0,0:0|0:0,0:0:0:0:
336,368,150147,1,0,0:0:0:0:
264,96,150297,1,0,0:0:0:0:
100,236,150447,5,8,0:0:0:0:
400,336,150597,1,0,0:0:0:0:
80,256,150747,5,8,0:0:0:0:
424,141,150897,1,0,0:0:0:0:
60,236,151047,5,8,0:0:0:0:
477,375,151197,1,0,0:0:0:0:
256,40,151347,6,0,B|243:73|243:73|260:103|260:103|233:157|265:209,1,180,0|0,0:0|0:0,0:0:0:0:
352,356,151797,1,0,0:0:0:0:
424,141,151947,2,0,B|378:137|378:137|336:149,1,90,0|0,0:0|0:0,0:0:0:0:
76,96,152247,6,0,L|172:84,1,90,0|0,0:0|0:0,0:0:0:0:
136,308,152547,1,0,0:0:0:0:
165,84,152697,2,0,B|196:90|223:93|269:100,2,90,0|0|0,0:0|0:0|0:0,0:0:0:0:
72,148,153147,6,0,P|61:192|76:232,1,90,0|0,0:0|0:0,0:0:0:0:
135,187,153447,2,0,P|158:225|197:243,1,90,0|0,0:0|0:0,0:0:0:0:
270,253,153747,2,0,P|252:293|214:316,1,90,0|0,0:0|0:0,0:0:0:0:
197,243,154047,6,0,B|224:149|157:162|200:60,1,180,0|0,0:0|0:0,0:0:0:0:
69,292,154497,2,0,B|101:308|101:308|137:297|137:297|181:341|259:308,1,180,0|0,0:0|0:0,0:0:0:0:
197,243,154947,6,0,L|289:231,1,90,0|0,0:0|0:0,0:0:0:0:
384,320,155247,1,0,0:0:0:0:
408,68,155397,1,0,0:0:0:0:
284,384,155547,1,0,0:0:0:0:
163,0,155697,1,0,0:0:0:0:
103,204,155847,6,0,B|148:215|148:215|199:192,1,90,0|0,0:0|0:0,0:0:0:0:
95,58,156147,1,0,0:0:0:0:
44,256,156297,1,0,0:0:0:0:
257,233,156447,2,0,B|267:192|267:192|249:141,1,90,0|0,0:0|0:0,0:0:0:0:
95,58,156747,5,0,0:0:0:0:
252,312,156897,1,0,0:0:0:0:
160,0,157047,1,0,0:0:0:0:
96,384,157197,1,0,0:0:0:0:
251,146,157347,2,0,L|344:160,1,90,0|0,0:0|0:0,0:0:0:0:
417,313,157647,5,8,0:0:0:0:
162,57,157797,1,0,0:0:0:0:
463,138,157947,1,8,0:0:0:0:
116,232,158097,1,0,0:0:0:0:
336,11,158247,1,8,0:0:0:0:
242,359,158397,1,0,0:0:0:0:
169,159,158547,6,0,P|117:143|25:223,1,180,0|0,0:0|0:0,0:0:0:0:
368,312,158997,2,0,B|380:228|380:228|376:220|376:220|390:130,1,180,0|0,0:0|0:0,0:0:0:0:
216,0,159447,5,8,0:0:0:0:
120,284,159597,1,0,0:0:0:0:
282,53,159747,1,8,0:0:0:0:
352,384,159897,1,0,0:0:0:0:
208,80,160047,1,8,0:0:0:0:
120,384,160197,1,0,0:0:0:0:
299,123,160347,6,0,L|395:135,1,90,0|0,0:0|0:0,0:0:0:0:
257,257,160647,1,0,0:0:0:0:
212,78,160797,2,0,L|108:94,1,90,0|0,0:0|0:0,0:0:0:0:
123,91,161097,1,0,0:0:0:0:
204,344,161247,5,8,0:0:0:0:
348,64,161397,1,0,0:0:0:0:
356,358,161547,5,8,0:0:0:0:
212,78,161697,1,0,0:0:0:0:
0,368,161847,5,8,0:0:0:0:
182,11,161997,1,0,0:0:0:0:
356,358,162147,6,0,B|404:366|404:366|444:342,1,90,0|0,0:0|0:0,0:0:0:0:
480,164,162447,1,0,0:0:0:0:
352,68,162597,6,0,B|315:74|286:56|286:56|264:82|232:88|232:88|276:136|271:240|234:272|196:268|143:254|132:208|144:156|178:136|216:137|331:176|331:176|323:269|265:297,1,720,0|0,0:0|0:0,0:0:0:0:
209,317,163947,2,0,P|119:280|194:81,1,360,0|0,0:0|0:0,0:0:0:0:
273,278,164697,1,0,0:0:0:0:
388,32,164847,5,8,0:0:0:0:
484,380,164997,1,0,0:0:0:0:
284,0,165147,1,8,0:0:0:0:
209,317,165297,1,0,0:0:0:0:
338,92,165447,2,0,B|382:106|382:106|426:100,1,90,0|0,0:0|0:0,0:0:0:0:
93,278,165747,6,0,P|45:206|63:118,1,180,0|0,0:0|0:0,0:0:0:0:
425,100,166197,2,0,P|419:176|331:162,1,180,0|0,0:0|0:0,0:0:0:0:
240,64,166647,5,8,0:0:0:0:
316,292,166797,1,0,0:0:0:0:
284,40,166947,5,8,0:0:0:0:
192,313,167097,1,0,0:0:0:0:
248,30,167247,5,8,0:0:0:0:
356,351,167397,1,0,0:0:0:0:
175,121,167547,6,0,B|133:110|133:110|98:129|98:129|47:103|-1:133,1,180,0|0,0:0|0:0,0:0:0:0:
340,268,167997,2,0,B|356:213|356:213|336:152|336:152|355:89,1,180,0|0,0:0|0:0,0:0:0:0:
221,55,168447,6,0,L|133:39,1,90,0|0,0:0|0:0,0:0:0:0:
352,95,168747,2,0,L|440:79,1,90,0|0,0:0|0:0,0:0:0:0:
261,178,169047,2,0,L|241:268,1,90,0|0,0:0|0:0,0:0:0:0:
360,360,169347,1,8,0:0:0:0:
280,105,169497,1,0,0:0:0:0:
168,344,169647,1,8,0:0:0:0:
21,36,169797,6,0,B|-3:108|-3:108|17:184|17:184|60:144|118:117|187:145|311:187|258:276|220:295|157:302|117:284|124:185|141:132|300:100,1,720,0|0,0:0|0:0,0:0:0:0:
271,17,171147,2,0,P|347:48|285:193,1,270,0|0,0:0|0:0,0:0:0:0:
169,97,171747,2,0,P|144:134|138:179,1,90,0|0,0:0|0:0,0:0:0:0:
192,352,172047,5,8,0:0:0:0:
336,0,172197,1,0,0:0:0:0:
292,312,172347,1,8,0:0:0:0:
104,0,172497,1,0,0:0:0:0:
264,384,172647,1,8,0:0:0:0:
401,85,172797,1,0,0:0:0:0:
304,164,172947,6,0,B|370:143|370:143|404:80,1,135.000005149842,0|0,0:0|0:0,0:0:0:0:
228,144,173247,2,0,B|207:78|207:78|144:44,1,135.000005149842,0|0,0:0|0:0,0:0:0:0:
249,220,173547,2,0,B|222:284|222:284|249:350,1,135.000005149842,0|0,0:0|0:0,0:0:0:0:
396,188,173847,1,0,0:0:0:0:
152,336,173997,1,0,0:0:0:0:
296,64,174147,5,8,0:0:0:0:
376,384,174297,1,0,0:0:0:0:
224,112,174447,1,8,0:0:0:0:
152,336,174597,1,0,0:0:0:0:
61,140,174747,6,0,B|83:114|88:76|88:76|113:100|148:108,1,135.000005149842,0|0,0:0|0:0,0:0:0:0:
217,57,175047,2,0,B|250:54|281:30|281:30|282:65|301:95,1,135.000005149842,0|0,0:0|0:0,0:0:0:0:
377,115,175347,2,0,B|379:148|403:179|403:179|368:180|338:199,1,135.000005149842,0|0,0:0|0:0,0:0:0:0:
387,314,175647,6,0,B|322:331|322:331|247:298,1,135.000005149842,0|0,0:0|0:0,0:0:0:0:
162,290,175947,2,0,B|195:232|195:232|272:202,1,135.000005149842,0|0,0:0|0:0,0:0:0:0:
234,129,176247,2,0,B|171:101|171:101|106:118,1,135.000005149842,0|0,0:0|0:0,0:0:0:0:
240,277,176547,1,0,0:0:0:0:
304,88,176697,1,0,0:0:0:0:
47,165,176847,6,0,B|32:266|32:266|71:221,1,135.000005149842,0|0,0:0|0:0,0:0:0:0:
164,64,177147,1,0,0:0:0:0:
204,364,177297,1,0,0:0:0:0:
355,117,177447,5,8,0:0:0:0:
86,207,177597,1,0,0:0:0:0:
403,337,177747,5,8,0:0:0:0:
73,175,177897,1,0,0:0:0:0:
455,0,178047,5,8,0:0:0:0:
55,195,178197,1,0,0:0:0:0:
401,186,178347,6,0,L|381:319,1,135.000005149842,0|0,0:0|0:0,0:0:0:0:
130,319,178647,2,0,L|111:186,1,135.000005149842,0|0,0:0|0:0,0:0:0:0:
321,60,178947,2,0,P|256:42|186:60,1,135.000005149842,0|0,0:0|0:0,0:0:0:0:
256,280,179247,1,0,0:0:0:0:
321,60,179397,1,0,0:0:0:0:
96,131,179547,5,8,0:0:0:0:
236,344,179697,1,0,0:0:0:0:
236,131,179847,5,8,0:0:0:0:
96,344,179997,1,0,0:0:0:0:
420,284,180147,5,8,0:0:0:0:
140,232,180297,1,0,0:0:0:0:
376,140,180447,5,8,0:0:0:0:
92,162,180597,1,0,0:0:0:0:
300,12,180747,5,8,0:0:0:0:
31,106,180897,1,0,0:0:0:0:
327,199,181047,6,0,P|383:215|446:171,1,135.000005149842,0|0,0:0|0:0,0:0:0:0:
214,227,181347,2,0,P|158:211|95:255,1,135.000005149842,0|0,0:0|0:0,0:0:0:0:
251,137,181647,2,0,P|267:81|223:18,1,135.000005149842,0|0,0:0|0:0,0:0:0:0:
42,158,181947,1,0,0:0:0:0:
284,265,182097,1,0,0:0:0:0:
128,72,182247,5,8,0:0:0:0:
80,296,182397,1,0,0:0:0:0:
189,32,182547,5,8,0:0:0:0:
253,331,182697,1,0,0:0:0:0:
300,60,182847,6,0,L|436:48,1,135.000005149842,0|0,0:0|0:0,0:0:0:0:
508,268,183147,1,0,0:0:0:0:
300,60,183297,6,0,B|226:30|245:78|164:48,2,135.000005149842,0|0|0,0:0|0:0|0:0,0:0:0:0:
349,234,183747,6,0,L|405:366,1,135.000005149842,0|0,0:0|0:0,0:0:0:0:
274,151,184047,2,0,L|406:95,1,135.000005149842,0|0,0:0|0:0,0:0:0:0:
247,257,184347,2,0,L|109:186,1,135.000005149842,0|0,0:0|0:0,0:0:0:0:
264,64,184647,1,0,0:0:0:0:
332,344,184797,1,0,0:0:0:0:
152,80,184947,5,8,0:0:0:0:
260,384,185097,1,0,0:0:0:0:
338,4,185247,2,0,B|349:69|349:69|326:140,1,135.000005149842,0|0,0:0|0:0,0:0:0:0:
184,328,185547,5,8,0:0:0:0:
16,56,185697,1,0,0:0:0:0:
64,376,185847,5,8,0:0:0:0:
232,104,185997,1,0,0:0:0:0:
310,273,186147,5,8,0:0:0:0:
142,1,186297,1,0,0:0:0:0:
184,328,186447,5,8,0:0:0:0:
352,56,186597,1,0,0:0:0:0:
345,380,186747,5,8,0:0:0:0:
153,69,186897,1,0,0:0:0:0:
28,324,187047,2,0,P|10:262|48:196,1,135.000005149842,0|0,0:0|0:0,0:0:0:0:
244,216,187347,1,0,0:0:0:0:
132,380,187497,1,0,0:0:0:0:
40,202,187647,6,0,B|10:142|10:142|16:74,1,135.000005149842,0|0,0:0|0:0,0:0:0:0:
113,121,187947,2,0,B|173:91|173:91|241:97,1,135.000005149842,0|0,0:0|0:0,0:0:0:0:
193,190,188247,2,0,B|223:250|223:250|217:318,1,135.000005149842,0|0,0:0|0:0,0:0:0:0:
131,272,188547,2,0,B|71:302|71:302|3:296,1,135.000005149842,0|0,0:0|0:0,0:0:0:0:
138,133,188847,2,0,P|206:113|258:145,1,135.000005149842,0|0,0:0|0:0,0:0:0:0:
260,336,189147,5,8,0:0:0:0:
312,0,189297,1,0,0:0:0:0:
440,384,189447,5,8,0:0:0:0:
360,64,189597,1,0,0:0:0:0:
178,169,189747,2,0,B|136:176|136:176|86:161|86:161|34:169,1,135.000005149842,0|0,0:0|0:0,0:0:0:0:
272,332,190047,1,0,0:0:0:0:
345,57,190197,1,0,0:0:0:0:
472,384,190347,6,0,L|452:244,1,135.000005149842,0|0,0:0|0:0,0:0:0:0:
158,302,190647,2,0,L|178:162,1,135.000005149842,0|0,0:0|0:0,0:0:0:0:
332,72,190947,5,8,0:0:0:0:
452,250,191097,1,0,0:0:0:0:
480,0,191247,1,8,0:0:0:0:
316,324,191397,1,0,0:0:0:0:
168,0,191547,1,8,0:0:0:0:
24,288,191697,1,0,0:0:0:0:
344,146,191847,6,0,B|409:130|409:130|476:154,1,135.000005149842,0|0,0:0|0:0,0:0:0:0:
237,129,192147,2,0,B|221:64|221:64|245:-3,1,135.000005149842,0|0,0:0|0:0,0:0:0:0:
274,231,192447,2,0,B|290:296|290:296|266:363,1,135.000005149842,0|0,0:0|0:0,0:0:0:0:
112,156,192747,1,0,0:0:0:0:
368,264,192897,1,0,0:0:0:0:
207,302,193047,6,0,B|142:288|142:288|206:250,1,135.000005149842,0|0,0:0|0:0,0:0:0:0:
344,180,193347,1,0,0:0:0:0:
267,360,193497,1,0,0:0:0:0:
164,128,193647,5,8,0:0:0:0:
104,288,193797,1,0,0:0:0:0:
246,75,193947,5,8,0:0:0:0:
267,360,194097,1,0,0:0:0:0:
304,0,194247,5,8,0:0:0:0:
489,331,194397,1,0,0:0:0:0:
162,146,194547,6,0,B|126:124|126:124|91:140|91:140|51:116|6:142,1,157.500001502037,0|0,0:0|0:0,0:0:0:0:
89,52,194847,1,0,0:0:0:0:
192,308,194997,1,0,0:0:0:0:
304,48,195147,5,8,0:0:0:0:
392,364,195297,1,0,0:0:0:0:
84,268,195447,1,0,0:0:0:0:
304,48,195597,1,0,0:0:0:0:
392,364,195747,2,0,B|405:317|405:317|389:256|389:256|405:213,1,157.500001502037,0|0,0:0|0:0,0:0:0:0:
304,48,196047,1,0,0:0:0:0:
217,224,196197,1,0,0:0:0:0:
96,36,196347,5,8,0:0:0:0:
40,312,196497,1,0,0:0:0:0:
208,4,196647,1,0,0:0:0:0:
313,384,196797,1,0,0:0:0:0:
452,67,196947,2,0,B|371:95|380:45|290:72,1,157.500001502037,0|0,0:0|0:0,0:0:0:0:
269,80,197172,1,0,0:0:0:0:
241,91,197247,5,8,0:0:0:0:
28,176,197397,1,0,0:0:0:0:
284,288,197547,1,8,0:0:0:0:
68,92,197697,1,0,0:0:0:0:
212,368,197847,1,8,0:0:0:0:
352,8,197997,5,0,0:0:0:0:
288,384,198147,1,8,0:0:0:0:
200,24,198297,1,0,0:0:0:0:
396,340,198447,6,0,P|424:296|380:336,1,157.500001502037,0|0,0:0|0:0,0:0:0:0:
304,43,198747,2,0,P|260:15|300:59,1,157.500001502037,0|0,0:0|0:0,0:0:0:0:
136,268,199047,2,0,P|108:312|152:272,1,157.500001502037,0|0,0:0|0:0,0:0:0:0:
304,43,199347,5,8,0:0:0:0:
396,340,199497,1,0,0:0:0:0:
448,0,199647,5,8,0:0:0:0:
260,384,199797,1,0,0:0:0:0:
276,124,199947,6,0,B|353:138|353:138|428:104,1,157.500001502037,0|0,0:0|0:0,0:0:0:0:
236,48,200247,1,0,0:0:0:0:
128,384,200397,1,0,0:0:0:0:
83,76,200547,2,0,B|127:76|127:76|190:50|190:50|236:48,1,157.500001502037,0|0,0:0|0:0,0:0:0:0:
200,332,200847,1,0,0:0:0:0:
44,137,200997,1,0,0:0:0:0:
295,231,201147,6,0,B|330:217|330:217|356:237|356:237|404:216|444:248,1,157.500001502037,0|0,0:0|0:0,0:0:0:0:
248,40,201447,2,0,B|206:120|259:103|224:200,1,157.500001502037,0|0,0:0|0:0,0:0:0:0:
296,348,201747,5,8,0:0:0:0:
368,76,201897,1,0,0:0:0:0:
420,384,202047,1,8,0:0:0:0:
496,8,202197,1,0,0:0:0:0:
395,184,202347,1,8,0:0:0:0:
366,220,202422,1,0,0:0:0:0:
322,238,202497,1,0,0:0:0:0:
275,229,202572,1,0,0:0:0:0:
239,200,202647,5,8,0:0:0:0:
144,8,202797,1,0,0:0:0:0:
96,308,202947,1,8,0:0:0:0:
228,56,203097,1,0,0:0:0:0:
320,340,203247,1,8,0:0:0:0:
152,100,203397,1,0,0:0:0:0:
80,384,203547,5,8,0:0:0:0:
0,56,203697,1,0,0:0:0:0:
312,152,203847,2,0,B|395:161|395:161|464:128,1,157.500001502037,0|0,0:0|0:0,0:0:0:0:
191,64,204147,2,0,B|147:67|108:55|108:55|137:85|156:122,1,157.500001502037,0|0,0:0|0:0,0:0:0:0:
332,256,204447,5,8,0:0:0:0:
251,16,204597,1,0,0:0:0:0:
164,328,204747,1,8,0:0:0:0:
382,85,204897,1,0,0:0:0:0:
132,0,205047,5,8,0:0:0:0:
226,382,205197,1,0,0:0:0:0:
360,132,205347,6,0,B|392:48|392:48|324:92,1,157.500001502037,0|0,0:0|0:0,0:0:0:0:
256,108,205647,2,0,B|172:76|172:76|216:144,1,157.500001502037,0|0,0:0|0:0,0:0:0:0:
289,189,205947,2,0,B|257:273|257:273|325:229,1,157.500001502037,0|0,0:0|0:0,0:0:0:0:
172,76,206247,1,0,0:0:0:0:
112,384,206397,1,0,0:0:0:0:
360,216,206547,5,8,0:0:0:0:
56,108,206697,1,0,0:0:0:0:
384,196,206847,5,8,0:0:0:0:
0,312,206997,1,0,0:0:0:0:
196,76,207147,5,8,0:0:0:0:
144,364,207297,1,0,0:0:0:0:
321,58,207447,1,8,0:0:0:0:
428,384,207597,1,0,0:0:0:0:
203,151,207747,5,0,0:0:0:0:
163,146,207822,1,0,0:0:0:0:
124,142,207897,1,0,0:0:0:0:
85,138,207972,1,0,0:0:0:0:
46,134,208047,5,8,0:0:0:0:
332,56,208197,1,0,0:0:0:0:
268,344,208347,5,8,0:0:0:0:
128,0,208497,1,0,0:0:0:0:
36,384,208647,1,8,0:0:0:0:
300,56,208797,1,0,0:0:0:0:
0,180,208947,1,8,0:0:0:0:
360,120,209097,1,0,0:0:0:0:
232,372,209247,5,8,0:0:0:0:
136,28,209397,1,0,0:0:0:0:
352,344,209547,1,8,0:0:0:0:
476,0,209697,1,0,0:0:0:0:
294,239,209847,1,0,0:0:0:0:
228,268,209922,1,0,0:0:0:0:
157,255,209997,1,0,0:0:0:0:
107,205,210072,1,0,0:0:0:0:
86,137,210147,6,0,B|66:57|66:57|128:108,1,157.500001502037,0|0,0:0|0:0,0:0:0:0:
224,254,210447,2,0,B|272:312|272:312|192:292,1,157.500001502037,0|0,0:0|0:0,0:0:0:0:
136,56,210747,5,8,0:0:0:0:
307,327,210897,1,0,0:0:0:0:
244,36,211047,1,8,0:0:0:0:
352,384,211197,1,0,0:0:0:0:
392,96,211347,5,8,0:0:0:0:
144,292,211497,1,0,0:0:0:0:
432,178,211647,1,8,0:0:0:0:
171,0,211797,1,0,0:0:0:0:
144,292,211947,6,0,P|204:312|284:264,1,157.500001502037,0|0,0:0|0:0,0:0:0:0:
171,0,212247,2,0,P|111:-20|31:28,1,157.500001502037,0|0,0:0|0:0,0:0:0:0:
100,252,212547,5,8,0:0:0:0:
232,48,212697,1,0,0:0:0:0:
304,352,212847,1,8,0:0:0:0:
464,56,212997,1,0,0:0:0:0:
256,272,213147,1,8,0:0:0:0:
352,4,213297,1,0,0:0:0:0:
448,332,213447,5,8,0:0:0:0:
296,60,213597,1,0,0:0:0:0:
216,328,213747,2,0,B|136:347|136:347|64:320,1,157.500001502037,0|0,0:0|0:0,0:0:0:0:
12,68,214047,1,8,0:0:0:0:
136,268,214197,1,0,0:0:0:0:
252,8,214347,1,8,0:0:0:0:
344,340,214497,1,0,0:0:0:0:
78,108,214647,5,8,0:0:0:0:
418,272,214797,1,0,0:0:0:0:
98,288,214947,5,8,0:0:0:0:
410,92,215097,1,0,0:0:0:0:
0,73,215247,5,8,0:0:0:0:
474,301,215397,1,0,0:0:0:0:
27,324,215547,5,8,0:0:0:0:
463,50,215697,1,0,0:0:0:0:
296,352,215847,1,0,0:0:0:0:
342,317,215922,1,0,0:0:0:0:
365,263,215997,1,0,0:0:0:0:
355,205,216072,1,0,0:0:0:0:
318,161,216147,6,0,P|302:107|324:52,1,112.5,8|8,0:0|0:0,0:0:0:0:
443,222,216447,1,0,0:0:0:0:
234,254,216597,1,0,0:0:0:0:
320,56,216747,6,0,L|436:72,1,112.5,0|0,0:0|0:0,0:0:0:0:
310,297,217047,1,0,0:0:0:0:
186,81,217197,1,0,0:0:0:0:
431,71,217347,6,0,B|447:128|447:128|431:179,1,112.5,0|0,0:0|0:0,0:0:0:0:
244,328,217647,1,0,0:0:0:0:
336,0,217797,1,0,0:0:0:0:
460,384,217947,5,8,0:0:0:0:
