osu file format v14

[General]
AudioFilename: audio.mp3
AudioLeadIn: 0
PreviewTime: 172947
Countdown: 0
SampleSet: Soft
StackLeniency: 0.5
Mode: 0
LetterboxInBreaks: 0
WidescreenStoryboard: 1

[Editor]
Bookmarks: 14547,21747,70797,72147,80247,113547,120747,133347,162597,163797,169797,170997,196947,197247,199047,199947,202347,202647,207447,208047,209847,210147,210747,213447
DistanceSpacing: 1.4
BeatDivisor: 4
GridSize: 4
TimelineZoom: 1.1

[Metadata]
Title:Psalm dla Ciebie
TitleUnicode:Psalm dla Ciebie
Artist:Piotr Rubik, Malgorzata Markiewicz, Janusz Radek
ArtistUnicode:Piotr Rubik, Mał‚gorzata Markiewicz, Janusz Radek
Creator:-NeBu-
Version:Piggey's Pragnienie jak pieczen
Source:
Tags:piotr rubik malgorzata markiewicz janusz radek polish poland psalterz wrzesniowy 2006 CptSqBany [Red Panda] -NeBu- Chalwa Yusomi Piggey ReFaller Bubblun -Kyu Asrasz
BeatmapID:1299791
BeatmapSetID:586156

[Difficulty]
HPDrainRate:10
CircleSize:3.9
OverallDifficulty:10
ApproachRate:10
SliderMultiplier:1.8
SliderTickRate:1

[Events]
//Background and Video events
0,0,"14195215_1098078296952028_5041580223705388801_o.jpg",0,0
Video,-403,"zzzzzzzzzzzzzzzz.mp4"
//Break Periods
//Storyboard Layer 0 (Background)
//Storyboard Layer 1 (Fail)
//Storyboard Layer 2 (Pass)
//Storyboard Layer 3 (Foreground)
//Storyboard Sound Samples

[TimingPoints]
147,600,4,2,2,25,1,0
9147,-83.3333333333333,4,2,2,25,0,0
10947,-66.6666666666667,4,2,2,30,0,0
16347,-80,4,2,2,70,0,0
41397,-80,4,2,2,5,0,0
41547,-80,4,2,2,70,0,0
41847,-80,4,2,2,5,0,0
41997,-80,4,2,2,70,0,0
42297,-80,4,2,2,5,0,0
42447,-80,4,2,2,70,0,0
42747,-80,4,2,2,5,0,0
42897,-80,4,2,2,70,0,0
43797,-80,4,2,2,5,0,0
44097,-80,4,2,3,60,0,0
44247,-80,4,2,3,30,0,0
44847,-80,4,2,3,60,0,0
44997,-80,4,2,3,60,0,0
45129,-80,4,2,2,70,0,0
45147,300,4,2,2,70,1,0
70797,-83.3333333333333,4,2,2,70,0,0
73047,-100,4,2,2,70,0,0
79347,-200,4,2,2,70,0,0
80229,-200,4,2,3,40,0,0
81129,-200,4,2,2,80,0,0
81147,-66.6666666666667,4,2,2,80,0,1
91029,-66.6666666666667,4,2,3,40,0,1
91479,-66.6666666666667,4,2,3,70,0,1
91929,-66.6666666666667,4,2,2,80,0,1
101830,-66.6666666666667,4,2,3,40,0,1
102279,-66.6666666666667,4,2,3,70,0,1
102729,-66.6666666666667,4,2,2,80,0,1
102747,600,4,2,2,80,1,0
108129,-100,4,2,2,70,0,0
108147,-66.6666666666667,4,2,2,70,0,0
134679,-66.6666666666667,4,2,3,40,0,0
136797,-66.6666666666667,4,2,3,40,0,0
136929,-66.6666666666667,4,2,2,70,0,0
136947,300,4,2,2,70,1,0
172029,-100,4,2,3,40,0,0
172929,-100,4,2,2,70,0,0
172947,-57.1428571428571,4,2,2,70,0,1
182829,-57.1428571428571,4,2,3,40,0,1
183729,-57.1428571428571,4,2,2,70,0,1
193629,-57.1428571428571,4,2,3,40,0,1
193643,-57.1428571428571,4,2,3,40,0,1
193947,-57.1428571428571,4,2,3,40,0,1
194247,-57.1428571428571,4,2,3,40,0,1
194529,-57.1428571428571,4,2,2,70,0,1
194547,-50,4,2,2,70,0,1
204429,-50,4,2,3,50,0,1
205329,-50,4,2,2,70,0,1
215229,-50,4,2,3,50,0,1
216129,-50,4,2,2,70,0,1
216147,-80,4,2,2,70,0,0
216429,-80,4,2,3,50,0,0
216729,-80,4,2,2,70,0,0
217029,-80,4,2,3,50,0,0
217329,-80,4,2,3,60,0,0
217947,-100,4,2,3,60,0,0

[Colours]
Combo1 : 238,196,149
Combo2 : 68,88,227
Combo3 : 63,63,63

[HitObjects]
424,160,147,5,0,0:0:0:0:
312,256,447,1,0,0:0:0:0:
172,207,747,2,0,P|228:168|308:236,1,180
236,240,1647,2,0,L|260:152,1,90
304,48,2247,1,0,0:0:0:0:
384,228,2547,1,0,0:0:0:0:
352,128,2847,5,0,0:0:0:0:
489,251,3147,1,0,0:0:0:0:
313,308,3447,1,0,0:0:0:0:
460,156,4047,6,0,P|412:180|364:180,1,90
244,88,4647,2,0,L|148:76,2,90
256,208,5547,1,0,0:0:0:0:
144,76,5847,1,0,0:0:0:0:
256,208,6147,1,0,0:0:0:0:
256,208,6747,6,0,L|256:300,1,90
388,344,7347,2,0,L|388:252,1,90
124,344,7947,1,0,0:0:0:0:
320,252,8247,2,0,P|371:224|396:184,1,90
252,292,8847,1,0,0:0:0:0:
168,152,9147,5,0,0:0:0:0:
188,244,9297,1,0,0:0:0:0:
224,76,9447,1,0,0:0:0:0:
88,176,9597,1,0,0:0:0:0:
296,136,9747,2,0,L|364:136,1,53.9999983520508
128,100,10047,2,0,L|72:80,1,53.9999983520508
256,36,10347,5,0,0:0:0:0:
184,280,10497,1,0,0:0:0:0:
132,52,10647,1,0,0:0:0:0:
274,208,10797,1,0,0:0:0:0:
56,244,10947,6,0,P|96:188|280:216,1,270.000010299683
424,240,11847,2,0,P|384:296|200:268,1,270.000010299683
224,128,12747,2,0,P|284:84|232:180,1,270.000010299683
72,312,13647,2,0,B|112:232|96:112|96:112|136:172,1,270.000010299683
200,252,14547,2,0,P|260:296|208:200,1,270.000010299683
364,104,15447,6,0,L|296:72,1,67.5000025749208
188,76,15747,1,0,0:0:0:0:
248,248,15897,1,0,0:0:0:0:
196,56,16047,1,0,0:0:0:0:
144,320,16197,1,0,0:0:0:0:
272,136,16347,6,0,B|332:116|332:116|304:184|300:260|324:324,1,225
344,348,17097,1,0,0:0:0:0:
408,216,17247,2,0,L|436:160,1,56.25
312,100,17547,6,0,L|252:112,1,56.25
96,136,17847,2,0,L|156:148,1,56.25
320,256,18147,2,0,L|260:268,1,56.25
104,292,18447,2,0,L|164:304,1,56.25
284,340,18747,5,0,0:0:0:0:
156,220,18897,1,0,0:0:0:0:
188,372,19047,2,0,L|212:308,1,56.25
120,296,19347,6,0,L|64:324,1,56.25
284,340,19647,2,0,L|340:368,1,56.25
240,188,19947,2,0,L|292:36,1,112.5
336,16,20397,2,0,P|400:12|448:112,1,168.75
320,176,21147,1,0,0:0:0:0:
380,84,21447,6,0,L|456:94,1,56.25
472,216,21747,2,0,P|408:248|328:232,1,112.5
216,192,22197,2,0,P|280:160|360:176,1,112.5
400,260,22647,2,0,L|384:384,1,112.5
256,384,23097,2,0,L|272:260,1,112.5
352,136,23547,6,0,B|304:132|304:132|288:144|288:144|256:112|200:96|156:132|136:152,1,225
220,196,24297,1,0,0:0:0:0:
304,220,24447,6,0,L|368:236,1,56.25
492,172,24747,2,0,L|428:188,1,56.25
248,296,25047,2,0,L|312:312,1,56.25
460,336,25347,2,0,P|448:272|364:240,1,112.5
332,256,25797,5,0,0:0:0:0:
460,336,25947,1,0,0:0:0:0:
416,244,26097,1,0,0:0:0:0:
392,376,26247,6,0,L|392:320,1,56.25
483,166,26547,2,0,L|434:138,1,56.25
336,0,26847,2,0,L|287:28,1,56.25
160,188,27147,2,0,P|208:240|272:228,1,112.5
324,208,27597,1,0,0:0:0:0:
208,96,27747,5,0,0:0:0:0:
276,328,27897,1,0,0:0:0:0:
312,112,28047,5,0,0:0:0:0:
120,184,28197,1,0,0:0:0:0:
216,258,28347,5,0,0:0:0:0:
294,229,28497,1,0,0:0:0:0:
232,172,28647,1,0,0:0:0:0:
264,268,28797,1,0,0:0:0:0:
308,120,28947,6,0,P|248:88|212:92,1,56.25
167,182,29247,2,0,P|169:250|191:280,1,56.25
292,273,29547,2,0,P|350:237|364:203,1,56.25
199,65,29847,5,0,0:0:0:0:
224,308,29997,1,0,0:0:0:0:
320,72,30147,1,0,0:0:0:0:
124,196,30297,5,0,0:0:0:0:
360,256,30447,1,0,0:0:0:0:
296,16,30597,1,0,0:0:0:0:
220,336,30747,6,0,B|280:356|360:336|360:336|404:292|468:272,1,225
432,288,31497,1,0,0:0:0:0:
384,216,31647,2,0,L|348:160,1,56.25
236,248,31947,6,0,B|208:260|208:260|168:248,1,56.25
112,136,32247,2,0,B|140:124|140:124|180:136,1,56.25
400,248,32547,2,0,B|372:260|372:260|332:248,1,56.25
264,92,32847,2,0,B|316:72|316:72|374:92,1,112.5
369,90,33297,1,0,0:0:0:0:
172,272,33447,6,0,B|164:240|164:240|172:216,1,56.25
340,112,33747,2,0,B|348:144|348:144|340:168,1,56.25
118,118,34047,6,0,B|147:102|147:102|173:104,1,56.25
393,265,34347,2,0,B|364:281|364:281|338:279,1,56.25
256,36,34647,6,0,L|256:220,1,168.75
208,292,35247,5,0,0:0:0:0:
96,176,35397,1,0,0:0:0:0:
248,296,35547,5,0,0:0:0:0:
176,64,35697,1,0,0:0:0:0:
284,308,35847,5,0,0:0:0:0:
360,0,35997,1,0,0:0:0:0:
512,280,36147,5,0,0:0:0:0:
268,132,36297,1,0,0:0:0:0:
324,380,36447,2,0,P|252:376|212:336,1,112.5
80,148,37047,6,0,L|144:104,1,56.25
100,285,37347,2,0,L|114:208,1,56.25
211,368,37647,2,0,L|168:304,1,56.25
349,347,37947,1,0,0:0:0:0:
256,220,38097,1,0,0:0:0:0:
211,368,38247,2,0,L|254:304,1,56.25
316,216,38547,2,0,L|380:259,1,56.25
456,308,38847,5,0,0:0:0:0:
192,336,38997,1,0,0:0:0:0:
408,136,39147,5,0,0:0:0:0:
140,224,39297,1,0,0:0:0:0:
416,328,39447,5,0,0:0:0:0:
312,88,39597,1,0,0:0:0:0:
272,356,39747,6,0,L|324:296,1,56.25
380,240,40047,1,0,0:0:0:0:
224,124,40197,1,0,0:0:0:0:
228,216,40347,5,0,0:0:0:0:
336,88,40497,1,0,0:0:0:0:
220,136,40647,1,0,0:0:0:0:
344,260,40797,1,0,0:0:0:0:
264,80,40947,5,0,0:0:0:0:
272,264,41097,1,0,0:0:0:0:
400,216,41247,2,0,L|456:188,1,56.25
336,132,41547,6,0,P|236:148|188:176,1,112.5
160,256,41997,2,0,P|260:240|308:212,1,112.5
336,120,42447,2,0,L|312:0,1,112.5
176,264,42897,2,0,L|200:384,1,112.5
256,192,43347,12,0,44997,0:0:0:0:
444,264,45147,6,0,P|400:304|344:304,1,90
216,220,45447,2,0,P|260:180|316:180,1,90
296,316,45747,2,0,P|252:356|195:356,1,90
128,260,46047,2,0,P|136:172|200:88,1,180
328,36,46497,2,0,L|312:128,1,90
288,320,46797,5,0,0:0:0:0:
464,232,46947,1,0,0:0:0:0:
296,132,47097,1,0,0:0:0:0:
380,372,47247,1,0,0:0:0:0:
444,120,47397,1,0,0:0:0:0:
184,224,47547,1,0,0:0:0:0:
444,120,47697,1,0,0:0:0:0:
328,296,47847,6,0,L|272:368,1,90
141,244,48147,2,0,L|79:177,1,90
236,40,48447,1,0,0:0:0:0:
416,228,48597,1,0,0:0:0:0:
284,24,48747,2,0,B|272:66|272:66|288:88|288:88|268:120|280:200,1,180
288,352,49197,2,0,P|224:352|140:272,1,180
252,264,49647,2,0,B|352:216|424:288|480:264|488:224|484:172|436:160|436:160|428:204,1,360
340,292,50397,5,0,0:0:0:0:
304,144,50547,2,0,P|248:76|216:68,1,90
136,84,50847,1,0,0:0:0:0:
244,344,50997,1,0,0:0:0:0:
332,44,51147,1,0,0:0:0:0:
124,268,51297,5,0,0:0:0:0:
420,296,51447,1,0,0:0:0:0:
216,84,51597,1,0,0:0:0:0:
284,348,51747,1,0,0:0:0:0:
424,72,51897,1,0,0:0:0:0:
172,148,52047,5,8,0:0:0:0:
512,240,52197,1,8,0:0:0:0:
244,148,52347,6,0,P|216:76|216:32,1,90
300,203,52647,2,0,P|376:215|414:237,1,90
223,224,52947,2,0,P|175:284|137:306,1,90
312,84,53247,6,0,P|396:80|456:160,1,180
364,148,53697,2,0,L|304:232,1,90
244,292,53997,1,0,0:0:0:0:
296,56,54147,6,0,L|404:36,1,90
158,89,54447,2,0,L|194:-14,1,90
118,225,54747,2,0,L|46:141,1,90,0|0,0:3|0:3,0:3:0:0:
216,328,55047,2,0,L|108:347,1,90,0|0,0:3|0:3,0:3:0:0:
356,288,55347,1,0,0:0:0:0:
244,188,55497,5,0,0:0:0:0:
312,368,55647,1,0,0:0:0:0:
358,112,55797,1,0,0:0:0:0:
216,328,55947,2,0,P|164:296|152:248,1,90
296,56,56247,2,0,P|348:88|360:136,1,90
112,200,56547,6,0,P|152:152|196:132,1,90
400,184,56847,2,0,P|344:256|176:128,1,360
320,28,57597,1,0,0:0:0:0:
312,164,57747,2,0,P|276:180|264:140,1,90
412,136,58047,5,0,0:0:0:0:
176,292,58197,1,0,0:0:0:0:
264,24,58347,1,0,0:0:0:0:
328,352,58497,1,0,0:0:0:0:
156,88,58647,5,0,0:0:0:0:
468,208,58797,1,0,0:0:0:0:
128,256,58947,1,0,0:0:0:0:
368,40,59097,1,0,0:0:0:0:
328,372,59247,1,0,0:0:0:0:
192,44,59397,1,0,0:0:0:0:
400,120,59547,6,0,L|496:156,1,90
244,204,59847,2,0,L|148:168,1,90
456,240,60147,6,0,P|456:288|424:332,1,90
240,88,60447,2,0,P|320:64|400:116,1,180
308,152,60897,2,0,P|256:168|204:160,1,90
221,165,61197,1,0,0:0:0:0:
112,264,61347,6,0,L|16:228,1,90
268,180,61647,2,0,L|364:216,1,90
56,144,61947,6,0,P|56:96|88:52,1,90
272,296,62247,2,0,P|192:320|112:268,1,180
208,236,62697,2,0,P|260:220|312:228,1,90
294,222,62997,1,0,0:0:0:0:
116,200,63147,6,0,P|156:132|188:104,1,90
212,58,63447,2,0,P|288:79|323:103,1,90
373,115,63747,2,0,P|372:193|358:234,1,90
360,285,64047,2,0,P|240:328|252:152,1,360
324,136,64797,1,0,0:0:0:0:
296,208,64947,2,0,P|175:250|187:74,1,360
259,58,65697,5,0,0:0:0:0:
216,180,65847,1,0,0:0:0:0:
368,140,65997,1,0,0:0:0:0:
144,96,66147,5,0,0:0:0:0:
392,228,66297,1,0,0:0:0:0:
208,0,66447,1,0,0:0:0:0:
288,352,66597,1,0,0:0:0:0:
388,76,66747,6,0,L|428:-8,1,90
256,304,67047,1,0,0:0:0:0:
124,76,67197,2,0,L|84:-8,1,90
52,216,67497,1,0,0:0:0:0:
368,108,67647,5,0,0:0:0:0:
72,52,67797,1,0,0:0:0:0:
232,300,67947,5,0,0:0:0:0:
316,12,68097,1,0,0:0:0:0:
16,152,68247,5,0,0:0:0:0:
312,252,68397,1,0,0:0:0:0:
196,4,68547,6,0,L|144:104,1,90
67,252,68847,1,0,0:0:0:0:
67,252,68997,2,0,L|168:304,1,90,8|0,0:0|0:0,0:0:0:0:
364,288,69297,5,0,0:0:0:0:
152,108,69447,1,0,0:0:0:0:
216,352,69597,1,0,0:0:0:0:
352,8,69747,5,0,0:0:0:0:
112,288,69897,1,0,0:0:0:0:
432,304,70047,1,0,0:0:0:0:
228,28,70197,1,0,0:0:0:0:
248,328,70347,6,0,P|312:336|360:292,1,90
416,32,70647,1,0,0:0:0:0:
256,192,70797,1,0,0:0:0:0:
256,192,70947,12,0,72072,0:0:0:0:
256,192,72147,12,0,72897,0:0:0:0:
392,236,73047,5,0,0:0:0:0:
204,132,73197,1,0,0:0:0:0:
392,240,73347,1,0,0:0:0:0:
128,316,73497,1,0,0:0:0:0:
376,112,73647,5,0,0:0:0:0:
304,352,73797,1,0,0:0:0:0:
232,52,73947,2,0,P|308:32|408:84,1,180
248,221,74397,2,0,B|228:177|228:177|240:157|240:157|212:93|236:41,1,180
396,72,74847,5,0,0:0:0:0:
156,208,74997,1,0,0:0:0:0:
276,8,75147,1,0,0:0:0:0:
292,312,75297,1,0,0:0:0:0:
144,44,75447,1,0,0:0:0:0:
460,196,75597,1,0,0:0:0:0:
152,304,75747,6,0,P|104:264|148:152,1,180
176,228,76197,2,0,P|209:149|154:85,1,180
64,40,76647,6,0,P|64:104|92:148,1,90
121,251,76947,2,0,P|176:282|228:280,1,90
239,338,77247,2,0,P|295:306|319:260,1,90
388,104,77547,6,0,L|384:0,1,90
280,176,77847,1,0,0:0:0:0:
256,192,77997,1,0,0:0:0:0:
256,192,78147,12,0,79272,0:0:0:0:
256,192,79347,12,0,80097,0:0:0:0:
340,260,80247,6,0,L|400:252,1,45
356,153,80547,6,0,L|379:97,1,45
272,85,80847,6,0,L|235:37,1,45
88,272,81147,6,0,P|148:308|224:284,1,135.000005149842
244,100,81447,2,0,P|184:64|108:88,1,135.000005149842
72,308,81747,2,0,P|132:344|208:320,1,135.000005149842
420,192,82047,6,0,L|444:52,1,135.000005149842
168,56,82347,5,0,0:0:0:0:
448,296,82497,1,0,0:0:0:0:
320,4,82647,1,0,0:0:0:0:
208,364,82797,1,0,0:0:0:0:
488,96,82947,6,0,P|404:80|332:92,1,135.000005149842
320,4,83247,2,0,P|264:68|238:137,1,135.000005149842
156,103,83547,2,0,P|184:183|230:240,1,135.000005149842
296,324,83847,6,0,L|432:284,1,135.000005149842
512,188,84147,2,0,L|376:148,1,135.000005149842
92,192,84447,6,0,L|68:332,1,135.000005149842
368,228,84747,5,0,0:0:0:0:
136,60,84897,1,0,0:0:0:0:
368,228,85047,1,0,0:0:0:0:
84,288,85197,1,0,0:0:0:0:
408,40,85347,5,0,0:0:0:0:
184,360,85497,1,0,0:0:0:0:
180,0,85647,1,0,0:0:0:0:
488,244,85797,1,0,0:0:0:0:
100,280,85947,5,0,0:0:0:0:
376,8,86097,1,0,0:0:0:0:
312,368,86247,1,0,0:0:0:0:
220,4,86397,1,0,0:0:0:0:
448,280,86547,6,0,P|428:360|384:368,1,135.000005149842
64,104,86847,2,0,P|84:24|128:16,1,135.000005149842
126,368,87147,2,0,P|67:343|64:280,1,135.000005149842
380,136,87447,5,0,0:0:0:0:
180,252,87597,1,0,0:0:0:0:
212,24,87747,5,0,0:0:0:0:
344,336,87897,1,0,0:0:0:0:
92,152,88047,1,0,0:0:0:0:
372,40,88197,1,0,0:0:0:0:
124,344,88347,5,0,0:0:0:0:
280,4,88497,1,0,0:0:0:0:
456,352,88647,5,0,0:0:0:0:
80,216,88797,1,0,0:0:0:0:
464,28,88947,5,0,0:0:0:0:
324,364,89097,1,0,0:0:0:0:
168,12,89247,5,0,0:0:0:0:
504,132,89397,1,0,0:0:0:0:
156,256,89547,1,0,0:0:0:0:
372,0,89697,1,0,0:0:0:0:
412,344,89847,2,0,P|360:376|264:340,1,135.000005149842
64,92,90147,6,0,L|204:112,1,135.000005149842
488,184,90447,2,0,L|348:204,1,135.000005149842
44,296,90747,2,0,L|184:316,1,135.000005149842
204,12,91047,5,8,0:0:0:0:
506,215,91197,1,0,0:0:0:0:
178,375,91347,1,0,0:0:0:0:
408,20,91497,5,8,0:0:0:0:
383,383,91647,1,0,0:0:0:0:
80,178,91797,1,0,0:0:0:0:
506,215,91947,6,0,P|444:256|372:260,1,135.000005149842
112,384,92247,2,0,P|107:309|140:245,1,135.000005149842
184,8,92547,2,0,P|250:41|289:101,1,135.000005149842
340,320,92847,6,0,P|420:288|460:208,1,135.000005149842
432,80,93147,1,0,0:0:0:0:
100,328,93297,1,0,0:0:0:0:
496,240,93447,1,0,0:0:0:0:
156,8,93597,1,0,0:0:0:0:
280,376,93747,5,0,0:0:0:0:
364,24,93897,1,0,0:0:0:0:
44,284,94047,1,0,0:0:0:0:
472,208,94197,1,0,0:0:0:0:
192,48,94347,2,0,P|96:56|56:88,1,135.000005149842
320,336,94647,6,0,P|416:328|456:296,1,135.000005149842
360,256,94947,2,0,P|264:264|224:296,1,135.000005149842
428,364,95247,2,0,P|492:292|500:241,1,135.000005149842
368,44,95547,5,0,0:0:0:0:
376,256,95697,1,0,0:0:0:0:
288,80,95847,5,0,0:0:0:0:
476,192,95997,1,0,0:0:0:0:
280,168,96147,5,0,0:0:0:0:
472,72,96297,1,0,0:0:0:0:
336,232,96447,6,0,P|440:184|456:156,1,135.000005149842
360,16,96747,2,0,P|256:64|240:92,1,135.000005149842
340,268,97047,2,0,P|444:220|460:192,1,135.000005149842
404,8,97347,5,0,0:0:0:0:
140,356,97497,1,0,0:0:0:0:
456,148,97647,2,0,B|460:72|424:12,1,135.000005149842
136,156,97947,2,0,B|132:232|168:292,1,135.000005149842
360,164,98247,5,0,0:0:0:0:
248,4,98397,1,0,0:0:0:0:
144,240,98547,6,0,P|200:296|272:312,1,135.000005149842
353,264,98847,2,0,P|374:188|351:118,1,135.000005149842
270,71,99147,2,0,P|193:91|144:145,1,135.000005149842
260,376,99447,6,0,P|352:356|396:304,1,135.000005149842
413,96,99747,2,0,P|350:26|282:14,1,135.000005149842
94,103,100047,2,0,P|65:193|89:257,1,135.000005149842
480,264,100347,6,0,L|480:120,1,135.000005149842
32,120,100647,2,0,L|32:264,1,135.000005149842
304,276,100947,5,0,0:0:0:0:
112,16,101097,1,0,0:0:0:0:
176,352,101247,5,0,0:0:0:0:
344,16,101397,1,0,0:0:0:0:
92,184,101547,1,0,0:0:0:0:
424,288,101697,1,0,0:0:0:0:
208,16,101847,5,8,0:0:0:0:
166,350,101997,1,0,0:0:0:0:
477,219,102147,1,0,0:0:0:0:
79,145,102297,5,8,0:0:0:0:
347,348,102447,1,0,0:0:0:0:
389,14,102597,1,0,0:0:0:0:
124,324,102747,6,0,B|164:316|208:344|208:344|192:288|216:240|216:240|148:224|116:252|116:252|136:208|124:172|124:172|176:144|224:136|224:136|208:104|208:104|172:96,1,540
108,224,105147,5,0,0:0:0:0:
116,304,105297,1,0,0:0:0:0:
184,260,105447,1,0,0:0:0:0:
108,224,105747,5,0,0:0:0:0:
116,304,106047,1,0,0:0:0:0:
184,260,106347,5,0,0:0:0:0:
108,224,106647,5,0,0:0:0:0:
116,304,106947,1,0,0:0:0:0:
184,260,107247,1,0,0:0:0:0:
108,224,107547,5,0,0:0:0:0:
116,304,107697,1,0,0:0:0:0:
184,260,107847,1,0,0:0:0:0:
108,224,107997,1,0,0:0:0:0:
116,304,108147,2,0,P|176:340|228:192,1,270.000010299683
168,164,108897,1,0,0:0:0:0:
156,252,109047,2,0,P|228:240|248:220,1,67.5000025749208
88,96,109347,6,0,P|160:72|240:80,1,135.000005149842
328,168,109947,2,0,P|256:192|176:184,1,135.000005149842
216,96,110397,1,0,0:0:0:0:
336,288,110547,1,0,0:0:0:0:
108,164,110697,1,0,0:0:0:0:
316,32,110847,6,0,B|388:48|388:48|440:104,2,135.000005149842
228,160,111747,2,0,L|228:324,1,135.000005149842
228,312,112197,1,0,0:0:0:0:
320,164,112347,1,0,0:0:0:0:
328,276,112497,1,0,0:0:0:0:
380,224,112647,1,0,0:0:0:0:
376,272,112797,1,0,0:0:0:0:
424,248,112947,2,0,L|428:180,1,67.5000025749208
376,208,113247,6,0,P|376:132|384:92,1,67.5000025749208
424,108,113547,2,0,P|356:120|264:80,1,135.000005149842
88,276,113997,2,0,P|156:264|248:304,1,135.000005149842
344,92,114447,2,0,P|279:68|219:-12,1,135.000005149842
168,292,114897,2,0,P|232:315|292:396,1,135.000005149842
80,328,115347,6,0,P|96:236|152:196,1,135.000005149842
200,188,115797,1,0,0:0:0:0:
176,272,115947,1,0,0:0:0:0:
120,208,116097,1,0,0:0:0:0:
200,188,116247,6,0,P|264:160|320:172,1,67.5000025749208
333,77,116547,2,0,P|332:132|304:180,1,67.5000025749208
368,256,116847,2,0,P|307:208|283:176,1,67.5000025749208
336,80,117147,2,0,P|420:76|440:240,1,270.000010299683
352,256,117897,1,0,0:0:0:0:
396,152,118047,1,0,0:0:0:0:
428,216,118197,1,0,0:0:0:0:
364,216,118347,1,0,0:0:0:0:
460,152,118497,5,0,0:0:0:0:
400,280,118647,1,0,0:0:0:0:
332,152,118797,1,0,0:0:0:0:
460,152,118947,2,0,P|399:215|342:212,1,135.000005149842
287,112,119397,2,0,P|326:58|391:47,1,135.000005149842
352,216,119847,5,0,0:0:0:0:
391,47,120147,1,0,0:0:0:0:
244,284,120447,6,0,L|180:308,1,67.5000025749208
100,240,120747,2,0,P|88:152|140:100,1,135.000005149842
252,136,121197,2,0,P|264:224|212:276,1,135.000005149842
76,156,121647,5,0,0:0:0:0:
312,80,121797,1,0,0:0:0:0:
44,156,121947,1,0,0:0:0:0:
368,272,122097,1,0,0:0:0:0:
176,16,122247,1,0,0:0:0:0:
232,336,122397,1,0,0:0:0:0:
496,52,122547,6,0,B|428:28|428:28|376:56|376:56|296:8|192:68,1,270.000010299683
242,44,123297,1,0,0:0:0:0:
264,144,123447,2,0,L|272:216,1,67.5000025749208
120,336,123747,6,0,P|88:300|80:256,1,67.5000025749208
63,146,124047,2,0,P|78:100|112:71,1,67.5000025749208
199,2,124347,2,0,P|246:-7|288:7,1,67.5000025749208
392,48,124647,2,0,P|424:83|432:128,1,67.5000025749208
400,248,124947,5,0,0:0:0:0:
236,124,125097,1,0,0:0:0:0:
404,48,125247,1,0,0:0:0:0:
244,260,125397,5,0,0:0:0:0:
296,16,125547,1,0,0:0:0:0:
480,136,125697,1,0,0:0:0:0:
244,260,125847,1,0,0:0:0:0:
312,136,125997,1,0,0:0:0:0:
376,256,126147,2,0,L|384:328,1,67.5000025749208
212,172,126447,1,0,0:0:0:0:
360,72,126597,2,0,L|440:68,1,67.5000025749208
66,216,127047,6,0,P|106:240|126:280,1,67.5000025749208
120,376,127347,2,0,P|80:352|60:312,1,67.5000025749208
192,104,127647,2,0,P|264:96|308:112,1,67.5000025749208
320,280,127947,2,0,P|248:288|204:272,1,67.5000025749208
440,8,128247,5,0,0:0:0:0:
400,168,128397,5,0,0:0:0:0:
340,88,128547,2,0,L|360:12,1,67.5000025749208
416,300,128847,6,0,L|396:384,1,67.5000025749208
82,276,129147,2,0,L|19:217,1,67.5000025749208
269,0,129447,2,0,L|352:-25,1,67.5000025749208
352,220,129747,6,0,P|268:248|208:232,1,135.000005149842
224,239,130197,1,0,0:0:0:0:
304,148,130347,5,0,0:0:0:0:
284,308,130497,1,0,0:0:0:0:
208,128,130647,6,0,L|192:56,1,67.5000025749208
335,182,130947,2,0,L|405:204,1,67.5000025749208
224,265,131247,2,0,L|170:315,1,67.5000025749208
420,0,131547,6,0,P|500:44|496:140,1,135.000005149842
288,104,131997,1,0,0:0:0:0:
480,44,132147,5,0,0:0:0:0:
380,308,132297,1,0,0:0:0:0:
296,12,132447,5,0,0:0:0:0:
512,172,132597,1,0,0:0:0:0:
220,184,132747,1,0,0:0:0:0:
452,32,132897,1,0,0:0:0:0:
380,308,133047,2,0,P|308:328|252:328,1,67.5000025749208
80,124,133347,6,0,P|160:76|232:96,1,135.000005149842
432,260,133797,2,0,P|352:308|280:288,1,135.000005149842
176,128,134247,2,0,L|216:60,1,67.5000025749208
260,0,134547,1,0,0:0:0:0:
336,256,134697,1,0,0:0:0:0:
301,314,134847,1,0,0:0:0:0:
264,256,134997,1,0,0:0:0:0:
408,256,135147,5,0,0:0:0:0:
228,320,135297,1,0,0:0:0:0:
280,144,135447,1,0,0:0:0:0:
396,364,135597,5,0,0:0:0:0:
104,160,135747,1,0,0:0:0:0:
392,40,135897,1,0,0:0:0:0:
200,356,136047,5,0,0:0:0:0:
312,4,136197,1,0,0:0:0:0:
444,320,136347,1,0,0:0:0:0:
104,160,136497,1,0,0:0:0:0:
496,52,136647,5,0,0:0:0:0:
192,356,136797,1,0,0:0:0:0:
192,52,136947,6,0,P|264:32|300:40,1,90
452,232,137247,2,0,P|380:252|344:244,1,90
60,152,137547,2,0,P|132:132|168:140,1,90
320,332,137847,2,0,P|248:352|156:288,1,180
296,256,138297,2,0,P|348:256|392:288,1,90
328,336,138597,5,0,0:0:0:0:
280,32,138747,1,0,0:0:0:0:
440,248,138897,1,0,0:0:0:0:
208,288,139047,1,0,0:0:0:0:
416,76,139197,5,0,0:0:0:0:
332,328,139347,1,0,0:0:0:0:
172,112,139497,1,0,0:0:0:0:
440,248,139647,6,0,L|536:284,1,90
208,288,139947,2,0,L|112:324,1,90
4,248,140247,2,0,L|100:212,1,90
328,68,140547,6,0,B|320:116|320:116|344:144|344:144|320:184|352:260,1,180
404,212,140997,2,0,P|372:292|280:252,1,180
112,112,141447,6,0,B|216:56|264:156|264:156|344:128|328:40|328:40|380:16|456:96,1,450
472,212,142347,2,0,P|396:300|440:176,1,360
412,236,143097,1,0,0:0:0:0:
168,312,143247,1,0,0:0:0:0:
412,236,143397,1,0,0:0:0:0:
192,112,143547,1,0,0:0:0:0:
412,236,143697,1,0,0:0:0:0:
76,240,143847,5,8,0:0:0:0:
400,36,143997,1,8,0:0:0:0:
312,328,144147,6,0,P|276:252|280:212,1,90
356,88,144447,2,0,P|392:164|388:204,1,90
156,296,144747,2,0,P|120:220|124:180,1,90
200,56,145047,2,0,P|236:132|232:172,1,90
92,176,145347,1,0,0:0:0:0:
92,176,145497,2,0,P|108:104|144:180,1,180
184,280,145947,5,0,0:0:0:0:
388,140,146097,1,0,0:0:0:0:
200,28,146247,1,0,0:0:0:0:
152,300,146397,1,0,0:0:0:0:
432,128,146547,1,0,0:0:0:0:
96,100,146697,5,0,0:0:0:0:
376,312,146847,1,0,0:0:0:0:
260,16,146997,1,0,0:0:0:0:
192,364,147147,1,0,0:0:0:0:
448,176,147297,5,0,0:0:0:0:
88,164,147447,1,0,0:0:0:0:
264,344,147597,1,0,0:0:0:0:
260,44,147747,2,0,P|188:28|176:32,1,90
252,340,148047,2,0,P|324:356|336:352,1,90
164,132,148347,2,0,P|104:160|84:192,1,90
348,252,148647,2,0,P|420:148|292:212,1,360
356,180,149397,1,0,0:0:0:0:
52,232,149547,6,0,B|96:296|192:264|192:264|264:320|264:320|268:248|308:216|352:212|404:224|444:264|444:320|428:360,1,540
344,320,150597,5,0,0:0:0:0:
368,28,150747,1,0,0:0:0:0:
488,272,150897,1,0,0:0:0:0:
140,172,151047,1,0,0:0:0:0:
492,76,151197,5,0,0:0:0:0:
232,352,151347,2,0,P|164:344|136:332,1,90
280,32,151647,2,0,P|348:40|376:52,1,90
416,200,151947,1,0,0:0:0:0:
120,252,152097,1,0,0:0:0:0:
420,92,152247,2,0,P|480:140|496:168,1,90
220,284,152547,5,0,0:0:0:0:
200,188,152697,2,0,L|184:84,1,90
88,24,152997,1,0,0:0:0:0:
328,260,153147,2,0,P|388:280|456:268,1,90
488,184,153447,2,0,P|428:204|360:192,1,90
312,108,153747,2,0,P|372:128|440:116,1,90
472,32,154047,2,0,P|412:52|316:-8,1,180
472,32,154497,1,0,0:0:0:0:
336,256,154647,5,0,0:0:0:0:
280,32,154797,1,0,0:0:0:0:
160,296,154947,2,0,B|224:320|224:320|216:288,1,90
140,176,155247,2,0,B|76:152|76:152|84:184,1,90
296,312,155547,2,0,L|404:280,1,90
240,52,155847,6,0,P|116:104|264:108,1,360
192,104,156597,1,0,0:0:0:0:
192,104,156747,2,0,P|68:156|216:160,1,360
140,156,157497,1,0,0:0:0:0:
476,252,157647,5,0,0:0:0:0:
256,16,157797,1,0,0:0:0:0:
284,352,157947,1,0,0:0:0:0:
464,24,158097,1,0,0:0:0:0:
156,152,158247,1,0,0:0:0:0:
416,368,158397,1,0,0:0:0:0:
264,16,158547,6,0,P|208:20|176:68,1,90
368,208,158847,1,0,0:0:0:0:
368,208,158997,2,0,P|424:204|456:156,1,90
364,64,159297,5,0,0:0:0:0:
312,344,159447,1,0,0:0:0:0:
504,136,159597,5,0,0:0:0:0:
148,104,159747,1,0,0:0:0:0:
488,328,159897,5,0,0:0:0:0:
280,8,160047,1,0,0:0:0:0:
140,352,160197,1,0,0:0:0:0:
464,68,160347,6,0,B|448:64|448:64|428:72|428:72|384:64|360:84,1,90
244,280,160647,1,0,0:0:0:0:
244,280,160797,2,0,B|260:284|260:284|280:276|280:276|324:284|348:264,1,90
420,160,161097,5,0,0:0:0:0:
108,40,161247,1,0,0:0:0:0:
256,352,161397,1,0,0:0:0:0:
360,12,161547,1,0,0:0:0:0:
72,200,161697,1,0,0:0:0:0:
472,292,161847,1,0,0:0:0:0:
224,16,161997,5,0,0:0:0:0:
272,352,162147,1,0,0:0:0:0:
256,192,162297,12,0,163872,0:0:0:0:
256,192,163947,12,0,164697,0:0:0:0:
424,64,164847,5,0,0:0:0:0:
128,152,164997,1,0,0:0:0:0:
492,264,165147,1,0,0:0:0:0:
64,344,165297,1,0,0:0:0:0:
244,0,165447,5,0,0:0:0:0:
436,348,165597,1,0,0:0:0:0:
60,240,165747,2,0,P|104:184|132:176,1,90
452,144,166047,1,0,0:0:0:0:
452,144,166197,2,0,P|408:200|380:208,1,90
132,152,166497,5,0,0:0:0:0:
352,232,166647,2,0,P|304:280|256:280,1,90
224,172,166947,2,0,P|272:124|320:124,1,90
408,264,167247,2,0,P|360:312|312:312,1,90
248,48,167547,2,0,P|344:56|384:128,1,180
292,116,167997,2,0,P|236:128|192:108,1,90
272,24,168297,5,0,0:0:0:0:
424,328,168447,1,0,0:0:0:0:
176,160,168597,5,0,0:0:0:0:
496,176,168747,1,0,0:0:0:0:
240,356,168897,5,0,0:0:0:0:
400,16,169047,1,0,0:0:0:0:
480,312,169197,5,0,0:0:0:0:
256,56,169347,1,0,0:0:0:0:
348,368,169497,1,0,0:0:0:0:
400,16,169647,1,0,0:0:0:0:
144,304,169797,1,0,0:0:0:0:
256,192,169947,12,0,170997,0:0:0:0:
256,192,171072,12,0,171897,0:0:0:0:
332,60,172047,5,0,0:0:0:0:
474,145,172197,1,0,0:0:0:0:
329,226,172347,1,0,0:0:0:0:
452,24,172497,5,0,0:0:0:0:
446,324,172647,1,0,0:0:0:0:
188,169,172797,1,0,0:0:0:0:
474,145,172947,6,0,P|420:220|344:220,1,157.500001502037
188,384,173247,2,0,P|150:299|188:233,1,157.500001502037
123,37,173547,2,0,P|215:46|253:112,1,157.500001502037
360,264,173847,5,0,0:0:0:0:
36,208,173997,1,0,0:0:0:0:
296,112,174147,6,0,P|404:124|440:160,1,157.500001502037
346,187,174447,2,0,P|348:264|304:328,1,157.500001502037
272,224,174747,2,0,P|194:226|131:181,1,157.500001502037
224,152,175047,2,0,P|221:74|266:11,1,157.500001502037
468,220,175347,6,0,P|432:312|352:336,1,157.500001502037
192,224,175647,1,0,0:0:0:0:
476,40,175797,1,0,0:0:0:0:
304,356,175947,1,0,0:0:0:0:
304,12,176097,1,0,0:0:0:0:
488,300,176247,2,0,P|414:278|374:212,1,157.500001502037
488,156,176547,5,0,0:0:0:0:
112,312,176697,1,0,0:0:0:0:
264,20,176847,2,0,P|404:56|432:100,1,157.500001502037
376,328,177147,2,0,P|236:292|208:248,1,157.500001502037
60,196,177447,5,0,0:0:0:0:
320,29,177597,1,0,0:0:0:0:
273,334,177747,1,0,0:0:0:0:
136,29,177897,1,0,0:0:0:0:
394,197,178047,1,0,0:0:0:0:
42,196,178197,1,0,0:0:0:0:
328,8,178347,6,0,P|412:24|472:80,1,157.500001502037
394,197,178647,2,0,P|310:181|250:125,1,157.500001502037
424,116,178947,2,0,P|488:184|464:268,1,157.500001502037
88,268,179247,6,0,P|24:200|48:116,1,157.500001502037
212,48,179547,1,0,0:0:0:0:
144,348,179697,1,0,0:0:0:0:
212,48,179847,1,0,0:0:0:0:
304,272,179997,1,0,0:0:0:0:
88,4,180147,1,0,0:0:0:0:
144,300,180297,5,0,0:0:0:0:
372,84,180447,1,0,0:0:0:0:
32,84,180597,5,0,0:0:0:0:
304,328,180747,1,0,0:0:0:0:
264,12,180897,5,0,0:0:0:0:
112,348,181047,1,0,0:0:0:0:
456,176,181197,1,0,0:0:0:0:
28,212,181347,1,0,0:0:0:0:
404,328,181497,1,0,0:0:0:0:
236,56,181647,2,0,P|156:36|88:76,1,157.500001502037
212,284,181947,1,0,0:0:0:0:
168,112,182097,1,0,0:0:0:0:
120,211,182247,6,0,P|100:292|140:360,1,157.500001502037
276,328,182547,2,0,P|356:348|424:308,1,157.500001502037
200,22,182847,1,0,0:0:0:0:
152,360,182997,1,0,0:0:0:0:
470,232,183147,1,0,0:0:0:0:
168,173,183297,5,0,0:0:0:0:
303,278,183447,1,0,0:0:0:0:
327,109,183597,1,0,0:0:0:0:
196,276,183747,6,0,P|243:336|344:370,1,157.500001502037
512,160,184047,2,0,P|435:154|343:207,1,157.500001502037
64,316,184347,2,0,B|44:248|44:248|72:192|72:192|60:72|136:36,1,315.000003004074
188,136,184797,5,0,0:0:0:0:
264,268,184947,2,0,P|328:316|440:296,1,157.500001502037
180,200,185247,2,0,P|132:264|152:376,1,157.500001502037
248,116,185547,2,0,P|184:68|72:88,1,157.500001502037
332,184,185847,2,0,P|380:120|360:8,1,157.500001502037
264,268,186147,5,0,0:0:0:0:
208,88,186297,1,0,0:0:0:0:
124,340,186447,5,0,0:0:0:0:
324,20,186597,1,0,0:0:0:0:
488,368,186747,5,0,0:0:0:0:
208,88,186897,1,0,0:0:0:0:
504,100,187047,2,0,B|472:120|472:120|456:152|456:152|376:164|332:232,1,157.500001502037
168,344,187347,2,0,L|160:176,1,157.500001502037
312,86,187647,6,0,P|412:126|444:198,1,157.500001502037
320,296,187947,2,0,P|235:362|157:354,1,157.500001502037
136,192,188247,1,0,0:0:0:0:
396,64,188397,1,0,0:0:0:0:
264,360,188547,1,0,0:0:0:0:
236,12,188697,5,0,0:0:0:0:
468,288,188847,1,0,0:0:0:0:
76,236,188997,1,0,0:0:0:0:
456,16,189147,2,0,P|412:100|332:136,1,157.500001502037
56,168,189447,2,0,P|100:84|180:48,1,157.500001502037
340,248,189747,2,0,P|296:332|216:368,1,157.500001502037
168,48,190047,5,0,0:0:0:0:
460,316,190197,1,0,0:0:0:0:
88,240,190347,1,0,0:0:0:0:
368,0,190497,1,0,0:0:0:0:
460,316,190647,1,0,0:0:0:0:
168,48,190797,1,0,0:0:0:0:
468,40,190947,5,0,0:0:0:0:
312,380,191097,1,0,0:0:0:0:
136,32,191247,5,0,0:0:0:0:
512,168,191397,1,0,0:0:0:0:
112,384,191547,5,0,0:0:0:0:
268,0,191697,1,0,0:0:0:0:
424,372,191847,5,0,0:0:0:0:
88,252,191997,1,0,0:0:0:0:
436,128,192147,1,0,0:0:0:0:
220,384,192297,1,0,0:0:0:0:
196,48,192447,2,0,P|296:8|376:48,1,157.500001502037
276,232,192747,1,0,0:0:0:0:
276,232,192897,1,0,0:0:0:0:
400,28,193047,6,0,P|308:64|292:128,1,157.500001502037
348,308,193347,2,0,P|440:272|456:208,1,157.500001502037
148,20,193647,5,0,0:0:0:0:
146,358,193797,1,0,0:0:0:0:
440,188,193947,1,0,0:0:0:0:
205,193,194097,5,0,0:0:0:0:
278,236,194247,1,0,0:0:0:0:
278,151,194397,1,0,0:0:0:0:
154,383,194547,5,0,0:0:0:0:
468,205,194697,1,0,0:0:0:0:
153,23,194847,1,0,0:0:0:0:
358,360,194997,5,0,0:0:0:0:
357,0,195147,1,0,0:0:0:0:
43,178,195297,1,0,0:0:0:0:
368,272,195447,6,0,P|472:204|468:128,1,180
176,16,195747,1,0,0:0:0:0:
288,352,195897,1,0,0:0:0:0:
372,140,196047,1,0,0:0:0:0:
148,344,196197,1,0,0:0:0:0:
468,96,196347,6,0,P|352:60|276:88,1,180
64,196,196647,1,0,0:0:0:0:
508,296,196797,1,0,0:0:0:0:
56,192,196947,1,0,0:0:0:0:
496,28,197097,1,0,0:0:0:0:
204,332,197247,1,0,0:0:0:0:
178,294,197322,1,0,0:0:0:0:
165,251,197397,1,0,0:0:0:0:
165,207,197472,1,0,0:0:0:0:
180,164,197547,6,0,P|228:84|328:64,1,180
512,200,197847,2,0,P|464:280|364:300,1,180
204,12,198147,5,0,0:0:0:0:
412,220,198297,1,0,0:0:0:0:
76,172,198447,5,0,0:0:0:0:
468,72,198597,1,0,0:0:0:0:
188,352,198747,1,0,0:0:0:0:
372,0,198897,1,0,0:0:0:0:
392,372,199047,5,0,0:0:0:0:
76,172,199197,1,0,0:0:0:0:
372,0,199347,1,0,0:0:0:0:
180,376,199497,5,0,0:0:0:0:
200,0,199647,1,0,0:0:0:0:
508,156,199797,1,0,0:0:0:0:
60,236,199947,6,0,P|100:152|208:104,1,180
388,200,200247,5,0,0:0:0:0:
196,240,200397,1,0,0:0:0:0:
500,80,200547,1,0,0:0:0:0:
380,352,200697,5,0,0:0:0:0:
304,8,200847,1,0,0:0:0:0:
472,248,200997,1,0,0:0:0:0:
156,140,201147,5,0,0:0:0:0:
476,28,201297,1,0,0:0:0:0:
436,348,201447,5,0,0:0:0:0:
208,12,201597,1,0,0:0:0:0:
496,148,201747,1,0,0:0:0:0:
467,182,201822,1,0,0:0:0:0:
429,206,201897,1,0,0:0:0:0:
386,219,201972,1,0,0:0:0:0:
341,219,202047,1,0,0:0:0:0:
360,40,202197,1,0,0:0:0:0:
512,248,202347,2,0,P|420:296|340:296,1,180
104,84,202647,6,0,P|196:44|280:56,1,180
425,114,202947,2,0,P|414:214|361:280,1,180
238,377,203247,2,0,P|157:317|126:239,1,180
392,48,203547,5,0,0:0:0:0:
88,308,203697,1,0,0:0:0:0:
292,0,203847,1,0,0:0:0:0:
412,384,203997,1,0,0:0:0:0:
60,132,204147,1,0,0:0:0:0:
484,60,204297,1,0,0:0:0:0:
160,384,204447,5,0,0:0:0:0:
168,0,204597,1,0,0:0:0:0:
488,224,204747,1,0,0:0:0:0:
39,192,204897,5,0,0:0:0:0:
380,0,205047,1,0,0:0:0:0:
366,381,205197,1,0,0:0:0:0:
144,8,205347,6,0,P|244:4|336:64,1,180
288,316,205647,2,0,P|188:320|96:260,1,180
372,12,205947,2,0,P|455:67|494:170,1,180
216,248,206247,5,0,0:0:0:0:
388,108,206397,1,0,0:0:0:0:
392,332,206547,1,0,0:0:0:0:
284,120,206697,1,0,0:0:0:0:
440,200,206847,1,0,0:0:0:0:
208,259,206997,1,0,0:0:0:0:
420,88,207147,6,0,P|512:168|512:240,1,180
296,248,207447,1,0,0:0:0:0:
472,44,207597,1,0,0:0:0:0:
296,248,207747,1,0,0:0:0:0:
244,8,207897,1,0,0:0:0:0:
312,272,208047,2,0,P|192:296|140:248,1,180
136,68,208347,5,0,0:0:0:0:
460,188,208497,1,0,0:0:0:0:
48,200,208647,1,0,0:0:0:0:
460,32,208797,5,0,0:0:0:0:
248,344,208947,1,0,0:0:0:0:
248,24,209097,1,0,0:0:0:0:
492,312,209247,1,0,0:0:0:0:
88,208,209397,1,0,0:0:0:0:
372,0,209547,1,0,0:0:0:0:
264,368,209697,1,0,0:0:0:0:
136,40,209847,5,0,0:0:0:0:
488,168,209997,1,0,0:0:0:0:
164,272,210147,5,0,0:0:0:0:
260,7,210297,1,0,0:0:0:0:
328,236,210447,5,0,0:0:0:0:
129,164,210597,1,0,0:0:0:0:
288,100,210747,6,0,L|224:272,1,180
128,332,211047,1,0,0:0:0:0:
188,0,211197,1,0,0:0:0:0:
512,268,211347,1,0,0:0:0:0:
24,180,211497,1,0,0:0:0:0:
360,40,211647,6,0,P|472:76|524:120,1,180
236,268,211947,1,0,0:0:0:0:
388,128,212097,1,0,0:0:0:0:
352,372,212247,1,0,0:0:0:0:
304,8,212397,1,0,0:0:0:0:
260,352,212547,6,0,P|160:308|152:244,1,180
224,140,212847,1,0,0:0:0:0:
488,184,212997,1,0,0:0:0:0:
140,12,213147,1,0,0:0:0:0:
324,384,213297,1,0,0:0:0:0:
384,0,213447,5,0,0:0:0:0:
224,316,213597,1,0,0:0:0:0:
496,176,213747,2,0,P|400:116|336:136,1,180
196,352,214047,1,0,0:0:0:0:
400,176,214197,1,0,0:0:0:0:
36,204,214347,5,0,0:0:0:0:
424,320,214497,1,0,0:0:0:0:
48,360,214647,1,0,0:0:0:0:
152,0,214797,1,0,0:0:0:0:
264,220,214947,2,0,P|304:344|284:388,1,180
60,288,215247,5,0,0:0:0:0:
408,0,215397,1,0,0:0:0:0:
328,384,215547,1,0,0:0:0:0:
152,0,215697,1,0,0:0:0:0:
512,164,215847,1,0,0:0:0:0:
0,256,215997,1,0,0:0:0:0:
404,88,216147,6,0,P|356:160|296:176,1,112.5
80,216,216447,1,0,0:0:0:0:
260,0,216597,1,0,0:0:0:0:
420,268,216747,6,0,P|333:262|289:218,1,112.5
147,51,217047,1,0,0:0:0:0:
424,99,217197,1,0,0:0:0:0:
272,372,217347,6,0,P|233:294|249:234,1,112.5
323,27,217647,1,0,0:0:0:0:
420,291,217797,1,0,0:0:0:0:
0,0,217947,5,0,0:0:0:0:
