osu file format v14

[General]
AudioFilename: audio.mp3
AudioLeadIn: 0
PreviewTime: 172947
Countdown: 0
SampleSet: Soft
StackLeniency: 0.7
Mode: 0
LetterboxInBreaks: 0
WidescreenStoryboard: 1

[Editor]
Bookmarks: 91947,205347
DistanceSpacing: 1
BeatDivisor: 2
GridSize: 32
TimelineZoom: 1.1

[Metadata]
Title:Psalm dla Ciebie
TitleUnicode:Psalm dla Ciebie
Artist:Piotr Rubik, Malgorzata Markiewicz, Janusz Radek
ArtistUnicode:Piotr Rubik, MaƂgorzata Markiewicz, Janusz Radek
Creator:-NeBu-
Version:Bubblun's W komodzie szalik
Source:
Tags:piotr rubik malgorzata markiewicz janusz radek polish poland psalterz wrzesniowy 2006 CptSqBany [Red Panda] -NeBu- Chalwa Yusomi Piggey ReFaller Bubblun -Kyu Asrasz
BeatmapID:1301434
BeatmapSetID:586156

[Difficulty]
HPDrainRate:6.4
CircleSize:5
OverallDifficulty:8.4
ApproachRate:9.4
SliderMultiplier:1.9
SliderTickRate:1

[Events]
//Background and Video events
0,0,"piotr-rubik-wejherowo.jpg",0,0
Video,-403,"zzzzzzzzzzzzzzzz.mp4"
//Break Periods
2,11147,15807
2,104747,107607
//Storyboard Layer 0 (Background)
//Storyboard Layer 1 (Fail)
//Storyboard Layer 2 (Pass)
//Storyboard Layer 3 (Foreground)
//Storyboard Sound Samples

[TimingPoints]
147,600,4,2,2,25,1,0
147,-100,4,2,1,25,0,0
447,-100,4,2,2,25,0,0
5547,-100,4,2,1,25,0,0
5847,-100,4,2,2,25,0,0
9147,-66.6666666666667,4,2,2,25,0,0
10047,-66.6666666666667,4,2,2,25,0,0
10347,-66.6666666666667,4,2,2,45,0,0
10647,-66.6666666666667,4,2,2,65,0,0
10947,-66.6666666666667,4,2,2,20,0,0
16347,-133.333333333333,4,2,2,40,0,0
20847,-133.333333333333,4,2,2,20,0,0
21447,-133.333333333333,4,2,2,40,0,0
22947,-133.333333333333,4,2,2,10,0,0
23547,-133.333333333333,4,2,2,40,0,0
25347,-133.333333333333,4,2,1,40,0,0
26247,-133.333333333333,4,2,2,40,0,0
28047,-133.333333333333,4,2,2,20,0,0
28947,-200,4,2,2,40,0,0
29847,-133.333333333333,4,2,2,40,0,0
30447,-133.333333333333,4,2,2,60,0,0
30747,-100,4,2,2,40,0,0
32547,-100,4,2,1,40,0,0
32847,-100,4,2,2,40,0,0
36147,-100,4,2,1,40,0,0
37047,-100,4,2,2,40,0,0
40647,-100,4,2,1,20,0,0
41247,-100,4,2,2,40,0,0
41547,-133.333333333333,4,2,2,40,0,0
42897,-166.666666666667,4,2,2,40,0,0
44997,-80,4,2,2,5,0,0
45147,300,4,2,2,55,1,0
45147,-200,4,2,2,55,0,0
46497,-200,4,2,2,70,0,0
46947,-200,4,2,2,55,0,0
49047,-200,4,2,2,5,0,0
49197,-200,4,2,2,55,0,0
49947,-200,4,2,2,5,0,0
50247,-200,4,2,2,55,0,0
53697,-200,4,2,2,70,0,0
54147,-200,4,2,2,55,0,0
57147,-200,4,2,2,5,0,0
57297,-200,4,2,2,55,0,0
59547,-200,4,2,2,75,0,0
60897,-200,4,2,2,95,0,0
61347,-200,4,2,2,75,0,0
67197,-200,4,2,2,95,0,0
67647,-200,4,2,2,75,0,0
70797,-133.333333333333,4,2,2,55,0,0
73047,-133.333333333333,4,2,2,55,0,0
73947,-133.333333333333,4,2,2,55,0,0
74397,-133.333333333333,4,2,2,75,0,0
74847,-133.333333333333,4,2,2,55,0,0
79347,-200,4,2,2,55,0,0
81147,-83.3333333333333,4,2,2,70,0,1
84747,-83.3333333333333,4,2,2,30,0,1
85047,-83.3333333333333,4,2,2,70,0,1
85947,-83.3333333333333,4,2,2,10,0,1
86247,-83.3333333333333,4,2,2,30,0,1
86547,-83.3333333333333,4,2,2,70,0,1
90147,-83.3333333333333,4,2,2,30,0,1
90447,-83.3333333333333,4,2,2,70,0,1
91047,-83.3333333333333,4,2,2,70,0,1
91497,-83.3333333333333,4,2,2,30,0,1
91947,-83.3333333333333,4,2,2,70,0,1
95547,-83.3333333333333,4,2,2,30,0,1
95847,-83.3333333333333,4,2,2,70,0,1
96747,-83.3333333333333,4,2,2,10,0,1
97047,-83.3333333333333,4,2,2,30,0,1
97347,-83.3333333333333,4,2,2,70,0,1
100947,-83.3333333333333,4,2,2,30,0,1
101247,-83.3333333333333,4,2,2,70,0,1
102297,-83.3333333333333,4,2,2,30,0,1
102747,600,4,2,2,50,1,0
108147,-133.333333333333,4,2,2,50,0,0
122547,-100,4,2,2,50,0,0
133347,-133.333333333333,4,2,2,50,0,0
134697,-166.666666666667,4,2,2,50,0,0
136797,-66.6666666666667,4,2,2,5,0,0
136947,300,4,2,2,50,1,0
136947,-200,4,2,2,50,0,0
165747,-133.333333333333,4,2,2,50,0,0
172947,-83.3333333333333,4,2,2,60,0,1
176547,-83.3333333333333,4,2,2,30,0,1
176847,-83.3333333333333,4,2,2,60,0,1
177747,-83.3333333333333,4,2,2,10,0,1
178047,-83.3333333333333,4,2,2,30,0,1
178347,-83.3333333333333,4,2,2,60,0,1
181947,-83.3333333333333,4,2,2,30,0,1
182247,-83.3333333333333,4,2,2,60,0,1
187347,-83.3333333333333,4,2,2,30,0,1
187647,-83.3333333333333,4,2,2,60,0,1
188547,-83.3333333333333,4,2,2,20,0,1
188847,-83.3333333333333,4,2,2,40,0,1
189147,-83.3333333333333,4,2,2,60,0,1
192747,-83.3333333333333,4,2,2,30,0,1
193047,-83.3333333333333,4,2,2,60,0,1
194247,-83.3333333333333,4,2,2,30,0,1
194397,-83.3333333333333,4,2,2,50,0,0
194547,-66.6666666666667,4,2,2,70,0,1
196347,-66.6666666666667,4,2,2,70,0,1
197247,-66.6666666666667,4,2,2,40,0,1
198147,-66.6666666666667,4,2,2,70,0,1
199347,-66.6666666666667,4,2,2,20,0,1
199647,-66.6666666666667,4,2,2,50,0,1
199947,-66.6666666666667,4,2,2,70,0,1
201747,-66.6666666666667,4,2,2,70,0,1
202647,-66.6666666666667,4,2,2,40,0,1
203547,-66.6666666666667,4,2,2,70,0,1
205047,-66.6666666666667,4,2,2,50,0,1
205197,-66.6666666666667,4,2,2,70,0,1
208047,-66.6666666666667,4,2,2,30,0,1
208947,-66.6666666666667,4,2,2,70,0,1
210147,-66.6666666666667,4,2,2,10,0,1
210447,-66.6666666666667,4,2,2,40,0,1
210747,-66.6666666666667,4,2,2,70,0,1
213447,-66.6666666666667,4,2,2,40,0,1
214347,-66.6666666666667,4,2,2,70,0,1
215847,-66.6666666666667,4,2,2,40,0,1
215997,-66.6666666666667,4,2,2,60,0,1
216147,-80,4,2,2,70,0,0
217947,-100,4,2,2,50,0,0

[Colours]
Combo1 : 238,196,149
Combo2 : 68,88,227
Combo3 : 63,63,63

[HitObjects]
323,178,147,5,2,0:0:0:0:
312,83,447,1,0,0:0:0:0:
407,72,747,1,0,0:0:0:0:
334,273,1347,5,0,0:0:0:0:
239,262,1647,1,0,0:0:0:0:
292,220,1947,5,0,0:0:0:0:
281,315,2247,1,0,0:0:0:0:
239,262,2547,1,0,0:0:0:0:
250,167,2847,5,0,0:0:0:0:
345,178,3147,1,0,0:0:0:0:
292,220,3447,1,0,0:0:0:0:
155,156,4047,5,0,0:0:0:0:
345,178,4347,1,0,0:0:0:0:
239,262,4647,1,0,0:0:0:0:
261,72,4947,1,0,0:0:0:0:
239,262,5247,1,0,0:0:0:0:
303,125,5547,5,2,0:0:0:0:
292,219,5847,1,0,0:0:0:0:
196,208,6147,1,0,0:0:0:0:
312,29,6747,5,0,0:0:0:0:
402,61,7047,1,0,0:0:0:0:
341,90,7347,5,0,0:0:0:0:
374,0,7647,1,0,0:0:0:0:
402,61,7947,1,0,0:0:0:0:
370,151,8247,5,0,0:0:0:0:
280,119,8547,1,0,0:0:0:0:
341,90,8847,1,0,0:0:0:0:
389,226,9147,6,0,P|354:236|305:229,1,71.2500027179719,0|0,0:0|0:0,0:0:0:0:
268,185,9447,1,2,0:0:0:0:
341,90,9597,1,2,0:0:0:0:
364,314,9747,2,0,L|373:398,1,71.2500027179719,0|0,0:0|0:0,0:0:0:0:
250,252,10047,5,2,0:0:0:0:
474,229,10197,1,2,0:0:0:0:
364,314,10347,5,2,0:0:0:0:
123,253,10497,1,2,0:0:0:0:
189,116,10647,5,2,0:0:0:0:
256,381,10797,1,2,0:0:0:0:
32,229,10947,5,4,0:0:0:0:
32,229,16347,6,0,L|56:0,1,213.750008153916,0|0,0:0|0:0,0:0:0:0:
259,109,17547,2,0,P|224:119|175:112,1,71.2500027179719
302,54,18147,2,0,B|310:125|310:125|359:163,1,106.875004076958,0|0,0:0|0:0,0:0:0:0:
384,81,19047,5,0,0:0:0:0:
392,151,19347,1,0,0:0:0:0:
400,221,19647,1,0,0:0:0:0:
409,291,19947,6,0,P|419:256|412:207,1,71.2500027179719,2|0,0:0|0:0,0:0:0:0:
333,210,20397,2,0,L|337:245,1,35.625001358986,2|0,0:0|0:0,0:0:0:0:
346,350,20847,1,2,0:0:0:0:
276,358,21147,1,2,0:0:0:0:
192,292,21447,5,0,0:0:0:0:
192,292,21747,2,0,L|201:206,1,71.2500027179719,0|0,0:0|0:0,0:0:0:0:
256,170,22197,2,0,L|263:240,1,71.2500027179719,0|0,0:0|0:0,0:0:0:0:
270,310,22647,1,0,0:0:0:0:
270,310,22947,6,0,L|218:304,1,35.625001358986,2|0,0:0|0:0,0:0:0:0:
162,298,23247,2,0,L|110:292,1,35.625001358986,2|0,0:0|0:0,0:0:0:0:
54,286,23547,5,2,0:0:0:0:
61,215,24447,6,0,L|70:129,1,71.2500027179719
123,99,25047,1,0,0:0:0:0:
187,177,25347,1,2,0:0:0:0:
61,215,25647,1,2,0:0:0:0:
234,222,26247,6,0,L|320:231,2,71.2500027179719
61,215,27147,6,0,P|96:225|145:218,1,71.2500027179719,2|0,0:0|0:0,0:0:0:0:
163,214,27597,2,0,L|158:257,1,35.625001358986,2|0,0:0|0:0,0:0:0:0:
147,354,28047,1,2,0:0:0:0:
77,346,28347,1,2,0:0:0:0:
268,207,28947,6,0,P|278:242|271:291,1,71.25
227,328,29547,1,0,0:0:0:0:
227,328,29847,6,0,L|191:323,1,35.625001358986,2|0,0:0|0:0,0:0:0:0:
119,316,30147,2,0,L|67:310,1,35.625001358986,2|0,0:0|0:0,0:0:0:0:
125,253,30447,5,2,0:0:0:0:
227,328,30597,1,2,0:0:0:0:
23,355,30747,6,0,P|13:308|29:258,1,95
55,238,31197,1,2,0:0:0:0:
55,238,31347,1,2,0:0:0:0:
119,316,31647,1,0,0:0:0:0:
232,260,31947,6,0,L|179:252,1,47.5,2|0,0:0|0:0,0:0:0:0:
55,238,32247,2,0,L|111:245,1,47.5,2|0,0:0|0:0,0:0:0:0:
191,323,32547,1,0,0:0:0:0:
208,181,32847,2,0,L|221:86,1,95
147,206,33447,2,0,P|100:216|50:200,2,95
208,181,34347,6,0,P|255:171|305:187,1,95,2|0,0:0|0:0,0:0:0:0:
326,222,34797,1,2,0:0:0:0:
259,332,35247,5,0,0:0:0:0:
189,324,35547,1,0,0:0:0:0:
119,316,35847,1,0,0:0:0:0:
238,268,36147,5,2,0:0:0:0:
151,258,36447,1,0,0:0:0:0:
335,211,37047,2,0,L|322:306,2,95
283,142,37947,6,0,P|237:129|191:139,1,95,2|0,0:0|0:0,0:0:0:0:
156,161,38397,2,0,L|166:240,1,47.5,2|0,0:0|0:0,0:0:0:0:
281,252,38847,2,0,L|376:265,2,95
66,220,39747,6,0,L|79:315,1,95,2|0,0:0|0:0,0:0:0:0:
84,361,40197,1,2,0:0:0:0:
153,169,40647,1,2,0:0:0:0:
58,156,40947,1,2,0:0:0:0:
210,244,41247,5,0,0:0:0:0:
153,169,41547,6,0,P|142:118|159:64,1,106.875004076958,2|2,0:0|0:0,0:0:0:0:
222,121,42447,5,2,0:0:0:0:
222,121,42897,2,0,B|208:234|208:234|261:282|209:356|209:356|119:338|134:265,1,370.499988693238
209,233,45147,6,0,L|335:250,2,95,2|2|2,0:0|0:0|0:0,0:0:0:0:
20,304,46047,2,0,P|67:314|117:298,1,95,2|0,0:0|0:0,0:0:0:0:
151,378,46497,2,0,P|183:342|194:290,1,95,2|0,0:0|0:0,0:0:0:0:
145,213,46947,5,2,0:0:0:0:
303,245,47247,1,0,0:0:0:0:
194,297,47547,1,0,0:0:0:0:
224,156,47847,5,2,0:0:0:0:
240,235,48147,1,0,0:0:0:0:
256,314,48447,1,0,0:0:0:0:
141,216,48747,6,0,L|-7:195,1,142.5,2|2,0:0|0:0,0:0:0:0:
57,272,49647,2,0,L|84:70,1,190,2|2,0:0|0:0,0:0:0:0:
188,114,50547,2,0,B|216:146|216:146|241:158|241:158|247:187|247:187|265:163|265:163|289:168|289:168|339:148|339:148|335:191|335:191|303:294|222:291|174:260|169:205,1,475
100,337,52347,6,0,P|53:347|3:331,2,95,2|2|2,0:0|0:0|0:0,0:0:0:0:
258,259,53247,2,0,P|211:249|161:265,1,95,2|0,0:0|0:0,0:0:0:0:
129,191,53697,2,0,P|96:226|85:278,1,95,2|0,0:0|0:0,0:0:0:0:
166,261,54147,5,2,0:0:0:0:
336,255,54447,1,0,0:0:0:0:
197,206,54747,1,0,0:0:0:0:
227,347,55047,5,2,0:0:0:0:
243,268,55347,1,0,0:0:0:0:
259,189,55647,1,0,0:0:0:0:
288,336,55947,6,0,P|333:348|379:338,2,95,2|2|2,0:0|0:0|0:0,0:0:0:0:
336,255,56847,2,0,L|363:53,1,190,2|2,0:0|0:0,0:0:0:0:
268,79,57747,2,0,B|250:220|250:220|191:171|191:171|198:106|198:106|129:120|125:207|125:207|170:240,1,475
320,235,59547,6,0,L|446:218,2,95,2|2|2,0:0|0:0|0:0,0:0:0:0:
129,164,60447,2,0,P|176:154|226:170,1,95,2|0,0:0|0:0,0:0:0:0:
262,90,60897,2,0,P|294:126|305:178,1,95,2|0,0:0|0:0,0:0:0:0:
256,255,61347,5,2,0:0:0:0:
414,223,61647,1,0,0:0:0:0:
305,171,61947,1,0,0:0:0:0:
350,316,62247,6,0,L|370:170,1,142.5
256,255,63147,6,0,L|153:269,2,95,2|2|2,0:0|0:0|0:0,0:0:0:0:
159,345,64047,2,0,P|91:296|118:206,1,190,2|0,0:0|0:0,0:0:0:0:
256,255,64947,2,0,B|310:274|350:241|397:217|452:235,1,190
95,284,65847,2,0,L|-8:270,2,95,2|2|2,0:0|0:0|0:0,0:0:0:0:
261,211,66747,6,0,P|214:201|164:217,1,95,2|0,0:0|0:0,0:0:0:0:
126,138,67197,2,0,P|93:173|82:225,1,95,2|0,0:0|0:0,0:0:0:0:
169,213,67647,5,2,0:0:0:0:
334,208,67947,1,0,0:0:0:0:
194,153,68247,1,0,0:0:0:0:
220,323,68547,6,0,L|236:200,1,118.75,2|0,0:0|0:0,0:0:0:0:
280,368,69447,6,0,P|325:380|371:370,2,95,2|2|2,0:0|0:0|0:0,0:0:0:0:
328,287,70347,1,2,0:0:0:0:
256,192,70797,12,0,73047,0:0:0:0:
164,207,73947,6,0,P|229:192|299:215,1,142.500005435944,2|0,0:0|0:0,0:0:0:0:
337,117,74397,2,0,P|384:167|399:241,1,142.500005435944,2|0,0:0|0:0,0:0:0:0:
299,215,74847,5,2,0:0:0:0:
89,197,75147,1,0,0:0:0:0:
260,123,75447,1,0,0:0:0:0:
219,341,75747,2,0,L|195:156,1,178.12500679493,2|0,0:0|0:0,0:0:0:0:
219,341,76647,5,2,0:0:0:0:
236,218,76947,1,0,0:0:0:0:
251,97,77247,1,0,0:0:0:0:
348,228,77547,5,2,0:0:0:0:
256,192,78147,12,0,80847,0:0:0:0:
151,291,81147,6,0,P|104:227|134:146,1,170.999994781494,4|0,0:0|0:0,0:0:0:0:
183,213,81447,2,0,B|243:203|243:203|292:218|292:218|359:207,1,170.999994781494,2|0,0:0|0:0,0:0:0:0:
275,287,81747,2,2,L|239:62,1,227.999993041992
350,208,82347,5,2,0:0:0:0:
132,147,82647,1,0,0:0:0:0:
323,123,82947,2,0,P|401:135|437:213,1,170.999994781494,2|0,0:0|0:0,0:0:0:0:
350,208,83247,2,0,P|321:134|371:63,1,170.999994781494,2|0,0:0|0:0,0:0:0:0:
404,137,83547,2,0,P|354:198|268:190,1,170.999994781494,2|0,0:0|0:0,0:0:0:0:
369,64,83847,6,0,B|456:71|456:71|403:137,1,170.999994781494,2|0,0:0|0:0,0:0:0:0:
269,191,84147,2,0,B|241:108|241:108|331:124,1,170.999994781494,2|0,0:0|0:0,0:0:0:0:
437,211,84447,2,0,B|389:283|389:283|347:200,1,170.999994781494,2|0,0:0|0:0,0:0:0:0:
362,157,84747,5,4,0:0:0:0:
132,147,85047,5,0,0:0:0:0:
437,211,85347,1,0,0:0:0:0:
132,147,85647,1,0,0:0:0:0:
220,292,85947,5,4,0:0:0:0:
350,207,86097,1,4,0:0:0:0:
177,194,86247,5,4,0:0:0:0:
137,384,86397,1,4,0:0:0:0:
288,317,86547,6,0,B|348:307|348:307|397:322|397:322|464:311,1,170.999994781494,4|0,0:0|0:0,0:0:0:0:
500,381,86847,2,0,P|529:304|481:237,1,170.999994781494,2|0,0:0|0:0,0:0:0:0:
407,211,87147,2,2,L|182:247,1,227.999993041992
288,317,87747,1,0,0:0:0:0:
339,122,88047,1,0,0:0:0:0:
140,168,88347,6,0,P|93:231|123:312,1,170.999994781494,2|0,0:0|0:0,0:0:0:0:
181,247,88647,2,0,P|149:174|63:159,1,170.999994781494,2|0,0:0|0:0,0:0:0:0:
92,235,88947,2,0,P|170:242|225:176,1,170.999994781494,2|0,0:0|0:0,0:0:0:0:
65,158,89247,6,0,B|8:224|8:224|92:233,1,170.999994781494,2|0,0:0|0:0,0:0:0:0:
226,177,89547,2,0,B|187:98|187:98|134:173,1,170.999994781494,2|0,0:0|0:0,0:0:0:0:
121,310,89847,2,0,B|205:326|205:326|176:238,1,170.999994781494,2|0,0:0|0:0,0:0:0:0:
136,219,90147,5,4,0:0:0:0:
455,312,90447,5,0,0:0:0:0:
390,86,90747,1,0,0:0:0:0:
224,194,91047,6,0,L|336:212,1,113.999996520996,2|0,0:0|0:0,0:0:0:0:
448,232,91347,1,2,0:0:0:0:
390,86,91497,1,4,0:0:0:0:
310,290,91647,1,4,0:0:0:0:
474,138,91797,1,4,0:0:0:0:
151,93,91947,6,0,P|104:157|134:238,1,170.999994781494,4|0,0:0|0:0,0:0:0:0:
236,215,92247,2,0,P|237:138|190:185,1,170.999994781494,2|0,0:0|0:0,0:0:0:0:
132,236,92547,2,2,L|357:272,1,227.999993041992
128,373,93147,5,2,0:0:0:0:
189,169,93447,1,0,0:0:0:0:
425,225,93747,6,0,P|361:271|280:241,1,170.999994781494,2|0,0:0|0:0,0:0:0:0:
345,183,94047,2,0,P|417:214|432:300,1,170.999994781494,2|0,0:0|0:0,0:0:0:0:
357,272,94347,2,0,P|349:193|415:138,1,170.999994781494,2|0,0:0|0:0,0:0:0:0:
434,299,94647,6,0,B|367:355|367:355|358:271,1,170.999994781494,2|0,0:0|0:0,0:0:0:0:
415,138,94947,2,0,B|493:176|493:176|418:229,1,170.999994781494,2|0,0:0|0:0,0:0:0:0:
282,243,95247,2,0,B|265:158|265:158|353:187,1,170.999994781494,2|0,0:0|0:0,0:0:0:0:
373,228,95547,5,4,0:0:0:0:
132,237,95847,5,0,0:0:0:0:
437,173,96147,1,0,0:0:0:0:
132,237,96447,1,0,0:0:0:0:
220,92,96747,5,4,0:0:0:0:
350,177,96897,1,4,0:0:0:0:
177,190,97047,5,4,0:0:0:0:
137,0,97197,1,4,0:0:0:0:
288,67,97347,6,0,B|348:77|348:77|397:62|397:62|464:73,1,170.999994781494,4|0,0:0|0:0,0:0:0:0:
500,3,97647,2,0,P|529:80|481:147,1,170.999994781494,2|0,0:0|0:0,0:0:0:0:
407,173,97947,2,0,L|182:137,1,227.999993041992,2|0,0:0|0:0,0:0:0:0:
288,67,98547,1,2,0:0:0:0:
339,262,98847,1,0,0:0:0:0:
140,216,99147,6,0,P|93:152|123:71,1,170.999994781494,2|0,0:0|0:0,0:0:0:0:
181,137,99447,2,0,P|149:209|63:224,1,170.999994781494,2|0,0:0|0:0,0:0:0:0:
92,149,99747,2,0,P|170:141|225:207,1,170.999994781494,2|0,0:0|0:0,0:0:0:0:
65,226,100047,6,0,B|8:159|8:159|92:150,1,170.999994781494,2|0,0:0|0:0,0:0:0:0:
226,207,100347,2,0,B|187:285|187:285|134:210,1,170.999994781494,2|0,0:0|0:0,0:0:0:0:
121,74,100647,2,0,B|205:57|205:57|176:145,1,170.999994781494,2|0,0:0|0:0,0:0:0:0:
136,165,100947,5,4,0:0:0:0:
455,72,101247,5,0,0:0:0:0:
390,298,101547,1,0,0:0:0:0:
224,190,101847,6,0,L|336:172,1,113.999996520996,2|0,0:0|0:0,0:0:0:0:
448,152,102147,1,2,0:0:0:0:
390,298,102297,5,4,0:0:0:0:
310,94,102447,1,4,0:0:0:0:
474,246,102597,1,4,0:0:0:0:
290,165,102747,5,0,0:0:0:0:
256,192,102897,12,0,104547,0:0:0:0:
480,155,108147,6,0,L|456:384,1,213.750008153916,0|0,0:0|0:0,0:0:0:0:
253,275,109347,2,0,P|288:265|337:272,1,71.2500027179719
210,330,109947,2,0,B|202:259|202:259|153:221,1,106.875004076958,0|0,0:0|0:0,0:0:0:0:
128,303,110847,5,0,0:0:0:0:
120,233,111147,1,0,0:0:0:0:
112,163,111447,1,0,0:0:0:0:
103,93,111747,6,0,P|93:128|100:177,1,71.2500027179719,2|0,0:0|0:0,0:0:0:0:
179,174,112197,2,0,L|175:139,1,35.625001358986,2|0,0:0|0:0,0:0:0:0:
166,34,112647,1,2,0:0:0:0:
236,26,112947,1,2,0:0:0:0:
320,92,113247,5,0,0:0:0:0:
320,92,113547,2,0,L|311:178,1,71.2500027179719,0|0,0:0|0:0,0:0:0:0:
256,214,113997,2,0,L|249:144,1,71.2500027179719,0|0,0:0|0:0,0:0:0:0:
242,74,114447,1,0,0:0:0:0:
242,74,114747,6,0,L|294:80,1,35.625001358986,2|0,0:0|0:0,0:0:0:0:
350,86,115047,2,0,L|402:92,1,35.625001358986,2|0,0:0|0:0,0:0:0:0:
458,98,115347,5,2,0:0:0:0:
451,169,116247,6,0,L|442:255,1,71.2500027179719
389,285,116847,1,0,0:0:0:0:
278,162,117147,2,0,L|388:150,1,106.875004076958,2|2,0:0|0:0,0:0:0:0:
278,162,118047,6,0,L|192:153,2,71.2500027179719
451,169,118947,6,0,P|416:159|367:166,1,71.2500027179719,2|0,0:0|0:0,0:0:0:0:
349,170,119397,2,0,L|354:127,1,35.625001358986,2|0,0:0|0:0,0:0:0:0:
365,30,119847,1,2,0:0:0:0:
435,38,120147,1,2,0:0:0:0:
301,220,120447,5,0,0:0:0:0:
244,177,120747,2,0,P|234:142|241:93,1,71.25
285,56,121347,1,0,0:0:0:0:
285,56,121647,6,0,L|321:61,1,35.625001358986,2|0,0:0|0:0,0:0:0:0:
393,68,121947,2,0,L|445:74,1,35.625001358986,2|0,0:0|0:0,0:0:0:0:
387,131,122247,5,2,0:0:0:0:
285,56,122397,1,2,0:0:0:0:
489,29,122547,6,0,P|499:76|483:126,1,95
457,146,122997,1,2,0:0:0:0:
457,146,123147,1,2,0:0:0:0:
393,68,123447,1,0,0:0:0:0:
280,124,123747,6,0,L|333:132,1,47.5,2|0,0:0|0:0,0:0:0:0:
457,146,124047,2,0,L|401:139,1,47.5,2|0,0:0|0:0,0:0:0:0:
304,203,124347,5,2,0:0:0:0:
304,203,124647,2,0,L|291:298,1,95
365,178,125247,2,0,P|412:168|462:184,2,95
304,203,126147,6,0,P|257:213|207:197,1,95,2|0,0:0|0:0,0:0:0:0:
186,162,126597,1,2,0:0:0:0:
253,52,127047,5,0,0:0:0:0:
323,60,127347,1,0,0:0:0:0:
393,68,127647,1,0,0:0:0:0:
274,116,127947,5,2,0:0:0:0:
361,126,128247,1,0,0:0:0:0:
177,173,128847,2,0,L|190:78,2,95
229,242,129747,6,0,P|275:255|321:245,1,95,2|0,0:0|0:0,0:0:0:0:
231,132,130647,2,0,L|136:119,2,95
446,164,131547,6,0,L|426:23,1,142.5,2|2,0:0|0:0,0:0:0:0:
359,215,132447,1,2,0:0:0:0:
454,228,132747,1,2,0:0:0:0:
302,140,133047,5,0,0:0:0:0:
359,215,133347,6,0,P|370:266|353:320,1,106.875004076958,2|2,0:0|0:0,0:0:0:0:
290,263,134247,5,2,0:0:0:0:
290,263,134697,2,0,B|304:150|304:150|251:102|303:28|303:28|393:46|378:119,1,370.499988693238
303,151,136947,6,0,L|177:134,2,95,2|2|2,0:0|0:0|0:0,0:0:0:0:
492,80,137847,2,0,P|445:70|395:86,1,95,2|0,0:0|0:0,0:0:0:0:
361,6,138297,2,0,P|329:42|318:94,1,95,2|0,0:0|0:0,0:0:0:0:
367,171,138747,5,2,0:0:0:0:
209,139,139047,1,0,0:0:0:0:
318,87,139347,1,0,0:0:0:0:
288,228,139647,5,2,0:0:0:0:
272,149,139947,1,0,0:0:0:0:
256,70,140247,1,0,0:0:0:0:
371,168,140547,6,0,L|519:189,1,142.5,2|2,0:0|0:0,0:0:0:0:
455,112,141447,2,0,L|428:314,1,190,2|2,0:0|0:0,0:0:0:0:
324,270,142347,6,0,B|311:224|252:220|252:220|256:205|256:205|248:232|248:232|251:219|251:219|207:204|173:236|173:236|168:163|168:163|235:118|294:141|329:164,1,475
412,47,144147,6,0,P|459:37|509:53,2,95,2|2|2,0:0|0:0|0:0,0:0:0:0:
254,125,145047,2,0,P|301:135|351:119,1,95,2|0,0:0|0:0,0:0:0:0:
383,193,145497,2,0,P|416:158|427:106,1,95,2|0,0:0|0:0,0:0:0:0:
346,123,145947,5,2,0:0:0:0:
176,129,146247,1,0,0:0:0:0:
315,178,146547,1,0,0:0:0:0:
285,37,146847,5,2,0:0:0:0:
269,116,147147,1,0,0:0:0:0:
253,195,147447,1,0,0:0:0:0:
224,48,147747,6,0,P|179:36|133:46,2,95,2|2|2,0:0|0:0|0:0,0:0:0:0:
176,129,148647,2,0,L|149:331,1,190,2|2,0:0|0:0,0:0:0:0:
244,305,149547,2,0,B|226:238|262:164|262:164|321:213|321:213|303:248|314:278|314:278|386:281|386:281|377:247|403:189|403:189|366:153,1,475
192,149,151347,6,0,L|66:166,2,95,2|2|2,0:0|0:0|0:0,0:0:0:0:
383,220,152247,2,0,P|336:230|286:214,1,95,2|0,0:0|0:0,0:0:0:0:
250,294,152697,2,0,P|218:258|207:206,1,95,2|0,0:0|0:0,0:0:0:0:
256,129,153147,5,2,0:0:0:0:
98,161,153447,1,0,0:0:0:0:
207,213,153747,1,0,0:0:0:0:
162,68,154047,6,0,L|142:214,1,142.5
256,129,154947,6,0,L|359:115,2,95,2|2|2,0:0|0:0|0:0,0:0:0:0:
353,39,155847,2,0,P|421:88|394:178,1,190,2|0,0:0|0:0,0:0:0:0:
256,129,156747,2,0,B|202:110|162:143|115:167|60:149,1,190
417,100,157647,2,0,L|520:114,2,95,2|2|2,0:0|0:0|0:0,0:0:0:0:
251,173,158547,6,0,P|298:183|348:167,1,95,2|0,0:0|0:0,0:0:0:0:
386,246,158997,2,0,P|419:211|430:159,1,95,2|0,0:0|0:0,0:0:0:0:
343,171,159447,5,2,0:0:0:0:
178,176,159747,1,0,0:0:0:0:
318,231,160047,1,0,0:0:0:0:
292,61,160347,6,0,L|276:184,1,118.75,2|0,0:0|0:0,0:0:0:0:
232,16,161247,6,0,P|187:4|141:14,2,95,2|2|2,0:0|0:0|0:0,0:0:0:0:
184,97,162147,1,2,0:0:0:0:
256,192,162597,12,0,164847,0:0:0:0:
348,177,165747,6,0,P|283:192|213:169,1,142.500005435944,2|0,0:0|0:0,0:0:0:0:
175,267,166197,2,0,P|128:217|113:143,1,142.500005435944,2|0,0:0|0:0,0:0:0:0:
213,169,166647,5,2,0:0:0:0:
423,187,166947,1,0,0:0:0:0:
252,261,167247,1,0,0:0:0:0:
293,43,167547,2,0,L|317:228,1,178.12500679493,2|0,0:0|0:0,0:0:0:0:
293,43,168447,5,2,0:0:0:0:
276,166,168747,1,0,0:0:0:0:
261,287,169047,1,0,0:0:0:0:
164,156,169347,5,2,0:0:0:0:
256,192,169947,12,0,172647,0:0:0:0:
361,93,172947,6,0,P|408:157|378:238,1,170.999994781494,4|0,0:0|0:0,0:0:0:0:
329,171,173247,2,0,B|269:181|269:181|220:166|220:166|153:177,1,170.999994781494,2|0,0:0|0:0,0:0:0:0:
237,97,173547,2,2,L|273:322,1,227.999993041992
162,176,174147,5,2,0:0:0:0:
380,237,174447,1,0,0:0:0:0:
189,261,174747,2,0,P|111:249|75:171,1,170.999994781494,2|0,0:0|0:0,0:0:0:0:
162,176,175047,2,0,P|191:250|141:321,1,170.999994781494,2|0,0:0|0:0,0:0:0:0:
108,247,175347,2,0,P|158:186|244:194,1,170.999994781494,2|0,0:0|0:0,0:0:0:0:
143,320,175647,6,0,B|56:313|56:313|109:247,1,170.999994781494,2|0,0:0|0:0,0:0:0:0:
243,193,175947,2,0,B|271:276|271:276|181:260,1,170.999994781494,2|0,0:0|0:0,0:0:0:0:
75,173,176247,2,0,B|123:101|123:101|165:184,1,170.999994781494,2|0,0:0|0:0,0:0:0:0:
150,227,176547,5,4,0:0:0:0:
380,237,176847,5,0,0:0:0:0:
75,173,177147,1,0,0:0:0:0:
380,237,177447,1,0,0:0:0:0:
292,92,177747,5,4,0:0:0:0:
162,177,177897,1,4,0:0:0:0:
335,190,178047,5,4,0:0:0:0:
375,0,178197,1,4,0:0:0:0:
224,67,178347,6,0,B|164:77|164:77|115:62|115:62|48:73,1,170.999994781494,4|0,0:0|0:0,0:0:0:0:
12,3,178647,2,0,P|-17:80|31:147,1,170.999994781494,2|0,0:0|0:0,0:0:0:0:
105,173,178947,2,2,L|330:137,1,227.999993041992
224,67,179547,1,2,0:0:0:0:
173,262,179847,1,0,0:0:0:0:
372,216,180147,6,0,P|419:153|389:72,1,170.999994781494,2|0,0:0|0:0,0:0:0:0:
331,137,180447,2,0,P|363:210|449:225,1,170.999994781494,2|0,0:0|0:0,0:0:0:0:
420,149,180747,2,0,P|342:142|287:208,1,170.999994781494,2|0,0:0|0:0,0:0:0:0:
447,226,181047,6,0,B|504:160|504:160|420:151,1,170.999994781494,2|0,0:0|0:0,0:0:0:0:
286,207,181347,2,0,B|325:286|325:286|378:211,1,170.999994781494,2|0,0:0|0:0,0:0:0:0:
391,74,181647,2,0,B|307:58|307:58|336:146,1,170.999994781494,2|0,0:0|0:0,0:0:0:0:
376,165,181947,5,4,0:0:0:0:
57,72,182247,5,0,0:0:0:0:
122,298,182547,1,0,0:0:0:0:
288,190,182847,6,0,L|176:172,1,113.999996520996,2|0,0:0|0:0,0:0:0:0:
64,152,183147,1,2,0:0:0:0:
122,298,183297,1,4,0:0:0:0:
202,94,183447,1,4,0:0:0:0:
38,246,183597,1,4,0:0:0:0:
361,291,183747,6,0,P|408:227|378:146,1,170.999994781494,4|0,0:0|0:0,0:0:0:0:
276,169,184047,2,0,P|275:246|322:199,1,170.999994781494,2|0,0:0|0:0,0:0:0:0:
380,148,184347,2,2,L|155:112,1,227.999993041992
384,11,184947,5,2,0:0:0:0:
323,215,185247,1,0,0:0:0:0:
87,159,185547,6,0,P|151:113|232:143,1,170.999994781494,2|0,0:0|0:0,0:0:0:0:
167,201,185847,2,0,P|95:170|80:84,1,170.999994781494,2|0,0:0|0:0,0:0:0:0:
155,112,186147,2,0,P|163:191|97:246,1,170.999994781494,2|0,0:0|0:0,0:0:0:0:
78,85,186447,6,0,B|145:29|145:29|154:113,1,170.999994781494,2|0,0:0|0:0,0:0:0:0:
97,246,186747,2,0,B|19:208|19:208|94:155,1,170.999994781494,2|0,0:0|0:0,0:0:0:0:
230,141,187047,2,0,B|247:226|247:226|159:197,1,170.999994781494,2|0,0:0|0:0,0:0:0:0:
139,156,187347,5,4,0:0:0:0:
380,147,187647,5,0,0:0:0:0:
75,211,187947,1,0,0:0:0:0:
380,147,188247,1,0,0:0:0:0:
292,292,188547,5,4,0:0:0:0:
162,207,188697,1,4,0:0:0:0:
335,194,188847,5,4,0:0:0:0:
375,384,188997,1,4,0:0:0:0:
224,317,189147,6,0,B|164:307|164:307|115:322|115:322|48:311,1,170.999994781494,4|0,0:0|0:0,0:0:0:0:
12,381,189447,2,0,P|-17:304|31:237,1,170.999994781494,2|0,0:0|0:0,0:0:0:0:
105,211,189747,2,0,L|330:247,1,227.999993041992,2|0,0:0|0:0,0:0:0:0:
224,317,190347,1,2,0:0:0:0:
173,122,190647,1,0,0:0:0:0:
372,168,190947,6,0,P|419:232|389:313,1,170.999994781494,2|0,0:0|0:0,0:0:0:0:
331,247,191247,2,0,P|363:175|449:160,1,170.999994781494,2|0,0:0|0:0,0:0:0:0:
420,235,191547,2,0,P|342:243|287:177,1,170.999994781494,2|0,0:0|0:0,0:0:0:0:
447,158,191847,6,0,B|504:225|504:225|420:234,1,170.999994781494,2|0,0:0|0:0,0:0:0:0:
286,177,192147,2,0,B|325:99|325:99|378:174,1,170.999994781494,2|0,0:0|0:0,0:0:0:0:
391,310,192447,2,0,B|307:327|307:327|336:239,1,170.999994781494,2|0,0:0|0:0,0:0:0:0:
376,219,192747,5,4,0:0:0:0:
57,312,193047,5,0,0:0:0:0:
122,86,193347,1,0,0:0:0:0:
288,194,193647,6,0,L|176:212,1,113.999996520996,2|0,0:0|0:0,0:0:0:0:
64,232,193947,1,2,0:0:0:0:
122,86,194097,5,4,0:0:0:0:
202,290,194247,1,4,0:0:0:0:
38,138,194397,1,4,0:0:0:0:
339,99,194547,6,0,P|397:178|360:279,1,213.750008153916,4|0,0:0|0:0,0:0:0:0:
270,233,194847,6,0,P|268:161|305:234,1,213.750008153916,4|0,0:0|0:0,0:0:0:0:
289,196,195147,6,2,B|189:212|189:212|107:187|107:187|-3:205,1,285.000010871888,6|2,0:0|0:0,0:0:0:0:
294,293,195747,1,2,0:0:0:0:
187,26,196047,1,0,0:0:0:0:
36,319,196347,6,0,B|118:389|118:389|129:283,1,213.750008153916,2|0,0:0|0:0,0:0:0:0:
145,87,196647,2,0,B|52:132|52:132|140:196,1,213.750008153916,2|0,0:0|0:0,0:0:0:0:
292,323,196947,2,0,B|311:221|311:221|206:256,1,213.750008153916,2|0,0:0|0:0,0:0:0:0:
130,285,197247,6,0,P|189:337|289:270,1,213.750008153916,4|0,0:0|0:0,0:0:0:0:
142,197,197547,2,0,P|66:222|61:346,1,213.750008153916,4|0,0:0|0:0,0:0:0:0:
207,256,197847,2,0,P|226:176|126:113,1,213.750008153916,4|0,0:0|0:0,0:0:0:0:
163,246,198147,5,4,0:0:0:0:
393,272,198447,6,0,B|415:131,1,142.500005435944,2|0,0:0|0:0,0:0:0:0:
320,310,198747,2,0,P|385:353|464:319,1,142.500005435944,2|0,0:0|0:0,0:0:0:0:
323,227,199047,6,0,B|300:86,1,142.500005435944,2|0,0:0|0:0,0:0:0:0:
199,185,199347,5,4,0:0:0:0:
323,227,199497,1,4,0:0:0:0:
247,48,199647,5,4,0:0:0:0:
63,138,199797,1,4,0:0:0:0:
242,264,199947,6,0,B|382:241|382:241|421:181,1,213.750008153916,4|0,0:0|0:0,0:0:0:0:
333,169,200247,6,0,P|283:108|356:138,1,213.750008153916,2|0,0:0|0:0,0:0:0:0:
318,134,200547,6,0,B|218:150|218:150|136:125|136:125|39:141,1,285.000010871888,4|0,0:0|0:0,0:0:0:0:
261,335,201147,1,2,0:0:0:0:
353,24,201447,1,2,0:0:0:0:
94,82,201747,6,0,B|23:164|23:164|130:175,1,213.750008153916,2|0,0:0|0:0,0:0:0:0:
328,190,202047,2,0,B|283:97|283:97|219:185,1,213.750008153916,2|0,0:0|0:0,0:0:0:0:
92,337,202347,2,0,B|194:356|194:356|159:251,1,213.750008153916,2|0,0:0|0:0,0:0:0:0:
130,175,202647,6,0,P|78:234|145:334,1,213.750008153916,4|0,0:0|0:0,0:0:0:0:
218,187,202947,2,0,P|193:111|69:106,1,213.750008153916,4|0,0:0|0:0,0:0:0:0:
159,252,203247,2,0,P|239:271|302:171,1,213.750008153916,4|0,0:0|0:0,0:0:0:0:
169,208,203547,5,4,0:0:0:0:
443,164,203847,5,0,0:0:0:0:
261,335,204147,1,0,0:0:0:0:
182,121,204447,6,2,B|322:98,1,142.500005435944,4|2,0:0|0:0,0:0:0:0:
462,73,204747,1,0,0:0:0:0:
351,252,204897,5,2,0:0:0:0:
239,30,205047,1,4,0:0:0:0:
387,145,205197,1,4,0:0:0:0:
173,285,205347,6,0,P|115:206|152:105,1,213.750008153916,4|0,0:0|0:0,0:0:0:0:
242,151,205647,6,0,P|244:223|207:150,1,213.750008153916,2|0,0:0|0:0,0:0:0:0:
223,188,205947,6,0,B|323:172|323:172|405:197|405:197|515:179,1,285.000010871888,4|0,0:0|0:0,0:0:0:0:
218,91,206547,1,2,0:0:0:0:
325,358,206847,1,2,0:0:0:0:
503,183,207147,6,0,B|494:75|494:75|411:142,1,213.750008153916,2|0,0:0|0:0,0:0:0:0:
261,270,207447,2,0,B|358:303|358:303|341:196,1,213.750008153916,2|0,0:0|0:0,0:0:0:0:
324,0,207747,2,0,B|238:58|238:58|337:108,1,213.750008153916,2|0,0:0|0:0,0:0:0:0:
412,141,208047,6,0,P|407:62|288:39,1,213.750008153916,4|0,0:0|0:0,0:0:0:0:
341,195,208347,2,0,P|412:231|503:146,1,213.750008153916,4|0,0:0|0:0,0:0:0:0:
337,107,208647,2,0,P|266:150|293:265,1,213.750008153916,4|0,0:0|0:0,0:0:0:0:
361,145,208947,5,4,0:0:0:0:
119,112,209247,6,0,B|97:253,1,142.500005435944,2|0,0:0|0:0,0:0:0:0:
192,74,209547,2,0,P|127:31|48:65,1,142.500005435944,2|0,0:0|0:0,0:0:0:0:
189,157,209847,6,0,B|212:298,1,142.500005435944,2|0,0:0|0:0,0:0:0:0:
313,199,210147,5,4,0:0:0:0:
189,157,210297,1,4,0:0:0:0:
265,336,210447,5,4,0:0:0:0:
449,246,210597,1,4,0:0:0:0:
270,120,210747,6,0,B|130:143|130:143|91:203,1,213.750008153916,4|0,0:0|0:0,0:0:0:0:
179,215,211047,6,0,P|229:276|156:246,1,213.750008153916,2|0,0:0|0:0,0:0:0:0:
194,250,211347,6,0,B|294:234|294:234|376:259|376:259|473:243,1,285.000010871888,4|0,0:0|0:0,0:0:0:0:
251,49,211947,1,2,0:0:0:0:
159,360,212247,1,2,0:0:0:0:
472,243,212547,6,0,B|463:135|463:135|380:202,1,213.750008153916,2|0,0:0|0:0,0:0:0:0:
230,329,212847,2,0,B|327:362|327:362|310:255,1,213.750008153916,2|0,0:0|0:0,0:0:0:0:
293,59,213147,2,0,B|207:117|207:117|306:167,1,213.750008153916,2|0,0:0|0:0,0:0:0:0:
381,200,213447,6,0,P|376:121|257:98,1,213.750008153916,4|0,0:0|0:0,0:0:0:0:
310,254,213747,2,0,P|381:290|472:205,1,213.750008153916,4|0,0:0|0:0,0:0:0:0:
306,166,214047,2,0,P|235:209|262:324,1,213.750008153916,4|0,0:0|0:0,0:0:0:0:
330,204,214347,5,4,0:0:0:0:
69,220,214647,5,0,0:0:0:0:
251,49,214947,1,0,0:0:0:0:
330,263,215247,6,2,B|190:286,1,142.500005435944,4|2,0:0|0:0,0:0:0:0:
50,311,215547,1,0,0:0:0:0:
161,132,215697,5,2,0:0:0:0:
273,354,215847,1,4,0:0:0:0:
125,239,215997,1,4,0:0:0:0:
374,188,216147,6,0,B|514:165,1,118.75,6|0,0:0|0:0,0:0:0:0:
418,87,216447,1,0,0:0:0:0:
462,348,216597,1,4,0:0:0:0:
278,151,216747,6,0,B|138:128,1,118.75,6|0,0:0|0:0,0:0:0:0:
190,311,217047,1,4,0:0:0:0:
234,50,217197,1,0,0:0:0:0:
360,101,217347,6,0,B|500:78,1,118.75,6|0,0:0|0:0,0:0:0:0:
404,0,217647,1,0,0:0:0:0:
448,261,217797,1,4,0:0:0:0:
160,131,217947,5,4,0:0:0:0:
