osu file format v14

[General]
AudioFilename: audio.mp3
AudioLeadIn: 0
PreviewTime: 172947
Countdown: 0
SampleSet: Soft
StackLeniency: 0.3
Mode: 0
LetterboxInBreaks: 0
WidescreenStoryboard: 1

[Editor]
Bookmarks: 147,10947,16347,30747,45147,65847,81147,102747,108147,122547,136947,157647,172947,194547,216147,217947
DistanceSpacing: 1.3
BeatDivisor: 4
GridSize: 8
TimelineZoom: 1.5

[Metadata]
Title:Psalm dla Ciebie
TitleUnicode:Psalm dla Ciebie
Artist:Piotr Rubik, Malgorzata Markiewicz, Janusz Radek
ArtistUnicode:Piotr Rubik, MaƂgorzata Markiewicz, Janusz Radek
Creator:-NeBu-
Version:-Kyu's Pytam sie gwiazdy
Source:
Tags:piotr rubik malgorzata markiewicz janusz radek polish poland psalterz wrzesniowy 2006 CptSqBany [Red Panda] -NeBu- Chalwa Yusomi Piggey ReFaller Bubblun -Kyu Asrasz
BeatmapID:1301738
BeatmapSetID:586156

[Difficulty]
HPDrainRate:4
CircleSize:3
OverallDifficulty:4
ApproachRate:4
SliderMultiplier:1.00000000596046
SliderTickRate:1

[Events]
//Background and Video events
Video,-403,"zzzzzzzzzzzzzzzz.mp4"
0,0,"piotr-rubik-wejherowo.jpg",0,0
//Break Periods
2,102946,106827
//Storyboard Layer 0 (Background)
//Storyboard Layer 1 (Fail)
//Storyboard Layer 2 (Pass)
//Storyboard Layer 3 (Foreground)
//Storyboard Sound Samples

[TimingPoints]
147,600,6,2,0,50,1,0
50847,-100,6,2,0,15,0,0
52047,-100,6,2,0,50,0,0
81147,-66.6666666666667,6,2,2,50,0,1
102747,-100,6,2,2,50,0,0
108147,-100,6,2,0,50,0,0
172947,-66.6666666666667,6,2,2,50,0,1
194472,-100,6,2,2,50,0,0
194541,-66.6666666666667,6,2,2,50,0,1
199872,-66.6666666666667,6,2,2,50,0,0
199947,-66.6666666666667,6,2,2,50,0,1
205272,-66.6666666666667,6,2,2,50,0,0
205347,-66.6666666666667,6,2,2,50,0,1
210672,-66.6666666666667,6,2,2,50,0,0
210747,-66.6666666666667,6,2,2,50,0,1
216147,-66.6666666666667,6,2,2,50,0,0
217947,-66.6666666666667,6,2,2,50,0,1
218022,-66.6666666666667,6,2,2,50,0,0

[HitObjects]
65,52,16347,6,0,P|49:102|58:152,1,100.000000596046
149,238,17547,2,0,P|152:262|146:286,1,50.000000298023
124,347,18147,1,0,0:0:0:0:
292,266,19047,1,0,0:0:0:0:
345,303,19347,2,0,P|372:309|403:301,1,50.000000298023
445,266,19947,1,0,0:0:0:0:
224,26,21447,5,0,0:0:0:0:
177,71,21747,2,0,L|90:72,2,75.0000004470345
230,152,23097,1,0,0:0:0:0:
324,177,23547,1,0,0:0:0:0:
452,155,24447,6,0,P|455:179|449:203,1,50.000000298023
422,263,25047,2,0,P|416:287|419:311,1,50.000000298023
235,248,26247,1,0,0:0:0:0:
207,306,26547,1,0,0:0:0:0:
167,357,26847,2,0,L|96:355,1,50.000000298023
43,291,27597,1,0,0:0:0:0:
119,79,28947,2,0,P|180:66|231:87,1,100.000000596046
255,127,29847,2,0,P|316:140|367:119,1,100.000000596046
396,83,30747,5,0,0:0:0:0:
501,252,31947,1,0,0:0:0:0:
451,293,32247,2,0,L|345:291,1,100.000000596046
298,252,33147,1,0,0:0:0:0:
249,295,33447,2,0,L|247:366,1,50.000000298023
191,377,34047,1,0,0:0:0:0:
132,349,34347,2,0,L|83:347,1,50.000000298023
18,233,35247,6,0,P|14:208|20:184,2,50.000000298023
52,288,36147,1,0,0:0:0:0:
52,288,36447,1,0,0:0:0:0:
158,213,37047,6,0,P|163:188|159:164,1,50.000000298023
126,108,37647,2,0,P|120:83|124:59,1,50.000000298023
173,16,38247,1,0,0:0:0:0:
284,83,38847,1,0,0:0:0:0:
317,138,39147,2,0,L|319:209,1,50.000000298023
355,241,39747,2,0,L|353:312,1,50.000000298023
485,66,41247,5,0,0:0:0:0:
449,120,41547,2,0,L|450:207,2,75.0000004470345
256,192,42897,12,0,44547,0:0:0:0:
132,75,45147,5,0,0:0:0:0:
162,132,45447,2,0,L|160:203,1,50.000000298023
200,233,46047,2,0,P|237:223|284:236,1,75.0000004470345
335,304,46947,1,0,0:0:0:0:
295,355,47247,2,0,P|267:360|243:356,1,50.000000298023
188,325,47847,1,0,0:0:0:0:
127,348,48147,1,0,0:0:0:0:
69,317,48447,1,0,0:0:0:0:
33,262,48747,6,0,P|26:225|36:189,1,75.0000004470345
41,91,49647,2,0,P|85:53|104:129,1,150.000000894069
139,177,50847,1,0,0:0:0:0:
183,224,51147,2,0,P|211:229|235:225,1,50.000000298023
292,200,51747,2,0,P|320:195|344:199,1,50.000000298023
387,243,52347,6,0,L|389:314,1,50.000000298023
428,344,52947,1,0,0:0:0:0:
484,311,53247,2,0,L|482:236,1,75.0000004470345
427,155,54147,1,0,0:0:0:0:
373,117,54447,2,0,L|323:118,1,50.000000298023
274,162,55047,2,0,L|224:160,1,50.000000298023
169,125,55647,1,0,0:0:0:0:
121,169,55947,6,0,L|119:218,1,50.000000298023
100,280,56547,1,0,0:0:0:0:
148,322,56847,2,0,P|214:352|287:320,1,150.000000894069
332,283,58047,1,0,0:0:0:0:
388,314,58347,1,0,0:0:0:0:
449,294,58647,2,0,P|474:289|498:293,2,50.000000298023
388,314,59547,5,0,0:0:0:0:
332,283,59847,1,0,0:0:0:0:
318,219,60147,1,0,0:0:0:0:
339,157,60447,2,0,P|349:120|336:73,1,75.0000004470345
251,121,61347,1,0,0:0:0:0:
186,116,61647,1,0,0:0:0:0:
126,144,61947,1,0,0:0:0:0:
93,200,62247,2,0,P|86:236|96:272,1,75.0000004470345
165,341,63147,6,0,P|190:346|214:342,1,50.000000298023
262,310,63747,1,0,0:0:0:0:
317,275,64047,2,0,P|364:259|422:273,1,100.000000596046
468,301,64947,1,0,0:0:0:0:
391,121,65847,2,0,L|391:65,2,50.000000298023
342,164,66747,2,0,L|263:164,1,75.0000004470345
198,94,67647,5,0,0:0:0:0:
137,70,67947,1,0,0:0:0:0:
76,94,68247,1,0,0:0:0:0:
42,149,68547,2,0,L|42:228,1,75.0000004470345
100,301,69447,2,0,L|100:351,2,50.000000298023
147,255,70347,1,0,0:0:0:0:
234,298,70797,2,0,B|281:305|311:266|311:266|364:324|447:296,1,225.000001341103
440,104,73047,6,0,L|441:37,1,50.000000298023
394,8,73647,1,0,0:0:0:0:
348,54,73947,2,0,L|346:129,1,75.0000004470345
275,196,74847,6,0,L|208:195,1,50.000000298023
179,242,75447,1,0,0:0:0:0:
225,288,75747,2,0,L|300:290,1,75.0000004470345
370,358,76647,1,0,0:0:0:0:
434,362,76947,1,0,0:0:0:0:
486,323,77247,1,0,0:0:0:0:
508,262,77547,1,0,0:0:0:0:
256,192,77997,12,0,80247,0:0:0:0:
256,40,81147,5,4,0:0:0:0:
256,136,81447,2,0,L|256:232,1,75.0000033080576,0|8,0:0|0:0,0:0:0:0:
336,368,82347,1,0,0:0:0:0:
416,312,82647,1,0,0:0:0:0:
479,238,82947,2,0,P|487:193|479:164,1,75.0000033080576,4|0,0:0|0:0,0:0:0:0:
412,93,83547,1,8,0:0:0:0:
349,167,83847,2,0,P|341:203|349:239,1,75.0000033080576,4|0,0:0|0:0,0:0:0:0:
416,312,84447,1,8,0:0:0:0:
416,312,84747,1,4,0:0:0:0:
336,368,85047,6,0,L|261:368,1,75.0000033080576,8|2,0:0|0:0,0:0:0:0:
176,312,85647,1,2,0:0:0:0:
96,360,85947,1,2,0:0:0:0:
16,312,86247,1,2,0:0:0:0:
96,256,86547,6,0,L|96:181,1,75.0000033080576,4|0,0:0|0:0,0:0:0:0:
96,80,87147,1,8,0:0:0:0:
280,16,87747,2,0,P|316:8|352:16,1,75.0000033080576
424,80,88347,1,4,0:0:0:0:
352,144,88647,2,0,P|315:151|279:143,1,75.0000033080576,0|8,0:0|0:0,0:0:0:0:
202,82,89247,1,4,0:0:0:0:
104,79,89547,2,0,L|0:79,1,75.0000033080576,0|8,0:0|0:0,0:0:0:0:
96,256,90447,6,0,L|171:256,1,75.0000033080576,8|2,0:0|0:0,0:0:0:0:
248,311,91047,2,0,P|266:259|255:205,2,112.500004962086,2|2|12,0:0|0:0|0:0,0:0:0:0:
171,256,92247,1,0,0:0:0:0:
171,256,92547,1,8,0:0:0:0:
96,80,93147,6,0,L|96:5,1,75.0000033080576
184,56,93747,2,0,L|184:131,1,75.0000033080576,4|0,0:0|0:0,0:0:0:0:
255,205,94347,1,8,0:0:0:0:
320,128,94647,6,0,L|320:53,1,75.0000033080576,4|0,0:0|0:0,0:0:0:0:
400,0,95247,1,8,0:0:0:0:
496,168,95847,2,0,L|496:243,1,75.0000033080576,8|2,0:0|0:0,0:0:0:0:
424,304,96447,2,0,L|424:379,2,75.0000033080576,2|2|2,0:0|0:0|0:0,0:0:0:0:
343,247,97347,6,0,P|307:239|271:247,1,75.0000033080576,4|0,0:0|0:0,0:0:0:0:
192,304,97947,1,8,0:0:0:0:
0,344,98547,2,0,P|-8:307|0:271,1,75.0000033080576
48,184,99147,2,0,P|56:147|48:111,1,75.0000033080576,4|0,0:0|0:0,0:0:0:0:
8,24,99747,1,8,0:0:0:0:
104,48,100047,2,0,P|141:56|177:48,1,75.0000033080576,4|0,0:0|0:0,0:0:0:0:
272,24,100647,1,8,0:0:0:0:
448,112,101247,5,8,0:0:0:0:
376,176,101547,1,2,0:0:0:0:
304,240,101847,2,0,L|216:320,2,112.500004962086,2|2|2,0:0|0:0|0:0,0:0:0:0:
80,288,108147,5,0,0:0:0:0:
46,30,109347,2,0,P|70:24|94:27,1,50.000000298023
152,56,109947,2,0,P|176:61|200:58,1,50.000000298023
326,23,110847,1,0,0:0:0:0:
389,38,111147,1,0,0:0:0:0:
451,55,111447,1,0,0:0:0:0:
511,78,111747,2,0,L|512:128,1,50.000000298023
379,351,113247,5,0,0:0:0:0:
330,307,113547,2,0,L|329:230,1,75.0000004470345
259,176,114447,2,0,L|259:101,1,75.0000004470345
217,13,115347,1,0,0:0:0:0:
80,152,116247,6,0,L|79:222,1,50.000000298023
47,258,116847,1,0,0:0:0:0:
85,310,117147,2,0,L|155:311,1,50.000000298023
258,350,118047,1,0,0:0:0:0:
322,343,118347,1,0,0:0:0:0:
386,332,118647,1,0,0:0:0:0:
449,317,118947,2,0,L|448:240,1,75.0000004470345
317,55,120447,5,0,0:0:0:0:
268,99,120747,2,0,L|267:176,1,75.0000004470345
197,230,121647,2,0,L|197:305,1,75.0000004470345
122,368,122547,5,0,0:0:0:0:
33,123,123747,2,0,P|57:119|81:124,1,50.000000298023
137,157,124347,2,0,P|172:167|210:159,1,75.0000004470345
297,119,125247,1,0,0:0:0:0:
359,138,125547,1,0,0:0:0:0:
421,155,125847,1,0,0:0:0:0:
482,176,126147,2,0,P|489:212|479:248,1,75.0000004470345
415,321,127047,5,0,0:0:0:0:
353,302,127347,1,0,0:0:0:0:
291,285,127647,1,0,0:0:0:0:
229,263,127947,2,0,P|224:238|228:214,1,50.000000298023
297,119,128847,2,0,P|300:94|295:70,2,50.000000298023
241,153,129747,2,0,P|205:142|168:150,1,75.0000004470345
75,127,130647,6,0,P|70:151|74:176,1,50.000000298023
103,233,131247,1,0,0:0:0:0:
130,291,131547,2,0,P|137:327|127:363,1,75.0000004470345
75,127,133047,1,0,0:0:0:0:
130,83,133347,2,0,P|165:72|202:80,1,75.0000004470345
295,128,134247,1,0,0:0:0:0:
386,76,134697,2,0,P|506:94|388:121,1,325.000001937149
295,128,136947,6,0,P|294:154|303:180,1,50.000000298023
339,228,137547,1,0,0:0:0:0:
371,284,137847,2,0,P|378:312|371:361,1,75.0000004470345
281,322,138747,2,0,P|256:318|232:323,1,50.000000298023
180,362,139347,1,0,0:0:0:0:
127,323,139647,2,0,P|102:318|78:321,1,50.000000298023
24,358,140247,1,0,0:0:0:0:
1,297,140547,6,0,P|-5:260|2:223,1,75.0000004470345
52,140,141447,2,0,P|116:105|191:154,1,150.000000894069
216,190,142647,1,0,0:0:0:0:
280,189,142947,1,0,0:0:0:0:
326,143,143247,2,0,P|329:118|324:94,2,50.000000298023
280,189,144147,6,0,L|278:260,1,50.000000298023
301,299,144747,1,0,0:0:0:0:
342,348,145047,2,0,L|417:348,1,75.0000004470345
485,277,145947,6,0,L|486:227,1,50.000000298023
464,168,146547,1,0,0:0:0:0:
418,121,146847,2,0,L|368:119,1,50.000000298023
312,154,147447,1,0,0:0:0:0:
263,110,147747,2,0,L|264:60,2,50.000000298023
206,143,148647,6,0,B|173:142|142:117|142:117|159:160|139:210,1,150.000000894069
121,255,149847,1,0,0:0:0:0:
56,258,150147,1,0,0:0:0:0:
10,212,150447,2,0,P|6:187|11:163,1,50.000000298023
46,108,151047,1,0,0:0:0:0:
82,55,151347,6,0,P|86:30|83:6,2,50.000000298023
46,108,152247,1,0,0:0:0:0:
126,162,152697,1,0,0:0:0:0:
219,133,153147,2,0,P|243:128|268:132,1,50.000000298023
324,163,153747,1,0,0:0:0:0:
382,191,154047,1,0,0:0:0:0:
464,138,154497,1,0,0:0:0:0:
507,225,154947,6,0,L|506:275,1,50.000000298023
461,322,155547,1,0,0:0:0:0:
400,345,155847,2,0,P|351:353|304:337,1,100.000000596046
253,297,156747,1,0,0:0:0:0:
70,227,157647,6,0,P|45:223|21:228,2,50.000000298023
125,261,158547,1,0,0:0:0:0:
216,227,158997,1,0,0:0:0:0:
306,191,159447,2,0,L|306:135,2,50.000000298023
361,226,160347,1,0,0:0:0:0:
452,258,160797,1,0,0:0:0:0:
482,350,161247,6,0,P|457:353|433:348,1,50.000000298023
378,312,161847,1,0,0:0:0:0:
318,337,162147,1,0,0:0:0:0:
225,368,162597,2,0,B|215:324|228:297|228:297|179:329|179:329|128:295|71:338,1,225.000001341103
14,146,164847,5,0,0:0:0:0:
52,93,165147,2,0,L|52:37,1,50.000000298023
108,11,165747,2,0,L|183:13,1,75.0000004470345
248,85,166647,5,0,0:0:0:0:
210,138,166947,2,0,L|210:194,1,50.000000298023
154,220,167547,2,0,L|79:218,1,75.0000004470345
112,309,168447,2,0,L|162:309,1,50.000000298023
214,347,169047,1,0,0:0:0:0:
270,314,169347,1,0,0:0:0:0:
256,192,169797,12,0,172047,0:0:0:0:
256,344,172947,5,4,0:0:0:0:
256,248,173247,2,0,L|256:152,1,75.0000033080576,0|8,0:0|0:0,0:0:0:0:
336,16,174147,1,0,0:0:0:0:
416,72,174447,1,0,0:0:0:0:
479,146,174747,2,0,P|487:191|479:220,1,75.0000033080576,4|0,0:0|0:0,0:0:0:0:
412,291,175347,1,8,0:0:0:0:
349,217,175647,2,0,P|341:181|349:145,1,75.0000033080576,4|0,0:0|0:0,0:0:0:0:
416,72,176247,1,8,0:0:0:0:
416,72,176547,1,4,0:0:0:0:
336,16,176847,6,0,L|261:16,1,75.0000033080576,8|2,0:0|0:0,0:0:0:0:
176,72,177447,1,2,0:0:0:0:
96,24,177747,1,2,0:0:0:0:
16,72,178047,1,2,0:0:0:0:
96,128,178347,6,0,L|96:203,1,75.0000033080576,4|0,0:0|0:0,0:0:0:0:
96,304,178947,1,8,0:0:0:0:
280,368,179547,2,0,P|316:376|352:368,1,75.0000033080576
424,304,180147,1,4,0:0:0:0:
352,240,180447,2,0,P|315:233|279:241,1,75.0000033080576,0|8,0:0|0:0,0:0:0:0:
200,304,181047,1,4,0:0:0:0:
96,304,181347,2,0,L|-8:304,1,75.0000033080576,0|8,0:0|0:0,0:0:0:0:
96,128,182247,6,0,L|171:128,1,75.0000033080576,8|2,0:0|0:0,0:0:0:0:
248,73,182847,2,0,P|266:125|255:179,2,112.500004962086,2|2|6,0:0|0:0|0:0,0:0:0:0:
171,128,184047,1,0,0:0:0:0:
171,128,184347,1,8,0:0:0:0:
96,304,184947,6,0,L|96:379,1,75.0000033080576
184,328,185547,2,0,L|184:253,1,75.0000033080576,4|0,0:0|0:0,0:0:0:0:
255,179,186147,1,8,0:0:0:0:
320,256,186447,6,0,L|320:331,1,75.0000033080576,4|0,0:0|0:0,0:0:0:0:
400,384,187047,1,8,0:0:0:0:
496,216,187647,2,0,L|496:141,1,75.0000033080576,8|2,0:0|0:0,0:0:0:0:
424,80,188247,2,0,L|424:5,2,75.0000033080576,2|2|2,0:0|0:0|0:0,0:0:0:0:
344,136,189147,6,0,P|308:144|272:136,1,75.0000033080576,4|0,0:0|0:0,0:0:0:0:
192,80,189747,1,8,0:0:0:0:
0,48,190347,2,0,P|-8:85|0:121,1,75.0000033080576
48,200,190947,2,0,P|56:237|48:273,1,75.0000033080576,4|0,0:0|0:0,0:0:0:0:
8,360,191547,1,8,0:0:0:0:
104,336,191847,2,0,P|141:328|177:336,1,75.0000033080576,4|0,0:0|0:0,0:0:0:0:
272,360,192447,1,8,0:0:0:0:
448,272,193047,5,8,0:0:0:0:
376,208,193347,1,10,0:0:0:0:
304,144,193647,2,0,L|216:64,2,112.500004962086,2|2|6,0:0|0:0|0:0,0:0:0:0:
376,208,194847,5,0,0:0:0:0:
448,272,195147,1,8,0:0:0:0:
272,360,195747,5,0,0:0:0:0:
176,335,196047,2,0,P|140:327|104:336,1,75.0000033080576,0|4,0:0|0:0,0:0:0:0:
8,360,196647,1,0,0:0:0:0:
48,272,196947,2,0,P|56:236|48:200,1,75.0000033080576,8|4,0:0|0:0,0:0:0:0:
0,112,197547,2,0,P|-8:76|0:40,1,75.0000033080576,0|8,0:0|0:0,0:0:0:0:
192,80,198447,1,8,0:0:0:0:
271,135,198747,2,0,P|307:143|344:136,1,75.0000033080576,2|2,0:0|0:0,0:0:0:0:
424,80,199347,2,0,L|424:5,2,75.0000033080576,2|2|6,0:0|0:0|0:0,0:0:0:0:
496,141,200247,6,0,L|496:216,1,75.0000033080576,0|8,0:0|0:0,0:0:0:0:
400,384,201147,1,0,0:0:0:0:
320,331,201447,2,0,L|320:256,1,75.0000033080576,0|4,0:0|0:0,0:0:0:0:
255,179,202047,1,0,0:0:0:0:
184,253,202347,2,0,L|184:328,1,75.0000033080576,8|4,0:0|0:0,0:0:0:0:
96,379,202947,6,0,L|96:304,1,75.0000033080576,0|8,0:0|0:0,0:0:0:0:
171,128,203847,1,8,0:0:0:0:
171,128,204147,1,2,0:0:0:0:
254,179,204447,2,0,P|266:125|248:73,2,112.500004962086,2|2|6,0:0|0:0|0:0,0:0:0:0:
171,128,205647,2,0,L|96:128,1,75.0000033080576,0|8,0:0|0:0,0:0:0:0:
21,304,206548,2,0,L|96:304,1,75.0000033080576
200,304,207147,1,4,0:0:0:0:
279,240,207447,6,0,P|315:232|352:240,1,75.0000033080576,0|8,0:0|0:0,0:0:0:0:
424,304,208047,1,4,0:0:0:0:
352,367,208347,2,0,P|316:375|280:368,1,75.0000033080576,0|8,0:0|0:0,0:0:0:0:
96,304,209247,1,8,0:0:0:0:
96,203,209547,6,0,L|96:128,1,75.0000033080576,2|2,0:0|0:0,0:0:0:0:
16,72,210147,1,2,0:0:0:0:
96,24,210447,1,2,0:0:0:0:
176,72,210747,5,6,0:0:0:0:
261,16,211047,2,0,L|336:16,1,75.0000033080576,0|8,0:0|0:0,0:0:0:0:
416,72,211947,1,0,0:0:0:0:
349,144,212247,6,0,P|341:180|349:217,1,75.0000033080576,0|4,0:0|0:0,0:0:0:0:
412,291,212847,1,0,0:0:0:0:
479,218,213147,2,0,P|487:182|479:146,1,75.0000033080576,8|4,0:0|0:0,0:0:0:0:
416,72,213747,1,0,0:0:0:0:
336,16,214047,1,8,0:0:0:0:
256,173,214647,2,0,L|256:248,1,75.0000033080576,8|2,0:0|0:0,0:0:0:0:
256,344,215247,1,2,0:0:0:0:
136,256,215697,1,2,0:0:0:0:
256,173,216147,1,14,0:0:0:0:
256,192,216297,12,0,217947,0:0:0:0:
