osu file format v14

[General]
AudioFilename: audio.mp3
AudioLeadIn: 0
PreviewTime: 172947
Countdown: 0
SampleSet: Soft
StackLeniency: 0.5
Mode: 0
LetterboxInBreaks: 0
WidescreenStoryboard: 1

[Editor]
Bookmarks: 16347,30747,104547
DistanceSpacing: 3
BeatDivisor: 4
GridSize: 4
TimelineZoom: 1.5

[Metadata]
Title:Psalm dla Ciebie
TitleUnicode:Psalm dla Ciebie
Artist:Piotr Rubik, Malgorzata Markiewicz, Janusz Radek
ArtistUnicode:Piotr Rubik, Malgorzata Markiewicz, Janusz Radek
Creator:-NeBu-
Version:[Red Panda]'s Klawiszem stuka
Source:
Tags:piotr rubik malgorzata markiewicz janusz radek polish poland psalterz wrzesniowy 2006 CptSqBany [Red Panda] -NeBu- Chalwa Yusomi Piggey ReFaller Bubblun -Kyu Asrasz
BeatmapID:1295846
BeatmapSetID:586156

[Difficulty]
HPDrainRate:6
CircleSize:3.7
OverallDifficulty:8
ApproachRate:9.4
SliderMultiplier:1.50000000596046
SliderTickRate:1

[Events]
//Background and Video events
0,0,"rubik.png",0,0
Video,-403,"zzzzzzzzzzzzzzzz.mp4"
//Break Periods
//Storyboard Layer 0 (Background)
//Storyboard Layer 1 (Fail)
//Storyboard Layer 2 (Pass)
//Storyboard Layer 3 (Foreground)
//Storyboard Sound Samples

[TimingPoints]
147,600,4,2,2,25,1,0
16347,-200,4,2,2,25,0,0
45147,300,4,2,2,55,1,0
45147,-133.333333333333,4,2,2,55,0,0
59547,-117.647058823529,4,2,2,55,0,0
81147,-83.3333333333333,4,2,2,55,0,1
102747,600,4,2,2,50,1,0
102747,-125,4,2,2,50,0,0
104547,-200,4,2,2,50,0,0
108147,-200,4,2,2,50,0,0
136947,300,4,2,2,50,1,0
136947,-133.333333333333,4,2,2,50,0,0
151347,-117.647058823529,4,2,2,50,0,0
172947,-83.3333333333333,4,2,2,50,0,1
194547,-76.9230769230769,4,2,2,50,0,1
217947,-200,4,2,2,50,0,0

[Colours]
Combo1 : 96,60,36
Combo2 : 0,202,0
Combo3 : 202,171,79
Combo4 : 104,119,223

[HitObjects]
96,112,16347,6,0,L|144:140,1,56.2500002235172
192,184,16947,1,0,0:0:0:0:
240,308,17247,1,0,0:0:0:0:
336,224,17547,2,0,L|336:200,1,18.7500000745057
336,224,17847,2,0,L|358:201,1,18.7500000745057
336,224,18147,2,0,L|368:224,1,18.7500000745057
336,224,18447,2,0,P|356:232|369:257,1,37.5000001490115
464,328,19047,6,0,L|432:328,1,18.7500000745057
464,328,19347,2,0,L|441:305,1,18.7500000745057
464,328,19647,2,0,P|456:304|464:280,2,37.5000001490115
376,228,20547,1,0,0:0:0:0:
464,132,20847,1,0,0:0:0:0:
508,256,21147,1,0,0:0:0:0:
384,296,21447,2,0,L|356:284,1,18.7500000745057
384,296,21747,6,0,L|360:248,1,37.5000001490115
384,296,22197,2,0,L|400:245,1,37.5000001490115
384,296,22647,2,0,L|432:272,1,37.5000001490115
417,279,23097,2,0,L|467:295,1,37.5000001490115
452,290,23547,5,0,0:0:0:0:
328,336,23847,1,0,0:0:0:0:
276,296,23997,1,0,0:0:0:0:
268,232,24147,1,0,0:0:0:0:
316,108,24447,6,0,L|344:88,1,18.7500000745057
316,108,24747,2,0,L|349:113,1,18.7500000745057
316,108,25047,2,0,L|336:135,1,18.7500000745057
316,108,25347,2,0,L|310:141,1,18.7500000745057
316,108,25647,2,0,L|272:140,1,37.5000001490115
176,204,26247,6,0,L|204:184,1,18.7500000745057
176,204,26547,2,0,L|181:170,1,18.7500000745057
176,204,26847,2,0,L|156:175,1,18.7500000745057
176,204,27147,2,0,L|122:195,1,37.5000001490115
138,198,27597,2,0,L|106:217,1,37.5000001490115
60,268,28047,1,0,0:0:0:0:
156,328,28347,1,0,0:0:0:0:
192,200,28647,1,0,0:0:0:0:
240,156,28797,1,0,0:0:0:0:
304,152,28947,6,0,L|344:168,1,37.5000001490115
338,165,29397,1,0,0:0:0:0:
372,220,29547,1,0,0:0:0:0:
364,284,29697,1,0,0:0:0:0:
312,320,29847,2,0,L|272:336,1,37.5000001490115
312,320,30297,2,0,L|272:303,1,37.5000001490115
277,333,30747,6,0,L|224:364,1,56.2500002235172
228,361,31347,1,0,0:0:0:0:
172,352,31497,1,0,0:0:0:0:
140,304,31647,1,0,0:0:0:0:
164,252,31797,1,0,0:0:0:0:
212,220,31947,6,0,L|240:216,1,18.7500000745057
212,220,32247,2,0,L|228:197,1,18.7500000745057
223,205,32547,1,0,0:0:0:0:
228,148,32697,1,0,0:0:0:0:
208,96,32847,2,0,L|200:68,1,18.7500000745057
208,96,33147,2,0,L|182:81,1,18.7500000745057
208,96,33447,6,0,L|180:104,1,18.7500000745057
208,96,33747,2,0,L|193:121,1,18.7500000745057
208,96,34047,2,0,L|216:124,1,18.7500000745057
208,96,34347,2,0,L|233:110,1,18.7500000745057
208,96,34647,2,0,L|248:84,1,37.5000001490115
243,85,35097,1,0,0:0:0:0:
292,116,35247,6,0,L|312:136,1,18.7500000745057
292,116,35547,2,0,L|292:144,1,18.7500000745057,0|0,0:3|0:3,0:3:0:0:
292,116,35847,2,0,L|272:136,1,18.7500000745057,0|0,0:3|0:3,0:3:0:0:
292,116,36147,2,0,L|263:116,1,18.7500000745057,0|0,0:3|0:3,0:3:0:0:
292,116,36447,2,0,L|255:79,1,37.5000001490115,0|0,0:3|0:3,0:3:0:0:
265,89,36897,1,0,0:0:0:0:
204,80,37047,6,0,L|180:88,1,18.7500000745057
204,80,37347,2,0,L|192:102,1,18.7500000745057
204,80,37647,2,0,L|212:103,1,18.7500000745057
204,80,37947,2,0,L|226:91,1,18.7500000745057
220,88,38247,1,0,0:0:0:0:
264,128,38397,1,0,0:0:0:0:
264,184,38547,1,0,0:0:0:0:
220,220,38697,1,0,0:0:0:0:
192,268,38847,5,0,0:0:0:0:
184,324,38997,1,0,0:0:0:0:
237,307,39147,1,0,0:0:0:0:
237,250,39297,1,0,0:0:0:0:
184,233,39447,1,0,0:0:0:0:
151,278,39597,1,0,0:0:0:0:
100,304,39747,6,0,L|76:324,1,18.7500000745057
100,304,40047,2,0,L|68:301,1,18.7500000745057
81,302,40347,1,0,0:0:0:0:
48,256,40497,1,0,0:0:0:0:
76,208,40647,1,0,0:0:0:0:
68,152,40797,1,0,0:0:0:0:
100,104,40947,1,0,0:0:0:0:
152,128,41097,1,0,0:0:0:0:
204,104,41247,2,0,L|236:88,1,18.7500000745057
204,104,41547,6,0,L|244:120,1,37.5000001490115
204,104,41997,2,0,L|228:144,1,37.5000001490115
204,104,42447,2,0,L|192:149,1,37.5000001490115
256,192,42897,12,0,44997,0:0:0:0:
348,248,45147,6,0,L|276:224,1,56.2500023692846,2|0,0:0|0:0,0:0:0:0:
144,152,45447,1,0,0:0:0:0:
232,296,45597,1,0,0:0:0:0:
66,283,45747,1,0,0:0:0:0:
130,121,45898,5,0,0:0:0:0:
207,128,46048,2,2,P|207:156|202:183,1,56.2500023692846
178,54,46347,1,0,0:0:0:0:
46,209,46498,2,0,P|21:220|2:241,1,56.2500023692846
119,251,46797,1,0,0:0:0:0:
275,121,46947,6,0,P|270:145|254:173,1,56.2500023692846,2|0,0:0|0:0,0:0:0:0:
161,320,47247,1,0,0:0:0:0:
306,224,47397,1,0,0:0:0:0:
140,168,47547,2,0,P|166:189|190:199,1,56.2500023692846
360,180,47847,1,2,0:0:0:0:
199,121,47997,1,0,0:0:0:0:
292,268,48147,1,0,0:0:0:0:
245,140,48297,1,0,0:0:0:0:
266,311,48447,1,0,0:0:0:0:
294,179,48597,1,0,0:0:0:0:
200,325,48747,6,2,P|203:289|215:264,1,56.2500023692846
336,148,49047,1,0,0:0:0:0:
163,170,49197,1,0,0:0:0:0:
300,277,49347,1,0,0:0:0:0:
257,108,49497,1,0,0:0:0:0:
158,251,49647,6,2,P|190:244|225:223,1,56.2500023692846
349,127,49947,1,0,0:0:0:0:
184,70,50097,1,0,0:0:0:0:
288,209,50247,1,0,0:0:0:0:
312,36,50397,1,0,0:0:0:0:
219,183,50547,6,2,P|235:156|260:140,1,56.2500023692846
426,111,50847,1,0,0:0:0:0:
350,268,50997,1,0,0:0:0:0:
329,94,51147,2,0,P|339:121|341:150,1,56.2500023692846
292,309,51447,1,2,0:0:0:0:
195,170,51597,1,0,0:0:0:0:
119,345,51747,1,0,0:0:0:0:
279,240,51897,1,0,0:0:0:0:
73,182,52047,1,0,0:0:0:0:
230,326,52197,1,0,0:0:0:0:
195,160,52347,6,2,L|253:176,1,56.2500023692846
395,259,52647,1,0,0:0:0:0:
318,108,52797,1,0,0:0:0:0:
453,208,52947,2,0,P|420:188|379:180,1,56.2500023692846
213,200,53247,6,2,L|265:220,1,56.2500023692846
318,108,53547,1,0,0:0:0:0:
356,308,53696,1,0,0:0:0:0:
413,104,53847,1,0,0:0:0:0:
425,274,53997,1,0,0:0:0:0:
500,112,54147,6,2,P|510:136|509:168,1,56.2500023692846
356,297,54447,1,0,0:0:0:0:
303,136,54597,1,0,0:0:0:0:
306,242,54747,2,0,L|269:285,1,56.2500023692846
433,242,55046,1,2,0:0:0:0:
429,125,55197,1,0,0:0:0:0:
275,54,55347,2,0,L|327:91,1,56.2500023692846
449,196,55647,1,0,0:0:0:0:
285,155,55797,1,0,0:0:0:0:
373,298,55947,6,2,L|329:235,1,56.2500023692846
282,93,56247,1,0,0:0:0:0:
411,201,56397,1,0,0:0:0:0:
242,216,56547,2,0,L|298:188,1,56.2500023692846
429,90,56847,6,2,L|359:119,1,56.2500023692846
213,157,57147,1,0,0:0:0:0:
345,262,57297,1,0,0:0:0:0:
300,99,57447,1,0,0:0:0:0:
192,229,57597,1,0,0:0:0:0:
353,178,57747,6,2,L|282:221,1,56.2500023692846
163,298,58047,1,0,0:0:0:0:
255,143,58197,1,0,0:0:0:0:
304,304,58347,1,0,0:0:0:0:
170,201,58497,1,0,0:0:0:0:
295,88,58647,5,2,0:0:0:0:
383,231,58797,1,0,0:0:0:0:
220,275,58947,1,2,0:0:0:0:
328,145,59097,1,0,0:0:0:0:
278,306,59247,1,2,0:0:0:0:
208,152,59397,1,0,0:0:0:0:
342,287,59547,6,2,P|321:256|275:237,1,63.7500014692543
144,129,59847,1,0,0:0:0:0:
111,317,59997,1,0,0:0:0:0:
254,190,60147,2,0,L|200:238,1,63.7500014692543
42,332,60447,5,2,0:0:0:0:
69,142,60597,1,0,0:0:0:0:
219,260,60747,1,0,0:0:0:0:
31,220,60897,2,0,L|105:209,1,63.7500014692543
286,214,61197,1,0,0:0:0:0:
120,309,61347,6,2,L|191:290,1,63.7500014692543
359,223,61647,1,0,0:0:0:0:
227,362,61797,1,0,0:0:0:0:
121,202,61947,2,0,L|188:232,1,63.7500014692543
340,332,62247,5,2,0:0:0:0:
152,292,62397,1,0,0:0:0:0:
274,144,62547,1,0,0:0:0:0:
231,330,62697,1,0,0:0:0:0:
198,193,62847,2,0,L|153:148,1,63.7500014692543
0,229,63147,6,2,L|44:275,1,63.7500014692543
145,320,63447,2,0,L|191:275,1,63.7500014692543
90,104,63747,2,0,L|45:150,1,63.7500014692543
52,347,64047,5,2,0:0:0:0:
241,291,64197,1,0,0:0:0:0:
92,160,64347,1,0,0:0:0:0:
148,349,64497,1,0,0:0:0:0:
264,189,64647,1,0,0:0:0:0:
99,298,64797,1,0,0:0:0:0:
290,347,64947,5,2,0:0:0:0:
193,174,65097,1,0,0:0:0:0:
127,360,65247,1,0,0:0:0:0:
305,274,65397,1,0,0:0:0:0:
192,111,65547,1,0,0:0:0:0:
241,302,65697,1,0,0:0:0:0:
401,186,65847,6,2,L|343:234,1,63.7500014692543
166,294,66147,2,0,L|189:217,1,63.7500014692543
242,44,66447,2,0,L|282:96,1,63.7500014692543
399,254,66747,5,2,0:0:0:0:
222,165,66897,1,0,0:0:0:0:
370,34,67047,1,0,0:0:0:0:
338,229,67197,1,0,0:0:0:0:
214,74,67347,2,0,L|274:108,1,63.7500014692543
436,208,67647,5,2,0:0:0:0:
271,314,67797,1,0,0:0:0:0:
340,129,67947,1,0,0:0:0:0:
456,288,68097,1,0,0:0:0:0:
271,216,68247,1,0,0:0:0:0:
422,89,68397,1,0,0:0:0:0:
327,262,68547,6,2,L|303:180,1,63.7500014692543
239,14,68847,1,0,0:0:0:0:
383,148,68997,1,0,0:0:0:0:
215,252,69147,2,0,L|239:170,1,63.7500014692543
377,53,69447,6,2,L|395:126,1,63.7500014692543
433,299,69747,2,0,L|361:281,1,63.7500014692543
180,230,70047,2,0,L|226:162,1,63.7500014692543
364,46,70347,1,2,0:0:0:0:
279,224,70497,1,0,0:0:0:0:
151,73,70647,1,0,0:0:0:0:
344,115,70797,6,0,L|266:139,1,63.7500014692543
91,188,71097,1,0,0:0:0:0:
303,29,71247,1,2,0:0:0:0:
178,181,71397,1,0,0:0:0:0:
245,44,71547,1,0,0:0:0:0:
196,234,71697,1,0,0:0:0:0:
202,82,71847,1,0,0:0:0:0:
238,274,71997,1,0,0:0:0:0:
122,113,72147,5,2,0:0:0:0:
316,146,72297,1,0,0:0:0:0:
147,42,72447,1,0,0:0:0:0:
167,238,72597,1,0,0:0:0:0:
262,64,72747,2,0,L|239:139,1,63.7500014692543
189,316,73047,6,2,L|155:251,1,63.7500014692543
109,68,73347,2,0,L|180:75,1,63.7500014692543
369,99,73647,2,0,L|328:152,1,63.7500014692543
194,294,73947,5,2,0:0:0:0:
182,96,74097,1,0,0:0:0:0:
352,196,74247,1,0,0:0:0:0:
274,148,74397,2,0,L|295:88,1,63.7500014692543
157,230,74697,1,0,0:0:0:0:
219,338,74847,5,2,0:0:0:0:
81,195,74997,1,0,0:0:0:0:
276,222,75147,1,0,0:0:0:0:
139,364,75297,1,0,0:0:0:0:
141,166,75447,2,0,L|179:228,1,63.7500014692543
295,377,75747,6,2,L|214:366,1,63.7500014692543
150,105,76047,1,0,0:0:0:0:
58,281,76198,2,0,L|36:341,1,63.7500014692543
262,267,76497,1,0,0:0:0:0:
77,196,76647,5,2,0:0:0:0:
216,55,76797,1,0,0:0:0:0:
199,251,76947,1,2,0:0:0:0:
59,111,77097,1,0,0:0:0:0:
256,123,77247,1,2,0:0:0:0:
196,311,77397,1,0,0:0:0:0:
38,192,77547,6,2,L|110:198,1,63.7500014692543
300,210,77847,1,0,0:0:0:0:
200,380,77997,1,0,0:0:0:0:
121,198,78147,6,0,L|177:261,1,63.7500014692543
318,370,78447,1,2,0:0:0:0:
364,177,78597,1,0,0:0:0:0:
209,299,78747,1,0,0:0:0:0:
405,281,78897,1,0,0:0:0:0:
298,114,79047,1,0,0:0:0:0:
301,311,79197,1,0,0:0:0:0:
459,192,79347,6,2,L|408:129,1,63.7500014692543
266,16,79647,1,0,0:0:0:0:
189,198,79797,1,0,0:0:0:0:
360,99,79947,1,0,0:0:0:0:
170,41,80097,1,0,0:0:0:0:
253,219,80247,5,2,0:0:0:0:
424,121,80397,1,0,0:0:0:0:
226,132,80547,5,2,0:0:0:0:
322,304,80697,1,0,0:0:0:0:
474,178,80847,5,2,0:0:0:0:
294,95,80997,1,0,0:0:0:0:
463,316,81147,6,2,L|424:223,1,89.9999976110456
267,4,81447,1,0,0:0:0:0:
149,257,81597,1,0,0:0:0:0:
404,145,81747,2,2,L|280:138,1,89.9999976110456
35,126,82047,1,0,0:0:0:0:
249,304,82197,1,0,0:0:0:0:
346,42,82347,1,8,0:0:0:0:
103,180,82497,1,0,0:0:0:0:
366,270,82647,1,8,0:0:0:0:
256,13,82797,1,0,0:0:0:0:
138,266,82947,6,2,L|226:246,1,89.9999976110456
504,232,83247,2,2,L|432:172,1,89.9999976110456
202,20,83547,2,2,L|185:115,1,89.9999976110456
134,382,83847,2,2,L|239:354,1,89.9999976110456
494,304,84147,2,2,L|400:218,1,89.9999976110456
246,31,84447,2,2,L|180:107,1,89.9999976110456
26,327,84747,5,0,0:0:0:0:
302,293,84897,1,0,0:0:0:0:
132,71,85047,1,8,0:0:0:0:
229,332,85197,1,0,0:0:0:0:
406,116,85347,2,0,L|288:81,1,89.9999976110456
46,32,85647,5,12,0:0:0:0:
109,303,85797,1,0,0:0:0:0:
250,62,85947,1,12,0:0:0:0:
201,336,86097,1,0,0:0:0:0:
97,76,86247,1,12,0:0:0:0:
341,209,86397,1,0,0:0:0:0:
62,221,86547,5,12,0:0:0:0:
251,15,86697,1,0,0:0:0:0:
287,291,86847,1,12,0:0:0:0:
86,96,86997,1,0,0:0:0:0:
363,63,87147,2,2,L|279:130,1,89.9999976110456
71,292,87447,1,0,0:0:0:0:
154,25,87597,1,0,0:0:0:0:
375,195,87747,5,8,0:0:0:0:
100,142,87897,1,0,0:0:0:0:
361,45,88047,5,8,0:0:0:0:
335,322,88197,1,0,0:0:0:0:
197,79,88347,6,2,L|253:169,1,89.9999976110456
417,374,88647,1,0,0:0:0:0:
482,102,88797,1,0,0:0:0:0:
207,150,88947,1,8,0:0:0:0:
483,188,89097,1,0,0:0:0:0:
258,21,89247,5,8,0:0:0:0:
158,281,89397,1,0,0:0:0:0:
434,321,89547,2,2,L|350:247,1,89.9999976110456
156,77,89847,1,0,0:0:0:0:
412,187,89997,1,0,0:0:0:0:
140,251,90147,1,0,0:0:0:0:
359,78,90297,1,0,0:0:0:0:
83,36,90447,6,2,L|165:89,1,89.9999976110456
398,230,90747,2,2,L|274:231,1,89.9999976110456
29,219,91047,6,2,L|121:160,1,89.9999976110456
359,55,91347,1,0,0:0:0:0:
250,311,91497,1,0,0:0:0:0:
61,105,91647,1,8,0:0:0:0:
337,141,91797,1,0,0:0:0:0:
85,262,91947,6,2,L|173:214,1,89.9999976110456
417,97,92247,1,0,0:0:0:0:
142,49,92397,1,0,0:0:0:0:
214,318,92547,1,8,0:0:0:0:
438,153,92697,1,0,0:0:0:0:
161,190,92847,1,0,0:0:0:0:
404,325,92997,1,0,0:0:0:0:
361,49,93147,6,2,L|299:143,1,89.9999976110456
176,368,93447,1,0,0:0:0:0:
405,208,93597,1,0,0:0:0:0:
184,36,93747,5,8,0:0:0:0:
238,309,93897,1,0,0:0:0:0:
431,108,94047,1,8,0:0:0:0:
152,94,94197,1,0,0:0:0:0:
335,303,94347,2,2,L|273:223,1,89.9999976110456
118,4,94647,2,2,L|117:106,1,89.9999976110456
138,374,94947,1,0,0:0:0:0:
391,257,95097,1,0,0:0:0:0:
189,64,95247,1,8,0:0:0:0:
276,329,95397,1,0,0:0:0:0:
388,73,95547,1,8,0:0:0:0:
321,343,95697,1,0,0:0:0:0:
134,135,95847,5,12,0:0:0:0:
386,254,95997,1,0,0:0:0:0:
111,204,96147,5,12,0:0:0:0:
320,19,96297,1,0,0:0:0:0:
245,287,96447,5,12,0:0:0:0:
123,35,96597,1,0,0:0:0:0:
399,75,96747,6,2,L|340:155,1,89.9999976110456,0|0,0:0|0:0,0:0:0:0:
126,323,97047,1,0,0:0:0:0:
201,54,97197,1,0,0:0:0:0:
353,287,97347,6,2,L|262:260,1,89.9999976110456,0|0,0:0|0:0,0:0:0:0:
19,127,97647,1,0,0:0:0:0:
286,48,97797,1,0,0:0:0:0:
258,325,97947,2,2,L|206:238,1,89.9999976110456
64,8,98247,1,0,0:0:0:0:
317,124,98397,1,0,0:0:0:0:
63,239,98547,5,12,0:0:0:0:
252,33,98697,1,0,0:0:0:0:
324,302,98847,1,12,0:0:0:0:
77,172,98997,1,0,0:0:0:0:
334,64,99147,6,2,L|269:171,1,89.9999976110456
125,368,99447,1,0,0:0:0:0:
134,89,99597,1,0,0:0:0:0:
402,163,99747,2,2,L|323:219,1,89.9999976110456
68,316,100047,6,2,L|123:244,1,89.9999976110456
308,36,100347,1,8,0:0:0:0:
53,151,100497,1,0,0:0:0:0:
313,249,100647,1,8,0:0:0:0:
145,25,100797,1,0,0:0:0:0:
95,299,100947,1,8,0:0:0:0:
342,170,101097,1,0,0:0:0:0:
86,58,101247,6,2,L|132:143,1,89.9999976110456
300,356,101547,2,2,L|335:245,1,89.9999976110456
432,11,101847,6,6,L|307:58,1,89.9999976110456
84,140,102147,1,8,0:0:0:0:
236,373,102297,1,4,0:0:0:0:
225,94,102447,1,12,0:0:0:0:
32,296,102597,1,0,0:0:0:0:
112,268,102747,6,2,B|153:251|163:218|163:218|185:236|214:247|214:247|238:207|318:167|343:238|278:287|221:196|230:135,1,356.250001415609
204,76,104847,5,0,0:0:0:0:
152,52,104997,1,0,0:0:0:0:
108,88,105147,1,0,0:0:0:0:
129,140,105297,1,0,0:0:0:0:
87,177,105447,1,0,0:0:0:0:
38,148,105597,1,0,0:0:0:0:
51,93,105747,1,0,0:0:0:0:
88,136,105897,1,0,0:0:0:0:
80,192,106047,1,0,0:0:0:0:
104,244,106197,1,0,0:0:0:0:
160,232,106347,5,0,0:0:0:0:
192,184,106497,1,0,0:0:0:0:
207,129,106647,1,0,0:0:0:0:
263,126,106797,1,0,0:0:0:0:
283,179,106947,1,0,0:0:0:0:
239,214,107097,1,0,0:0:0:0:
224,160,107247,5,0,0:0:0:0:
240,104,107397,1,0,0:0:0:0:
288,75,107547,1,0,0:0:0:0:
338,51,107697,1,0,0:0:0:0:
364,100,107847,1,0,0:0:0:0:
332,146,107997,1,0,0:0:0:0:
289,182,108147,6,0,L|249:216,1,37.5000001490115
216,242,108597,1,0,0:0:0:0:
163,222,108747,2,0,L|132:182,1,37.5000001490115
114,141,109197,1,0,0:0:0:0:
133,88,109347,1,0,0:0:0:0:
190,78,109497,1,0,0:0:0:0:
208,133,109647,1,0,0:0:0:0:
206,191,109797,1,0,0:0:0:0:
261,211,109947,5,0,0:0:0:0:
297,166,110097,1,0,0:0:0:0:
264,117,110247,1,0,0:0:0:0:
234,167,110397,1,0,0:0:0:0:
199,213,110547,1,0,0:0:0:0:
194,270,110697,1,0,0:0:0:0:
178,326,110847,1,0,0:0:0:0:
119,328,110997,1,0,0:0:0:0:
99,273,111147,1,0,0:0:0:0:
145,238,111297,1,0,0:0:0:0:
154,295,111447,1,0,0:0:0:0:
108,258,111597,1,0,0:0:0:0:
100,200,111747,6,0,L|102:165,1,18.7500000745057
100,200,112047,2,0,L|156:176,1,56.2500002235172
205,155,112647,1,0,0:0:0:0:
255,183,112797,1,0,0:0:0:0:
239,238,112947,1,0,0:0:0:0:
266,289,113097,1,0,0:0:0:0:
208,289,113247,1,0,0:0:0:0:
179,238,113397,1,0,0:0:0:0:
208,188,113547,5,0,0:0:0:0:
266,188,113697,1,0,0:0:0:0:
295,238,113847,1,0,0:0:0:0:
319,290,113997,1,0,0:0:0:0:
367,321,114147,1,0,0:0:0:0:
420,297,114297,1,0,0:0:0:0:
406,240,114447,5,0,0:0:0:0:
461,258,114597,1,0,0:0:0:0:
461,316,114747,1,0,0:0:0:0:
406,334,114897,1,0,0:0:0:0:
371,287,115047,1,0,0:0:0:0:
317,265,115197,1,0,0:0:0:0:
259,270,115347,5,0,0:0:0:0:
217,229,115497,1,0,0:0:0:0:
245,191,115647,1,0,0:0:0:0:
189,174,115797,1,0,0:0:0:0:
189,115,115947,1,0,0:0:0:0:
245,97,116097,1,0,0:0:0:0:
279,144,116247,6,0,L|293:171,1,18.7500000745057
279,144,116547,2,0,L|269:172,1,18.7500000745057
240,210,116847,1,0,0:0:0:0:
249,267,116997,1,0,0:0:0:0:
194,249,117147,1,0,0:0:0:0:
194,191,117297,1,0,0:0:0:0:
249,173,117447,1,0,0:0:0:0:
283,220,117597,1,0,0:0:0:0:
339,204,117747,1,0,0:0:0:0:
355,148,117897,1,0,0:0:0:0:
318,103,118047,6,0,L|313:78,1,18.7500000745057
318,103,118347,2,0,L|297:89,1,18.7500000745057
318,103,118647,2,0,L|293:107,1,18.7500000745057
245,128,118947,5,0,0:0:0:0:
256,174,119097,1,0,0:0:0:0:
201,156,119247,1,0,0:0:0:0:
201,98,119397,1,0,0:0:0:0:
256,80,119547,1,0,0:0:0:0:
290,127,119697,1,0,0:0:0:0:
245,128,119847,1,0,0:0:0:0:
196,96,119997,1,0,0:0:0:0:
140,113,120147,1,0,0:0:0:0:
102,157,120297,1,0,0:0:0:0:
120,212,120447,2,0,L|105:242,1,18.7500000745057
120,212,120747,6,0,L|135:257,1,37.5000001490115
120,212,121197,2,0,L|150:226,1,18.7500000745057
193,232,121497,1,0,0:0:0:0:
243,202,121647,1,0,0:0:0:0:
258,258,121797,1,0,0:0:0:0:
202,240,121947,1,0,0:0:0:0:
202,182,122097,1,0,0:0:0:0:
258,164,122247,1,0,0:0:0:0:
292,211,122397,1,0,0:0:0:0:
259,259,122547,6,0,L|231:277,1,18.7500000745057
186,254,122847,1,0,0:0:0:0:
146,211,122997,1,0,0:0:0:0:
87,208,123147,1,0,0:0:0:0:
37,238,123297,1,0,0:0:0:0:
14,291,123447,1,0,0:0:0:0:
44,340,123597,1,0,0:0:0:0:
100,353,123747,2,0,L|135:344,1,18.7500000745057
100,353,124047,2,0,L|118:321,1,18.7500000745057
141,288,124347,5,0,0:0:0:0:
194,266,124497,1,0,0:0:0:0:
239,301,124647,1,0,0:0:0:0:
296,291,124797,1,0,0:0:0:0:
285,348,124947,1,0,0:0:0:0:
341,330,125097,1,0,0:0:0:0:
352,273,125247,6,0,L|343:250,1,18.7500000745057
328,199,125547,1,0,0:0:0:0:
334,141,125697,1,0,0:0:0:0:
305,90,125847,2,0,L|304:59,1,18.7500000745057
305,90,126147,6,0,L|283:69,1,18.7500000745057
238,52,126447,1,0,0:0:0:0:
186,78,126597,1,0,0:0:0:0:
195,135,126747,1,0,0:0:0:0:
139,117,126897,1,0,0:0:0:0:
158,55,127047,6,0,L|177:45,1,18.7500000745057
158,55,127346,2,0,L|166:33,1,18.7500000745057
158,55,127647,2,0,L|152:36,1,18.7500000745057
153,55,127947,2,0,L|131:34,1,18.7500000745057
153,55,128247,2,0,L|127:60,1,18.7500000745057
125,181,128547,1,0,0:0:0:0:
105,118,128697,1,0,0:0:0:0:
138,86,128847,6,0,L|147:60,1,18.7500000745057
138,86,129147,2,0,L|163:75,1,18.7500000745057
138,86,129447,2,0,L|163:95,1,18.7500000745057
210,112,129747,5,0,0:0:0:0:
222,168,129897,1,0,0:0:0:0:
189,216,130047,1,0,0:0:0:0:
202,272,130197,1,0,0:0:0:0:
146,254,130347,1,0,0:0:0:0:
146,196,130497,1,0,0:0:0:0:
196,166,130647,6,0,L|207:144,1,18.7500000745057
196,166,130947,2,0,L|219:159,1,18.7500000745057
196,166,131247,2,0,L|217:177,1,18.7500000745057
262,206,131547,5,0,0:0:0:0:
268,263,131697,1,0,0:0:0:0:
311,302,131847,1,0,0:0:0:0:
369,300,131997,1,0,0:0:0:0:
357,357,132147,1,0,0:0:0:0:
413,339,132297,1,0,0:0:0:0:
413,281,132447,1,0,0:0:0:0:
357,263,132597,1,0,0:0:0:0:
323,310,132747,1,0,0:0:0:0:
266,323,132897,1,0,0:0:0:0:
215,298,133047,2,0,L|197:286,1,18.7500000745057
155,251,133347,5,0,0:0:0:0:
168,196,133497,1,0,0:0:0:0:
140,146,133647,1,0,0:0:0:0:
166,96,133797,1,0,0:0:0:0:
214,125,133947,1,0,0:0:0:0:
270,128,134097,1,0,0:0:0:0:
324,115,134247,2,0,L|393:96,1,56.2500002235172
256,192,134847,12,0,136797,0:0:0:0:
335,116,136947,6,2,B|370:121|370:121|403:103,1,56.2500023692846
218,110,137247,2,0,B|183:105|183:105|150:123,1,56.2500023692846
271,176,137547,2,0,B|266:211|266:211|284:244,1,56.2500023692846
383,361,137847,1,2,0:0:0:0:
450,206,137997,1,0,0:0:0:0:
299,282,138147,1,0,0:0:0:0:
452,351,138297,1,0,0:0:0:0:
386,195,138447,1,0,0:0:0:0:
236,273,138597,1,0,0:0:0:0:
404,263,138747,6,2,L|334:256,1,56.2500023692846
191,320,139047,2,0,L|261:327,1,56.2500023692846
416,321,139347,1,0,0:0:0:0:
379,156,139497,1,0,0:0:0:0:
217,206,139647,1,2,0:0:0:0:
384,229,139797,1,0,0:0:0:0:
280,95,139947,1,0,0:0:0:0:
232,256,140097,1,0,0:0:0:0:
348,134,140247,2,0,L|282:164,1,56.2500023692846
192,157,140547,6,2,L|138:145,1,56.2500023692846
282,235,140846,1,0,0:0:0:0:
219,79,140996,1,0,0:0:0:0:
145,231,141146,1,0,0:0:0:0:
354,210,141297,1,0,0:0:0:0:
206,292,141447,6,2,L|258:268,1,56.2500023692846
363,137,141747,1,0,0:0:0:0:
205,76,141897,1,0,0:0:0:0:
314,203,142047,1,0,0:0:0:0:
360,40,142197,1,0,0:0:0:0:
226,143,142347,6,2,L|292:147,1,56.2500023692846
451,153,142647,1,0,0:0:0:0:
302,72,142797,1,0,0:0:0:0:
312,240,142947,1,0,0:0:0:0:
405,99,143097,1,0,0:0:0:0:
253,172,143247,1,2,0:0:0:0:
367,296,143397,1,0,0:0:0:0:
329,131,143547,1,0,0:0:0:0:
198,238,143697,1,0,0:0:0:0:
366,222,143847,1,0,0:0:0:0:
247,101,143997,1,0,0:0:0:0:
283,265,144147,5,2,0:0:0:0:
418,164,144297,1,0,0:0:0:0:
292,50,144447,2,0,L|247:100,1,56.2500023692846
193,249,144747,2,0,L|238:192,1,56.2500023692846
349,87,145047,5,2,0:0:0:0:
403,246,145197,1,0,0:0:0:0:
260,155,145347,1,0,0:0:0:0:
426,180,145497,1,0,0:0:0:0:
312,304,145647,1,0,0:0:0:0:
218,163,145797,1,0,0:0:0:0:
359,71,145947,6,2,L|308:112,1,56.2500023692846
194,225,146247,1,0,0:0:0:0:
351,286,146397,1,0,0:0:0:0:
267,139,146547,1,0,0:0:0:0:
128,235,146697,1,0,0:0:0:0:
256,344,146847,1,2,0:0:0:0:
204,183,146997,1,0,0:0:0:0:
63,277,147147,2,0,L|120:266,1,56.2500023692846
285,239,147447,1,0,0:0:0:0:
183,103,147597,1,0,0:0:0:0:
175,271,147747,5,2,0:0:0:0:
308,167,147897,1,0,0:0:0:0:
163,79,148047,1,0,0:0:0:0:
224,236,148197,1,0,0:0:0:0:
315,94,148347,1,0,0:0:0:0:
392,246,148497,1,0,0:0:0:0:
222,165,148647,6,2,L|166:174,1,56.2500023692846
297,284,148947,1,0,0:0:0:0:
297,115,149097,1,0,0:0:0:0:
438,207,149247,1,0,0:0:0:0:
270,189,149397,1,0,0:0:0:0:
374,56,149547,6,2,L|366:116,1,56.2500023692846
287,263,149847,1,0,0:0:0:0:
429,172,149997,1,0,0:0:0:0:
235,256,150147,1,0,0:0:0:0:
396,205,150297,1,0,0:0:0:0:
191,237,150447,1,2,0:0:0:0:
359,229,150597,1,0,0:0:0:0:
227,334,150747,1,0,0:0:0:0:
253,167,150897,1,0,0:0:0:0:
409,229,151047,1,0,0:0:0:0:
240,225,151197,1,0,0:0:0:0:
375,89,151347,5,2,0:0:0:0:
187,127,151497,1,0,0:0:0:0:
345,233,151647,1,0,0:0:0:0:
241,297,151797,1,0,0:0:0:0:
280,110,151947,2,0,L|295:48,1,63.7500014692543
387,174,152247,1,2,0:0:0:0:
206,112,152397,1,0,0:0:0:0:
309,272,152547,2,0,L|279:213,1,63.7500014692543
220,32,152847,1,0,0:0:0:0:
397,102,152997,1,0,0:0:0:0:
226,188,153147,6,2,L|283:158,1,63.7500014692543
410,16,153447,2,0,L|353:46,1,63.7500014692543
177,123,153747,1,0,0:0:0:0:
361,174,153897,1,0,0:0:0:0:
227,37,154047,1,2,0:0:0:0:
151,212,154197,1,0,0:0:0:0:
305,98,154347,1,0,0:0:0:0:
123,36,154497,1,0,0:0:0:0:
248,180,154647,1,0,0:0:0:0:
179,1,154797,1,0,0:0:0:0:
56,148,154947,6,2,L|140:140,1,63.7500014692543
292,56,155247,2,0,L|208:64,1,63.7500014692543
116,218,155547,1,0,0:0:0:0:
284,126,155697,1,0,0:0:0:0:
101,69,155847,5,2,0:0:0:0:
177,244,155997,1,0,0:0:0:0:
244,65,156147,1,0,0:0:0:0:
89,177,156297,1,0,0:0:0:0:
280,180,156447,1,0,0:0:0:0:
160,30,156597,1,0,0:0:0:0:
213,213,156747,6,2,L|245:151,1,63.7500014692543
359,3,157047,1,0,0:0:0:0:
188,88,157197,1,0,0:0:0:0:
378,106,157347,1,0,0:0:0:0:
210,14,157497,1,0,0:0:0:0:
208,205,157647,6,2,L|265:167,1,63.7500014692543
366,10,157947,2,0,L|309:48,1,63.7500014692543
147,140,158247,1,0,0:0:0:0:
333,182,158397,1,0,0:0:0:0:
222,25,158547,6,2,L|248:106,1,63.7500014692543
307,265,158847,1,0,0:0:0:0:
397,96,158997,1,0,0:0:0:0:
215,156,159147,1,0,0:0:0:0:
391,229,159297,1,0,0:0:0:0:
289,66,159447,5,2,0:0:0:0:
189,229,159597,1,0,0:0:0:0:
360,144,159747,1,0,0:0:0:0:
225,298,159897,1,0,0:0:0:0:
192,44,160047,1,0,0:0:0:0:
114,148,160197,1,0,0:0:0:0:
298,276,160348,6,2,P|332:268|355:238,1,63.7500014692543
294,83,160647,1,0,0:0:0:0:
190,243,160797,1,0,0:0:0:0:
164,53,160947,1,0,0:0:0:0:
337,133,161097,1,0,0:0:0:0:
160,210,161247,6,2,B|189:181|189:181|220:180,1,63.7500014692543
160,210,161547,2,0,B|189:239|189:239|190:270,1,63.7500014692543
160,210,161847,2,0,B|131:239|131:239|100:240,1,63.7500014692543
9,74,162147,1,2,0:0:0:0:
197,107,162297,1,0,0:0:0:0:
101,272,162447,1,0,0:0:0:0:
102,80,162597,1,0,0:0:0:0:
284,136,162747,5,0,0:0:0:0:
153,68,162897,1,0,0:0:0:0:
314,169,163047,1,2,0:0:0:0:
204,68,163197,1,0,0:0:0:0:
333,207,163347,1,0,0:0:0:0:
146,164,163497,1,0,0:0:0:0:
309,64,163647,1,0,0:0:0:0:
316,255,163797,1,0,0:0:0:0:
189,111,163947,6,2,L|256:142,1,63.7500014692543
408,240,164247,1,0,0:0:0:0:
382,50,164397,1,0,0:0:0:0:
269,204,164547,1,0,0:0:0:0:
438,116,164697,1,0,0:0:0:0:
250,75,164847,6,2,L|314:121,1,63.7500014692543
408,270,165147,2,0,L|344:224,1,63.7500014692543
169,189,165447,2,0,L|220:226,1,63.7500014692543
398,296,165747,5,2,0:0:0:0:
352,110,165897,1,0,0:0:0:0:
193,216,166047,1,0,0:0:0:0:
384,211,166197,1,0,0:0:0:0:
286,46,166347,1,0,0:0:0:0:
256,235,166497,1,0,0:0:0:0:
423,142,166647,6,2,L|342:147,1,63.7500014692543
168,147,166947,1,0,0:0:0:0:
324,37,167097,1,0,0:0:0:0:
303,227,167247,2,0,L|244:168,1,63.7500014692543
126,42,167547,5,2,0:0:0:0:
309,96,167697,1,0,0:0:0:0:
182,239,167847,1,0,0:0:0:0:
195,48,167997,1,0,0:0:0:0:
267,225,168147,1,0,0:0:0:0:
93,145,168297,1,0,0:0:0:0:
269,70,168447,6,2,L|333:49,1,63.7500014692543
269,70,168747,2,0,L|329:100,1,63.7500014692543
269,70,169047,2,0,L|290:133,1,63.7500014692543
366,306,169347,1,2,0:0:0:0:
438,129,169497,1,0,0:0:0:0:
248,153,169647,1,0,0:0:0:0:
421,232,169797,6,0,L|349:205,1,63.7500014692543
207,93,170097,1,0,0:0:0:0:
394,57,170247,1,2,0:0:0:0:
305,226,170397,1,0,0:0:0:0:
257,40,170547,1,0,0:0:0:0:
433,112,170697,1,0,0:0:0:0:
345,282,170847,1,0,0:0:0:0:
242,120,170997,1,0,0:0:0:0:
295,276,171147,5,2,0:0:0:0:
270,85,171297,1,0,0:0:0:0:
254,248,171447,1,0,0:0:0:0:
312,64,171597,1,0,0:0:0:0:
435,210,171747,1,0,0:3:0:0:
189,165,171897,1,0,0:3:0:0:
348,60,172047,5,2,0:3:0:0:
162,108,172197,1,0,0:3:0:0:
308,231,172347,5,2,0:0:0:0:
282,41,172497,1,0,0:0:0:0:
150,179,172647,5,2,0:0:0:0:
339,153,172797,1,0,0:0:0:0:
97,32,172947,6,2,L|184:80,1,89.9999976110456
406,215,173247,1,0,0:0:0:0:
141,268,173397,1,0,0:0:0:0:
294,46,173547,2,2,L|227:108,1,89.9999976110456
40,301,173847,1,0,0:0:0:0:
301,233,173997,1,0,0:0:0:0:
64,103,174147,1,8,0:0:0:0:
309,147,174297,1,0,0:0:0:0:
49,220,174447,1,8,0:0:0:0:
225,15,174597,1,0,0:0:0:0:
201,283,174747,6,2,L|97:244,1,89.9999976110456
385,209,175047,2,2,L|469:240,1,89.9999976110456
258,69,175347,2,2,L|173:37,1,89.9999976110456
428,132,175647,2,2,L|373:211,1,89.9999976110456
146,347,175947,2,2,L|197:273,1,89.9999976110456
124,13,176247,2,2,L|72:86,1,89.9999976110456
82,356,176547,1,0,0:0:0:0:
293,187,176697,1,0,0:0:0:0:
32,115,176847,2,2,L|116:146,1,89.9999976110456
372,231,177147,1,0,0:0:0:0:
105,275,177297,1,0,0:0:0:0:
361,176,177447,5,12,0:0:0:0:
159,313,177597,1,0,0:0:0:0:
332,121,177747,5,12,0:0:0:0:
221,308,177897,1,0,0:0:0:0:
149,47,178047,5,12,0:0:0:0:
381,184,178197,1,0,0:0:0:0:
124,269,178347,6,2,L|217:217,1,89.9999976110456
393,31,178647,2,2,L|300:83,1,89.9999976110456
45,116,178947,2,2,L|138:64,1,89.9999976110456
393,103,179247,1,0,0:0:0:0:
189,280,179397,1,0,0:0:0:0:
246,16,179547,6,2,L|222:121,1,89.9999976110456
361,337,179847,2,2,L|381:249,1,89.9999976110456
178,70,180147,5,12,0:0:0:0:
445,108,180297,1,0,0:0:0:0:
235,278,180447,5,12,0:0:0:0:
323,23,180597,1,0,0:0:0:0:
480,242,180747,5,12,0:0:0:0:
258,87,180897,1,0,0:0:0:0:
284,355,181047,5,12,0:0:0:0:
177,106,181197,1,0,0:0:0:0:
66,351,181347,5,12,0:0:0:0:
292,203,181497,1,0,0:0:0:0:
57,68,181647,5,12,0:0:0:0:
145,322,181797,1,0,0:0:0:0:
319,115,181947,5,12,0:0:0:0:
62,198,182097,1,0,0:0:0:0:
275,363,182247,6,2,L|232:272,1,89.9999976110456
254,10,182547,2,2,L|297:101,1,89.9999976110456
484,284,182847,2,2,L|445:202,1,89.9999976110456
185,131,183147,1,8,0:0:0:0:
280,383,183297,1,0,0:0:0:0:
360,125,183447,1,8,0:0:0:0:
93,169,183597,1,0,0:0:0:0:
354,236,183747,6,2,L|401:331,1,89.9999976110456
204,121,184047,2,2,L|157:26,1,89.9999976110456
433,112,184347,1,0,0:0:0:0:
204,271,184497,1,0,0:0:0:0:
349,32,184647,1,8,0:0:0:0:
456,289,184797,1,0,0:0:0:0:
223,131,184947,6,2,B|183:102|183:102|140:109,1,89.9999976110456
423,112,185247,2,2,B|451:72|451:72|445:29,1,89.9999976110456
367,301,185547,6,2,B|406:329|406:329|450:323,1,89.9999976110456
170,274,185847,2,2,B|141:313|141:313|148:357,1,89.9999976110456
379,196,186147,1,0,0:0:0:0:
119,94,186297,1,0,0:0:0:0:
264,332,186447,5,12,0:0:0:0:
375,76,186597,1,0,0:0:0:0:
174,270,186747,5,12,0:0:0:0:
452,292,186897,1,0,0:0:0:0:
285,67,187047,5,12,0:0:0:0:
299,345,187197,1,0,0:0:0:0:
482,135,187347,5,12,0:0:0:0:
210,71,187497,1,0,0:0:0:0:
411,264,187647,2,2,L|357:175,1,89.9999976110456
150,4,187947,2,2,L|204:93,1,89.9999976110456
151,358,188247,6,2,L|104:281,1,89.9999976110456
275,61,188547,1,0,0:0:0:0:
55,233,188697,1,0,0:0:0:0:
330,186,188847,1,0,0:0:0:0:
107,354,188997,1,0,0:0:0:0:
117,75,189147,5,12,0:0:0:0:
266,310,189297,1,0,0:0:0:0:
7,206,189447,1,12,0:0:0:0:
227,35,189597,2,2,L|174:115,1,89.9999976110456
8,332,189897,1,0,0:0:0:0:
262,218,190047,1,0,0:0:0:0:
6,126,190197,1,0,0:0:0:0:
133,374,190347,6,2,L|138:276,1,89.9999976110456
259,32,190647,2,2,L|263:121,1,89.9999976110456
385,372,190947,6,2,L|390:274,1,89.9999976110456
483,19,191247,2,2,L|487:108,1,89.9999976110456
293,309,191547,1,0,0:0:0:0:
57,158,191697,1,0,0:0:0:0:
344,278,191847,5,12,0:0:0:0:
77,193,191997,1,0,0:0:0:0:
383,240,192147,5,12,0:0:0:0:
103,227,192297,1,0,0:0:0:0:
411,196,192447,5,12,0:0:0:0:
137,255,192597,1,0,0:0:0:0:
403,336,192747,5,12,0:0:0:0:
235,113,192897,1,0,0:0:0:0:
49,321,193047,5,12,0:0:0:0:
305,211,193197,1,0,0:0:0:0:
64,69,193347,5,12,0:0:0:0:
201,311,193497,1,0,0:0:0:0:
357,80,193647,6,2,L|266:117,1,89.9999976110456
25,241,193947,1,8,0:0:0:0:
300,284,194097,1,0,0:0:0:0:
187,28,194247,1,12,0:0:0:0:
99,293,194397,1,0,0:0:0:0:
282,52,194547,6,2,L|381:-5,1,97.4999959242343
104,153,194847,2,2,L|19:201,1,97.4999959242343
316,133,195147,2,2,L|400:84,1,97.4999959242343
256,352,195447,1,0,0:0:0:0:
246,49,195597,1,0,0:0:0:0:
493,222,195747,2,2,L|403:278,1,97.4999959242343
108,293,196047,2,2,L|190:241,1,97.4999959242343
466,112,196347,5,12,0:0:0:0:
290,358,196497,1,0,0:0:0:0:
149,90,196647,1,12,0:0:0:0:
373,292,196797,1,0,0:0:0:0:
72,257,196947,5,12,0:0:0:0:
292,50,197097,1,0,0:0:0:0:
284,352,197247,5,12,0:0:0:0:
26,193,197397,1,0,0:0:0:0:
325,155,197547,1,12,0:0:0:0:
108,365,197697,1,0,0:0:0:0:
120,62,197847,1,12,0:0:0:0:
376,222,197997,1,0,0:0:0:0:
83,300,198147,5,12,0:0:0:0:
245,44,198297,1,0,0:0:0:0:
435,278,198447,6,2,L|319:263,1,97.4999959242343
50,172,198747,2,2,L|166:187,1,97.4999959242343
447,154,199047,2,2,L|331:139,1,97.4999959242343
49,111,199347,1,8,0:0:0:0:
232,351,199497,1,0,0:0:0:0:
341,69,199647,1,12,0:0:0:0:
139,294,199797,1,0,0:0:0:0:
441,290,199947,6,2,L|527:229,1,97.4999959242343
222,296,200247,2,2,L|136:357,1,97.4999959242343
364,144,200547,2,2,L|450:83,1,97.4999959242343
142,132,200847,1,0,0:0:0:0:
437,194,200997,1,0,0:0:0:0:
180,34,201147,2,2,L|265:91,1,97.4999959242343
442,332,201447,2,2,L|357:275,1,97.4999959242343
72,179,201747,2,2,L|157:236,1,97.4999959242343
456,252,202047,1,8,0:0:0:0:
173,144,202197,1,0,0:0:0:0:
437,156,202347,1,8,0:0:0:0:
134,177,202497,1,0,0:0:0:0:
371,73,202647,5,12,0:0:0:0:
105,220,202797,1,0,0:0:0:0:
397,295,202947,1,12,0:0:0:0:
182,82,203097,1,0,0:0:0:0:
207,383,203247,1,12,0:0:0:0:
468,231,203397,1,0,0:0:0:0:
176,149,203547,1,12,0:0:0:0:
366,383,203697,1,0,0:0:0:0:
278,93,203847,1,12,0:0:0:0:
123,352,203997,1,0,0:0:0:0:
393,217,204147,1,12,0:0:0:0:
142,47,204297,1,0,0:0:0:0:
317,293,204447,6,2,L|381:381,1,97.4999959242343
129,195,204747,2,2,L|65:107,1,97.4999959242343
365,47,205047,1,0,0:0:0:0:
207,305,205197,1,0,0:0:0:0:
10,74,205347,5,12,0:0:0:0:
260,242,205497,1,0,0:0:0:0:
447,5,205647,1,12,0:0:0:0:
147,47,205797,1,0,0:0:0:0:
429,155,205947,6,2,L|326:114,1,97.4999959242343
58,5,206247,1,0,0:0:0:0:
154,291,206397,1,0,0:0:0:0:
292,22,206547,5,12,0:0:0:0:
4,114,206697,1,0,0:0:0:0:
223,322,206847,1,12,0:0:0:0:
230,19,206997,1,0,0:0:0:0:
70,275,207147,5,12,0:0:0:0:
367,222,207297,1,0,0:0:0:0:
115,54,207447,2,2,L|19:22,1,97.4999959242343
274,191,207747,2,2,L|370:223,1,97.4999959242343
63,248,208047,5,12,0:0:0:0:
258,17,208197,1,0,0:0:0:0:
339,308,208347,1,12,0:0:0:0:
76,157,208497,1,0,0:0:0:0:
348,27,208647,1,12,0:0:0:0:
272,319,208797,1,0,0:0:0:0:
136,48,208947,5,12,0:0:0:0:
427,127,209097,1,0,0:0:0:0:
172,290,209247,1,12,0:0:0:0:
285,9,209397,1,0,0:0:0:0:
456,258,209547,1,12,0:0:0:0:
155,224,209697,1,0,0:0:0:0:
420,79,209847,6,2,L|352:-19,1,97.4999959242343
364,301,210147,2,2,L|432:399,1,97.4999959242343
178,199,210447,2,0,L|110:101,1,97.4999959242343,0|2,0:0|0:0,0:0:0:0:
411,30,210747,5,12,0:0:0:0:
293,308,210897,1,0,0:0:0:0:
145,44,211047,1,12,0:0:0:0:
436,122,211197,1,0,0:0:0:0:
195,305,211347,5,12,0:0:0:0:
366,55,211497,1,0,0:0:0:0:
416,353,211647,1,12,0:0:0:0:
133,244,211797,1,0,0:0:0:0:
433,208,211947,5,12,0:0:0:0:
168,354,212097,1,0,0:0:0:0:
373,132,212247,1,12,0:0:0:0:
172,307,212397,1,0,0:0:0:0:
427,145,212547,5,12,0:0:0:0:
189,258,212697,1,0,0:0:0:0:
477,167,212847,1,12,0:0:0:0:
245,361,212997,1,0,0:0:0:0:
140,77,213147,5,12,0:0:0:0:
406,220,213297,1,0,0:0:0:0:
110,282,213447,5,12,0:0:0:0:
372,154,213597,1,0,0:0:0:0:
103,138,213747,1,12,0:0:0:0:
355,95,213897,1,0,0:0:0:0:
143,24,214047,1,12,0:0:0:0:
325,264,214197,1,0,0:0:0:0:
489,10,214347,1,12,0:0:0:0:
193,73,214497,1,0,0:0:0:0:
443,242,214647,6,2,L|340:195,1,97.4999959242343
55,155,214947,2,0,L|158:202,1,97.4999959242343,0|2,0:0|0:0,0:0:0:0:
392,366,215247,2,2,L|289:319,1,97.4999959242343
111,91,215547,1,8,0:0:0:0:
413,80,215697,1,0,0:0:0:0:
219,312,215847,1,8,0:0:0:0:
238,10,215997,1,0,0:0:0:0:
491,174,216147,5,12,0:0:0:0:
196,242,216297,1,0,0:0:0:0:
405,24,216447,1,8,0:0:0:0:
311,311,216597,1,0,0:0:0:0:
86,108,216747,5,12,0:0:0:0:
386,135,216897,1,0,0:0:0:0:
90,196,217047,1,8,0:0:0:0:
321,2,217197,1,0,0:0:0:0:
414,289,217347,5,12,0:0:0:0:
138,165,217497,1,0,0:0:0:0:
413,39,217647,1,12,0:0:0:0:
350,334,217797,1,0,0:0:0:0:
256,64,217947,5,12,0:0:0:0:
