osu file format v14

[General]
AudioFilename: audio.mp3
AudioLeadIn: 0
PreviewTime: 172939
Countdown: 1
SampleSet: None
StackLeniency: 0.4
Mode: 0
LetterboxInBreaks: 0
WidescreenStoryboard: 0

[Editor]
Bookmarks: 16339,17539,18139,18439,18589,18739,19039,19339,19639,19789,19939,20089,20239,20389,20539,20689,20839,21139,21439,21739,22189,22639,23089,23539,23689,23839,23989,24139,24439,24739,25039,25339,25639,25789,25939,26239,26389,26539,26689,26839,26989,27139,27289,27439,27589,27739,27889,28039,28189,28339,28489,28639,28789,28939,29089,29239,29389,29539,29689,29839,29989,30139,30289,30439,30589,30739,31189,31339,31639,31939,32239,32539,32839,32989,33139,34339,34489,34639,34789,34939,35239,35539,35839,36139,36439,36739,37039,37339,37639,37939,38239,38389,38539,38839,39139,39439,39739,40039,40189,40339,40639,40939,41239,43339,43489,43639,43789,43939,44089,44239,44389,44539,44689,44839,44989,45139,45439,45739,46039,46489,46939,47239,47389,47539,47839,48139,48289,48439,48589,48739,48889,49039,49189,49339,49639,49939,50089,50239,50389,50539,50839,50989,51139,51439,51589,51739,52039,52189,52339,52489,52639,52789,53239,53539,53839
DistanceSpacing: 1
BeatDivisor: 4
GridSize: 32
TimelineZoom: 1

[Metadata]
Title:Psalm dla Ciebie
TitleUnicode:Psalm dla Ciebie
Artist:Piotr Rubik, Malgorzata Markiewicz, Janusz Radek
ArtistUnicode:Piotr Rubik, MaƂgorzata Markiewicz, Janusz Radek
Creator:xXOsuPersonXx
Version:Psalm
Source:
Tags:polish poland piotr rubik malgorzata markiewicz janusz radek 2006
BeatmapID:1881442
BeatmapSetID:900985

[Difficulty]
HPDrainRate:6
CircleSize:4
OverallDifficulty:8
ApproachRate:9.7
SliderMultiplier:1.6
SliderTickRate:1

[Events]
//Background and Video events
//Break Periods
//Storyboard Layer 0 (Background)
//Storyboard Layer 1 (Fail)
//Storyboard Layer 2 (Pass)
//Storyboard Layer 3 (Foreground)
//Storyboard Sound Samples

[TimingPoints]
139,300,6,2,0,20,1,0
139,-250,6,2,0,20,0,0
9139,-86.9565217391304,6,3,0,20,0,0
10039,-86.9565217391304,6,3,0,35,0,0
10339,-86.9565217391304,6,3,0,50,0,0
10639,-86.9565217391304,6,3,0,65,0,0
10939,-125,6,2,0,50,0,0
11389,-125,6,2,0,35,0,0
13339,-100,6,2,0,50,0,0
13939,-125,6,2,0,40,0,0
14989,-125,6,3,0,40,0,0
16339,-153.846153846154,6,2,0,30,0,0
17539,-153.846153846154,6,3,0,30,0,0
17614,-153.846153846154,6,2,0,30,0,0
18139,-153.846153846154,6,3,0,30,0,0
18589,-153.846153846154,6,2,0,30,0,0
20839,-153.846153846154,6,3,0,30,0,0
21439,-153.846153846154,6,2,0,30,0,0
25339,-153.846153846154,6,3,0,30,0,0
25414,-153.846153846154,6,2,0,30,0,0
25789,-153.846153846154,6,3,0,30,0,0
26089,-153.846153846154,6,2,0,30,0,0
26239,-153.846153846154,6,3,0,30,0,0
26314,-153.846153846154,6,2,0,30,0,0
26839,-153.846153846154,6,3,0,30,0,0
26914,-153.846153846154,6,2,0,30,0,0
28939,-153.846153846154,6,3,0,30,0,0
29014,-153.846153846154,6,2,0,30,0,0
29839,-133.333333333334,6,3,0,50,0,0
29839,-133.333333333334,6,3,0,30,0,0
30739,-153.846153846154,6,3,0,30,0,0
30814,-153.846153846154,6,2,0,30,0,0
31189,-153.846153846154,6,3,0,30,0,0
32014,-153.846153846154,6,2,0,30,0,0
32539,-153.846153846154,6,3,0,30,0,0
34339,-153.846153846154,6,3,0,30,0,0
43939,-153.846153846154,6,3,0,40,0,0
44539,-153.846153846154,6,3,0,50,0,0
45139,-125,6,2,0,40,0,0
45214,-125,6,3,0,40,0,0
58639,-100,6,2,0,40,0,0
59539,-125,6,2,0,40,0,0
66739,-100,6,2,0,40,0,0
80239,-76.9230769230769,6,2,0,40,0,0
81139,-71.4285714285714,6,2,0,40,0,1
102739,-90.9090909090909,6,2,0,40,0,0
158539,-83.3333333333333,6,2,0,40,0,0
172039,-76.9230769230769,6,2,0,40,0,0
172939,-71.4285714285714,6,2,0,40,0,1
194539,-62.5,6,2,0,40,0,1
217939,-100,6,2,0,40,0,0

[HitObjects]
164,247,139,6,0,L|76:240,2,64,0|0|0,0:0|0:0|0:0,0:0:0:0:
153,359,1339,2,0,L|216:364,1,64,0|0,0:0|0:0,0:0:0:0:
305,347,1939,6,0,L|311:284,2,64,0|0|0,0:0|0:0|0:0,0:0:0:0:
380,374,2839,5,0,0:0:0:0:
439,316,3139,1,0,0:0:0:0:
370,240,3439,2,0,P|322:199|249:174,1,128
156,214,4339,5,0,0:0:0:0:
268,249,4639,1,0,0:0:0:0:
229,175,4939,1,0,0:0:0:0:
194,287,5239,1,0,0:0:0:0:
156,214,5539,6,0,L|161:150,2,64,0|0|0,0:0|0:0|0:0,0:0:0:0:
254,257,6739,6,0,L|248:320,1,64,0|0,0:0|0:0,0:0:0:0:
179,379,7339,5,0,0:0:0:0:
248,320,7639,1,0,0:0:0:0:
189,251,7939,1,0,0:0:0:0:
257,190,8239,6,0,L|263:127,2,64,0|0|0,0:0|0:0|0:0,0:0:0:0:
185,314,9139,6,0,B|151:288|151:288|140:232,1,92.0000017547608,0|0,0:0|0:0,0:0:0:0:
225,131,9439,1,0,0:0:0:0:
185,314,9589,1,0,0:0:0:0:
265,150,9739,5,0,0:0:0:0:
117,265,9889,1,0,0:0:0:0:
284,192,10039,5,0,0:0:0:0:
97,184,10189,1,0,0:0:0:0:
271,236,10339,5,0,0:0:0:0:
133,109,10489,1,0,0:0:0:0:
233,261,10639,5,0,0:0:0:0:
208,75,10789,1,0,0:0:0:0:
188,256,10939,6,0,L|299:171,1,128,0|0,0:0|0:0,0:0:0:0:
202,114,11389,1,0,0:0:0:0:
202,114,11539,2,0,L|151:153,1,64,0|0,0:0|0:0,0:0:0:0:
188,256,11839,2,0,L|238:216,1,64,0|0,0:0|0:0,0:0:0:0:
252,74,12139,2,0,L|201:113,1,64,0|0,0:0|0:0,0:0:0:0:
183,210,12439,1,0,0:0:0:0:
252,74,12589,1,0,0:0:0:0:
183,210,12739,6,0,L|284:132,1,128,0|0,0:0|0:0,0:0:0:0:
198,99,13189,1,0,0:0:0:0:
198,99,13339,6,0,L|96:176,1,80,0|0,0:0|0:0,0:0:0:0:
124,274,13639,1,0,0:0:0:0:
134,147,13789,1,0,0:0:0:0:
84,255,13939,1,0,0:0:0:0:
173,165,14089,1,0,0:0:0:0:
67,227,14239,1,0,0:0:0:0:
190,193,14389,1,0,0:0:0:0:
67,227,14539,6,0,L|87:96,1,128,0|0,0:0|0:0,0:0:0:0:
181,57,14989,1,0,0:0:0:0:
181,57,15139,2,0,L|171:120,1,64,0|0,0:0|0:0,0:0:0:0:
129,236,15439,1,0,0:0:0:0:
256,171,15589,1,0,0:0:0:0:
248,314,15739,2,0,L|215:252,1,64,0|0,0:0|0:0,0:0:0:0:
134,101,16039,1,0,0:0:0:0:
234,179,16189,1,0,0:0:0:0:
116,226,16339,6,0,L|133:106,1,103.999995239258,0|0,0:0|0:0,0:0:0:0:
220,79,16789,1,0,0:0:0:0:
220,79,16939,2,0,L|211:139,1,51.999997619629,0|0,0:0|0:0,0:0:0:0:
231,212,17239,2,0,L|216:315,2,103.999995239258,0|0|0,0:0|0:0|0:0,0:0:0:0:
381,131,18139,6,0,L|365:233,1,103.999995239258,0|0,0:0|0:0,0:0:0:0:
273,317,18589,1,0,0:0:0:0:
273,317,18739,2,0,L|280:265,1,51.999997619629,0|0,0:0|0:0,0:0:0:0:
325,170,19039,2,0,P|359:211|363:260,2,103.999995239258,0|0|0,0:0|0:0|0:0,0:0:0:0:
211,158,19939,5,0,0:0:0:0:
256,297,20239,2,0,L|261:238,1,51.999997619629,0|0,0:0|0:0,0:0:0:0:
294,101,20539,2,0,L|289:160,1,51.999997619629,0|0,0:0|0:0,0:0:0:0:
260,245,20839,2,0,P|212:219|185:158,1,103.999995239258,0|0,0:0|0:0,0:0:0:0:
265,169,21439,1,0,0:0:0:0:
289,274,21739,6,0,L|307:171,1,103.999995239258,0|0,0:0|0:0,0:0:0:0:
233,90,22189,2,0,L|215:193,1,103.999995239258,0|0,0:0|0:0,0:0:0:0:
353,154,22639,2,0,L|250:136,1,103.999995239258,0|0,0:0|0:0,0:0:0:0:
169,210,23089,2,0,L|272:228,1,103.999995239258,0|0,0:0|0:0,0:0:0:0:
335,158,23539,6,0,L|283:148,2,51.999997619629,0|0|0,0:0|0:0|0:0,0:0:0:0:
388,241,23989,1,0,0:0:0:0:
388,241,24139,2,0,L|397:189,1,51.999997619629,0|0,0:0|0:0,0:0:0:0:
317,115,24439,2,0,L|298:218,2,103.999995239258,0|0|0,0:0|0:0|0:0,0:0:0:0:
228,138,25339,6,0,L|247:35,1,103.999995239258,0|0,0:0|0:0,0:0:0:0:
335,7,25789,1,0,0:0:0:0:
385,78,25939,1,0,0:0:0:0:
298,85,26089,1,0,0:0:0:0:
335,7,26239,2,0,L|354:110,1,103.999995239258,0|0,0:0|0:0,0:0:0:0:
330,234,26839,2,0,L|320:182,1,51.999997619629,0|0,0:0|0:0,0:0:0:0:
260,135,27139,6,0,P|309:108|374:130,1,103.999995239258,0|0,0:0|0:0,0:0:0:0:
412,179,27589,2,0,P|363:206|298:184,1,103.999995239258,0|0,0:0|0:0,0:0:0:0:
260,135,28039,2,0,L|279:32,2,103.999995239258,0|0|0,0:0|0:0|0:0,0:0:0:0:
199,182,28939,6,0,P|243:207|325:179,1,103.999995239258,0|0,0:0|0:0,0:0:0:0:
338,133,29389,1,0,0:0:0:0:
338,133,29539,2,0,L|347:184,1,51.999997619629,0|0,0:0|0:0,0:0:0:0:
272,295,29839,2,0,L|260:234,1,60.0000022888184,0|0,0:0|0:0,0:0:0:0:
295,89,30139,1,0,0:0:0:0:
351,179,30289,1,0,0:0:0:0:
261,235,30439,1,0,0:0:0:0:
205,145,30589,1,0,0:0:0:0:
295,89,30739,6,0,L|318:215,1,103.999995239258,0|0,0:0|0:0,0:0:0:0:
259,277,31189,1,0,0:0:0:0:
259,277,31339,2,0,L|247:213,1,51.999997619629,0|0,0:0|0:0,0:0:0:0:
281,97,31639,2,0,L|292:160,1,51.999997619629,0|0,0:0|0:0,0:0:0:0:
375,247,31939,2,0,L|356:144,1,103.999995239258,0|0,0:0|0:0,0:0:0:0:
260,82,32389,1,0,0:0:0:0:
260,82,32539,6,0,L|269:133,1,51.999997619629,8|0,0:0|0:0,0:0:0:0:
235,207,32839,2,0,P|308:207|343:163,1,103.999995239258,2|0,0:0|0:0,0:0:0:0:
356,113,33439,2,0,L|337:10,2,103.999995239258
414,164,34339,6,0,P|370:190|302:170,1,103.999995239258,8|0,0:0|0:0,0:0:0:0:
299,103,34789,1,2,0:0:0:0:
299,103,34939,2,0,L|308:52,1,51.999997619629,2|0,0:0|0:0,0:0:0:0:
407,58,35239,2,0,L|388:161,2,103.999995239258,8|0|0,0:0|0:0|0:0,0:0:0:0:
316,10,35989,1,0,0:0:0:0:
316,10,36139,6,0,L|297:113,1,103.999995239258,4|0,0:0|0:0,0:0:0:0:
358,193,36589,1,0,0:0:0:0:
358,193,36739,2,0,L|367:141,1,51.999997619629,2|0,0:0|0:0,0:0:0:0:
270,57,37039,2,0,L|251:160,2,103.999995239258,8|8|8,0:0|0:0|0:0,0:0:0:0:
197,14,37789,1,0,0:0:0:0:
197,13,37939,6,0,L|178:116,1,103.999995239258,4|0,0:0|0:0,0:0:0:0:
252,197,38389,1,8,0:0:0:0:
252,197,38539,2,0,L|261:145,1,51.999997619629,2|0,0:0|0:0,0:0:0:0:
359,79,38839,2,0,L|340:182,2,103.999995239258,8|8|8,0:0|0:0|0:0,0:0:0:0:
276,20,39589,1,0,0:0:0:0:
276,20,39739,6,0,L|266:71,1,51.999997619629,8|0,0:0|0:0,0:0:0:0:
282,164,40039,1,2,0:0:0:0:
317,69,40189,1,8,0:0:0:0:
218,87,40339,2,0,L|227:138,1,51.999997619629,8|0,0:0|0:0,0:0:0:0:
313,226,40639,2,0,L|303:174,1,51.999997619629,2|0,0:0|0:0,0:0:0:0:
218,87,40939,2,0,L|227:138,1,51.999997619629,2|0,0:0|0:0,0:0:0:0:
309,279,41239,1,0,0:0:0:0:
309,279,41539,6,0,L|289:175,1,103.999995239258,2|0,0:0|0:0,0:0:0:0:
203,105,41989,2,0,L|223:209,1,103.999995239258,2|0,0:0|0:0,0:0:0:0:
375,248,42439,2,0,L|355:144,1,103.999995239258,2|0,0:0|0:0,0:0:0:0:
269,74,42889,2,0,L|289:178,1,103.999995239258,2|0,0:0|0:0,0:0:0:0:
365,258,43339,6,0,L|356:207,1,51.999997619629,8|0,0:0|0:0,0:0:0:0:
283,101,43639,1,8,0:0:0:0:
407,77,43789,1,8,0:0:0:0:
366,197,43939,2,0,L|375:248,1,51.999997619629,8|0,0:0|0:0,0:0:0:0:
257,340,44239,2,0,L|248:289,1,51.999997619629,8|0,0:0|0:0,0:0:0:0:
282,140,44539,1,8,0:0:0:0:
247,288,44689,1,8,0:0:0:0:
338,231,44839,1,8,0:0:0:0:
190,196,44989,1,0,0:0:0:0:
282,140,45139,6,0,P|301:170|303:197,1,64,4|0,0:0|0:0,0:0:0:0:
204,275,45439,2,0,P|185:245|183:218,1,64
282,140,45739,2,0,P|301:170|303:197,1,64
204,275,46039,2,0,L|157:149,1,128,2|0,0:0|0:0,0:0:0:0:
216,62,46489,1,2,0:0:0:0:
216,62,46639,2,0,L|239:124,1,64,0|0,0:0|0:0,0:0:0:0:
254,290,46939,6,0,P|237:262|230:227,1,64,2|0,0:0|0:0,0:0:0:0:
277,128,47239,2,0,P|294:156|300:190,1,64,2|0,0:0|0:0,0:0:0:0:
254,290,47539,2,0,P|237:262|230:227,1,64,2|0,0:0|0:0,0:0:0:0:
254,67,47839,2,0,L|277:129,1,64,2|0,0:0|0:0,0:0:0:0:
231,229,48139,2,0,L|207:166,1,64,2|0,0:0|0:0,0:0:0:0:
254,67,48439,2,0,L|277:129,1,64,2|0,0:0|0:0,0:0:0:0:
344,144,48739,6,0,P|307:193|245:194,1,128,4|0,0:0|0:0,0:0:0:0:
170,170,49189,2,0,P|207:121|269:120,1,128,2|0,0:0|0:0,0:0:0:0:
342,176,49639,2,0,L|334:239,1,64,8|0,0:0|0:0,0:0:0:0:
260,331,49939,1,8,0:0:0:0:
390,313,50089,1,8,0:0:0:0:
372,183,50239,1,8,0:0:0:0:
242,201,50389,1,8,0:0:0:0:
260,331,50539,6,0,B|280:261|318:306|340:225,1,128,8|0,0:0|0:0,0:0:0:0:
311,155,50989,2,0,L|241:120,2,64,0|2|0,0:0|0:0|0:0,0:0:0:0:
337,234,51439,2,0,L|407:269,1,64
504,206,51739,2,0,L|434:171,1,64
337,234,52039,1,8,0:0:0:0:
351,80,52189,1,8,0:0:0:0:
477,169,52339,6,0,L|412:162,1,64,4|0,0:0|0:0,0:0:0:0:
299,78,52639,2,0,L|363:85,1,64,0|0,0:0|0:0,0:0:0:0:
342,212,52939,2,0,L|349:148,1,64,0|0,0:0|0:0,0:0:0:0:
433,34,53239,2,0,L|418:176,1,128,2|0,0:0|0:0,0:0:0:0:
335,276,53689,2,0,L|350:133,1,128,2|0,0:0|0:0,0:0:0:0:
433,34,54139,6,0,L|426:98,1,64,0|0,0:0|0:0,0:0:0:0:
319,177,54439,2,0,L|326:112,1,64,0|0,0:0|0:0,0:0:0:0:
426,97,54739,2,0,L|419:161,1,64,0|0,0:0|0:0,0:0:0:0:
319,177,55039,2,0,L|334:34,2,128,0|0|0,0:0|0:0|0:0,0:0:0:0:
253,257,55939,6,0,L|237:399,2,128,0|0|0,0:0|0:0|0:0,0:0:0:0:
180,204,56839,2,0,L|195:61,1,128,0|0,0:0|0:0,0:0:0:0:
288,26,57289,1,0,0:0:0:0:
249,146,57439,1,0,0:0:0:0:
164,52,57589,1,0,0:0:0:0:
288,26,57739,6,0,B|269:80|326:95|304:157,1,128,0|0,0:0|0:0,0:0:0:0:
229,227,58189,1,0,0:0:0:0:
229,227,58339,2,0,L|221:155,1,64,0|0,0:0|0:0,0:0:0:0:
183,59,58639,5,0,0:0:0:0:
304,94,58789,1,0,0:0:0:0:
208,24,58939,5,0,0:0:0:0:
278,128,59089,1,0,0:0:0:0:
250,13,59239,5,0,0:0:0:0:
236,139,59389,1,0,0:0:0:0:
151,16,59539,6,0,L|164:143,1,128,0|0,0:0|0:0,0:0:0:0:
259,226,59989,1,0,0:0:0:0:
259,226,60139,2,0,L|252:162,1,64,0|0,0:0|0:0,0:0:0:0:
305,88,60439,2,0,P|238:73|177:101,1,128,0|0,0:0|0:0,0:0:0:0:
251,186,60889,2,0,P|318:201|378:172,1,128,0|0,0:0|0:0,0:0:0:0:
411,96,61339,6,0,L|421:29,1,64,0|0,0:0|0:0,0:0:0:0:
327,68,61639,2,0,L|317:135,1,64,0|0,0:0|0:0,0:0:0:0:
411,96,61939,2,0,L|421:29,1,64,0|0,0:0|0:0,0:0:0:0:
317,131,62239,2,0,L|297:265,1,128,0|0,0:0|0:0,0:0:0:0:
378,311,62689,2,0,L|398:177,1,128,0|0,0:0|0:0,0:0:0:0:
317,131,63139,6,0,P|241:138|197:175,2,128,0|0|0,0:0|0:0|0:0,0:0:0:0:
405,171,64039,2,0,P|353:207|290:209,1,128,0|0,0:0|0:0,0:0:0:0:
191,165,64489,1,0,0:0:0:0:
274,97,64639,2,0,P|291:123|292:154,1,64,0|0,0:0|0:0,0:0:0:0:
238,287,64939,6,0,P|203:234|201:171,1,128,0|0,0:0|0:0,0:0:0:0:
284,99,65389,1,0,0:0:0:0:
284,99,65539,2,0,L|293:162,1,64,0|0,0:0|0:0,0:0:0:0:
228,285,65839,2,0,L|209:158,2,128,0|0|0,0:0|0:0|0:0,0:0:0:0:
329,345,66739,6,0,L|303:174,1,160,0|0,0:0|0:0,0:0:0:0:
204,126,67189,2,0,L|229:297,1,160,0|0,0:0|0:0,0:0:0:0:
165,333,67639,2,0,P|238:359|303:315,2,160,0|0|0,0:0|0:0|0:0,0:0:0:0:
141,212,68539,6,0,L|167:41,1,160,0|0,0:0|0:0,0:0:0:0:
287,32,68989,2,0,L|261:203,1,160,0|0,0:0|0:0,0:0:0:0:
322,253,69439,2,0,P|249:279|184:235,2,160,0|0|0,0:0|0:0|0:0,0:0:0:0:
389,184,70339,6,0,L|367:23,1,160,0|0,0:0|0:0,0:0:0:0:
271,0,70789,1,0,0:0:0:0:
256,192,70939,12,0,72739,0:0:0:0:
355,182,73039,6,0,L|333:343,2,160,0|0|0,0:0|0:0|0:0,0:0:0:0:
273,104,73939,2,0,B|248:155|248:155|251:265,1,160,0|0,0:0|0:0,0:0:0:0:
333,340,74389,2,0,B|357:288|357:288|355:179,1,160,0|0,0:0|0:0,0:0:0:0:
277,103,74839,2,0,L|116:125,2,160,0|0|0,0:0|0:0|0:0,0:0:0:0:
355,185,75739,6,0,B|303:209|303:209|194:207,1,160,0|0,0:0|0:0,0:0:0:0:
119,125,76189,2,0,B|170:100|170:100|280:103,1,160,0|0,0:0|0:0,0:0:0:0:
345,158,76639,6,0,L|337:320,2,160,0|0|0,0:0|0:0|0:0,0:0:0:0:
254,60,77539,2,0,L|246:219,1,160,0|0,0:0|0:0,0:0:0:0:
337,317,77989,1,0,0:0:0:0:
256,192,78139,12,0,79939,0:0:0:0:
183,71,80239,6,0,L|174:178,1,103.999995239258,0|0,0:0|0:0,0:0:0:0:
209,299,80539,1,0,0:0:0:0:
258,164,80689,1,0,0:0:0:0:
123,115,80839,1,0,0:0:0:0:
74,250,80989,1,0,0:0:0:0:
209,299,81139,6,0,L|258:161,1,111.999996582031,0|0,0:0|0:0,0:0:0:0:
386,146,81439,2,0,L|337:284,1,111.999996582031,0|0,0:0|0:0,0:0:0:0:
209,299,81739,2,0,P|121:257|133:139,1,223.999993164063,0|0,0:0|0:0,0:0:0:0:
225,79,82189,1,0,0:0:0:0:
246,193,82339,2,0,P|242:227|197:331,1,111.999996582031,0|0,0:0|0:0,0:0:0:0:
145,227,82639,2,0,P|148:192|194:89,1,111.999996582031,0|0,0:0|0:0,0:0:0:0:
373,182,82939,6,0,B|373:231|373:231|348:289,1,111.999996582031,0|0,0:0|0:0,0:0:0:0:
281,224,83239,2,0,B|281:175|281:175|306:117,1,111.999996582031,0|0,0:0|0:0,0:0:0:0:
373,182,83539,2,0,B|373:231|373:231|348:289,1,111.999996582031,0|0,0:0|0:0,0:0:0:0:
214,160,83839,2,0,B|214:111|214:111|239:53,1,111.999996582031,0|0,0:0|0:0,0:0:0:0:
305,117,84139,2,0,B|305:166|305:166|280:224,1,111.999996582031,0|0,0:0|0:0,0:0:0:0:
214,160,84439,2,0,B|214:111|214:111|239:53,1,111.999996582031,0|0,0:0|0:0,0:0:0:0:
354,18,84739,5,0,0:0:0:0:
346,188,84889,1,0,0:0:0:0:
407,40,85039,5,0,0:0:0:0:
292,165,85189,1,0,0:0:0:0:
434,92,85339,6,0,B|380:79|380:79|313:92,1,111.999996582031,0|0,0:0|0:0,0:0:0:0:
315,263,85639,5,0,0:0:0:0:
420,97,85789,1,0,0:0:0:0:
273,209,85939,5,0,0:0:0:0:
461,150,86089,1,0,0:0:0:0:
276,142,86239,5,0,0:0:0:0:
458,217,86389,1,0,0:0:0:0:
219,197,86539,6,0,L|89:180,1,111.999996582031,0|0,0:0|0:0,0:0:0:0:
181,110,86839,2,0,L|311:127,1,111.999996582031,0|0,0:0|0:0,0:0:0:0:
333,49,87139,2,0,P|388:125|282:210,1,223.999993164063,0|0,0:0|0:0,0:0:0:0:
206,167,87589,1,0,0:0:0:0:
304,50,87739,2,0,B|309:105|309:105|291:179,1,111.999996582031,0|0,0:0|0:0,0:0:0:0:
197,277,88039,2,0,B|192:222|192:222|210:148,1,111.999996582031,0|0,0:0|0:0,0:0:0:0:
398,240,88339,6,0,B|343:245|343:245|269:227,1,111.999996582031,0|0,0:0|0:0,0:0:0:0:
171,133,88639,2,0,B|226:128|226:128|300:146,1,111.999996582031,0|0,0:0|0:0,0:0:0:0:
398,240,88939,2,0,B|343:245|343:245|269:227,1,111.999996582031,0|0,0:0|0:0,0:0:0:0:
60,124,89239,2,0,B|115:119|115:119|189:137,1,111.999996582031,0|0,0:0|0:0,0:0:0:0:
287,231,89539,2,0,B|232:236|232:236|158:218,1,111.999996582031,0|0,0:0|0:0,0:0:0:0:
60,124,89839,2,0,B|115:119|115:119|189:137,1,111.999996582031,0|0,0:0|0:0,0:0:0:0:
258,233,90139,5,0,0:0:0:0:
188,77,90289,1,0,0:0:0:0:
358,94,90439,2,0,B|306:121|306:121|248:145,1,111.999996582031,0|0,0:0|0:0,0:0:0:0:
129,98,90739,2,0,B|181:71|181:71|239:47,1,111.999996582031,0|0,0:0|0:0,0:0:0:0:
318,184,91039,5,0,0:0:0:0:
224,21,91189,1,0,0:0:0:0:
254,195,91339,5,0,0:0:0:0:
288,10,91489,1,0,0:0:0:0:
199,163,91639,5,0,0:0:0:0:
343,42,91789,1,0,0:0:0:0:
176,102,91939,6,0,B|235:105|235:105|306:131,1,111.999996582031,0|0,0:0|0:0,0:0:0:0:
342,217,92239,2,0,B|283:214|283:214|212:188,1,111.999996582031,0|0,0:0|0:0,0:0:0:0:
176,102,92539,2,0,B|293:108|293:108|435:159,1,223.999993164063,0|0,0:0|0:0,0:0:0:0:
324,261,92989,1,0,0:0:0:0:
211,210,93139,2,0,B|213:151|213:151|239:80,1,111.999996582031,0|0,0:0|0:0,0:0:0:0:
324,174,93439,2,0,B|321:232|321:232|295:303,1,111.999996582031,0|0,0:0|0:0,0:0:0:0:
119,137,93739,6,0,B|121:78|121:78|147:7,1,111.999996582031,0|0,0:0|0:0,0:0:0:0:
232,101,94039,2,0,B|229:159|229:159|203:230,1,111.999996582031,0|0,0:0|0:0,0:0:0:0:
119,137,94339,2,0,B|121:78|121:78|147:7,1,111.999996582031,0|0,0:0|0:0,0:0:0:0:
210,209,94639,2,0,B|207:267|207:267|181:338,1,111.999996582031,0|0,0:0|0:0,0:0:0:0:
97,245,94939,2,0,B|99:186|99:186|125:115,1,111.999996582031,0|0,0:0|0:0,0:0:0:0:
210,209,95239,2,0,B|207:267|207:267|181:338,1,111.999996582031,0|0,0:0|0:0,0:0:0:0:
97,245,95539,2,0,L|119:130,1,111.999996582031,0|0,0:0|0:0,0:0:0:0:
231,98,95839,2,0,L|209:213,1,111.999996582031,0|0,0:0|0:0,0:0:0:0:
97,245,96139,6,0,L|119:130,1,111.999996582031,0|0,0:0|0:0,0:0:0:0:
209,41,96439,5,0,0:0:0:0:
226,210,96589,1,0,0:0:0:0:
265,55,96739,5,0,0:0:0:0:
169,195,96889,1,0,0:0:0:0:
299,102,97039,5,0,0:0:0:0:
135,148,97189,1,0,0:0:0:0:
358,186,97339,6,0,B|300:178|300:178|249:146,1,111.999996582031,0|0,0:0|0:0,0:0:0:0:
329,95,97639,2,0,B|386:102|386:102|437:134,1,111.999996582031,0|0,0:0|0:0,0:0:0:0:
358,186,97939,2,0,B|242:171|242:171|140:107,1,223.999993164063,0|0,0:0|0:0,0:0:0:0:
207,11,98389,1,0,0:0:0:0:
207,11,98539,2,0,B|235:56|235:56|242:114,1,111.999996582031,0|0,0:0|0:0,0:0:0:0:
177,249,98839,2,0,B|148:203|148:203|141:145,1,111.999996582031,0|0,0:0|0:0,0:0:0:0:
242,114,99139,6,0,B|270:159|270:159|277:217,1,111.999996582031,0|0,0:0|0:0,0:0:0:0:
212,352,99439,2,0,B|183:306|183:306|176:248,1,111.999996582031,0|0,0:0|0:0,0:0:0:0:
242,114,99739,2,0,B|270:159|270:159|277:217,1,111.999996582031,0|0,0:0|0:0,0:0:0:0:
176,248,100039,2,0,B|147:202|147:202|140:144,1,111.999996582031,0|0,0:0|0:0,0:0:0:0:
206,10,100339,2,0,B|234:55|234:55|241:113,1,111.999996582031,0|0,0:0|0:0,0:0:0:0:
176,248,100639,2,0,B|147:202|147:202|140:144,1,111.999996582031,0|0,0:0|0:0,0:0:0:0:
218,52,100939,1,0,0:0:0:0:
220,191,101089,1,0,0:0:0:0:
98,123,101239,2,0,B|143:94|143:94|201:87,1,111.999996582031,0|0,0:0|0:0,0:0:0:0:
343,151,101539,6,0,B|297:179|297:179|239:186,1,111.999996582031,0|0,0:0|0:0,0:0:0:0:
127,123,101839,5,0,0:0:0:0:
314,109,101989,1,0,0:0:0:0:
136,55,102139,5,0,0:0:0:0:
304,176,102289,1,0,0:0:0:0:
192,6,102439,5,0,0:0:0:0:
248,225,102589,1,0,0:0:0:0:
273,6,102739,5,0,0:0:0:0:
256,192,102889,12,0,104539,0:0:0:0:
157,120,104839,6,0,L|163:211,1,88.000002685547,0|0,0:0|0:0,0:0:0:0:
203,333,105139,5,0,0:0:0:0:
292,234,105289,1,0,0:0:0:0:
162,207,105439,2,0,L|168:298,1,88.000002685547,0|0,0:0|0:0,0:0:0:0:
276,348,105739,2,0,L|270:257,1,88.000002685547,0|0,0:0|0:0,0:0:0:0:
156,119,106039,2,0,L|161:206,1,88.000002685547,0|0,0:0|0:0,0:0:0:0:
252,291,106339,6,0,L|246:200,1,88.000002685547,0|0,0:0|0:0,0:0:0:0:
138,150,106639,1,0,0:0:0:0:
146,270,106789,1,0,0:0:0:0:
246,203,106939,2,0,L|240:115,1,88.000002685547,0|0,0:0|0:0,0:0:0:0:
150,31,107239,2,0,L|155:118,1,88.000002685547,0|0,0:0|0:0,0:0:0:0:
188,255,107539,5,0,0:0:0:0:
244,116,107689,1,0,0:0:0:0:
130,231,107839,5,0,0:0:0:0:
302,139,107989,1,0,0:0:0:0:
120,165,108139,6,0,P|219:153|284:247,1,176.000005371094,0|0,0:0|0:0,0:0:0:0:
185,227,108589,1,0,0:0:0:0:
120,165,108739,2,0,L|130:55,1,88.000002685547,0|0,0:0|0:0,0:0:0:0:
272,56,109039,2,0,L|256:230,2,176.000005371094,0|0|0,0:0|0:0|0:0,0:0:0:0:
191,16,109789,1,0,0:0:0:0:
191,16,109939,6,0,L|183:103,1,88.000002685547,0|0,0:0|0:0,0:0:0:0:
256,231,110239,2,0,L|271:56,1,176.000005371094,0|0,0:0|0:0,0:0:0:0:
191,16,110689,1,0,0:0:0:0:
191,16,110839,2,0,L|183:103,1,88.000002685547,0|0,0:0|0:0,0:0:0:0:
258,246,111139,2,0,L|265:158,1,88.000002685547,0|0,0:0|0:0,0:0:0:0:
211,48,111439,1,0,0:0:0:0:
334,55,111589,1,0,0:0:0:0:
265,158,111739,6,0,P|305:126|335:72,1,88.000002685547,0|0,0:0|0:0,0:0:0:0:
281,13,112039,2,0,P|213:66|163:157,1,176.000005371094,0|0,0:0|0:0,0:0:0:0:
186,246,112489,1,0,0:0:0:0:
186,246,112639,2,0,L|279:225,1,88.000002685547,0|0,0:0|0:0,0:0:0:0:
326,138,112939,2,0,L|233:159,1,88.000002685547,0|0,0:0|0:0,0:0:0:0:
186,246,113239,1,0,0:0:0:0:
135,154,113389,1,0,0:0:0:0:
240,157,113539,6,0,P|205:256|154:308,1,176.000005371094,0|0,0:0|0:0,0:0:0:0:
49,325,113989,2,0,P|84:226|135:174,1,176.000005371094,0|0,0:0|0:0,0:0:0:0:
233,136,114439,5,0,0:0:0:0:
213,244,114589,1,0,0:0:0:0:
265,155,114739,5,0,0:0:0:0:
180,224,114889,1,0,0:0:0:0:
277,190,115039,5,0,0:0:0:0:
168,189,115189,1,0,0:0:0:0:
264,225,115339,6,0,P|283:148|189:96,1,176.000005371094,0|0,0:0|0:0,0:0:0:0:
126,134,115789,1,0,0:0:0:0:
126,134,115939,2,0,L|142:229,1,88.000002685547,0|0,0:0|0:0,0:0:0:0:
255,270,116239,2,0,L|223:82,1,176.000005371094,0|0,0:0|0:0,0:0:0:0:
124,35,116689,1,0,0:0:0:0:
124,35,116839,2,0,L|140:130,1,88.000002685547,0|0,0:0|0:0,0:0:0:0:
241,184,117139,6,0,L|223:83,1,88.000002685547,0|0,0:0|0:0,0:0:0:0:
124,35,117439,2,0,L|153:207,1,176.000005371094,0|0,0:0|0:0,0:0:0:0:
236,287,117889,1,0,0:0:0:0:
236,287,118039,2,0,L|337:269,1,88.000002685547,0|0,0:0|0:0,0:0:0:0:
352,173,118339,2,0,L|251:191,1,88.000002685547,0|0,0:0|0:0,0:0:0:0:
236,287,118639,2,0,L|337:269,1,88.000002685547,0|0,0:0|0:0,0:0:0:0:
399,216,118939,6,0,L|364:20,1,176.000005371094,0|0,0:0|0:0,0:0:0:0:
265,0,119389,2,0,L|299:195,1,176.000005371094,0|0,0:0|0:0,0:0:0:0:
311,259,119839,2,0,L|293:161,1,88.000002685547,0|0,0:0|0:0,0:0:0:0:
201,125,120139,2,0,L|218:222,1,88.000002685547,0|0,0:0|0:0,0:0:0:0:
301,280,120439,1,0,0:0:0:0:
198,319,120589,1,0,0:0:0:0:
216,211,120739,6,0,P|268:161|392:197,1,176.000005371094,0|0,0:0|0:0,0:0:0:0:
463,227,121189,2,0,P|411:277|287:241,1,176.000005371094
335,108,121639,6,0,P|360:134|342:196,1,88.000002685547,0|0,0:0|0:0,0:0:0:0:
313,267,121939,1,0,0:0:0:0:
381,179,122089,1,0,0:0:0:0:
292,234,122239,1,0,0:0:0:0:
401,211,122389,1,0,0:0:0:0:
265,306,122539,6,0,P|206:262|189:166,1,176.000005371094,0|0,0:0|0:0,0:0:0:0:
260,118,122989,1,0,0:0:0:0:
260,118,123139,2,0,L|268:214,1,88.000002685547,0|0,0:0|0:0,0:0:0:0:
368,249,123439,2,0,L|360:153,1,88.000002685547,0|0,0:0|0:0,0:0:0:0:
207,72,123739,2,0,L|215:168,1,88.000002685547,0|0,0:0|0:0,0:0:0:0:
368,249,124039,2,0,L|360:153,1,88.000002685547,0|0,0:0|0:0,0:0:0:0:
199,240,124339,6,0,L|295:233,2,88.000002685547,0|0|0,0:0|0:0|0:0,0:0:0:0:
122,242,124789,2,0,P|72:210|91:55,1,176.000005371094,0|0,0:0|0:0,0:0:0:0:
126,48,125239,2,0,B|151:71|151:71|171:160,1,88.000002685547,0|0,0:0|0:0,0:0:0:0:
89,179,125539,1,0,0:0:0:0:
126,48,125689,1,0,0:0:0:0:
220,145,125839,2,0,P|188:172|137:176,1,88.000002685547,0|0,0:0|0:0,0:0:0:0:
26,151,126139,6,0,B|146:88|146:88|188:81,1,176.000005371094,0|0,0:0|0:0,0:0:0:0:
280,142,126589,2,0,B|160:205|160:205|118:212,1,176.000005371094,0|0,0:0|0:0,0:0:0:0:
36,160,127039,2,0,L|41:72,1,88.000002685547,0|0,0:0|0:0,0:0:0:0:
164,41,127339,2,0,L|159:129,1,88.000002685547,0|0,0:0|0:0,0:0:0:0:
79,219,127639,1,0,0:0:0:0:
197,242,127789,1,0,0:0:0:0:
159,128,127939,6,0,P|122:149|103:194,1,88.000002685547,0|0,0:0|0:0,0:0:0:0:
147,275,128239,2,0,P|221:233|259:143,1,176.000005371094,0|0,0:0|0:0,0:0:0:0:
165,66,128689,1,0,0:0:0:0:
165,66,128839,2,0,L|159:159,1,88.000002685547,0|0,0:0|0:0,0:0:0:0:
260,239,129139,2,0,L|266:146,1,88.000002685547,0|0,0:0|0:0,0:0:0:0:
165,66,129439,2,0,L|159:159,1,88.000002685547,0|0,0:0|0:0,0:0:0:0:
181,248,129739,6,0,L|367:260,1,176.000005371094,0|0,0:0|0:0,0:0:0:0:
335,158,130189,2,0,L|242:152,2,88.000002685547,0|0|0,0:0|0:0|0:0,0:0:0:0:
401,118,130639,2,0,P|408:159|392:213,1,88.000002685547,0|0,0:0|0:0,0:0:0:0:
295,258,130939,2,0,P|287:216|304:163,1,88.000002685547,0|0,0:0|0:0,0:0:0:0:
401,118,131239,2,0,P|408:159|392:213,1,88.000002685547,0|0,0:0|0:0,0:0:0:0:
287,281,131539,6,0,L|263:97,1,176.000005371094,0|0,0:0|0:0,0:0:0:0:
352,27,131989,2,0,L|376:211,1,176.000005371094,0|0,0:0|0:0,0:0:0:0:
343,296,132439,1,0,0:0:0:0:
437,220,132589,1,0,0:0:0:0:
361,126,132739,1,0,0:0:0:0:
267,202,132889,1,0,0:0:0:0:
343,296,133039,2,0,P|388:215|386:191,1,88.000002685547,0|0,0:0|0:0,0:0:0:0:
317,100,133339,6,0,B|276:155|276:155|256:291,1,176.000005371094,0|0,0:0|0:0,0:0:0:0:
319,340,133789,2,0,B|360:285|360:285|380:149,1,176.000005371094,0|0,0:0|0:0,0:0:0:0:
198,221,134239,2,0,B|253:262|253:262|389:282,1,176.000005371094,0|0,0:0|0:0,0:0:0:0:
438,219,134689,2,0,B|383:178|383:178|247:158,1,176.000005371094,0|0,0:0|0:0,0:0:0:0:
198,221,135139,6,0,B|225:241|225:241|293:251,1,88.000002685547,0|0,0:0|0:0,0:0:0:0:
341,200,135439,5,0,0:0:0:0:
358,109,135589,1,0,0:0:0:0:
299,195,135739,5,0,0:0:0:0:
399,113,135889,1,0,0:0:0:0:
243,152,136039,5,0,0:0:0:0:
454,155,136189,1,0,0:0:0:0:
269,85,136339,5,0,0:0:0:0:
428,222,136489,1,0,0:0:0:0:
331,51,136639,5,0,0:0:0:0:
366,256,136789,1,0,0:0:0:0:
395,76,136939,6,0,P|362:108|339:158,1,88.000002685547,0|0,0:0|0:0,0:0:0:0:
352,276,137239,2,0,P|385:244|408:194,1,88.000002685547,0|0,0:0|0:0,0:0:0:0:
395,76,137539,2,0,P|362:108|339:158,1,88.000002685547,0|0,0:0|0:0,0:0:0:0:
352,276,137839,2,0,P|419:213|465:113,1,176.000005371094,0|0,0:0|0:0,0:0:0:0:
368,20,138289,1,0,0:0:0:0:
369,108,138439,1,0,0:0:0:0:
445,65,138589,1,0,0:0:0:0:
368,20,138739,6,0,L|359:111,1,88.000002685547,0|0,0:0|0:0,0:0:0:0:
254,176,139039,2,0,L|261:88,1,88.000002685547,0|0,0:0|0:0,0:0:0:0:
368,20,139339,2,0,L|359:111,1,88.000002685547,0|0,0:0|0:0,0:0:0:0:
425,175,139639,2,0,L|408:358,2,176.000005371094,0|0|0,0:0|0:0|0:0,0:0:0:0:
323,90,140539,6,0,L|306:273,1,176.000005371094,0|0,0:0|0:0,0:0:0:0:
409,350,140989,2,0,L|424:174,1,176.000005371094,0|0,0:0|0:0,0:0:0:0:
371,72,141439,2,0,P|283:48|195:56,1,176.000005371094,0|0,0:0|0:0,0:0:0:0:
230,203,141889,1,0,0:0:0:0:
326,184,142039,2,0,P|337:140|333:96,1,88.000002685547,0|0,0:0|0:0,0:0:0:0:
253,36,142339,6,0,L|236:219,1,176.000005371094,0|0,0:0|0:0,0:0:0:0:
319,309,142789,1,0,0:0:0:0:
319,309,142939,2,0,L|327:217,1,88.000002685547,0|0,0:0|0:0,0:0:0:0:
296,72,143239,5,0,0:0:0:0:
310,170,143389,1,0,0:0:0:0:
342,57,143539,5,0,0:0:0:0:
263,184,143689,1,0,0:0:0:0:
408,86,143839,5,0,0:0:0:0:
197,155,143989,1,0,0:0:0:0:
456,182,144139,6,0,P|387:116|297:91,1,176.000005371094,0|0,0:0|0:0,0:0:0:0:
220,132,144589,1,0,0:0:0:0:
220,132,144739,2,0,L|207:233,1,88.000002685547,0|0,0:0|0:0,0:0:0:0:
307,328,145039,2,0,L|333:126,1,176.000005371094,0|0,0:0|0:0,0:0:0:0:
231,44,145489,2,0,L|205:246,1,176.000005371094,0|0,0:0|0:0,0:0:0:0:
251,308,145939,6,0,P|342:331|453:334,2,176.000005371094,0|0|0,0:0|0:0|0:0,0:0:0:0:
175,222,146839,2,0,P|262:227|347:249,1,176.000005371094,0|0,0:0|0:0,0:0:0:0:
388,361,147439,1,0,0:0:0:0:
347,249,147739,2,0,P|352:161|374:76,2,176.000005371094,0|0|0,0:0|0:0|0:0,0:0:0:0:
423,318,148639,2,0,P|445:232|450:145,1,176.000005371094,0|0,0:0|0:0,0:0:0:0:
345,66,149089,1,0,0:0:0:0:
396,171,149239,1,0,0:0:0:0:
391,35,149389,1,0,0:0:0:0:
349,201,149539,6,0,P|316:153|323:112,2,88.000002685547,0|0|0,0:0|0:0|0:0,0:0:0:0:
442,100,149989,1,0,0:0:0:0:
484,231,150139,1,0,0:0:0:0:
349,201,150289,1,0,0:0:0:0:
442,100,150439,2,0,P|461:146|477:219,1,88.000002685547,0|0,0:0|0:0,0:0:0:0:
402,297,150739,5,0,0:0:0:0:
331,152,150889,1,0,0:0:0:0:
337,342,151039,5,0,0:0:0:0:
395,106,151189,1,0,0:0:0:0:
246,312,151339,6,0,P|247:212|266:135,2,176.000005371094,0|0|0,0:0|0:0|0:0,0:0:0:0:
355,376,152239,2,0,P|388:293|373:202,1,176.000005371094,0|0,0:0|0:0,0:0:0:0:
317,106,152689,2,0,P|284:189|298:279,1,176.000005371094
399,331,153139,6,0,L|407:137,2,176.000005371094,0|0|0,0:0|0:0|0:0,0:0:0:0:
285,384,154039,2,0,L|293:190,1,176.000005371094,0|0,0:0|0:0,0:0:0:0:
387,90,154489,2,0,L|379:265,1,176.000005371094,0|0,0:0|0:0,0:0:0:0:
452,312,154939,6,0,P|361:350|305:308,1,176.000005371094,0|0,0:0|0:0,0:0:0:0:
274,182,155539,1,0,0:0:0:0:
412,68,155839,2,0,L|423:249,1,176.000005371094,0|0,0:0|0:0,0:0:0:0:
347,334,156289,1,0,0:0:0:0:
347,334,156439,2,0,L|341:246,1,88.000002685547,0|0,0:0|0:0,0:0:0:0:
266,221,156739,6,0,P|339:172|413:219,1,176.000005371094,0|0,0:0|0:0,0:0:0:0:
386,307,157189,1,0,0:0:0:0:
266,221,157339,2,0,L|280:318,1,88.000002685547,0|0,0:0|0:0,0:0:0:0:
353,248,157639,2,0,L|325:54,2,176.000005371094,0|0|0,0:0|0:0|0:0,0:0:0:0:
449,324,158539,6,0,P|471:233|432:147,1,191.999994140625,0|0,0:0|0:0,0:0:0:0:
367,64,158989,2,0,P|344:155|383:241,1,191.999994140625,0|0,0:0|0:0,0:0:0:0:
449,324,159439,2,0,P|471:233|432:147,1,191.999994140625,0|0,0:0|0:0,0:0:0:0:
317,96,159889,1,0,0:0:0:0:
317,96,160039,2,0,L|302:212,1,95.9999970703126,0|0,0:0|0:0,0:0:0:0:
391,340,160339,6,0,L|421:108,1,191.999994140625,0|0,0:0|0:0,0:0:0:0:
300,48,160789,2,0,L|270:280,1,191.999994140625,0|0,0:0|0:0,0:0:0:0:
391,340,161239,2,0,L|421:108,1,191.999994140625,0|0,0:0|0:0,0:0:0:0:
246,41,161839,2,0,L|231:157,1,95.9999970703126,0|0,0:0|0:0,0:0:0:0:
321,348,162139,6,0,L|351:116,1,191.999994140625,0|0,0:0|0:0,0:0:0:0:
246,41,162589,1,0,0:0:0:0:
256,192,162739,12,0,164539,0:0:0:0:
299,97,164839,5,0,0:0:0:0:
288,226,164989,1,0,0:0:0:0:
357,97,165139,5,0,0:0:0:0:
229,225,165289,1,0,0:0:0:0:
434,138,165439,5,0,0:0:0:0:
182,160,165589,1,0,0:0:0:0:
453,250,165739,6,0,P|464:153|411:77,1,191.999994140625,0|0,0:0|0:0,0:0:0:0:
323,9,166189,2,0,P|312:106|365:182,1,191.999994140625,0|0,0:0|0:0,0:0:0:0:
453,250,166639,2,0,P|464:153|411:77,2,191.999994140625,0|0|0,0:0|0:0|0:0,0:0:0:0:
311,335,167539,6,0,L|243:144,1,191.999994140625,0|0,0:0|0:0,0:0:0:0:
334,53,167989,2,0,L|402:244,1,191.999994140625,0|0,0:0|0:0,0:0:0:0:
376,317,168439,2,0,L|185:385,2,191.999994140625,0|0|0,0:0|0:0|0:0,0:0:0:0:
398,233,169339,2,0,L|334:53,1,191.999994140625,0|0,0:0|0:0,0:0:0:0:
226,22,169789,1,0,0:0:0:0:
256,192,169939,12,0,171739,0:0:0:0:
279,101,172039,5,0,0:0:0:0:
306,247,172189,1,0,0:0:0:0:
344,84,172339,5,0,0:0:0:0:
241,264,172489,1,0,0:0:0:0:
428,124,172639,5,0,0:0:0:0:
157,224,172789,1,0,0:0:0:0:
473,231,172939,6,0,L|344:167,1,111.999996582031,0|0,0:0|0:0,0:0:0:0:
108,165,173239,2,0,L|237:229,1,111.999996582031,0|0,0:0|0:0,0:0:0:0:
183,311,173539,2,0,P|282:259|251:108,1,223.999993164063,0|0,0:0|0:0,0:0:0:0:
176,54,173989,1,0,0:0:0:0:
175,53,174139,2,0,L|162:165,1,111.999996582031,0|0,0:0|0:0,0:0:0:0:
276,267,174439,2,0,L|290:156,1,111.999996582031,0|0,0:0|0:0,0:0:0:0:
175,53,174739,6,0,L|162:165,1,111.999996582031,0|0,0:0|0:0,0:0:0:0:
188,282,175039,5,0,0:0:0:0:
231,114,175189,1,0,0:0:0:0:
131,253,175339,5,0,0:0:0:0:
287,142,175489,1,0,0:0:0:0:
104,190,175639,5,0,0:0:0:0:
314,205,175789,1,0,0:0:0:0:
126,117,175939,5,0,0:0:0:0:
292,278,176089,1,0,0:0:0:0:
197,71,176239,5,0,0:0:0:0:
221,324,176389,1,0,0:0:0:0:
288,82,176539,5,0,0:0:0:0:
130,313,176689,1,0,0:0:0:0:
357,156,176839,6,0,L|232:207,1,111.999996582031,0|0,0:0|0:0,0:0:0:0:
130,313,177139,2,0,L|255:262,1,111.999996582031,0|0,0:0|0:0,0:0:0:0:
295,159,177439,5,0,0:0:0:0:
85,175,177589,1,0,0:0:0:0:
284,234,177739,5,0,0:0:0:0:
95,99,177889,1,0,0:0:0:0:
221,290,178039,5,0,0:0:0:0:
158,43,178189,1,0,0:0:0:0:
129,293,178339,6,0,L|186:183,1,111.999996582031,0|0,0:0|0:0,0:0:0:0:
336,154,178639,2,0,L|279:264,1,111.999996582031,0|0,0:0|0:0,0:0:0:0:
189,244,178939,2,0,P|249:332|355:320,1,223.999993164063,0|0,0:0|0:0,0:0:0:0:
336,154,179389,1,0,0:0:0:0:
336,154,179539,2,0,L|279:264,1,111.999996582031,0|0,0:0|0:0,0:0:0:0:
155,274,179839,2,0,L|212:164,1,111.999996582031,0|0,0:0|0:0,0:0:0:0:
336,154,180139,6,0,L|279:264,1,111.999996582031,0|0,0:0|0:0,0:0:0:0:
204,317,180439,5,0,0:0:0:0:
214,180,180589,1,0,0:0:0:0:
151,307,180739,5,0,0:0:0:0:
266,189,180889,1,0,0:0:0:0:
110,258,181039,5,0,0:0:0:0:
307,238,181189,1,0,0:0:0:0:
110,181,181339,5,0,0:0:0:0:
307,315,181489,1,0,0:0:0:0:
176,134,181639,5,0,0:0:0:0:
241,362,181789,1,0,0:0:0:0:
266,118,181939,6,0,L|209:228,1,111.999996582031,0|0,0:0|0:0,0:0:0:0:
297,307,182239,2,0,L|354:197,1,111.999996582031,0|0,0:0|0:0,0:0:0:0:
317,18,182539,6,0,L|260:128,1,111.999996582031,0|0,0:0|0:0,0:0:0:0:
271,247,182839,5,0,0:0:0:0:
369,120,182989,1,0,0:0:0:0:
218,205,183139,5,0,0:0:0:0:
421,161,183289,1,0,0:0:0:0:
200,120,183439,5,0,0:0:0:0:
439,246,183589,1,0,0:0:0:0:
253,20,183739,6,0,P|250:69|281:147,1,111.999996582031,0|0,0:0|0:0,0:0:0:0:
380,218,184039,2,0,P|382:168|352:91,1,111.999996582031,0|0,0:0|0:0,0:0:0:0:
267,43,184339,6,0,B|154:35|154:35|61:100,1,223.999993164063,0|0,0:0|0:0,0:0:0:0:
70,192,184789,1,0,0:0:0:0:
70,192,184939,2,0,L|84:311,1,111.999996582031,0|0,0:0|0:0,0:0:0:0:
236,240,185239,2,0,L|222:121,1,111.999996582031,0|0,0:0|0:0,0:0:0:0:
56,80,185539,6,0,L|70:199,1,111.999996582031,0|0,0:0|0:0,0:0:0:0:
143,261,185839,5,0,0:0:0:0:
201,119,185989,1,0,0:0:0:0:
97,228,186139,5,0,0:0:0:0:
246,150,186289,1,0,0:0:0:0:
80,169,186439,5,0,0:0:0:0:
262,208,186589,1,0,0:0:0:0:
108,109,186739,5,0,0:0:0:0:
233,270,186889,1,0,0:0:0:0:
175,77,187039,5,0,0:0:0:0:
167,302,187189,1,0,0:0:0:0:
254,98,187339,6,0,L|165:192,1,111.999996582031,0|0,0:0|0:0,0:0:0:0:
167,302,187639,2,0,L|255:208,1,111.999996582031,0|0,0:0|0:0,0:0:0:0:
332,17,187939,2,0,L|243:110,1,111.999996582031,0|0,0:0|0:0,0:0:0:0:
256,223,188239,5,0,0:0:0:0:
379,108,188389,1,0,0:0:0:0:
216,171,188539,5,0,0:0:0:0:
419,160,188689,1,0,0:0:0:0:
220,92,188839,5,0,0:0:0:0:
415,239,188989,1,0,0:0:0:0:
283,22,189139,6,0,P|265:74|269:130,1,111.999996582031,0|0,0:0|0:0,0:0:0:0:
351,269,189439,2,0,P|368:216|365:161,1,111.999996582031,0|0,0:0|0:0,0:0:0:0:
321,71,189739,2,0,P|216:35|105:42,1,223.999993164063,0|0,0:0|0:0,0:0:0:0:
49,143,190189,1,0,0:0:0:0:
48,143,190339,2,0,P|50:204|68:251,1,111.999996582031,0|0,0:0|0:0,0:0:0:0:
200,299,190639,2,0,P|198:236|179:190,1,111.999996582031,0|0,0:0|0:0,0:0:0:0:
28,34,190939,6,0,P|30:95|48:143,1,111.999996582031,0|0,0:0|0:0,0:0:0:0:
131,218,191239,5,0,0:0:0:0:
132,88,191389,1,0,0:0:0:0:
79,212,191539,5,0,0:0:0:0:
182,92,191689,1,0,0:0:0:0:
39,168,191839,5,0,0:0:0:0:
223,137,191989,1,0,0:0:0:0:
34,95,192139,5,0,0:0:0:0:
228,208,192289,1,0,0:0:0:0:
85,25,192439,5,0,0:0:0:0:
175,279,192589,1,0,0:0:0:0:
185,0,192739,6,0,P|168:52|168:108,1,111.999996582031,0|0,0:0|0:0,0:0:0:0:
209,236,193039,5,0,0:0:0:0:
265,103,193189,1,0,0:0:0:0:
160,208,193339,5,0,0:0:0:0:
313,130,193489,1,0,0:0:0:0:
136,145,193639,5,0,0:0:0:0:
337,192,193789,1,0,0:0:0:0:
161,68,193939,5,0,0:0:0:0:
312,269,194089,1,0,0:0:0:0:
245,18,194239,5,0,0:0:0:0:
228,319,194389,1,0,0:0:0:0:
359,37,194539,6,0,P|301:64|259:111,1,128,0|0,0:0|0:0,0:0:0:0:
261,215,194839,2,0,P|318:188|361:141,1,128,0|0,0:0|0:0,0:0:0:0:
359,37,195139,2,0,P|244:92|157:184,1,256,0|0,0:0|0:0,0:0:0:0:
173,307,195589,1,0,0:0:0:0:
245,142,195739,5,0,0:0:0:0:
112,272,195889,1,0,0:0:0:0:
305,176,196039,5,0,0:0:0:0:
83,193,196189,1,0,0:0:0:0:
334,253,196339,6,0,P|263:240|222:189,1,128,0|0,0:0|0:0,0:0:0:0:
233,109,196639,5,0,0:0:0:0:
307,226,196789,1,0,0:0:0:0:
281,85,196939,5,0,0:0:0:0:
257,248,197089,1,0,0:0:0:0:
344,100,197239,5,0,0:0:0:0:
196,232,197389,1,0,0:0:0:0:
388,163,197539,5,0,0:0:0:0:
151,171,197689,1,0,0:0:0:0:
383,255,197839,5,0,0:0:0:0:
157,79,197989,1,0,0:0:0:0:
383,255,198139,2,0,P|342:244|317:164,1,128
368,113,198439,5,0,0:0:0:0:
389,257,198589,1,0,0:0:0:0:
424,110,198739,5,0,0:0:0:0:
333,260,198889,1,0,0:0:0:0:
478,151,199039,5,0,0:0:0:0:
278,219,199189,1,0,0:0:0:0:
496,231,199339,5,0,0:0:0:0:
259,139,199489,1,0,0:0:0:0:
450,318,199639,5,0,0:0:0:0:
305,51,199789,1,0,0:0:0:0:
343,364,199939,6,0,P|343:289|361:232,1,128,0|0,0:0|0:0,0:0:0:0:
465,88,200239,2,0,P|465:163|448:219,1,128,0|0,0:0|0:0,0:0:0:0:
345,271,200539,5,0,0:0:0:0:
303,131,200689,1,0,0:0:0:0:
289,281,200839,5,0,0:0:0:0:
359,120,200989,1,0,0:0:0:0:
230,247,201139,5,0,0:0:0:0:
417,153,201289,1,0,0:0:0:0:
201,171,201439,5,0,0:0:0:0:
445,230,201589,1,0,0:0:0:0:
233,79,201739,6,0,P|185:188|231:343,1,256,0|0,0:0|0:0,0:0:0:0:
357,360,202189,1,0,0:0:0:0:
424,185,202339,1,0,0:0:0:0:
240,214,202489,1,0,0:0:0:0:
357,360,202639,2,0,P|406:251|361:95,1,256,0|0,0:0|0:0,0:0:0:0:
259,40,203089,5,0,0:0:0:0:
292,232,203239,1,0,0:0:0:0:
335,35,203389,1,0,0:0:0:0:
216,236,203539,6,0,P|223:157|261:113,1,128,0|0,0:0|0:0,0:0:0:0:
351,68,203839,2,0,P|344:148|305:192,1,128,0|0,0:0|0:0,0:0:0:0:
233,252,204139,5,0,0:0:0:0:
209,98,204289,1,0,0:0:0:0:
173,256,204439,5,0,0:0:0:0:
269,94,204589,1,0,0:0:0:0:
114,212,204739,5,0,0:0:0:0:
328,137,204889,1,0,0:0:0:0:
93,127,205039,5,0,0:0:0:0:
348,223,205189,1,0,0:0:0:0:
142,33,205339,6,0,P|125:95|129:158,1,128,0|0,0:0|0:0,0:0:0:0:
254,238,205639,2,0,P|269:176|265:112,1,128,0|0,0:0|0:0,0:0:0:0:
191,81,205939,5,0,0:0:0:0:
136,212,206089,1,0,0:0:0:0:
239,107,206239,5,0,0:0:0:0:
87,185,206389,1,0,0:0:0:0:
262,169,206539,5,0,0:0:0:0:
63,123,206689,1,0,0:0:0:0:
237,244,206839,5,0,0:0:0:0:
88,49,206989,1,0,0:0:0:0:
156,293,207139,6,0,P|161:230|185:169,1,128,0|0,0:0|0:0,0:0:0:0:
321,130,207439,2,0,P|315:192|292:252,1,128,0|0,0:0|0:0,0:0:0:0:
185,169,207739,2,0,P|191:106|214:46,1,128,0|0,0:0|0:0,0:0:0:0:
321,130,208039,2,0,P|308:256|263:376,1,256,0|0,0:0|0:0,0:0:0:0:
151,282,208489,1,0,0:0:0:0:
220,119,208639,1,0,0:0:0:0:
328,259,208789,1,0,0:0:0:0:
151,282,208939,6,0,P|169:207|200:147,1,128,0|0,0:0|0:0,0:0:0:0:
281,96,209239,5,0,0:0:0:0:
264,238,209389,1,0,0:0:0:0:
335,109,209539,5,0,0:0:0:0:
209,225,209689,1,0,0:0:0:0:
375,161,209839,5,0,0:0:0:0:
169,172,209989,1,0,0:0:0:0:
371,241,210139,5,0,0:0:0:0:
174,92,210289,1,0,0:0:0:0:
308,307,210439,5,0,0:0:0:0:
242,17,210589,1,0,0:0:0:0:
194,319,210739,6,0,P|231:264|251:202,1,128,0|0,0:0|0:0,0:0:0:0:
202,72,211039,2,0,P|164:127|144:189,1,128,0|0,0:0|0:0,0:0:0:0:
194,319,211339,2,0,P|231:263|251:201,1,128,0|0,0:0|0:0,0:0:0:0:
189,63,211639,5,0,0:0:0:0:
161,223,211789,1,0,0:0:0:0:
250,80,211939,5,0,0:0:0:0:
100,208,212089,1,0,0:0:0:0:
294,143,212239,5,0,0:0:0:0:
56,145,212389,1,0,0:0:0:0:
286,234,212539,6,0,P|266:156|223:104,1,128,0|0,0:0|0:0,0:0:0:0:
128,50,212839,5,0,0:0:0:0:
140,192,212989,1,0,0:0:0:0:
182,50,213139,5,0,0:0:0:0:
85,190,213289,1,0,0:0:0:0:
232,94,213439,6,0,P|170:71|109:92,1,128
85,190,213739,5,0,0:0:0:0:
201,80,213889,1,0,0:0:0:0:
47,142,214039,5,0,0:0:0:0:
238,128,214189,1,0,0:0:0:0:
49,67,214339,5,0,0:0:0:0:
236,202,214489,1,0,0:0:0:0:
107,0,214639,6,0,P|86:62|94:132,1,128
178,230,214939,5,0,0:0:0:0:
218,69,215089,1,0,0:0:0:0:
117,207,215239,5,0,0:0:0:0:
278,91,215389,1,0,0:0:0:0:
78,141,215539,5,0,0:0:0:0:
317,157,215689,1,0,0:0:0:0:
95,49,215839,5,0,0:0:0:0:
300,249,215989,1,0,0:0:0:0:
183,12,216139,5,0,0:0:0:0:
213,307,216289,1,0,0:0:0:0:
345,144,216439,5,0,0:0:0:0:
49,175,216589,1,0,0:0:0:0:
208,11,216739,5,0,0:0:0:0:
187,307,216889,1,0,0:0:0:0:
345,169,217039,5,0,0:0:0:0:
49,148,217189,1,0,0:0:0:0:
233,15,217339,5,0,0:0:0:0:
161,303,217489,1,0,0:0:0:0:
342,195,217639,5,0,0:0:0:0:
53,123,217789,1,0,0:0:0:0:
258,24,217939,5,0,0:0:0:0:
