osu file format v14

[General]
AudioFilename: audio.mp3
AudioLeadIn: 0
PreviewTime: 172947
Countdown: 0
SampleSet: Soft
StackLeniency: 0.5
Mode: 0
LetterboxInBreaks: 0
WidescreenStoryboard: 1

[Editor]
Bookmarks: 14660,34460,35060,35660,35960,36560,36860,37160,37460,37760,38060,38360,38810,38960,39260,39860,40160,40760,54260,56060,59660,60560,61460,62360,63260,65960,69560,70460,74660,75860,76460,76760,77660,81710,82910,83810,86060,86660,94760,95660,108260,125360,126260,127160,130760,137060,146060,154160,161360,162260,166310,167510,167660,168260,169797,170997,173660,174710,178460,181160,186560,189260,191360,192860,197360,203060,203660,208160,209060,211460,211760,213560,214460
DistanceSpacing: 1.2
BeatDivisor: 4
GridSize: 4
TimelineZoom: 1

[Metadata]
Title:Psalm dla Ciebie
TitleUnicode:Psalm dla Ciebie
Artist:Piotr Rubik, Malgorzata Markiewicz, Janusz Radek
ArtistUnicode:Piotr Rubik, Malgorzata Markiewicz, Janusz Radek
Creator:-NeBu-
Version:Chalwa's Klaskanie u Rubika
Source:
Tags:piotr rubik malgorzata markiewicz janusz radek polish poland psalterz wrzesniowy 2006 CptSqBany [Red Panda] -NeBu- Chalwa Yusomi Piggey ReFaller Bubblun -Kyu Asrasz
BeatmapID:1297215
BeatmapSetID:586156

[Difficulty]
HPDrainRate:6.8
CircleSize:4.4
OverallDifficulty:8
ApproachRate:9.7
SliderMultiplier:1.66
SliderTickRate:1

[Events]
//Background and Video events
0,0,"rubik.png",0,0
Video,-403,"zzzzzzzzzzzzzzzz.mp4"
//Break Periods
//Storyboard Layer 0 (Background)
//Storyboard Layer 1 (Fail)
//Storyboard Layer 2 (Pass)
//Storyboard Layer 3 (Foreground)
//Storyboard Sound Samples

[TimingPoints]
147,300,3,2,1,25,1,0
147,-166.666666666667,3,2,1,25,0,0
9147,-100,3,2,1,25,0,0
10947,-200,3,2,1,30,0,0
16347,-100,3,2,1,40,0,0
79347,-83.3333333333333,3,2,1,55,0,0
81147,-66.6666666666667,3,2,1,70,0,1
82947,-55.5555555555556,3,2,1,70,0,1
83247,-52.6315789473684,3,2,1,70,0,1
83547,-50,3,2,1,70,0,1
83847,-66.6666666666667,3,2,1,70,0,1
85647,-83.3333333333333,3,2,1,70,0,1
85947,-90.9090909090909,3,2,1,70,0,1
86247,-100,3,2,1,70,0,1
86547,-66.6666666666667,3,2,1,70,0,1
102747,-83.3333333333333,3,2,1,70,0,1
108147,-100,3,2,1,50,0,0
121197,-83.3333333333333,3,2,1,50,0,0
121647,-71.4285714285714,3,2,1,50,0,0
122097,-62.5,3,2,1,50,0,0
122547,-100,3,2,1,50,0,0
172947,-66.6666666666667,3,2,1,60,0,1
193643,-100,3,2,1,30,0,1
194097,-133.333333333333,3,2,1,45,0,1
194547,-58.8235294117647,3,2,1,70,0,1
216147,-100,3,2,1,70,0,0
217947,-100,3,2,1,50,0,0

[Colours]
Combo1 : 112,80,37
Combo2 : 53,142,23
Combo3 : 205,159,97
Combo4 : 51,102,198

[HitObjects]
312,196,147,6,0,P|396:200|424:200,2,99.5999969604493
232,144,1047,1,0,0:0:0:0:
228,240,1347,2,0,P|228:292|204:332,1,99.5999969604493
154,190,1947,2,0,P|186:150|242:146,2,99.5999969604493
108,316,2847,6,0,P|76:356|20:360,2,99.5999969604493
212,272,3747,1,0,0:0:0:0:
264,356,4047,2,0,P|320:364|376:364,1,99.5999969604493
237,175,4647,2,0,P|224:228|209:279,2,99.5999969604493
372,108,5547,6,0,P|385:55|400:4,2,99.5999969604493
392,208,6447,1,0,0:0:0:0:
296,248,6747,2,0,P|240:252|184:248,1,99.5999969604493
314,150,7347,2,0,L|294:254,2,99.5999969604493
232,64,8247,6,0,P|184:52|172:96,2,99.5999969604493
332,152,9147,6,0,L|468:272,1,166
440,360,9597,1,0,0:0:0:0:
373,267,9747,2,0,L|489:259,1,83
328,344,10047,2,0,L|212:352,1,83
144,276,10347,1,0,0:0:0:0:
236,192,10497,1,0,0:0:0:0:
124,352,10647,2,0,P|76:320|72:252,1,124.5
80,228,10947,6,0,B|96:184|40:72|40:72|84:112|148:116|148:116|148:64|108:8|108:8|176:24|176:24|232:8|232:8|272:36|324:96|304:152|220:144|196:116|236:24|296:8|356:8|384:20|384:20|400:84|376:176|300:200|300:200|232:188|232:188|264:232|228:272|228:272|276:320|340:344|392:296|376:252|320:280,1,1452.5
416,364,16347,6,0,P|444:332|424:208,2,166
260,360,17247,1,0,0:0:0:0:
260,360,17547,2,0,L|240:280,1,83
344,204,17847,2,0,L|364:284,1,83
264,176,18147,6,0,P|300:124|408:140,1,166
432,196,18597,2,0,L|352:40,1,166
256,36,19047,2,0,L|164:52,1,83
104,164,19347,2,0,P|100:216|120:256,1,83
263,115,19647,2,0,P|267:63|247:23,1,83
200,200,19947,6,0,L|390:233,1,166
336,152,20397,2,0,P|292:216|320:300,1,166
443,250,20847,2,0,L|355:226,1,83
248,144,21147,1,0,0:0:0:0:
212,264,21297,1,0,0:0:0:0:
328,120,21447,2,0,P|296:80|264:60,1,83
136,196,21747,6,0,B|248:144|248:144|212:196,1,166
136,272,22197,2,0,P|72:248|72:148,1,166
260,104,22647,2,0,L|220:184,1,83
63,159,22947,2,0,L|103:79,1,83
260,16,23247,1,0,0:0:0:0:
224,176,23397,1,0,0:0:0:0:
176,32,23547,6,0,P|280:28|320:92,1,166
362,213,23997,2,0,P|258:217|218:153,1,166
412,144,24447,2,0,L|456:236,1,83
304,152,24747,2,0,L|348:60,1,83
362,213,25047,2,0,P|328:236|276:228,1,83
151,102,25347,6,0,B|219:102|219:102|307:154,2,166
60,184,26097,1,0,0:0:0:0:
136,264,26247,2,0,P|144:296|132:348,1,83
60,184,26547,2,0,P|52:152|64:100,1,83
136,264,26847,2,0,L|56:288,1,83
60,184,27147,6,0,L|224:134,2,166
56,287,27897,1,0,0:0:0:0:
156,256,28047,2,0,P|196:248|240:256,1,83
364,344,28347,2,0,P|324:352|280:344,1,83
364,232,28647,1,0,0:0:0:0:
460,340,28797,1,0,0:0:0:0:
276,188,28947,6,0,P|312:152|432:168,1,166
500,208,29397,2,0,B|444:152|444:152|444:60,1,166
360,28,29847,2,0,P|316:36|272:24,1,83
160,72,30147,2,0,P|119:63|79:71,1,83
208,188,30447,1,0,0:0:0:0:
280,28,30597,1,0,0:0:0:0:
46,200,30747,6,0,P|138:208|214:184,3,166
207,187,31947,1,0,0:0:0:0:
332,152,32097,1,0,0:0:0:0:
192,296,32247,1,0,0:0:0:0:
195,101,32397,2,0,P|251:89|335:161,1,166
146,168,32847,2,0,L|198:96,1,83
331,151,33147,2,0,L|279:223,1,83
192,100,33447,6,0,P|224:72|272:64,1,83
282,218,33747,2,0,P|250:246|202:254,1,83
331,151,34047,2,0,L|368:228,1,83
244,128,34347,2,0,P|276:80|380:76,2,166
211,254,35097,1,0,0:0:0:0:
84,148,35247,6,0,B|64:24|64:24|96:72,2,166
168,272,35997,1,0,0:0:0:0:
284,168,36147,2,0,B|324:140|364:160|364:160|408:140|444:164,1,166
325,266,36597,2,0,B|285:294|245:274|245:274|201:294|165:270,1,166
72,176,37047,2,0,L|40:256,1,83
180,168,37347,2,0,L|212:88,1,83
17,118,37647,2,0,P|41:158|89:178,1,83
356,101,37947,6,0,P|304:65|192:117,2,166
428,224,38697,1,0,0:0:0:0:
429,62,38847,2,0,L|345:106,1,83
354,262,39147,2,0,L|438:218,1,83
232,184,39447,2,0,L|148:228,1,83
354,262,39747,6,0,P|328:204|232:184,2,166
464,356,40497,1,0,0:0:0:0:
448,212,40647,2,0,L|424:44,2,166
376,344,41397,1,0,0:0:0:0:
264,272,41547,6,0,B|184:252|184:252|100:272,1,166
287,335,41997,2,0,P|331:311|259:279,1,166
384,364,42447,2,0,P|404:328|372:212,1,166
156,292,42897,2,0,L|324:292,1,166
464,128,43347,5,0,0:0:0:0:
428,328,43497,1,0,0:0:0:0:
286,92,43647,5,0,0:0:0:0:
322,292,43797,1,0,0:0:0:0:
192,92,43947,5,0,0:0:0:0:
156,292,44097,1,0,0:0:0:0:
286,92,44247,5,0,0:0:0:0:
104,176,44397,1,0,0:0:0:0:
392,252,44547,5,0,0:0:0:0:
210,168,44697,1,0,0:0:0:0:
436,156,44847,5,0,0:0:0:0:
254,240,44997,1,0,0:0:0:0:
367,20,45147,6,0,P|415:56|431:168,1,166
408,296,45597,1,0,0:0:0:0:
408,296,45672,1,0,0:0:0:0:
408,296,45747,2,0,L|316:308,1,83
321,199,46047,2,0,P|404:228|388:320,1,166
256,248,46497,2,0,L|356:100,1,166
183,208,46947,6,0,L|271:256,1,83
172,124,47247,2,0,P|140:132|108:184,1,83
252,152,47547,2,0,P|261:120|232:66,1,83
183,208,47847,2,0,L|160:308,1,83
252,152,48147,2,0,L|275:52,1,83
124,153,48447,2,0,P|148:189|192:209,1,83
156,72,48747,6,0,P|84:76|48:180,1,166
204,136,49197,2,0,L|100:-12,1,166
130,169,49647,2,0,B|178:157|178:157|206:133,1,83
41,151,49947,2,0,L|68:240,1,83
227,214,50247,2,0,L|200:125,1,83
168,280,50547,6,0,P|232:300|312:232,1,166
360,124,50997,1,0,0:0:0:0:
408,232,51147,2,0,L|452:324,1,83
360,124,51447,2,0,P|292:84|224:124,1,166
176,232,51897,1,0,0:0:0:0:
124,96,52047,1,0,0:0:0:0:
268,204,52197,1,0,0:0:0:0:
56,132,52347,6,0,P|44:84|148:24,1,166
112,208,52797,1,0,0:0:0:0:
112,208,52872,1,0,0:0:0:0:
112,208,52947,1,0,0:0:0:0:
52,56,53097,1,0,0:0:0:0:
192,176,53247,2,0,P|184:252|108:292,1,166
132,128,53697,2,0,L|296:220,1,166
428,192,54147,6,0,L|352:140,1,83
304,288,54447,2,0,P|344:260|360:220,1,83
336,60,54747,2,0,P|296:88|280:128,1,83
358,230,55047,2,0,L|434:282,1,83
488,360,55347,1,0,0:0:0:0:
488,360,55497,1,0,0:0:0:0:
464,212,55647,2,0,L|444:124,1,83
336,76,55947,6,0,P|268:92|208:12,2,166
436,24,56697,1,0,0:0:0:0:
384,152,56847,2,0,B|352:268|352:268|340:224,1,166
336,76,57297,2,0,P|424:72|480:156,1,166
444,290,57747,6,0,B|384:238|384:238|384:146,1,166
496,240,58197,1,0,0:0:0:0:
496,240,58347,2,0,P|516:272|508:324,1,83
396,360,58647,2,0,P|360:332|240:360,1,166
72,328,59097,1,0,0:0:0:0:
208,212,59247,1,0,0:0:0:0:
172,360,59397,1,0,0:0:0:0:
172,360,59472,1,0,0:0:0:0:
172,360,59547,6,0,L|88:184,1,166
176,92,59997,1,0,0:0:0:0:
208,212,60147,1,0,0:0:0:0:
80,112,60297,1,0,0:0:0:0:
232,40,60447,2,0,L|416:16,1,166
372,190,60897,2,0,L|188:214,1,166
355,112,61347,6,0,P|375:152|371:192,1,83
224,288,61647,2,0,P|204:248|208:208,1,83
372,272,61947,2,0,L|296:328,1,83
184,136,62247,2,0,L|328:32,1,166
304,190,62697,2,0,P|228:202|184:122,1,166
376,124,63147,6,0,L|404:216,1,83
368,360,63447,1,0,0:0:0:0:
484,288,63597,1,0,0:0:0:0:
332,224,63747,1,0,0:0:0:0:
504,296,63897,1,0,0:0:0:0:
280,300,64047,2,0,P|244:256|268:152,1,166
384,88,64497,1,0,0:0:0:0:
332,224,64647,1,0,0:0:0:0:
248,80,64797,1,0,0:0:0:0:
412,200,64947,6,0,P|408:272|296:296,1,166
152,308,65397,1,0,0:0:0:0:
268,240,65547,1,0,0:0:0:0:
304,376,65697,1,0,0:0:0:0:
194,201,65847,2,0,L|270:241,1,83
152,308,66147,2,0,L|76:268,1,83
186,120,66447,2,0,P|198:160|194:200,1,83
78,269,66747,6,0,P|56:220|76:112,1,166
227,98,67197,2,0,P|183:126|71:110,1,166
199,19,67647,2,0,L|231:111,1,83
101,190,67947,2,0,L|69:98,1,83
248,168,68247,2,0,B|220:200|220:200|172:200,1,83
280,80,68547,6,0,P|328:120|320:220,1,166
256,332,68997,1,0,0:0:0:0:
396,300,69147,1,0,0:0:0:0:
194,276,69297,1,0,0:0:0:0:
194,276,69372,1,0,0:0:0:0:
194,276,69447,6,0,L|282:356,1,83
322,216,69747,2,0,L|234:136,1,83
116,254,70047,2,0,P|156:274|212:270,1,83
260,160,70347,6,0,P|204:104|116:124,1,166
244,232,70797,2,0,L|284:48,1,166
356,172,71247,2,0,L|336:268,1,83
160,192,71547,2,0,L|180:96,1,83
280,16,71847,1,0,0:0:0:0:
276,160,71997,1,0,0:0:0:0:
200,28,72147,6,0,P|288:16|360:72,2,166
96,168,72897,1,0,0:0:0:0:
244,98,73047,2,0,L|188:10,1,83
96,168,73347,2,0,L|152:256,1,83
248,320,73647,1,0,0:0:0:0:
81,365,73797,1,0,0:0:0:0:
81,365,73872,1,0,0:0:0:0:
81,365,73947,6,0,P|69:309|145:237,1,166
306,192,74397,2,0,P|318:248|242:320,1,166
140,236,74847,2,0,L|76:168,1,83
247,319,75147,2,0,L|311:387,1,83
192,192,75447,2,0,L|128:124,1,83
304,272,75747,6,0,L|368:340,2,83
268,156,76197,2,0,P|312:128|424:152,1,166
239,234,76647,2,0,L|275:134,1,83
418,147,76947,2,0,L|382:247,1,83
356,84,77247,1,0,0:0:0:0:
504,156,77397,1,0,0:0:0:0:
304,152,77547,6,0,P|276:100|320:4,1,166
388,156,77997,2,0,L|216:156,1,166
52,232,78447,1,0,0:0:0:0:
172,96,78597,1,0,0:0:0:0:
184,312,78747,1,0,0:0:0:0:
172,72,78897,1,0,0:0:0:0:
276,272,79047,1,0,0:0:0:0:
80,136,79197,1,0,0:0:0:0:
349,128,79347,6,0,P|365:196|273:272,1,199.199993920899
124,220,79797,1,0,0:0:0:0:
204,364,79947,1,0,0:0:0:0:
276,188,80097,1,0,0:0:0:0:
276,188,80172,1,0,0:0:0:0:
276,188,80247,2,0,P|236:144|96:132,1,199.199993920899
68,284,80697,1,0,0:0:0:0:
108,108,80847,1,0,0:0:0:0:
60,312,80997,1,0,0:0:0:0:
112,88,81147,6,0,L|256:116,1,124.500004749298
400,296,81447,2,0,L|256:268,1,124.500004749298
404,63,81747,2,0,P|436:135|396:299,1,249.000009498597
184,316,82197,1,0,0:0:0:0:
360,180,82347,1,0,0:0:0:0:
200,184,82497,2,0,L|116:196,1,62.2500023746491
112,212,82647,1,0,0:0:0:0:
292,272,82797,1,0,0:0:0:0:
272,136,82947,6,0,P|220:100|128:128,1,149.399995440674
276,120,83247,6,0,P|224:84|132:112,1,157.699995788956
280,108,83547,6,0,P|228:72|136:100,1,166
304,192,83847,6,0,L|348:72,1,124.500004749298
135,100,84147,2,0,L|179:220,1,124.500004749298
356,285,84447,2,0,P|396:237|336:69,1,249.000009498597
236,300,84897,1,0,0:0:0:0:
236,300,84972,1,0,0:0:0:0:
232,296,85047,2,0,L|360:284,1,124.500004749298
272,144,85347,2,0,L|144:156,1,124.500004749298
305,204,85647,6,0,B|277:127|277:127|265:167,1,99.5999969604493
200,264,85947,6,0,B|280:278|280:278|252:247,1,91.300002786255
196,140,86247,6,0,B|155:187|155:187|186:180,1,83
160,60,86547,6,0,L|60:180,1,124.500004749298
200,264,86847,2,0,L|300:144,1,124.500004749298
80,156,87147,2,0,P|84:264|220:228,1,249.000009498597
184,136,87597,1,0,0:0:0:0:
184,136,87672,1,0,0:0:0:0:
184,136,87747,2,0,L|84:40,1,124.500004749298
304,60,88047,2,0,L|404:156,1,124.500004749298
408,312,88347,5,0,0:0:0:0:
168,320,88497,1,0,0:0:0:0:
416,208,88647,5,0,0:0:0:0:
245,377,88797,1,0,0:0:0:0:
368,124,88947,5,0,0:0:0:0:
337,362,89097,1,0,0:0:0:0:
224,76,89247,5,0,0:0:0:0:
451,289,89397,1,0,0:0:0:0:
121,164,89547,5,0,0:0:0:0:
433,167,89697,1,0,0:0:0:0:
88,285,89847,5,0,0:0:0:0:
334,96,89997,1,0,0:0:0:0:
121,164,90147,6,0,L|248:256,1,124.500004749298
433,167,90447,2,0,L|306:75,1,124.500004749298
176,72,90747,1,0,0:0:0:0:
328,240,90897,1,0,0:0:0:0:
228,12,91047,2,0,P|160:-4|156:144,1,249.000009498597
328,240,91497,2,0,P|396:256|400:108,1,249.000009498597
224,192,91947,6,0,L|144:292,1,124.500004749298
134,133,92247,2,0,L|214:33,1,124.500004749298
421,118,92547,2,0,B|348:220|348:220|300:248|284:196|328:164|360:192,1,249.000009498597
204,235,92997,1,0,0:0:0:0:
204,235,93072,1,0,0:0:0:0:
204,235,93147,6,0,L|124:119,1,124.500004749298
289,89,93447,2,0,L|369:205,1,124.500004749298
192,264,93747,2,0,L|91:117,1,124.500004749298
299,79,94047,2,0,L|399:225,1,124.500004749298
180,288,94347,2,0,L|74:139,1,124.500004749298
308,72,94647,6,0,L|403:198,1,124.500004749298
235,156,94947,2,0,P|255:96|339:76,1,124.500004749298
288,264,95247,2,0,P|232:280|124:144,1,249.000009498597
328,192,95697,1,0,0:0:0:0:
328,192,95772,1,0,0:0:0:0:
328,192,95847,6,0,L|400:296,1,124.500004749298
332,112,96147,2,0,L|386:-2,1,124.500004749298
268,144,96447,2,0,L|141:154,1,124.500004749298
12,236,96747,1,0,0:0:0:0:
32,72,96897,1,0,0:0:0:0:
172,256,97047,1,0,0:0:0:0:
196,64,97197,1,0,0:0:0:0:
88,296,97347,6,0,P|140:348|200:348,1,124.500004749298
295,119,97647,2,0,P|243:67|183:67,1,124.500004749298
253,285,97947,2,0,B|315:284|357:217|357:217|343:152|281:109,1,249.000009498597
176,256,98397,1,0,0:0:0:0:
176,256,98472,1,0,0:0:0:0:
176,256,98547,6,0,B|176:316|176:316|228:372,1,124.500004749298
236,184,98847,2,0,B|184:154|184:154|109:171,1,124.500004749298
268,280,99147,2,0,B|319:250|319:250|342:176,1,124.500004749298
424,32,99447,1,0,0:0:0:0:
336,204,99597,1,0,0:0:0:0:
276,16,99747,1,0,0:0:0:0:
448,212,99897,1,0,0:0:0:0:
200,115,100047,6,0,L|276:15,1,124.500004749298
336,204,100347,2,0,L|260:304,1,124.500004749298
49,313,100647,2,0,L|214:96,2,249.000009498597
272,312,101397,1,0,0:0:0:0:
60,144,101547,1,0,0:0:0:0:
276,148,101697,1,0,0:0:0:0:
24,220,101847,6,0,P|-16:168|96:68,1,249.000009498597
276,148,102297,2,0,P|316:200|204:300,1,249.000009498597
192,144,102747,6,0,P|216:88|352:96,1,199.199993920899
432,160,103197,1,0,0:0:0:0:
404,276,103347,1,0,0:0:0:0:
288,240,103497,1,0,0:0:0:0:
176,252,103647,2,0,P|128:236|164:320,1,199.199993920899
268,360,104097,1,0,0:0:0:0:
288,240,104247,1,0,0:0:0:0:
384,312,104397,1,0,0:0:0:0:
424,200,104547,6,0,B|408:148|420:112|420:112|364:88|364:88|312:108,1,199.199993920899
208,156,104997,1,0,0:0:0:0:
212,36,105147,1,0,0:0:0:0:
108,92,105297,1,0,0:0:0:0:
208,156,105447,2,0,P|220:236|120:304,1,199.199993920899
16,304,105897,1,0,0:0:0:0:
135,304,106047,1,0,0:0:0:0:
16,304,106197,1,0,0:0:0:0:
135,304,106347,6,0,B|168:348|228:344|280:312|284:272|284:272|280:312|280:312|328:352|396:336|408:264|368:200|368:200|408:264|408:264|472:256|500:176|460:104|392:76|392:76|460:104|460:104|496:64|476:16|380:0,1,995.999969604493
224,208,108147,6,0,B|308:200|308:200|384:264,2,166
72,268,108897,1,0,0:0:0:0:
124,152,109047,1,0,0:0:0:0:
136,328,109197,1,0,0:0:0:0:
48,176,109347,2,0,L|16:92,1,83
196,132,109647,2,0,L|228:216,1,83
124,152,109947,6,0,P|152:68|240:68,1,166
304,192,110397,2,0,P|276:276|188:276,1,166
260,124,110847,2,0,L|372:120,1,83
225,209,111147,2,0,L|113:205,1,83
229,51,111447,2,0,P|257:87|257:135,1,83
225,209,111747,6,0,P|229:265|341:309,1,166
408,256,112197,1,0,0:0:0:0:
304,332,112347,1,0,0:0:0:0:
440,364,112497,1,0,0:0:0:0:
356,204,112647,2,0,B|308:100|308:100|304:168,1,166
344,280,113097,1,0,0:0:0:0:
344,280,113247,2,0,P|400:268|428:236,1,83
359,38,113547,6,0,L|355:206,1,166
197,334,113997,2,0,L|201:166,1,166
355,203,114447,2,0,P|267:207|187:151,1,166
205,3,114897,2,0,P|293:-1|373:55,1,166
348,240,115347,6,0,P|260:244|180:188,1,166
104,128,115797,1,0,0:0:0:0:
48,272,115947,1,0,0:0:0:0:
8,148,116097,1,0,0:0:0:0:
128,300,116247,2,0,P|96:340|56:352,1,83
124,176,116547,2,0,P|156:136|196:124,1,83
400,136,116847,1,0,0:0:0:0:
248,268,116997,1,0,0:0:0:0:
269,88,117147,6,0,P|349:76|401:164,1,166
378,315,117597,2,0,P|298:327|246:239,1,166
160,128,118047,2,0,L|132:228,1,83
324,260,118347,2,0,L|352:160,1,83
440,44,118647,1,0,0:0:0:0:
468,208,118797,1,0,0:0:0:0:
340,64,118947,6,0,P|264:32|188:68,1,166
176,260,119397,2,0,P|252:292|328:256,1,166
147,181,119847,2,0,L|183:281,1,83
324,260,120147,2,0,L|360:160,1,83
352,24,120447,1,0,0:0:0:0:
464,172,120597,1,0,0:0:0:0:
292,104,120747,6,0,B|224:104|224:104|216:100|216:100|216:108|216:108|208:104|208:104|136:104,1,166
292,180,121197,6,0,B|205:180|205:180|195:174|195:174|195:185|195:185|185:180|185:180|94:180,1,199.199993920899
292,264,121647,6,0,B|195:264|195:264|184:258|184:258|184:269|184:269|173:264|173:264|71:264,1,232.399992907715
288,344,122097,6,0,B|177:344|177:344|164:337|164:337|164:350|164:350|151:344|151:344|33:344,1,265.6
239,202,122547,6,0,P|291:258|282:353,1,166
164,216,122997,1,0,0:0:0:0:
164,216,123147,2,0,P|164:172|192:136,1,83
208,292,123447,2,0,L|112:312,1,83
239,202,123747,2,0,L|335:182,1,83
468,264,124047,1,0,0:0:0:0:
392,128,124197,1,0,0:0:0:0:
362,281,124347,6,0,P|296:324|212:292,1,166
276,88,124797,2,0,B|316:160|316:160|276:256,1,166
176,100,125247,2,0,L|220:20,1,83
323,164,125547,2,0,L|279:244,1,83
104,252,125847,1,0,0:0:0:0:
216,176,125997,1,0,0:0:0:0:
252,338,126147,6,0,P|308:342|388:260,1,166
216,176,126597,2,0,L|256:356,1,166
324,192,127047,2,0,L|304:108,1,83
144,20,127347,2,0,L|164:104,1,83
196,256,127647,1,0,0:0:0:0:
304,112,127797,1,0,0:0:0:0:
84,167,127947,6,0,P|112:235|216:247,1,166
415,200,128397,2,0,P|387:132|283:120,1,166
304,276,128847,2,0,L|332:192,1,83
192,96,129147,2,0,L|164:180,1,83
160,292,129447,1,0,0:0:0:0:
248,200,129597,1,0,0:0:0:0:
80,244,129747,6,0,P|68:288|132:380,1,166
344,236,130197,2,0,P|356:192|292:100,1,166
279,287,130647,2,0,L|359:223,1,83
144,192,130947,2,0,L|64:256,1,83
32,360,131247,1,0,0:0:0:0:
16,176,131397,1,0,0:0:0:0:
132,317,131547,6,0,P|176:333|288:269,1,166
268,80,131997,2,0,P|224:64|112:128,1,166
48,296,132447,1,0,0:0:0:0:
208,248,132597,1,0,0:0:0:0:
24,144,132747,1,0,0:0:0:0:
236,128,132897,1,0,0:0:0:0:
128,332,133047,1,0,0:0:0:0:
121,110,133197,1,0,0:0:0:0:
320,240,133347,6,0,P|288:328|216:352,1,166
276,168,133797,2,0,P|188:136|164:64,1,166
352,128,134247,2,0,P|384:40|456:16,1,166
392,204,134697,2,0,P|480:236|504:308,1,166
316,336,135147,5,0,0:0:0:0:
48,292,135297,1,0,0:0:0:0:
256,160,135447,5,0,0:0:0:0:
212,372,135597,1,0,0:0:0:0:
92,172,135747,5,0,0:0:0:0:
356,236,135897,1,0,0:0:0:0:
48,296,136047,5,0,0:0:0:0:
356,236,136197,1,0,0:0:0:0:
92,172,136347,5,0,0:0:0:0:
384,336,136497,1,0,0:0:0:0:
148,348,136647,5,0,0:0:0:0:
476,244,136797,1,0,0:0:0:0:
192,128,136947,6,0,P|188:88|220:32,1,83
300,188,137247,2,0,P|304:228|272:284,1,83
136,320,137547,1,0,0:0:0:0:
220,212,137697,1,0,0:0:0:0:
328,352,137847,2,0,B|412:356|412:356|392:312|408:276,1,166
379,112,138297,2,0,B|295:108|295:108|315:152|299:188,1,166
168,288,138747,6,0,L|80:296,1,83
136,160,139047,2,0,L|224:152,1,83
380,248,139347,1,0,0:0:0:0:
256,268,139497,1,0,0:0:0:0:
312,84,139647,2,0,P|332:120|324:172,1,83
218,152,139947,2,0,P|198:116|206:64,1,83
328,160,140247,5,0,0:0:0:0:
256,268,140397,1,0,0:0:0:0:
220,152,140547,2,0,B|356:144|356:144|320:160,1,166
364,272,140997,2,0,B|228:280|228:280|264:264,1,166
448,208,141447,2,0,P|472:272|420:356,1,166
364,180,141897,1,0,0:0:0:0:
364,180,142047,2,0,L|424:124,1,83
364,272,142347,6,0,P|296:248|268:160,1,166
292,36,142797,1,0,0:0:0:0:
204,96,142947,2,0,L|116:104,1,83
40,200,143247,1,0,0:0:0:0:
40,200,143547,1,0,0:0:0:0:
84,24,143697,1,0,0:0:0:0:
196,192,143847,2,0,L|260:280,1,83
340,103,144147,6,0,L|276:15,1,83
196,192,144447,2,0,P|228:160|232:112,1,83
72,184,144747,1,0,0:0:0:0:
184,312,144897,1,0,0:0:0:0:
156,66,145047,2,0,P|76:122|76:198,1,166
184,312,145497,2,0,P|264:256|264:180,1,166
131,247,145947,6,0,L|187:315,1,83
268,194,146247,2,0,L|212:126,1,83
52,148,146547,1,0,0:0:0:0:
52,148,146697,1,0,0:0:0:0:
212,128,146847,2,0,P|244:96|256:56,1,83
92,76,147147,2,0,P|60:108|48:148,1,83
68,308,147447,1,0,0:0:0:0:
68,308,147597,1,0,0:0:0:0:
216,216,147747,6,0,L|324:208,1,83
396,348,148047,2,0,L|288:356,1,83
172,304,148347,1,0,0:0:0:0:
172,304,148497,1,0,0:0:0:0:
300,208,148647,2,0,P|336:176|304:64,1,166
187,167,149097,2,0,P|151:199|183:311,1,166
264,136,149547,6,0,L|88:136,1,166
8,248,149997,1,0,0:0:0:0:
60,68,150147,1,0,0:0:0:0:
4,264,150297,1,0,0:0:0:0:
187,167,150447,2,0,P|251:179|291:291,1,166
164,360,150897,1,0,0:0:0:0:
92,192,151047,1,0,0:0:0:0:
256,344,151197,1,0,0:0:0:0:
44,264,151347,6,0,P|12:220|12:176,1,83
152,95,151647,2,0,P|184:139|184:183,1,83
8,112,151947,2,0,L|88:40,1,83
236,248,152247,2,0,L|76:352,1,166
186,166,152697,2,0,P|280:160|328:216,1,166
136,228,153147,6,0,B|112:188|112:188|112:136,1,83
236,248,153447,2,0,B|260:288|260:288|260:340,1,83
186,166,153747,2,0,P|232:156|280:164,1,83
390,248,154047,2,0,P|345:270|225:238,1,166
184,164,154497,1,0,0:0:0:0:
184,164,154797,1,0,0:0:0:0:
184,164,154872,1,0,0:0:0:0:
184,164,154947,6,0,L|96:176,1,83
228,80,155247,2,0,L|140:68,1,83
348,160,155547,2,0,L|260:172,1,83
384,260,155847,2,0,P|444:220|444:112,1,166
308,28,156297,1,0,0:0:0:0:
348,160,156447,1,0,0:0:0:0:
464,40,156597,1,0,0:0:0:0:
252,112,156747,6,0,B|136:152|136:152|200:148,1,166
348,160,157197,1,0,0:0:0:0:
368,16,157347,1,0,0:0:0:0:
244,232,157497,1,0,0:0:0:0:
446,42,157647,2,0,L|350:10,1,83
348,160,157947,2,0,L|444:192,1,83
292,28,158247,2,0,P|280:60|296:112,1,83
317,272,158547,6,0,P|269:316|177:276,1,166
292,108,158997,2,0,L|320:288,1,166
216,129,159447,2,0,P|244:109|304:113,1,83
184,280,159747,2,0,P|143:280|108:258,1,83
272,192,160047,2,0,L|288:288,1,83
184,144,160347,6,0,P|240:100|340:120,1,166
188,304,160797,2,0,L|184:136,1,166
320,224,161247,2,0,L|324:328,1,83
191,384,161547,2,0,L|187:280,1,83
260,136,161847,1,0,0:0:0:0:
88,172,161997,1,0,0:0:0:0:
320,224,162147,6,0,P|368:172|352:76,1,166
144,88,162597,2,0,P|129:167|181:229,1,166
328,308,163047,1,0,0:0:0:0:
152,320,163197,1,0,0:0:0:0:
220,144,163347,1,0,0:0:0:0:
272,352,163497,1,0,0:0:0:0:
360,176,163647,2,0,L|400:88,1,83
140,140,163947,6,0,P|164:204|268:216,1,166
444,176,164397,1,0,0:0:0:0:
296,80,164547,1,0,0:0:0:0:
312,296,164697,1,0,0:0:0:0:
464,164,164847,1,0,0:0:0:0:
240,152,164997,1,0,0:0:0:0:
416,292,165147,1,0,0:0:0:0:
404,116,165297,1,0,0:0:0:0:
229,301,165447,2,0,L|349:293,1,83
276,80,165747,6,0,P|208:76|164:172,1,166
228,304,166197,2,0,P|296:308|340:212,1,166
148,220,166647,2,0,L|232:236,1,83
396,168,166947,2,0,L|312:152,1,83
148,220,167247,1,0,0:0:0:0:
288,360,167397,1,0,0:0:0:0:
154,77,167547,6,0,P|118:125|150:221,1,166
288,360,167997,2,0,P|324:312|292:216,1,166
240,108,168447,1,0,0:0:0:0:
372,56,168597,1,0,0:0:0:0:
208,212,168747,1,0,0:0:0:0:
172,28,168897,1,0,0:0:0:0:
212,232,169047,1,0,0:0:0:0:
12,128,169197,1,0,0:0:0:0:
300,176,169347,6,0,L|332:356,1,166
220,156,169797,2,0,P|252:108|356:112,1,166
476,232,170247,1,0,0:0:0:0:
300,196,170397,1,0,0:0:0:0:
448,112,170547,1,0,0:0:0:0:
404,296,170697,1,0,0:0:0:0:
351,108,170847,2,0,P|360:56|388:28,1,83
304,288,171147,6,0,P|260:280|208:172,1,166
216,36,171597,1,0,0:0:0:0:
304,196,171747,1,0,0:0:0:0:
132,104,171897,1,0,0:0:0:0:
384,92,172047,5,0,0:0:0:0:
432,344,172197,1,0,0:0:0:0:
304,196,172347,5,0,0:0:0:0:
488,60,172497,1,0,0:0:0:0:
376,288,172647,5,0,0:0:0:0:
320,56,172797,1,0,0:0:0:0:
268,296,172947,6,0,P|212:248|204:200,1,124.500004749298
320,56,173247,2,0,P|376:104|384:152,1,124.500004749298
116,152,173547,2,0,B|236:24|236:24|236:120,1,249.000009498597
272,300,173997,1,0,0:0:0:0:
272,300,174072,1,0,0:0:0:0:
272,300,174147,2,0,P|296:240|284:184,1,124.500004749298
116,152,174447,2,0,P|92:212|104:268,1,124.500004749298
268,72,174747,5,0,0:0:0:0:
196,228,174897,1,0,0:0:0:0:
268,72,175047,1,0,0:0:0:0:
196,228,175197,1,0,0:0:0:0:
268,72,175347,2,0,L|416:56,1,124.500004749298
196,228,175647,6,0,L|48:244,1,124.500004749298
178,113,175947,2,0,P|206:169|190:237,1,124.500004749298
80,124,176247,2,0,P|96:56|252:40,1,249.000009498597
336,172,176697,1,0,0:0:0:0:
336,172,176772,1,0,0:0:0:0:
336,172,176847,2,0,B|336:236|336:236|296:284,1,124.500004749298
212,149,177147,2,0,B|212:85|212:85|252:37,1,124.500004749298
260,212,177447,5,0,0:0:0:0:
72,224,177597,1,0,0:0:0:0:
260,212,177747,1,0,0:0:0:0:
72,224,177897,1,0,0:0:0:0:
260,212,178047,2,0,P|272:272|248:336,1,124.500004749298
72,224,178347,6,0,P|60:164|84:100,1,124.500004749298
268,93,178647,2,0,P|280:153|256:217,1,124.500004749298
156,72,178947,2,0,B|268:12|268:12|376:68,1,249.000009498597
363,245,179397,1,0,0:0:0:0:
363,245,179472,1,0,0:0:0:0:
363,245,179547,2,0,P|287:245|259:209,1,124.500004749298
444,168,179847,2,0,L|464:304,1,124.500004749298
300,368,180147,5,0,0:0:0:0:
260,212,180297,1,0,0:0:0:0:
300,368,180447,1,0,0:0:0:0:
260,212,180597,1,0,0:0:0:0:
300,368,180747,2,0,B|240:368|240:368|192:324,1,124.500004749298
260,212,181047,6,0,B|320:212|320:212|368:256,1,124.500004749298
196,252,181347,2,0,P|188:180|224:140,1,124.500004749298
280,288,181647,2,0,P|204:344|104:240,1,249.000009498597
127,58,182097,1,0,0:0:0:0:
127,58,182172,1,0,0:0:0:0:
127,58,182247,2,0,L|223:146,1,124.500004749298
412,120,182547,2,0,L|316:32,1,124.500004749298
218,142,182847,6,0,L|408:304,1,249.000009498597
412,120,183297,2,0,P|288:68|216:152,1,249.000009498597
376,239,183747,6,0,L|412:118,1,124.500004749298
218,138,184047,2,0,L|254:259,1,124.500004749298
296,80,184347,2,0,P|236:48|120:176,1,249.000009498597
116,304,184797,1,0,0:0:0:0:
116,304,184872,1,0,0:0:0:0:
116,304,184947,1,0,0:0:0:0:
220,200,185097,1,0,0:0:0:0:
26,231,185247,2,0,P|58:283|122:303,1,124.500004749298
288,272,185547,5,0,0:0:0:0:
441,176,185697,1,0,0:0:0:0:
345,23,185847,1,0,0:0:0:0:
192,118,185997,1,0,0:0:0:0:
288,272,186147,2,0,L|420:304,1,124.500004749298
441,176,186447,6,0,L|309:144,1,124.500004749298
208,248,186747,2,0,P|216:316|272:356,1,124.500004749298
252,172,187047,2,0,B|180:172|180:172|136:208|136:208|160:144|140:88,1,249.000009498597
44,244,187497,1,0,0:0:0:0:
44,244,187572,1,0,0:0:0:0:
44,244,187647,2,0,P|80:296|144:312,1,124.500004749298
344,240,187947,2,0,P|308:188|244:172,1,124.500004749298
136,112,188247,5,0,0:0:0:0:
59,275,188397,1,0,0:0:0:0:
223,351,188547,1,0,0:0:0:0:
300,188,188697,1,0,0:0:0:0:
136,112,188847,2,0,L|7:157,1,124.500004749298
59,275,189147,6,0,L|187:229,1,124.500004749298
300,188,189447,2,0,P|328:236|308:320,1,124.500004749298
204,156,189747,2,0,P|236:100|396:132,1,249.000009498597
244,248,190197,1,0,0:0:0:0:
244,248,190272,1,0,0:0:0:0:
244,248,190347,1,0,0:0:0:0:
276,56,190497,1,0,0:0:0:0:
384,212,190647,2,0,L|448:328,1,124.500004749298
288,352,190947,5,0,0:0:0:0:
64,200,191097,1,0,0:0:0:0:
308,188,191247,1,0,0:0:0:0:
108,344,191397,1,0,0:0:0:0:
196,100,191547,1,0,0:0:0:0:
288,352,191697,1,0,0:0:0:0:
64,200,191847,6,0,P|44:136|64:72,1,124.500004749298
301,69,192147,2,0,P|321:133|301:197,1,124.500004749298
196,24,192447,2,0,L|448:128,1,249.000009498597
480,244,192897,1,0,0:0:0:0:
480,244,192972,1,0,0:0:0:0:
480,244,193047,2,0,P|412:256|344:236,1,124.500004749298
305,118,193347,2,0,P|373:106|441:126,1,124.500004749298
223,262,193647,6,0,L|311:106,1,166
236,20,194097,6,0,L|174:128,1,124.500004749298
223,262,194547,6,0,L|311:106,1,141.100002691269
476,80,194847,2,0,L|388:236,1,141.100002691269
200,312,195147,2,0,P|168:272|260:304,1,282.200005382538
88,280,195597,1,0,0:0:0:0:
88,280,195672,1,0,0:0:0:0:
88,280,195747,2,0,P|92:216|136:140,1,141.100002691269
307,165,196047,2,0,P|303:229|259:305,1,141.100002691269
156,72,196347,2,0,L|312:84,1,141.100002691269
408,306,196647,2,0,L|252:294,1,141.100002691269
384,96,196947,2,0,P|412:164|384:232,1,141.100002691269
204,360,197247,6,0,P|176:292|204:224,1,141.100002691269
408,306,197547,2,0,L|252:294,1,141.100002691269
396,104,197847,2,0,P|480:176|384:308,1,282.200005382538
264,96,198297,1,0,0:0:0:0:
264,96,198372,1,0,0:0:0:0:
264,96,198447,1,0,0:0:0:0:
392,204,198597,1,0,0:0:0:0:
200,160,198747,2,0,P|160:100|172:36,1,141.100002691269
364,79,199047,2,0,P|404:139|392:203,1,141.100002691269
240,8,199347,2,0,L|396:8,1,141.100002691269
320,236,199647,2,0,L|164:236,1,141.100002691269
388,172,199947,6,0,B|416:240|416:240|392:312,1,141.100002691269
178,236,200247,2,0,B|150:168|150:168|174:96,1,141.100002691269
272,292,200547,2,0,P|220:336|68:220,1,282.200005382538
241,154,200997,1,0,0:0:0:0:
241,154,201072,1,0,0:0:0:0:
241,154,201147,2,0,L|273:298,1,141.100002691269
67,237,201447,2,0,L|99:93,1,141.100002691269
144,292,201747,2,0,P|76:332|0:312,1,141.100002691269
236,152,202047,2,0,P|304:112|380:132,1,141.100002691269
144,192,202347,2,0,L|176:48,1,141.100002691269
362,121,202647,6,0,L|330:265,1,141.100002691269
174,309,202947,2,0,P|130:261|154:181,1,141.100002691269
272,328,203247,2,0,B|196:380|196:380|92:380|92:380|36:380|12:340,1,282.200005382538
144,192,203697,1,0,0:0:0:0:
144,192,203772,1,0,0:0:0:0:
144,192,203847,2,0,B|168:292|168:292|112:224,1,141.100002691269
72,136,204147,2,0,P|128:108|212:144,1,141.100002691269
360,240,204447,6,0,P|296:272|200:128,1,282.200005382538
394,80,204897,2,0,B|394:296|394:296|350:224,1,282.200005382538
316,60,205347,6,0,P|364:8|444:16,1,141.100002691269
359,239,205647,2,0,P|290:238|244:187,1,141.100002691269
464,160,205947,2,0,B|464:304|464:304|420:356|328:356,1,282.200005382538
132,273,206397,1,0,0:0:0:0:
132,273,206472,1,0,0:0:0:0:
132,273,206547,2,0,L|252:181,1,141.100002691269
452,269,206847,2,0,L|332:361,1,141.100002691269
304,148,207147,2,0,P|356:148|436:208,1,141.100002691269
276,384,207447,2,0,P|224:384|144:324,1,141.100002691269
304,148,207747,2,0,L|244:284,1,141.100002691269
224,100,208047,6,0,P|296:56|356:64,1,141.100002691269
372,238,208347,2,0,P|300:282|240:274,1,141.100002691269
424,120,208647,2,0,B|436:308|436:308|368:232,1,282.200005382538
352,64,209097,1,0,0:0:0:0:
352,64,209172,1,0,0:0:0:0:
352,64,209247,2,0,P|424:36|504:64,1,141.100002691269
373,238,209547,2,0,P|301:266|221:238,1,141.100002691269
456,160,209847,2,0,L|468:344,1,141.100002691269
236,156,210147,2,0,L|226:15,1,141.100002691269
240,252,210447,2,0,P|160:232|136:168,1,141.100002691269
324,184,210747,6,0,P|352:256|312:328,1,141.100002691269
236,156,211047,2,0,B|292:112|292:112|368:96,1,141.100002691269
240,252,211347,2,0,B|184:292|200:360|200:360|184:292|184:292|140:292|100:252,1,282.200005382538
176,125,211797,1,0,0:0:0:0:
176,125,211872,1,0,0:0:0:0:
176,125,211947,2,0,L|260:293,1,141.100002691269
104,256,212247,2,0,L|20:88,1,141.100002691269
239,251,212547,2,0,P|168:272|104:256,1,141.100002691269
40,129,212847,2,0,P|111:108|175:124,1,141.100002691269
28,269,213147,2,0,L|40:125,1,141.100002691269
250,110,213447,6,0,L|238:254,1,141.100002691269
196,40,213747,2,0,P|264:24|336:84,1,141.100002691269
441,268,214047,2,0,P|373:336|237:236,1,282.200005382538
414,129,214497,1,0,0:0:0:0:
414,129,214572,1,0,0:0:0:0:
414,129,214647,2,0,L|442:277,1,141.100002691269
237,250,214947,2,0,L|209:102,1,141.100002691269
324,308,215247,6,0,P|276:344|140:216,1,282.200005382538
353,146,215697,2,0,B|345:366|345:366|317:290,1,282.200005382538
256,192,216147,12,0,217947,0:0:0:0:
