osu file format v14

[General]
AudioFilename: audio.mp3
AudioLeadIn: 0
PreviewTime: 172947
Countdown: 0
SampleSet: Soft
StackLeniency: 0.5
Mode: 2
LetterboxInBreaks: 0
WidescreenStoryboard: 1

[Editor]
Bookmarks: 14547,21747,70797,72147,80247,113547,120747,133347,162597,163797,169797,170997,196947,197247,199047,199947,202347,202647,207447,208047,209847,210147,210747,213447
DistanceSpacing: 2.8
BeatDivisor: 4
GridSize: 4
TimelineZoom: 2.3

[Metadata]
Title:Psalm dla Ciebie
TitleUnicode:Psalm dla Ciebie
Artist:Piotr Rubik, Malgorzata Markiewicz, Janusz Radek
ArtistUnicode:Piotr Rubik, MaƂgorzata Markiewicz, Janusz Radek
Creator:-NeBu-
Version:Asrasz's Rain
Source:
Tags:piotr rubik malgorzata markiewicz janusz radek polish poland psalterz wrzesniowy 2006 CptSqBany [Red Panda] -NeBu- Chalwa Yusomi Piggey ReFaller Bubblun -Kyu Asrasz
BeatmapID:1302865
BeatmapSetID:586156

[Difficulty]
HPDrainRate:7
CircleSize:3.8
OverallDifficulty:9.2
ApproachRate:9.2
SliderMultiplier:1.6
SliderTickRate:2

[Events]
//Background and Video events
0,0,"NCeRyVU.png",0,0
Video,-403,"zzzzzzzzzzzzzzzz.mp4"
//Break Periods
2,102947,107577
//Storyboard Layer 0 (Background)
//Storyboard Layer 1 (Fail)
//Storyboard Layer 2 (Pass)
//Storyboard Layer 3 (Foreground)
//Storyboard Sound Samples

[TimingPoints]
147,600,4,2,2,25,1,0
147,-50,4,2,2,25,0,0
9147,-50,4,2,2,25,0,0
45147,300,4,2,2,55,1,0
66747,-100,4,2,2,55,0,0
73947,-100,4,2,2,55,0,0
81147,-100,4,2,2,55,0,0
102747,600,4,2,2,50,1,0
102747,-50,4,2,2,50,0,0
136947,300,4,2,2,50,1,0
136947,-100,4,2,2,50,0,0
172947,-100,4,2,2,50,0,0
219672,-100,4,2,2,5,0,0

[Colours]
Combo1 : 238,196,149
Combo2 : 68,88,227
Combo3 : 63,63,63

[HitObjects]
102,193,147,5,0,0:0:0:0:
212,184,447,1,0,0:0:0:0:
324,172,747,1,0,0:0:0:0:
48,128,1347,5,0,0:0:0:0:
162,119,1647,1,0,0:0:0:0:
276,104,1947,6,0,L|448:88,2,160
164,112,2847,2,0,L|-8:96,2,160
348,168,4047,1,0,0:0:0:0:
208,140,4347,1,0,0:0:0:0:
348,168,4647,6,0,L|344:336,1,160
192,332,5247,1,0,0:0:0:0:
96,336,5547,1,0,0:0:0:0:
192,332,5847,1,0,0:0:0:0:
288,324,6147,1,0,0:0:0:0:
96,304,6747,2,0,L|108:136,1,160
236,148,7347,5,0,0:0:0:0:
332,144,7647,1,0,0:0:0:0:
232,120,7947,1,0,0:0:0:0:
328,112,8247,2,0,L|504:112,2,160
216,128,9147,2,0,L|208:228,1,80
356,240,9447,2,0,L|364:136,1,80
208,120,9747,6,0,L|308:120,1,80
432,104,10047,2,0,L|332:108,1,80
208,104,10347,2,0,L|112:104,1,80
352,76,10647,2,0,L|456:72,1,80
108,136,10947,2,0,P|64:208|124:236,1,160
192,236,11397,1,0,0:0:0:0:
336,248,11547,2,0,L|328:152,1,80
192,120,11847,2,0,L|184:8,1,80
408,12,12147,6,0,L|412:104,1,80
304,120,12447,2,0,L|296:8,1,80
376,28,12747,1,0,0:0:0:0:
220,24,12897,1,0,0:0:0:0:
448,72,13047,2,0,L|456:164,1,80
312,168,13347,1,0,0:0:0:0:
384,164,13497,1,0,0:0:0:0:
160,180,13647,2,0,L|52:192,2,80
232,176,14097,1,0,0:0:0:0:
384,164,14247,2,0,L|384:272,1,80
240,256,14547,6,0,L|248:360,1,80
400,344,14847,2,0,L|308:352,1,80
176,344,15147,2,0,L|56:352,1,80
240,332,15447,2,0,L|340:324,1,80
180,292,15747,2,0,L|52:296,1,80
240,268,16047,2,0,L|380:252,1,80
96,220,16347,2,0,P|44:160|104:144,1,160
176,136,16797,1,0,0:0:0:0:
320,136,16947,6,0,L|312:40,1,80
168,60,17247,2,0,L|176:148,1,80
320,148,17547,2,0,L|500:152,1,160
396,168,17997,1,0,0:0:0:0:
180,180,18147,2,0,P|128:248|188:260,1,160
248,272,18597,1,0,0:0:0:0:
392,272,18747,2,0,L|384:160,1,80
244,172,19047,2,0,L|260:56,1,80
400,112,19347,6,0,L|392:4,1,80
252,32,19647,2,0,L|140:40,1,80
396,48,19947,2,0,P|448:108|376:148,1,160
320,160,20397,1,0,0:0:0:0:
96,164,20547,2,0,L|272:172,1,160
176,196,20997,1,0,0:0:0:0:
312,212,21147,2,0,L|320:304,1,80
184,312,21447,2,0,L|80:312,1,80
328,316,21747,6,0,L|512:324,1,160
268,280,22197,2,0,L|48:264,1,160
332,252,22647,2,0,L|344:136,1,80
116,156,22947,2,0,L|124:40,1,80
248,64,23247,2,0,L|240:176,1,80
28,204,23547,2,0,L|220:224,1,160
100,232,23997,1,0,0:0:0:0:
240,268,24147,6,0,L|252:176,1,80
112,152,24447,2,0,L|96:48,1,80
244,60,24747,2,0,L|412:52,1,160
328,88,25197,1,0,0:0:0:0:
188,124,25347,2,0,L|184:232,1,80
328,212,25647,1,0,0:0:0:0:
424,220,25797,1,0,0:0:0:0:
280,240,25947,2,0,L|272:344,1,80
420,316,26247,2,0,L|312:304,1,80
200,280,26547,6,0,L|48:264,1,80
264,276,26847,2,0,L|376:288,1,80
124,232,27147,2,0,P|144:156|260:152,1,160
292,136,27597,1,0,0:0:0:0:
160,112,27747,2,0,L|152:-4,1,80
300,20,28047,1,0,0:0:0:0:
228,20,28197,1,0,0:0:0:0:
380,24,28347,2,0,L|384:140,1,80
232,132,28647,2,0,L|128:132,1,80
376,136,28947,6,0,P|464:140|488:220,1,160
268,172,29397,2,0,P|180:176|156:256,1,160
376,244,29847,2,0,L|380:352,1,80
156,348,30147,2,0,L|152:224,1,80
472,216,30447,2,4,L|488:320,1,80
68,354,30747,2,0,B|254:346|254:346|247:268|247:268|108:274,1,400
224,271,31647,1,0,0:0:0:0:
81,253,31797,1,0,0:0:0:0:
224,245,31947,2,0,L|232:137,1,80
108,148,32247,2,0,L|116:48,1,80
260,68,32547,2,0,L|364:76,1,80
220,156,32847,2,0,L|40:136,1,160
144,116,33297,1,0,0:0:0:0:
288,112,33447,2,0,L|396:120,1,80
244,192,33747,6,0,L|148:188,1,80
384,236,34047,2,0,L|472:240,1,80
240,264,34347,2,0,P|140:284|132:360,1,160
208,344,34797,1,0,0:0:0:0:
352,352,34947,2,0,L|452:352,1,80
300,292,35247,2,0,L|184:292,1,80
432,252,35547,2,0,L|520:252,1,80
212,208,35847,2,0,L|100:204,1,80
432,164,36147,6,0,L|248:160,2,160
320,144,36897,1,0,0:0:0:0:
464,140,37047,2,0,L|476:32,1,80
328,48,37347,2,0,L|224:44,1,80
380,108,37647,2,0,L|480:116,1,80
236,116,37947,2,0,P|144:136|156:232,1,160
84,216,38547,6,0,L|76:308,1,80
212,308,38847,2,0,L|320:304,1,80
160,332,39147,2,0,L|36:344,1,80
308,336,39447,2,0,L|424:328,1,80
40,344,39747,2,0,L|56:144,1,160
136,176,40197,1,0,0:0:0:0:
288,176,40347,2,0,L|184:168,1,80
60,132,40647,2,0,L|176:132,1,80
292,120,40947,6,0,B|280:44|280:44|184:40,1,160
296,40,41397,1,0,0:0:0:0:
156,64,41547,2,0,L|148:152,1,80,4|0,0:0|0:0,0:0:0:0:
232,144,41847,1,0,0:0:0:0:
456,152,41997,2,0,L|456:256,1,80
372,236,42297,1,0,0:0:0:0:
148,244,42447,2,0,L|148:344,1,80
240,328,42747,1,0,0:0:0:0:
16,300,42897,2,0,L|8:172,1,80
232,188,43197,1,0,0:0:0:0:
120,192,43347,5,0,0:0:0:0:
344,188,43497,1,0,0:0:0:0:
232,188,43647,1,0,0:0:0:0:
456,184,43797,1,0,0:0:0:0:
320,176,43947,2,0,L|312:80,1,80
448,96,44247,2,0,L|456:0,1,80
320,20,44547,2,0,L|212:24,1,80
376,72,44847,2,0,L|488:64,1,80
164,208,45147,6,0,L|156:104,1,80
288,68,45447,2,0,L|296:172,1,80
164,208,45747,2,0,L|56:216,1,80
308,224,46047,2,0,B|476:208|476:208|380:200,1,240
260,196,46647,2,0,L|248:88,1,80
472,84,46947,2,0,L|376:76,1,80
248,60,47247,6,0,L|136:48,2,80
320,72,47697,1,0,0:0:0:0:
176,84,47847,2,0,L|168:192,1,80
312,180,48147,2,0,L|304:288,1,80
164,256,48447,2,0,L|152:352,1,80
388,348,48747,6,0,P|432:324|356:276,1,160
224,256,49197,2,0,L|392:252,1,160
240,224,49647,2,0,L|232:128,1,80
312,132,49947,5,0,0:0:0:0:
92,168,50097,2,0,L|84:72,1,80
164,76,50397,1,0,0:0:0:0:
388,60,50547,2,0,P|440:88|372:144,1,160
304,148,50997,1,0,0:0:0:0:
160,140,51147,6,0,L|168:232,1,80
312,232,51447,2,0,L|304:320,1,80
160,316,51747,2,0,L|264:320,1,80
120,236,52047,2,0,L|12:232,1,80
260,188,52347,2,0,L|444:192,1,160
336,164,52797,1,0,0:0:0:0:
192,152,52947,2,0,L|204:64,1,80
440,72,53247,6,0,P|444:128|336:140,1,160
248,156,53697,1,0,0:0:0:0:
32,156,53847,2,0,L|20:260,1,80
264,272,54147,2,0,L|380:280,2,80
184,264,54597,1,0,0:0:0:0:
328,256,54747,6,0,L|340:160,1,80
120,124,55047,2,0,L|224:140,1,80
272,152,55347,1,0,0:0:0:0:
164,128,55497,1,0,0:0:0:0:
304,100,55647,1,0,0:0:0:0:
84,68,55797,1,0,0:0:0:0:
388,88,55947,6,0,P|352:164|288:152,1,160
200,144,56397,1,0,0:0:0:0:
340,180,56547,2,0,L|352:288,1,80
132,280,56847,6,0,L|320:300,1,160
208,304,57297,1,0,0:0:0:0:
348,328,57447,2,0,L|356:224,1,80
108,200,57747,2,0,P|72:180|144:116,1,160
200,104,58197,1,0,0:0:0:0:
424,108,58347,6,0,L|432:200,1,80
208,204,58647,2,0,L|224:312,1,80
444,284,58947,2,0,L|432:384,1,80
212,376,59247,2,0,L|192:264,1,80
460,232,59547,6,0,L|264:220,1,160
384,200,59997,1,0,0:0:0:0:
244,168,60147,2,0,L|236:64,1,80
460,64,60447,6,0,L|276:48,1,160
80,76,60897,2,0,P|76:120|184:156,1,160
388,196,61347,2,0,L|376:288,1,80
228,248,61647,2,0,L|328:264,1,80
156,236,61947,6,0,L|136:336,1,80
364,340,62247,2,0,P|392:324|340:236,1,160
100,216,62697,2,0,L|92:124,1,80
176,124,62997,1,0,0:0:0:0:
424,128,63147,6,0,L|256:116,2,160
344,136,63897,1,0,0:0:0:0:
120,140,64047,2,0,L|108:56,1,80
252,136,64347,6,0,L|240:52,1,80
376,140,64647,2,0,L|364:56,1,80
148,144,64947,2,0,L|160:228,1,80
272,228,65247,1,0,0:0:0:0:
384,232,65397,1,0,0:0:0:0:
152,252,65547,6,0,L|56:256,1,80
304,264,65847,1,0,0:0:0:0:
416,272,65997,1,0,0:0:0:0:
204,200,66147,2,0,L|108:204,1,80
348,172,66447,2,0,L|456:176,1,80
84,132,66747,6,0,P|68:80|168:64,1,160
232,48,67197,1,0,0:0:0:0:
376,60,67347,2,0,L|368:160,1,80
224,140,67647,1,0,0:0:0:0:
368,148,67797,1,0,0:0:0:0:
224,140,67947,6,0,L|220:236,1,80
364,216,68247,2,0,L|372:316,1,80
148,312,68547,2,0,L|-24:312,1,160
68,276,68997,1,0,0:0:0:0:
212,268,69147,6,0,L|208:152,1,80
68,152,69447,2,0,L|164:160,2,80
208,128,69897,1,0,0:0:0:0:
64,120,70047,1,0,0:0:0:0:
288,108,70197,1,0,0:0:0:0:
52,160,70347,6,0,P|64:228|156:224,1,160
368,232,70797,2,0,P|356:300|264:296,1,160
44,312,71247,6,0,L|220:316,1,160
348,316,71697,1,0,0:0:0:0:
208,276,71847,2,0,L|200:176,1,80
424,164,72147,2,0,L|436:256,1,80
296,264,72447,6,0,L|200:276,2,80
376,248,72897,1,0,0:0:0:0:
148,200,73047,2,0,L|40:208,1,80
300,176,73347,2,0,L|408:160,1,80
224,140,73647,1,0,0:0:0:0:
360,92,73797,1,0,0:0:0:0:
128,108,73947,6,0,P|88:156|156:188,1,160
384,240,74397,2,0,P|424:288|356:320,1,160
212,300,74847,1,0,0:0:0:0:
296,320,74997,1,0,0:0:0:0:
132,316,75147,6,0,L|124:208,1,80
268,208,75447,2,0,L|368:196,1,80
128,152,75747,2,0,P|88:124|160:80,1,160
296,72,76197,1,0,0:0:0:0:
152,76,76347,6,0,L|48:72,1,80
308,132,76647,2,0,L|392:132,1,80
80,204,76947,2,0,L|-28:204,1,80
388,228,77247,2,0,L|484:228,1,80
176,272,77547,6,0,P|176:332|264:340,1,160
40,272,77997,2,0,P|40:332|128:340,1,160
356,320,78447,6,0,L|456:316,2,80
276,328,78897,1,0,0:0:0:0:
412,284,79047,2,0,L|416:184,1,80
192,168,79347,2,0,P|160:208|236:256,1,160
312,264,79797,1,0,0:0:0:0:
224,264,79947,6,0,L|140:268,1,80
368,276,80247,2,0,L|264:284,1,80
64,312,80547,2,0,L|164:304,1,80
408,312,80847,2,0,L|296:324,1,80
104,344,81147,6,0,L|272:328,2,160
184,324,81897,1,0,0:0:0:0:
328,308,82047,2,0,L|336:216,1,80
192,212,82347,6,0,L|192:108,1,80
304,116,82647,1,0,0:0:0:0:
160,108,82797,1,0,0:0:0:0:
384,124,82947,2,0,L|384:216,1,80
160,212,83247,2,0,L|156:324,1,80
452,268,83547,6,0,L|452:372,1,80
228,348,83847,2,0,L|40:360,2,160
144,324,84597,1,0,0:0:0:0:
296,308,84747,6,0,L|300:200,1,80
152,188,85047,2,0,L|160:84,1,80
308,100,85347,2,0,L|224:92,1,80
452,80,85647,6,0,P|504:116|436:156,1,160
364,160,86097,1,0,0:0:0:0:
220,152,86247,2,0,L|120:156,1,80
356,216,86547,2,0,P|400:256|336:300,1,160
248,300,86997,1,0,0:0:0:0:
104,304,87147,6,0,L|112:212,1,80
252,204,87447,2,0,L|164:196,1,80
48,124,87747,2,0,L|144:140,1,80
352,148,88047,2,0,L|252:132,1,80
24,16,88347,6,0,L|192:44,1,160
320,80,88797,1,0,0:0:0:0:
176,100,88947,2,0,L|156:208,1,80
392,200,89247,6,0,P|440:240|376:292,1,160
240,288,89697,1,0,0:0:0:0:
384,312,89847,2,0,L|484:320,1,80
232,316,90147,2,0,L|148:308,1,80
384,276,90447,2,0,L|400:172,1,80
260,148,90747,5,0,0:0:0:0:
164,132,90897,1,0,0:0:0:0:
388,112,91047,2,0,L|484:108,1,80
244,72,91347,2,0,L|140:56,2,80
324,80,91797,1,0,0:0:0:0:
108,140,91947,6,0,L|116:328,1,160
196,308,92397,1,0,0:0:0:0:
412,316,92547,2,0,P|452:272|376:216,1,160
316,200,92997,1,0,0:0:0:0:
100,188,93147,6,0,L|88:80,1,80
232,88,93447,2,0,L|240:196,1,80
24,228,93747,2,0,L|196:232,1,160
104,252,94197,1,0,0:0:0:0:
280,256,94347,6,0,L|180:252,1,80
424,224,94647,2,0,P|484:176|424:136,1,160
360,120,95097,1,0,0:0:0:0:
216,100,95247,2,0,L|324:104,1,80
172,176,95547,6,0,L|72:176,1,80
316,192,95847,2,0,L|324:280,1,80
96,280,96147,2,0,L|88:376,1,80
312,356,96447,6,0,L|488:360,1,160
392,332,96897,1,0,0:0:0:0:
248,312,97047,2,0,L|248:204,1,80
472,212,97347,2,0,P|460:144|372:136,1,160
244,120,97797,1,0,0:0:0:0:
372,164,97947,6,0,L|380:260,1,80
228,252,98247,2,0,L|412:252,1,160
304,268,98697,1,0,0:0:0:0:
456,288,98847,2,0,L|464:384,1,80
240,352,99147,6,0,L|64:352,1,160
160,324,99597,1,0,0:0:0:0:
304,316,99747,2,0,L|304:252,1,40
152,268,99897,2,0,L|156:192,1,40
336,204,100047,6,0,L|504:196,1,160
412,168,100497,1,0,0:0:0:0:
272,144,100647,2,0,L|164:132,1,80
332,96,100947,2,0,P|368:128|312:204,1,160
164,212,101397,1,0,0:0:0:0:
316,220,101547,6,0,L|412:224,1,80
156,236,101847,1,0,0:0:0:0:
396,260,101997,2,0,L|404:360,1,80
144,332,102297,1,0,0:0:0:0:
424,340,102447,1,0,0:0:0:0:
48,336,102597,1,0,0:0:0:0:
508,344,102747,1,0,0:0:0:0:
80,176,108147,6,0,L|68:48,1,80
212,160,108447,2,0,L|200:32,1,80
344,96,108747,1,0,0:0:0:0:
232,96,108897,1,0,0:0:0:0:
376,120,109047,2,0,L|384:216,1,80
240,216,109347,2,0,L|152:224,1,80
304,224,109647,2,0,L|408:216,1,80
168,280,109947,6,0,L|152:160,1,80
296,276,110247,2,0,L|280:156,1,80
424,272,110547,2,0,L|408:152,1,80
272,176,110847,2,0,L|96:172,1,160
192,140,111297,1,0,0:0:0:0:
336,128,111447,2,0,L|344:32,1,80
200,36,111747,2,0,P|208:112|284:128,1,160
356,136,112197,1,0,0:0:0:0:
500,144,112347,6,0,P|492:220|416:236,1,160
340,240,112797,1,0,0:0:0:0:
196,240,112947,2,0,L|204:336,1,80
348,320,113247,2,0,L|328:212,1,80
112,200,113547,2,0,L|280:188,1,160
352,180,113997,1,0,0:0:0:0:
208,168,114147,2,0,L|200:72,1,80
424,56,114447,6,0,L|244:68,1,160
344,100,114897,1,0,0:0:0:0:
200,124,115047,2,0,L|192:236,1,80
336,224,115347,2,0,B|260:216|152:208,1,160
256,248,115797,1,0,0:0:0:0:
112,260,115947,2,0,L|104:360,1,80
248,348,116247,2,0,L|256:244,1,80
400,276,116547,2,0,L|392:380,1,80
248,348,116847,1,0,0:0:0:0:
152,336,116997,1,0,0:0:0:0:
376,352,117147,6,0,P|416:292|340:252,1,160
280,248,117597,1,0,0:0:0:0:
44,150,117747,2,0,P|4:210|80:250,1,160
168,252,118197,1,0,0:0:0:0:
400,244,118347,2,0,L|408:344,1,80
272,248,118647,2,0,L|268:120,1,80
492,132,118947,2,0,L|296:128,1,160
404,156,119397,1,0,0:0:0:0:
260,164,119547,6,0,L|144:160,1,80
320,196,119847,2,0,L|420:200,1,80
176,224,120147,2,0,L|76:216,1,80
248,232,120447,2,0,L|348:240,1,80
88,256,120747,2,0,P|92:324|200:324,1,160
256,344,121197,1,0,0:0:0:0:
400,332,121347,2,0,L|384:200,1,80
256,208,121647,2,0,L|272:340,1,80
476,208,121947,6,0,L|444:80,1,80
304,124,122247,1,0,0:0:0:0:
384,128,122397,1,0,0:0:0:0:
160,100,122547,2,0,L|-36:88,1,160
80,116,122997,1,0,0:0:0:0:
220,144,123147,2,0,L|236:288,1,80
88,244,123447,2,0,L|96:348,1,80
328,300,123747,2,0,L|319:220,1,80
460,199,124046,2,0,L|453:119,1,80
220,120,124347,6,0,L|28:112,1,160
136,84,124797,1,0,0:0:0:0:
280,96,124947,2,0,L|264:224,1,80
128,180,125247,2,0,L|140:280,1,80
292,280,125547,2,0,L|192:284,1,80
356,300,125847,2,0,L|456:292,1,80
212,272,126147,2,0,L|28:288,1,160
128,304,126597,1,0,0:0:0:0:
280,300,126747,6,0,L|288:164,1,80
204,204,127047,1,0,0:0:0:0:
356,196,127197,1,0,0:0:0:0:
132,168,127347,2,0,L|120:60,1,80
264,60,127647,1,0,0:0:0:0:
360,44,127797,1,0,0:0:0:0:
144,40,127947,2,0,P|96:92|176:120,1,160
240,136,128397,1,0,0:0:0:0:
384,140,128547,2,0,L|376:256,1,80
148,248,128847,2,0,L|156:344,1,80
380,336,129147,6,0,L|264:344,1,80
72,352,129447,2,0,L|192:352,1,80
372,316,129747,2,0,L|360:124,1,160
220,144,130197,1,0,0:0:0:0:
124,136,130347,1,0,0:0:0:0:
220,144,130497,1,0,0:0:0:0:
80,172,130647,2,0,L|184:180,1,80
300,212,130947,2,0,L|200:204,1,80
364,224,131247,2,0,L|364:312,1,80
140,304,131547,6,0,L|328:324,1,160
228,288,131997,1,0,0:0:0:0:
372,296,132147,2,0,L|384:196,1,80
244,180,132447,2,0,L|248:84,1,80
392,88,132747,2,0,L|492:84,1,80
388,24,133047,1,0,0:0:0:0:
292,24,133197,1,0,0:0:0:0:
68,40,133347,2,0,L|252:48,1,160
444,40,133797,6,0,L|260:48,1,160
32,116,134247,2,0,L|216:124,1,160
472,168,134697,2,0,P|456:228|360:232,1,160
136,250,135147,1,0,0:0:0:0:
63,258,135297,1,0,0:0:0:0:
143,263,135447,1,0,0:0:0:0:
223,269,135597,1,0,0:0:0:0:
388,252,135747,1,0,0:0:0:0:
460,243,135897,1,0,0:0:0:0:
380,238,136047,1,0,0:0:0:0:
300,232,136197,1,0,0:0:0:0:
156,212,136347,6,0,L|152:120,1,80
296,152,136647,2,0,L|304:56,1,80
84,76,136947,2,0,P|120:132|220:120,1,160
288,136,137397,1,0,0:0:0:0:
148,160,137547,2,0,L|144:248,1,80
288,252,137847,6,0,L|464:256,1,160
364,276,138297,1,0,0:0:0:0:
224,300,138447,2,0,L|216:392,1,80
432,360,138747,2,0,L|260:348,1,160
356,328,139197,1,0,0:0:0:0:
216,296,139347,6,0,L|104:280,1,80
276,252,139647,2,0,L|444:248,1,160
352,216,140097,1,0,0:0:0:0:
208,200,140247,2,0,L|196:96,1,80
420,76,140547,6,0,P|412:140|312:136,1,160
108,196,140997,2,0,L|288:200,1,160
188,216,141447,1,0,0:0:0:0:
300,220,141597,1,0,0:0:0:0:
156,236,141747,5,0,0:0:0:0:
380,252,141897,1,0,0:0:0:0:
268,260,142047,1,0,0:0:0:0:
412,276,142197,1,0,0:0:0:0:
188,288,142347,2,0,L|180:180,1,80
264,192,142647,1,0,0:0:0:0:
408,180,142797,6,0,L|396:80,1,80
256,100,143097,2,0,L|272:4,1,80
352,12,143397,1,0,0:0:0:0:
208,20,143547,2,0,L|116:12,1,80
268,56,143847,2,0,L|368:68,1,80
116,100,144147,6,0,P|136:160|228:152,1,160
304,156,144597,1,0,0:0:0:0:
160,172,144747,2,0,L|156:256,1,80
300,272,145047,6,0,L|128:264,1,160
232,292,145497,1,0,0:0:0:0:
376,308,145647,2,0,L|376:400,1,80
144,368,145947,2,0,L|332:384,1,160
228,352,146397,1,0,0:0:0:0:
372,364,146547,6,0,L|384:256,1,80
164,228,146847,2,0,P|196:156|280:152,1,160
416,152,147297,1,0,0:0:0:0:
280,100,147447,2,0,L|168:88,1,80
424,92,147747,6,0,L|424:264,1,160
344,256,148197,1,0,0:0:0:0:
200,264,148347,2,0,L|300:268,1,80
56,232,148647,6,0,L|64:48,1,160
148,64,149097,1,0,0:0:0:0:
292,60,149247,2,0,L|288:172,1,80
68,176,149547,2,0,L|252:184,1,160
144,200,149997,1,0,0:0:0:0:
296,216,150147,6,0,L|300:312,1,80
148,288,150447,2,0,L|140:384,1,80
224,340,150747,2,0,L|236:244,1,80
76,232,151047,2,0,L|60:332,1,80
280,256,151347,6,0,L|452:240,1,160
356,220,151797,1,0,0:0:0:0:
212,208,151947,2,0,L|200:300,1,80
424,308,152247,6,0,L|256:292,1,160
56,212,152697,2,0,L|224:232,1,160
440,240,153147,2,0,L|456:148,1,80
316,124,153447,2,0,L|296:224,1,80
440,240,153747,5,0,0:0:0:0:
368,236,153897,1,0,0:0:0:0:
144,224,154047,2,0,L|312:232,1,160
92,160,154497,2,0,P|44:224|92:284,1,160
308,292,154947,6,0,L|324:184,1,80
112,128,155247,2,0,L|96:216,1,80
320,176,155547,2,0,L|336:80,1,80
112,56,155847,1,0,0:0:0:0:
191,65,155997,1,0,0:0:0:0:
270,74,156147,5,0,0:0:0:0:
191,65,156297,1,0,0:0:0:0:
348,84,156447,1,0,0:0:0:0:
428,100,156597,1,0,0:0:0:0:
280,132,156747,2,0,L|276:224,1,80
428,228,157047,2,0,L|428:336,1,80
276,316,157347,5,0,0:0:0:0:
356,320,157497,1,0,0:0:0:0:
104,300,157647,2,0,P|112:232|164:228,1,120
312,212,157947,2,0,P|304:144|252:140,1,120
56,184,158247,2,0,P|64:116|116:112,1,120
256,108,158547,6,0,L|436:96,1,160
332,76,158997,1,0,0:0:0:0:
188,60,159147,2,0,L|176:176,1,80
400,172,159447,6,0,L|228:160,1,160
96,140,159897,1,0,0:0:0:0:
232,184,160047,2,0,L|240:280,1,80
24,268,160347,2,0,L|212:280,1,160
328,288,160797,6,0,L|340:184,1,80
256,180,161097,1,0,0:0:0:0:
400,184,161247,2,0,L|412:88,1,80
188,72,161547,1,0,0:0:0:0:
312,84,161697,1,0,0:0:0:0:
64,56,161847,1,0,0:0:0:0:
312,84,161997,1,0,0:0:0:0:
68,132,162147,6,0,P|80:192|172:192,1,160
416,192,162597,2,0,P|404:252|312:252,1,160
172,256,163047,2,0,L|168:352,1,80
304,284,163347,6,0,L|308:192,1,80
172,180,163647,2,0,L|80:172,1,80
236,160,163947,1,0,0:0:0:0:
156,148,164097,1,0,0:0:0:0:
292,148,164247,2,0,L|384:160,1,80
160,88,164547,6,0,L|48:64,1,80
376,80,164847,2,0,L|480:100,1,80
160,88,165147,2,0,L|104:76,1,40
360,132,165297,2,0,L|408:144,1,40
96,140,165447,2,0,L|48:128,1,40
388,200,165597,2,0,L|432:212,1,40
140,248,165747,6,0,P|160:300|264:296,1,160
336,308,166197,1,0,0:0:0:0:
184,300,166347,2,0,L|176:208,1,80
328,200,166647,2,0,L|332:300,1,80
92,316,166947,6,0,L|80:212,1,80
412,184,167247,2,0,L|420:280,1,80
172,236,167547,2,0,L|336:208,1,160
252,192,167997,1,0,0:0:0:0:
396,172,168147,6,0,L|416:272,1,80
272,284,168447,2,0,L|456:284,1,160
356,244,168897,1,0,0:0:0:0:
212,240,169047,2,0,L|224:136,1,80
436,140,169347,6,0,P|488:88|436:44,1,160
200,32,169797,2,0,P|146:79|199:127,1,160
344,124,170247,2,0,L|228:132,1,80
124,164,170547,6,0,L|228:172,1,80
344,200,170847,1,0,0:0:0:0:
423,207,170997,1,0,0:0:0:0:
352,211,171147,1,0,0:0:0:0:
272,214,171297,1,0,0:0:0:0:
132,248,171447,2,0,L|128:352,1,80
272,328,171747,6,0,L|276:240,1,80
132,236,172047,1,0,0:0:0:0:
212,224,172197,1,0,0:0:0:0:
292,216,172347,1,0,0:0:0:0:
216,192,172497,1,0,0:0:0:0:
360,188,172647,1,0,0:0:0:0:
440,176,172797,1,0,0:0:0:0:
216,148,172947,6,0,L|208:48,1,80
432,36,173247,2,0,L|436:136,1,80
188,160,173547,1,0,0:0:0:0:
268,168,173697,2,0,L|360:176,1,80
140,196,174147,6,0,L|144:296,1,80
288,288,174447,2,0,L|280:184,1,80
64,148,174747,2,0,L|232:160,1,160
144,132,175197,1,0,0:0:0:0:
296,148,175347,6,0,L|300:240,1,80
76,232,175647,2,0,P|32:276|100:320,1,160
176,324,176097,1,0,0:0:0:0:
320,328,176247,2,0,L|224:328,1,80
96,340,176547,6,0,L|268:344,1,160
176,324,176997,1,0,0:0:0:0:
320,324,177147,2,0,L|328:224,1,80
104,180,177447,6,0,L|264:192,1,160
344,204,177897,1,0,0:0:0:0:
204,176,178047,2,0,L|200:80,1,80
424,80,178347,2,0,P|480:128|416:168,1,160
348,180,178797,1,0,0:0:0:0:
136,136,178947,6,0,B|72:180|100:236|144:264|144:264|44:272,1,240
208,268,179547,2,0,L|324:264,1,80
152,216,179847,2,0,L|44:216,1,80
308,180,180147,6,0,P|292:128|200:136,1,160
120,136,180597,1,0,0:0:0:0:
264,132,180747,2,0,L|344:136,1,80
112,160,181047,6,0,P|120:212|216:208,1,160
292,208,181497,1,0,0:0:0:0:
148,220,181647,2,0,L|144:312,1,80
288,304,181947,2,0,L|200:304,1,80
352,304,182247,2,0,L|352:400,1,80
208,376,182547,5,0,0:0:0:0:
288,376,182697,1,0,0:0:0:0:
72,320,182847,2,0,B|232:312|232:312|148:296,1,240
296,292,183447,2,0,L|408:296,1,80
156,252,183747,6,0,L|144:152,1,80
368,192,184047,2,0,L|372:92,1,80
120,108,184347,1,0,0:0:0:0:
204,100,184497,2,0,L|292:96,1,80
96,192,184947,6,0,L|92:288,1,80
236,288,185247,1,0,0:0:0:0:
160,280,185397,1,0,0:0:0:0:
384,296,185547,2,0,L|200:280,1,160
308,268,185997,1,0,0:0:0:0:
168,236,186147,6,0,L|164:136,1,80
388,140,186447,2,0,P|380:84|272:72,1,160
148,60,186897,1,0,0:0:0:0:
284,108,187047,2,0,L|292:212,1,80
68,204,187347,6,0,L|252:216,1,160
148,232,187797,1,0,0:0:0:0:
292,252,187947,2,0,L|296:356,1,80
152,340,188247,2,0,L|156:224,1,80
388,260,188547,6,0,L|392:376,1,80
60,352,188847,2,0,L|60:240,1,80
420,196,189147,2,0,L|236:188,1,160
344,160,189597,1,0,0:0:0:0:
200,148,189747,6,0,L|188:248,1,80
332,248,190047,2,0,L|248:240,1,80
112,216,190347,2,0,L|220:232,1,80
428,256,190647,2,0,L|328:240,1,80
112,176,190947,6,0,L|288:212,1,160
196,168,191397,1,0,0:0:0:0:
348,188,191547,2,0,L|440:216,1,80
212,96,191847,6,0,L|48:40,1,160
148,36,192297,1,0,0:0:0:0:
292,48,192447,2,0,L|296:152,1,80
72,167,192747,2,0,P|24:199|88:271,1,160
160,272,193197,1,0,0:0:0:0:
304,284,193347,6,0,L|296:376,1,80
152,368,193647,2,0,L|160:268,1,80
208,288,193872,1,0,0:0:0:0:
384,288,193947,2,0,L|392:192,1,80
248,180,194247,1,0,0:0:0:0:
328,188,194397,1,0,0:0:0:0:
108,140,194547,6,0,L|280:168,1,160
200,124,194997,1,0,0:0:0:0:
340,156,195147,2,0,L|336:252,1,80
196,264,195447,2,0,L|184:368,1,80
340,344,195747,6,0,L|452:360,1,80
172,344,196047,2,0,L|60:328,1,80
424,276,196347,2,0,P|460:236|392:180,1,160
316,172,196797,1,0,0:0:0:0:
180,156,196947,6,0,L|280:152,1,80
392,112,197247,2,0,L|292:116,1,80
88,88,197547,2,0,L|184:80,1,80
392,64,197847,6,0,L|384:236,1,160
300,228,198297,1,0,0:0:0:0:
156,232,198447,2,0,L|240:232,1,80
100,284,198747,2,0,L|96:188,1,80
240,176,199047,2,0,L|248:288,1,80
24,328,199347,6,0,L|196:304,1,160
104,288,199797,1,0,0:0:0:0:
332,248,199947,2,0,B|444:224|444:224|152:208|152:208|312:196|312:196|64:184|64:184|148:160|148:160,1,880
360,148,201747,6,0,P|424:200|288:328,1,320
224,320,202497,1,0,0:0:0:0:
444,280,202647,6,0,B|432:120|432:120|272:96|272:96|288:256|288:256|360:268|360:268|360:268|352:188|352:188|240:168,1,720
128,152,204147,6,0,L|232:168,1,80
428,208,204447,2,0,L|320:192,1,80
48,220,204747,2,0,L|152:240,1,80
460,304,205047,2,0,L|376:292,1,80
156,300,205347,6,0,B|140:136|140:136|304:128|304:128|140:136|140:136|456:120,1,800
364,124,206997,1,0,0:0:0:0:
140,120,207147,2,0,P|60:204|144:260,1,240
280,268,207747,5,2,0:0:0:0:
196,272,207897,1,0,0:0:0:0:
420,268,208047,2,0,P|500:184|416:128,1,240
288,120,208647,2,0,L|280:224,1,80
364,208,208947,1,0,0:0:0:0:
220,208,209097,2,0,L|216:300,1,80
360,300,209397,2,0,L|368:392,1,80
288,384,209697,1,0,0:0:0:0:
68,352,209847,6,0,L|248:380,1,160
152,332,210297,1,0,0:0:0:0:
296,344,210447,2,0,L|312:240,1,80
92,212,210747,2,0,P|104:152|208:144,1,160
272,140,211197,1,0,0:0:0:0:
416,148,211347,6,0,L|416:260,1,80
272,248,211647,2,0,L|280:336,1,80
424,332,211947,2,0,L|332:336,1,80
128,324,212247,2,0,L|232:320,1,80
420,272,212547,6,0,P|412:212|176:176,1,320
280,200,213297,1,0,0:0:0:0:
64,220,213447,6,0,L|480:204,1,400
320,188,214347,2,0,L|304:80,1,80
448,76,214647,2,0,L|468:180,1,80
324,192,214947,6,0,L|208:216,1,80
372,276,215247,2,0,L|472:248,1,80
232,288,215547,1,0,0:0:0:0:
340,292,215697,1,0,0:0:0:0:
120,292,215847,1,0,0:0:0:0:
232,288,215997,1,0,0:0:0:0:
0,292,216147,6,0,L|4:176,1,80
148,204,216447,2,0,L|136:104,1,80
280,108,216747,1,0,0:0:0:0:
200,96,216897,1,0,0:0:0:0:
344,96,217047,2,0,L|356:196,1,80
240,180,217347,5,0,0:0:0:0:
384,188,217497,1,0,0:0:0:0:
160,176,217647,1,0,0:0:0:0:
472,196,217797,1,0,0:0:0:0:
68,168,217947,1,0,0:0:0:0:
