osu file format v14

[General]
AudioFilename: audio.mp3
AudioLeadIn: 0
PreviewTime: 6516
Countdown: 0
SampleSet: Soft
StackLeniency: 0.7
Mode: 0
LetterboxInBreaks: 0
WidescreenStoryboard: 1

[Editor]
Bookmarks: 19894,45840,71786,85570,97732,123678,149218,177191,203137
DistanceSpacing: 1.2
BeatDivisor: 4
GridSize: 16
TimelineZoom: 2.599999

[Metadata]
Title:Ghosts Play to the Audience
TitleUnicode:おばけのウケねらい
Artist:PinocchioP feat. Hatsune Miku
ArtistUnicode:ピノキオピー feat. 初音ミク
Creator:AJT
Version:Hard
Source:
Tags:yokespai corsace closed cc 2021 playins dt1 japanese pop electropop utaite vocaloid Obake no Ukenerai cover Nanawoakari ナナヲアカリ 零号 zero-go
BeatmapID:3123098
BeatmapSetID:1471627

[Difficulty]
HPDrainRate:4
CircleSize:4
OverallDifficulty:6
ApproachRate:8
SliderMultiplier:1.5
SliderTickRate:1

[Events]
//Background and Video events
0,0,"ghosts.jpg",0,0
//Break Periods
2,44418,45090
2,109083,109955
2,140094,148468
2,162695,171576
2,216209,221441
//Storyboard Layer 0 (Background)
//Storyboard Layer 1 (Fail)
//Storyboard Layer 2 (Pass)
//Storyboard Layer 3 (Foreground)
//Storyboard Layer 4 (Overlay)
//Storyboard Sound Samples

[TimingPoints]
435,405.405405405405,4,2,0,50,1,0
6516,-83.3333333333333,4,2,0,75,0,0
6921,-83.3333333333333,4,2,0,80,0,1
19894,-100,4,2,0,70,0,0
32867,-100,4,2,0,75,0,0
45840,-83.3333333333333,4,2,0,80,0,0
56989,-83.3333333333333,4,2,0,80,0,0
71380,-83.3333333333333,4,2,0,80,0,0
71786,-83.3333333333333,4,2,0,80,0,1
84759,-125,4,2,0,70,0,0
90840,-111.111111111111,4,2,0,70,0,0
96921,-100,4,2,0,70,0,0
97732,-100,4,2,0,75,0,0
110705,-83.3333333333333,4,2,0,80,0,0
121701,-83.3333333333333,4,2,0,5,0,0
121803,-83.3333333333333,4,2,0,80,0,0
136752,-125,4,2,0,80,0,0
139894,-125,4,2,0,30,0,0
149218,-125,4,2,0,70,0,0
149624,-142.857142857143,4,2,0,65,0,0
151853,-100,4,2,0,70,0,0
152867,-142.857142857143,4,2,0,70,0,0
155299,-100,4,2,0,70,0,0
162597,-333.333333333333,4,2,0,70,0,0
165840,-310.510790249961,4,2,0,70,0,0
169083,-200,4,2,0,70,0,0
173948,-100,4,2,0,65,0,0
174759,-71.4285714285714,4,2,0,80,0,0
177191,-83.3333333333333,4,2,0,85,0,0
201516,-83.3333333333333,4,2,0,80,0,0
203137,-71.4285714285714,4,2,0,90,0,1
216110,-100,4,2,0,50,0,0
222191,-83.3333333333333,4,2,0,80,0,0
224218,-83.3333333333333,4,2,0,5,0,0

[Colours]
Combo1 : 255,230,151
Combo2 : 212,212,212
Combo3 : 159,159,159
Combo4 : 248,129,147

[HitObjects]
503,13,6516,6,0,B|498:59,1,44.999998626709,2|0,0:2|0:0,0:0:0:0:
483,90,6718,2,0,B|431:85,1,44.999998626709,2|0,0:2|0:0,0:0:0:0:
412,110,6921,6,0,B|407:162,3,44.999998626709,6|0|2|0,1:0|0:0|0:0|0:0,0:0:0:0:
403,190,7326,1,10,1:2:0:0:
444,275,7529,1,2,0:0:0:0:
444,275,7630,1,2,0:0:0:0:
465,362,7833,2,0,B|509:366,2,44.999998626709,2|2|2,0:0|0:0|0:0,0:0:0:0:
422,376,8137,1,10,1:2:0:0:
341,336,8340,1,2,0:0:0:0:
255,264,8543,6,0,B|209:269,1,44.999998626709,2|0,1:2|0:0,0:0:0:0:
178,284,8745,2,0,B|183:336,1,44.999998626709,2|0,0:0|0:0,0:0:0:0:
189,373,8948,1,10,1:2:0:0:
59,336,9151,1,2,0:0:0:0:
59,336,9252,1,2,0:0:0:0:
59,336,9353,1,0,1:0:0:0:
0,112,9759,1,8,1:0:0:0:
162,35,10164,6,0,B|157:80,3,44.999998626709,2|0|2|0,1:2|0:0|0:0|0:0,0:0:0:0:
183,116,10569,1,10,1:2:0:0:
190,209,10772,1,2,0:0:0:0:
190,209,10873,1,2,0:0:0:0:
122,269,11076,2,0,B|78:265,2,44.999998626709,2|2|2,0:0|0:0|0:0,0:0:0:0:
150,304,11380,1,10,1:2:0:0:
231,371,11583,1,2,0:0:0:0:
300,297,11786,6,0,B|346:302,1,44.999998626709,2|0,1:2|0:0,0:0:0:0:
366,341,11988,2,0,B|418:336,1,44.999998626709,2|0,0:0|0:0,0:0:0:0:
448,311,12191,1,10,1:2:0:0:
404,213,12394,1,2,0:0:0:0:
404,213,12495,1,2,0:0:0:0:
404,213,12597,2,0,P|407:169|407:112,1,89.9999972534181,0|0,1:0|3:0,0:0:0:0:
329,47,13002,1,8,1:0:0:0:
249,119,13205,1,2,3:0:0:0:
295,216,13407,6,0,B|290:261,3,44.999998626709,2|0|2|0,1:2|0:0|0:0|0:0,0:0:0:0:
323,302,13812,1,10,1:2:0:0:
255,384,14015,1,2,0:0:0:0:
255,384,14116,1,2,0:0:0:0:
153,339,14319,2,0,B|149:383,2,44.999998626709,2|2|2,0:0|0:0|0:0,0:0:0:0:
115,313,14623,1,10,1:2:0:0:
32,349,14826,1,2,0:0:0:0:
11,242,15029,6,0,B|6:196,1,44.999998626709,2|0,1:2|0:0,0:0:0:0:
57,180,15231,2,0,B|62:153|62:153|52:128,1,44.999998626709,2|0,0:0|0:0,0:0:0:0:
3,120,15434,1,10,1:2:0:0:
55,34,15637,2,0,B|76:25|76:25|99:38,1,44.999998626709,2|2,0:0|0:0,0:0:0:0:
131,40,15840,1,0,1:0:0:0:
352,16,16245,1,8,1:0:0:0:
240,144,16650,5,2,1:2:0:0:
260,168,16751,1,0,0:0:0:0:
265,199,16853,1,2,0:0:0:0:
261,230,16954,1,0,0:0:0:0:
243,256,17055,1,10,1:2:0:0:
164,199,17259,2,0,L|109:191,1,44.999998626709,2|2,0:0|0:0,0:0:0:0:
0,262,17563,1,2,0:0:0:0:
15,289,17664,1,2,0:0:0:0:
38,309,17765,1,2,0:0:0:0:
63,327,17867,2,0,P|104:338|180:329,1,89.9999972534181,10|2,1:2|0:0,0:0:0:0:
240,256,18272,5,0,1:0:0:0:
344,229,18475,1,8,3:0:0:0:
390,326,18678,1,8,1:0:0:0:
344,229,18881,1,8,3:0:0:0:
450,213,19083,1,0,1:0:0:0:
344,229,19286,1,8,3:0:0:0:
366,123,19489,5,8,1:0:0:0:
362,87,19590,1,0,1:0:0:0:
342,57,19691,1,8,1:0:0:0:
308,43,19793,1,0,1:0:0:0:
287,64,19894,6,0,P|247:77|202:76,1,75,2|0,0:0|0:0,0:0:0:0:
143,35,20299,1,8,1:0:0:0:
60,43,20502,2,0,P|44:42|19:29,2,37.5,2|0|2,0:0|1:0|0:0,0:0:0:0:
93,118,20907,1,0,1:0:0:0:
55,191,21110,1,8,1:0:0:0:
113,263,21313,1,2,0:0:0:0:
113,263,21414,1,0,0:0:0:0:
113,263,21516,6,0,P|158:257|206:256,1,75,2|0,1:2|0:0,0:0:0:0:
241,318,21921,2,0,L|236:358,2,37.5,8|0|0,1:0|0:0|0:0,0:0:0:0:
300,266,22326,1,2,0:0:0:0:
384,303,22529,1,2,1:2:0:0:
384,303,22630,1,0,0:0:0:0:
384,303,22731,1,8,1:0:0:0:
448,251,22934,6,0,P|467:244|503:247,2,37.5,2|0|2,0:0|0:0|1:2,0:0:0:0:
379,204,23340,1,0,0:0:0:0:
344,128,23543,2,0,P|363:121|399:124,2,37.5,8|0|0,1:0|0:0|0:0,0:0:0:0:
277,176,23948,1,2,0:0:0:0:
194,168,24151,1,0,1:2:0:0:
151,97,24353,1,8,1:0:0:0:
199,29,24556,1,2,0:0:0:0:
300,63,24759,6,0,P|347:72|378:67,1,75,2|0,1:2|0:0,0:0:0:0:
416,58,25063,1,0,0:0:0:0:
416,58,25164,1,8,1:1:0:0:
451,155,25367,2,0,P|452:175|444:195,1,37.5,2|0,0:0|1:0,0:0:0:0:
400,260,25671,2,0,P|399:280|407:300,1,37.5,2|0,0:0|1:0,0:0:0:0:
318,372,25975,1,8,1:0:0:0:
291,367,26077,1,0,0:0:0:0:
266,358,26178,1,2,0:0:0:0:
240,352,26279,1,2,0:0:0:0:
212,321,26380,6,0,L|164:314,2,37.5,2|0|0,1:2|0:0|1:0,0:0:0:0:
244,250,26786,1,8,1:0:0:0:
196,182,26989,1,2,0:0:0:0:
196,182,27090,2,0,P|153:205|67:199,1,112.5,0|2,1:0|1:2,0:0:0:0:
35,146,27597,1,8,1:1:0:0:
54,66,27799,6,0,P|41:26|27:3,2,37.5,2|0|2,0:0|0:0|1:2,0:0:0:0:
134,86,28205,2,0,P|167:82|193:87,1,37.5
204,58,28407,2,0,P|243:71|293:71,1,75,8|0,1:1|0:0,0:0:0:0:
310,51,28712,2,0,P|366:86|387:132,1,112.5,0|0,1:0|1:0,0:0:0:0:
428,196,29218,1,8,1:0:0:0:
374,254,29421,1,2,0:0:0:0:
374,254,29522,1,0,0:0:0:0:
374,254,29624,5,2,1:2:0:0:
292,244,29826,1,0,1:0:0:0:
212,264,30029,1,8,1:1:0:0:
151,207,30232,2,0,L|158:166,2,37.5,2|0|0,0:0|1:0|0:0,0:0:0:0:
68,205,30637,1,0,1:0:0:0:
11,264,30840,1,8,1:1:0:0:
60,342,31043,1,0,1:0:0:0:
60,342,31144,1,0,1:0:0:0:
60,342,31245,6,0,L|29:386,2,37.5,2|2|0,1:2|0:0|1:0,0:0:0:0:
174,318,31651,2,0,L|214:331,2,37.5,8|0|2,1:1|0:0|0:0,0:0:0:0:
178,288,31955,1,0,1:0:0:0:
91,222,32157,2,0,L|78:182,2,37.5,2|0|2,0:0|1:0|0:0,0:0:0:0:
132,220,32462,5,8,1:1:0:0:
150,217,32563,1,0,1:0:0:0:
168,215,32664,1,2,1:2:0:0:
186,212,32766,1,0,1:0:0:0:
201,186,32867,6,0,P|229:144|253:127,1,75,2|0,1:2|0:0,0:0:0:0:
307,58,33272,2,0,B|295:38|262:33,1,37.5,8|0,1:1|0:0,0:0:0:0:
189,13,33576,1,0,1:0:0:0:
189,13,33678,1,2,2:0:0:0:
189,13,33779,1,2,0:0:0:0:
110,61,33982,1,2,0:0:0:0:
110,61,34083,2,0,L|49:58,3,37.5,8|2|2|2,1:1|0:0|0:0|0:0,0:0:0:0:
57,98,34489,6,0,L|60:141,1,37.5,2|0,1:2|0:0,0:0:0:0:
40,170,34691,2,0,L|42:207,1,37.5,0|0,1:0|0:0,0:0:0:0:
53,255,34894,1,8,1:1:0:0:
53,255,34995,1,0,0:0:0:0:
53,255,35097,1,2,0:0:0:0:
131,319,35299,2,0,B|113:323|100:340,1,37.5,2|0,0:0|1:0,0:0:0:0:
224,319,35604,1,0,0:0:0:0:
224,319,35705,2,0,L|285:322,3,37.5,8|2|2|2,1:1|0:0|0:0|0:0,0:0:0:0:
295,344,36110,6,0,L|340:352,1,37.5,2|0,1:2|0:0,0:0:0:0:
362,322,36313,2,0,L|406:314,1,37.5,2|0,1:2|0:0,0:0:0:0:
438,327,36516,2,8,L|425:367,2,37.5,8|0|0,1:0|0:0|0:0,0:0:0:0:
407,216,36921,6,0,L|442:205,1,37.5,2|0,0:0|1:0,0:0:0:0:
328,172,37225,1,0,0:0:0:0:
328,172,37326,2,0,L|290:172,1,37.5,8|2,1:1|0:0,0:0:0:0:
255,194,37529,2,0,L|218:196,1,37.5,2|2,0:0|0:0,0:0:0:0:
182,174,37732,6,0,P|182:151|186:137,3,37.5,0|0|0|0,1:0|0:0|1:0|0:0,0:0:0:0:
157,107,38137,2,0,P|134:107|120:111,3,37.5,8|0|0|0,1:0|0:0|0:0|1:0,0:0:0:0:
86,95,38543,1,2,0:0:0:0:
86,95,38644,1,2,0:0:0:0:
158,0,38847,1,2,0:0:0:0:
158,0,38948,2,0,L|195:1,1,37.5,8|0,1:1|1:0,0:0:0:0:
231,22,39151,2,0,L|268:23,1,37.5,2|0,1:2|1:0,0:0:0:0:
307,11,39353,5,2,1:2:0:0:
361,86,39556,1,0,1:0:0:0:
361,86,39657,1,0,0:0:0:0:
361,86,39759,2,0,L|355:131,2,37.5,8|0|2,1:0|0:0|0:0,0:0:0:0:
401,78,40063,1,0,1:0:0:0:
455,184,40367,2,0,P|457:210|451:237,1,37.5,2|0,0:0|0:0,0:0:0:0:
441,260,40570,2,0,P|410:274|347:274,1,75,8|2,1:0|0:0,0:0:0:0:
330,265,40874,1,0,0:0:0:0:
330,265,40975,5,0,1:0:0:0:
265,316,41178,1,0,1:0:0:0:
192,277,41380,1,8,1:1:0:0:
109,283,41583,1,2,0:0:0:0:
109,283,41684,1,0,1:0:0:0:
56,170,41989,1,0,1:0:0:0:
56,170,42090,1,0,0:0:0:0:
56,170,42191,2,0,L|53:111,1,37.5,8|0,1:0|0:0,0:0:0:0:
77,98,42394,2,0,L|129:102,1,37.5,0|0,1:0|0:0,0:0:0:0:
152,85,42597,6,0,L|149:34,3,37.5,2|0|2|0,1:2|0:0|1:2|0:0,0:0:0:0:
182,22,43002,1,8,1:1:0:0:
269,62,43205,1,2,0:0:0:0:
336,128,43407,2,0,P|338:148|339:179,3,37.5,2|0|0|0,1:2|0:0|1:0|0:0,0:0:0:0:
311,196,43812,1,8,1:1:0:0:
311,279,44016,1,2,1:2:0:0:
370,335,44218,1,2,0:0:0:0:
0,384,45840,5,4,1:2:0:0:
46,296,46043,2,0,P|73:298|138:292,1,89.9999972534181,2|8,0:0|1:0,0:0:0:0:
230,346,46448,1,2,0:0:0:0:
230,346,46549,1,0,0:0:0:0:
230,346,46651,5,0,1:0:0:0:
304,280,46853,1,0,0:0:0:0:
400,303,47056,1,8,1:0:0:0:
451,218,47259,1,2,0:0:0:0:
360,140,47462,6,0,B|311:133,1,44.999998626709,2|0,1:2|0:0,0:0:0:0:
279,166,47664,2,0,B|230:173,1,44.999998626709,2|0,0:0|0:0,0:0:0:0:
192,199,47867,1,8,1:0:0:0:
113,138,48070,1,2,0:0:0:0:
78,45,48272,6,0,B|121:33|121:33|163:52,3,89.9999972534181,2|2|8|0,0:0|0:0|1:0|0:0,0:0:0:0:
256,0,49083,1,0,1:0:0:0:
328,67,49286,5,2,0:0:0:0:
422,37,49489,1,8,1:0:0:0:
471,122,49691,2,0,B|463:171,1,44.999998626709,2|2,0:0|0:0,0:0:0:0:
408,249,49995,1,2,0:0:0:0:
408,249,50097,1,2,0:0:0:0:
335,181,50299,2,0,B|331:172|331:172|281:167|231:200,1,89.9999972534181,8|2,1:0|0:0,0:0:0:0:
183,257,50705,6,0,B|158:260|158:260|133:255,1,44.999998626709,0|0,1:0|0:0,0:0:0:0:
99,226,50907,2,0,B|74:223|74:223|49:228,1,44.999998626709,2|0,0:0|0:0,0:0:0:0:
16,258,51110,1,8,1:0:0:0:
37,354,51313,1,2,0:0:0:0:
131,383,51516,1,0,1:0:0:0:
211,325,51718,2,0,B|242:318|242:318|311:323,1,89.9999972534181,2|8,0:0|1:0,0:0:0:0:
347,338,52022,1,0,1:0:0:0:
347,338,52123,1,2,1:2:0:0:
347,338,52225,1,0,1:0:0:0:
347,338,52326,1,0,1:0:0:0:
426,279,52529,6,0,B|451:284|474:308,2,44.999998626709,2|0|8,0:0|0:0|1:0,0:0:0:0:
440,180,52934,1,2,0:0:0:0:
363,116,53137,2,0,P|323:116|265:131,1,89.9999972534181,0|2,1:0|0:0,0:0:0:0:
245,167,53441,1,0,0:0:0:0:
245,167,53543,2,0,P|221:185|144:179,1,89.9999972534181,8|2,1:0|0:0,0:0:0:0:
70,170,53948,5,0,1:0:0:0:
70,170,54049,1,2,0:0:0:0:
93,266,54252,2,0,P|90:291|94:310,1,44.999998626709,2|8,0:0|1:0,0:0:0:0:
200,345,54556,1,2,0:0:0:0:
200,345,54657,1,0,0:0:0:0:
200,345,54759,6,0,B|244:337,3,44.999998626709,0|0|0|0,1:0|0:0|0:0|0:0,0:0:0:0:
290,355,55164,2,0,B|334:363,3,44.999998626709,8|0|0|0,1:0|0:0|0:0|0:0,0:0:0:0:
377,337,55570,1,0,1:0:0:0:
355,240,55772,5,2,0:0:0:0:
355,240,55874,1,0,0:0:0:0:
355,240,55975,2,0,P|316:236|248:221,1,89.9999972534181,8|2,1:0|0:0,0:0:0:0:
184,283,56380,1,0,1:0:0:0:
184,283,56481,1,0,0:0:0:0:
184,283,56583,1,2,0:0:0:0:
99,334,56786,2,0,P|87:316|85:233,1,89.9999972534181,8|2,1:0|0:0,0:0:0:0:
34,160,57191,5,0,1:0:0:0:
34,160,57292,1,0,1:0:0:0:
84,74,57495,5,0,1:0:0:0:
84,74,57596,1,8,1:0:0:0:
84,74,57698,1,0,0:0:0:0:
84,74,57799,1,0,1:0:0:0:
182,84,58002,1,0,1:0:0:0:
367,15,58407,5,8,1:0:0:0:
397,22,58508,1,0,1:0:0:0:
407,51,58610,1,0,1:0:0:0:
401,81,58711,1,0,1:0:0:0:
375,99,58813,6,0,B|333:96|306:112|306:112|301:177,1,134.999995880127,4|0,1:0|0:0,0:0:0:0:
314,203,59218,2,0,B|317:245|301:272|301:272|236:277,1,134.999995880127,8|2,1:0|0:0,0:0:0:0:
212,295,59624,2,0,L|203:349,2,44.999998626709,2|2|2,1:2|0:0|0:0,0:0:0:0:
115,273,60029,6,0,B|106:244|135:220|135:220|94:210|80:170,1,134.999995880127,8|0,1:0|0:0,0:0:0:0:
50,191,60434,2,0,P|41:167|72:47,1,134.999995880127,2|2,1:2|0:0,0:0:0:0:
34,35,60840,2,0,P|58:26|178:57,1,134.999995880127,8|2,1:1|0:0,0:0:0:0:
202,67,61246,1,2,1:2:0:0:
202,67,61347,1,2,0:0:0:0:
202,67,61448,1,2,0:0:0:0:
202,178,61651,2,0,P|195:213|204:288,1,89.9999972534181,8|2,1:0|0:0,0:0:0:0:
252,349,62056,6,0,B|285:350|294:321|294:321|299:228,1,134.999995880127,0|0,1:0|0:0,0:0:0:0:
356,230,62462,2,0,B|378:203|394:96,1,134.999995880127,8|2,1:0|0:0,0:0:0:0:
432,91,62867,1,2,1:2:0:0:
432,91,62968,1,2,0:0:0:0:
432,91,63070,1,2,0:0:0:0:
308,33,63272,2,0,B|242:22|236:87|171:54,1,134.999995880127,8|0,1:0|0:0,0:0:0:0:
160,87,63677,6,0,P|133:89|103:77,1,44.999998626709,0|0,1:0|0:0,0:0:0:0:
77,52,63880,2,0,P|50:50|20:62,1,44.999998626709,2|0,0:2|0:0,0:0:0:0:
7,80,64083,1,8,1:0:0:0:
0,187,64286,1,2,0:0:0:0:
58,289,64489,1,2,1:2:0:0:
58,289,64590,1,2,0:0:0:0:
58,289,64691,1,2,0:0:0:0:
173,306,64894,6,0,P|201:313|227:309,1,44.999998626709,8|0,1:0|0:0,0:0:0:0:
242,268,65097,2,0,P|270:261|296:265,1,44.999998626709,0|0,1:0|0:0,0:0:0:0:
326,290,65299,6,0,P|328:272|341:146,1,134.999995880127,4|0,1:0|0:0,0:0:0:0:
370,96,65705,2,0,P|376:163|384:230,1,134.999995880127,8|2,1:0|0:0,0:0:0:0:
422,288,66110,2,0,P|428:220|436:153,1,134.999995880127,0|0,1:0|0:0,0:0:0:0:
470,117,66516,5,8,1:0:0:0:
470,18,66718,1,0,0:0:0:0:
371,27,66921,2,0,P|303:33|236:41,1,134.999995880127,0|0,1:0|0:0,0:0:0:0:
130,79,67326,2,0,P|198:85|265:93,1,134.999995880127,8|2,1:0|0:0,0:0:0:0:
271,142,67732,1,2,1:2:0:0:
271,142,67833,1,2,0:0:0:0:
271,142,67934,1,2,0:0:0:0:
344,215,68137,1,8,1:0:0:0:
321,311,68340,1,2,0:0:0:0:
408,358,68543,6,0,L|265:381,1,134.999995880127,0|0,1:0|0:0,0:0:0:0:
234,350,68948,2,0,L|121:337,1,89.9999972534181,8|0,1:0|0:0,0:0:0:0:
114,330,69251,1,2,0:0:0:0:
114,330,69353,1,2,1:2:0:0:
21,274,69556,1,2,0:0:0:0:
86,179,69759,2,0,P|88:117|101:89,1,89.9999972534181,8|2,1:0|2:0,1:0:0:0:
203,158,70164,5,4,1:0:0:0:
298,129,70367,1,4,1:0:0:0:
389,166,70570,1,12,1:0:0:0:
371,263,70773,1,4,1:0:0:0:
426,344,70975,1,4,1:0:0:0:
426,344,71380,6,0,P|455:288|458:256,1,89.9999972534181,8|0,1:0|0:0,0:0:0:0:
414,175,71786,6,0,B|419:123,3,44.999998626709,6|0|2|0,1:1|0:0|0:0|0:0,0:0:0:0:
397,85,72191,1,10,1:2:0:0:
311,46,72394,1,2,0:0:0:0:
311,46,72495,1,2,0:0:0:0:
234,109,72698,2,0,B|230:153,2,44.999998626709,2|2|2,0:0|0:0|0:0,0:0:0:0:
188,87,73002,1,10,1:2:0:0:
97,128,73205,1,2,0:0:0:0:
74,224,73408,6,0,B|28:229,1,44.999998626709,2|0,1:2|0:0,0:0:0:0:
0,248,73610,2,0,B|5:300,1,44.999998626709,2|0,0:0|0:0,0:0:0:0:
8,333,73813,1,10,1:2:0:0:
126,381,74016,1,2,0:0:0:0:
126,381,74117,1,2,0:0:0:0:
126,381,74218,1,0,1:0:0:0:
309,306,74624,1,8,1:0:0:0:
163,171,75029,6,0,B|168:216,3,44.999998626709,2|0|2|0,1:2|0:0|0:0|0:0,0:0:0:0:
133,250,75434,1,10,1:2:0:0:
42,221,75637,1,2,0:0:0:0:
42,221,75738,1,2,0:0:0:0:
42,121,75941,2,0,B|-7:104,2,44.999998626709,2|2|2,0:0|0:0|0:0,0:0:0:0:
83,94,76245,1,10,1:2:0:0:
180,73,76448,1,2,0:0:0:0:
267,147,76651,6,0,B|272:193,1,44.999998626709,2|0,1:2|0:0,0:0:0:0:
303,229,76853,2,0,B|355:234,1,44.999998626709,2|0,0:0|0:0,0:0:0:0:
397,240,77056,1,10,1:2:0:0:
491,199,77259,1,2,0:0:0:0:
491,199,77360,1,2,0:0:0:0:
491,199,77462,6,0,P|494:155|494:98,1,89.9999972534181,0|0,1:0|3:0,0:0:0:0:
398,83,77867,1,8,1:0:0:0:
298,86,78070,1,2,3:0:0:0:
234,161,78272,6,0,B|239:206,3,44.999998626709,2|0|2|0,1:2|0:0|0:0|0:0,0:0:0:0:
205,242,78677,1,10,1:2:0:0:
120,290,78880,1,2,0:0:0:0:
120,290,78981,1,2,0:0:0:0:
187,362,79184,2,0,B|143:366,2,44.999998626709,2|2|2,0:0|0:0|0:0,0:0:0:0:
233,343,79488,1,10,1:2:0:0:
330,361,79691,1,2,0:0:0:0:
419,318,79894,6,0,B|424:272,1,44.999998626709,2|0,1:2|0:0,0:0:0:0:
472,264,80096,2,0,B|465:214,1,44.999998626709,2|0,0:0|0:0,0:0:0:0:
491,176,80299,1,10,1:2:0:0:
432,96,80502,2,0,B|410:105|388:100,1,44.999998626709,2|2,0:0|0:0,0:0:0:0:
338,91,80705,1,0,1:0:0:0:
154,17,81110,1,8,1:0:0:0:
282,167,81515,5,2,1:2:0:0:
262,191,81616,1,0,0:0:0:0:
257,222,81718,1,2,0:0:0:0:
261,253,81819,1,0,0:0:0:0:
279,279,81920,1,10,1:2:0:0:
205,346,82124,2,0,L|150:338,1,44.999998626709,2|2,0:0|0:0,0:0:0:0:
72,293,82428,1,2,0:0:0:0:
54,267,82529,1,2,0:0:0:0:
46,238,82630,1,2,0:0:0:0:
41,208,82732,2,0,P|49:166|90:101,1,89.9999972534181,10|2,1:2|0:0,0:0:0:0:
148,63,83137,5,0,1:0:0:0:
342,25,83543,1,8,1:0:0:0:
439,197,83948,5,0,1:0:0:0:
339,198,84151,1,0,1:0:0:0:
268,267,84354,5,8,1:0:0:0:
232,263,84455,1,0,1:0:0:0:
202,243,84556,1,8,1:0:0:0:
188,209,84658,1,0,1:0:0:0:
155,204,84759,6,0,L|96:196,1,60,2|0,1:2|0:0,0:0:0:0:
70,134,85164,2,0,L|11:126,1,60,8|2,1:0|0:0,0:0:0:0:
94,41,85570,6,0,L|153:49,1,60,0|0,0:0|1:0,0:0:0:0:
214,22,85975,2,0,L|273:30,1,60,8|2,1:0|0:0,0:0:0:0:
319,117,86380,6,0,L|260:125,1,60,0|0,1:0|1:0,0:0:0:0:
244,189,86786,2,0,L|185:197,1,60,8|2,1:0|0:0,0:0:0:0:
138,244,87191,2,0,L|79:236,1,60,2|0,0:0|1:0,0:0:0:0:
57,345,87597,6,0,L|98:350,1,30,8|0,1:0|1:0,0:0:0:0:
118,338,87799,2,0,L|159:333,1,30,0|0,1:0|1:0,0:0:0:0:
174,354,88002,1,2,1:2:0:0:
233,342,88205,1,2,1:2:0:0:
287,316,88407,6,0,L|279:257,1,60,8|0,1:0|0:0,0:0:0:0:
313,200,88813,2,0,L|290:145,1,60,2|0,0:0|0:0,0:0:0:0:
291,78,89218,2,0,L|231:70,1,60,8|2,1:0|0:0,0:0:0:0:
167,86,89624,1,0,1:0:0:0:
101,81,89826,1,0,1:0:0:0:
48,120,90029,6,0,L|40:179,1,60,8|2,1:0|0:0,0:0:0:0:
50,245,90434,1,2,0:0:0:0:
85,300,90636,1,0,1:0:0:0:
173,256,90840,5,10,1:2:0:0:
209,247,90941,1,0,1:0:0:0:
245,254,91043,1,2,1:2:0:0:
268,282,91144,1,0,1:0:0:0:
304,273,91245,6,0,P|313:234|304:195,1,67.4999979400635,0|0,1:0|0:0,0:0:0:0:
352,129,91651,2,0,P|382:123|421:132,1,67.4999979400635,8|0,1:0|0:0,0:0:0:0:
472,199,92056,1,2,0:0:0:0:
444,275,92259,1,0,1:0:0:0:
355,338,92462,6,0,L|309:344,1,33.7499989700318,8|0,1:0|1:0,0:0:0:0:
285,332,92664,2,0,L|245:328,1,33.7499989700318,0|0,1:0|1:0,0:0:0:0:
216,341,92867,1,2,1:2:0:0:
118,347,93070,1,2,0:0:0:0:
59,273,93272,1,8,1:0:0:0:
107,194,93475,1,2,0:0:0:0:
107,194,93576,2,0,P|61:172|4:161,1,101.249996910095,0|0,1:0|1:0,0:0:0:0:
50,29,94083,6,0,L|86:39,3,33.7499989700318,8|0|0|0,1:0|1:0|1:0|1:0,0:0:0:0:
111,46,94489,1,2,1:2:0:0:
191,35,94691,1,2,1:2:0:0:
244,96,94894,1,2,1:2:0:0:
206,168,95097,1,2,1:2:0:0:
144,220,95299,1,2,1:2:0:0:
133,300,95501,1,2,1:2:0:0:
194,353,95704,1,2,1:2:0:0:
266,315,95907,1,2,1:2:0:0:
272,234,96110,5,2,0:0:0:0:
353,232,96313,1,2,0:0:0:0:
434,231,96516,1,2,0:0:0:0:
393,0,96921,5,2,0:0:0:0:
314,34,97124,2,0,L|233:25,1,75,2|2,0:0|0:0,0:0:0:0:
213,62,97428,2,0,L|225:114,2,37.5,2|2|2,0:0|0:0|0:0,0:0:0:0:
172,57,97732,6,0,L|125:65,1,37.5,0|0,1:0|0:0,0:0:0:0:
91,75,97934,1,0,1:0:0:0:
37,137,98137,1,8,1:0:0:0:
73,227,98340,2,0,L|120:234,1,37.5,2|0,0:0|1:0,0:0:0:0:
133,262,98543,6,0,L|180:254,1,37.5,2|2,0:0|0:0,0:0:0:0:
243,303,98847,1,2,0:0:0:0:
243,303,98948,2,0,L|243:346,3,37.5,8|0|2|0,1:0|0:0|0:0|0:0,0:0:0:0:
277,362,99353,6,0,L|324:356,1,37.5,0|0,1:0|0:0,0:0:0:0:
379,307,99657,2,0,L|373:260,1,37.5,2|8,0:0|1:0,0:0:0:0:
332,198,99962,2,0,L|285:204,1,37.5,2|0,0:0|1:0,0:0:0:0:
256,187,100164,6,0,L|209:181,1,37.5,2|2,0:0|0:0,0:0:0:0:
116,245,100469,1,2,0:0:0:0:
116,245,100570,2,0,L|73:245,3,37.5,8|0|2|0,1:0|0:0|0:0|0:0,0:0:0:0:
46,219,100975,6,0,L|49:173,1,37.5,0|0,1:0|0:0,0:0:0:0:
51,140,101178,1,0,1:0:0:0:
33,59,101380,1,8,1:0:0:0:
111,32,101583,1,2,0:0:0:0:
180,97,101786,5,2,0:0:0:0:
180,97,101887,1,2,0:0:0:0:
262,54,102090,1,2,0:0:0:0:
262,54,102191,2,0,L|312:59,1,37.5,8|0,1:0|0:0,0:0:0:0:
331,82,102394,2,0,L|376:77,1,37.5,2|0,0:0|0:0,0:0:0:0:
409,76,102597,5,0,1:0:0:0:
409,76,102699,1,2,0:0:0:0:
409,76,102800,1,0,1:0:0:0:
461,139,103002,2,0,P|491:142|518:146,2,37.5,8|0|2,1:0|0:0|0:0,0:0:0:0:
418,209,103407,5,2,0:0:0:0:
418,209,103509,1,2,0:0:0:0:
356,263,103712,1,2,0:0:0:0:
356,263,103813,2,0,L|311:258,1,37.5,8|0,1:0|1:0,0:0:0:0:
278,249,104016,2,0,L|233:254,1,37.5,0|0,1:0|1:0,0:0:0:0:
205,274,104218,5,2,1:2:0:0:
117,246,104421,1,0,1:0:0:0:
117,246,104522,1,0,0:0:0:0:
117,246,104624,2,0,P|106:224|104:151,1,75,8|2,1:0|0:0,0:0:0:0:
61,156,104928,2,0,P|49:134|78:81,1,75,0|2,1:0|0:0,0:0:0:0:
138,0,105333,5,2,0:0:0:0:
138,0,105434,2,0,L|175:5,3,37.5,8|0|0|0,1:0|0:0|0:0|0:0,0:0:0:0:
215,14,105840,1,0,1:0:0:0:
207,96,106043,1,0,1:0:0:0:
273,145,106246,1,8,1:0:0:0:
254,225,106448,1,2,0:0:0:0:
254,225,106549,1,0,1:0:0:0:
302,292,106752,1,0,1:0:0:0:
280,374,106955,5,2,0:0:0:0:
280,374,107056,2,0,L|243:379,3,37.5,8|0|2|0,1:0|0:0|0:0|0:0,0:0:0:0:
209,354,107462,2,0,L|169:348,1,37.5,0|0,1:0|0:0,0:0:0:0:
136,328,107664,2,0,L|96:334,1,37.5,0|0,1:0|0:0,0:0:0:0:
59,346,107867,2,0,P|39:315|22:268,1,75,8|2,1:0|0:0,0:0:0:0:
130,196,108272,2,0,L|170:190,1,37.5,0|0,1:0|0:0,0:0:0:0:
203,170,108474,2,0,L|243:176,1,37.5,0|0,1:0|0:0,0:0:0:0:
280,187,108677,1,8,1:0:0:0:
512,384,110705,5,4,0:0:0:0:
443,312,110908,2,0,P|416:310|351:316,1,89.9999972534181,2|8,0:0|1:0,0:0:0:0:
270,364,111313,1,2,0:0:0:0:
270,364,111414,1,0,0:0:0:0:
270,364,111516,5,0,1:0:0:0:
191,303,111718,1,0,0:0:0:0:
182,204,111921,1,8,1:0:0:0:
242,125,112124,1,2,0:0:0:0:
167,59,112327,6,0,B|118:66,1,44.999998626709,2|0,1:2|0:0,0:0:0:0:
86,33,112529,2,0,B|37:26,1,44.999998626709,2|0,0:0|0:0,0:0:0:0:
2,7,112732,1,8,1:0:0:0:
44,111,112935,1,2,0:0:0:0:
8,202,113137,6,0,B|51:214|51:214|93:195,3,89.9999972534181,2|0|8|0,0:0|0:0|1:0|0:0,0:0:0:0:
171,254,113948,1,0,1:0:0:0:
265,224,114151,5,2,0:0:0:0:
348,277,114354,1,8,1:0:0:0:
429,220,114556,2,0,B|437:171,1,44.999998626709,2|2,0:0|0:0,0:0:0:0:
388,94,114860,1,2,0:0:0:0:
388,94,114962,1,2,0:0:0:0:
310,33,115164,2,0,B|306:24|256:19|206:52,1,89.9999972534181,8|2,1:0|0:0,0:0:0:0:
97,58,115570,6,0,B|121:65|121:65|141:80,1,44.999998626709,0|0,1:0|0:0,0:0:0:0:
160,119,115772,2,0,B|181:131|181:131|206:137,1,44.999998626709,2|0,0:0|0:0,0:0:0:0:
250,139,115975,1,8,1:0:0:0:
279,233,116178,1,2,0:0:0:0:
228,318,116381,1,0,1:0:0:0:
130,333,116583,2,0,B|123:302|123:302|74:252,1,89.9999972534181,2|8,0:0|1:0,0:0:0:0:
43,228,116887,1,0,1:0:0:0:
43,228,116988,1,2,1:2:0:0:
43,228,117090,1,0,1:0:0:0:
43,228,117191,1,0,1:0:0:0:
86,105,117394,6,0,B|61:100|38:76,2,44.999998626709,2|0|8,0:0|0:0|1:0,0:0:0:0:
184,90,117799,1,0,0:0:0:0:
269,39,118002,2,0,P|309:39|367:54,1,89.9999972534181,0|2,1:0|0:0,0:0:0:0:
389,95,118306,1,0,0:0:0:0:
389,95,118408,2,0,P|371:119|377:196,1,89.9999972534181,8|2,1:0|0:0,0:0:0:0:
427,262,118813,5,0,1:0:0:0:
427,262,118914,1,2,0:0:0:0:
342,314,119117,2,0,P|317:311|298:315,1,44.999998626709,2|8,0:0|1:0,0:0:0:0:
255,288,119320,2,0,P|230:285|211:289,1,44.999998626709,0|2,0:0|0:0,0:0:0:0:
140,359,119624,6,0,B|96:367,3,44.999998626709,0|0|0|0,1:0|0:0|0:0|0:0,0:0:0:0:
50,349,120029,2,0,B|6:341,3,44.999998626709,8|0|0|0,1:0|0:0|0:0|0:0,0:0:0:0:
4,291,120435,1,0,1:0:0:0:
75,223,120637,5,2,0:0:0:0:
75,223,120739,1,0,0:0:0:0:
75,223,120840,2,0,P|114:227|182:242,1,89.9999972534181,8|2,1:0|0:0,0:0:0:0:
261,202,121245,1,0,1:0:0:0:
216,113,121448,1,2,0:0:0:0:
216,113,121550,1,0,0:0:0:0:
216,113,121651,2,0,P|198:125|115:127,1,89.9999972534181,8|2,1:0|0:0,0:0:0:0:
0,54,122056,6,0,L|67:58,1,44.999998626709,0|0,1:0|1:0,0:0:0:0:
127,2,122360,1,0,1:0:0:0:
127,2,122462,1,8,1:0:0:0:
220,32,122664,1,0,1:0:0:0:
318,22,122867,1,0,1:0:0:0:
432,183,123272,5,8,1:0:0:0:
425,153,123373,1,0,1:0:0:0:
396,143,123475,1,0,1:0:0:0:
366,149,123576,1,0,1:0:0:0:
348,175,123678,6,0,B|351:217|335:244|236:199,1,134.999995880127,4|0,0:0|0:0,0:0:0:0:
215,169,124083,2,0,B|173:166|134:142|60:156,1,134.999995880127,8|2,1:0|0:0,0:0:0:0:
58,196,124489,2,0,L|4:205,2,44.999998626709,2|2|2,1:2|0:0|0:0,0:0:0:0:
117,275,124894,6,0,B|137:316|123:347|212:359,1,134.999995880127,8|0,1:0|0:0,0:0:0:0:
234,334,125299,2,0,B|276:337|315:361|389:347,1,134.999995880127,0|2,1:0|0:0,0:0:0:0:
402,357,125705,2,0,B|405:315|429:276|415:202,1,134.999995880127,8|2,1:0|0:0,0:0:0:0:
448,203,126110,1,2,1:2:0:0:
448,203,126211,1,2,0:0:0:0:
448,203,126313,1,2,0:2:0:0:
374,81,126516,2,0,P|339:74|264:83,1,89.9999972534181,8|2,1:0|0:0,0:0:0:0:
198,28,126921,6,0,B|165:27|176:90|151:149,1,134.999995880127,0|0,1:0|0:0,0:0:0:0:
94,147,127327,2,0,B|62:147|76:203|47:271,1,134.999995880127,8|2,1:0|0:0,0:0:0:0:
28,315,127732,1,0,1:0:0:0:
28,315,127833,1,2,0:0:0:0:
28,315,127935,1,2,0:0:0:0:
116,358,128137,2,0,B|166:381|221:339|282:365,1,134.999995880127,8|0,1:0|0:0,0:0:0:0:
267,310,128543,6,0,P|294:308|324:320,1,44.999998626709,0|0,1:0|0:0,0:0:0:0:
350,345,128746,2,0,P|377:347|407:335,1,44.999998626709,2|2,0:0|0:0,0:0:0:0:
443,343,128948,1,8,1:0:0:0:
456,235,129151,1,2,0:0:0:0:
362,203,129354,1,2,1:2:0:0:
362,203,129455,1,2,0:0:0:0:
362,203,129556,1,2,0:0:0:0:
280,76,129759,6,0,P|252:69|226:73,1,44.999998626709,8|0,1:0|0:0,0:0:0:0:
211,114,129962,2,0,P|183:121|157:117,1,44.999998626709,0|0,1:0|0:0,0:0:0:0:
127,92,130164,6,0,P|125:110|112:236,1,134.999995880127,0|0,1:0|0:0,0:0:0:0:
68,270,130570,2,0,P|135:276|202:284,1,134.999995880127,8|2,1:0|0:0,0:0:0:0:
240,211,130975,2,0,P|246:279|254:346,1,134.999995880127,2|0,1:2|0:0,0:0:0:0:
299,364,131381,5,8,1:0:0:0:
397,365,131583,1,2,0:0:0:0:
409,266,131786,2,0,P|415:198|423:131,1,134.999995880127,0|0,1:0|0:0,0:0:0:0:
452,92,132191,2,0,P|384:98|317:106,1,134.999995880127,8|2,1:0|0:0,0:0:0:0:
284,83,132597,1,2,1:2:0:0:
284,83,132698,1,2,0:0:0:0:
284,83,132799,1,2,0:0:0:0:
168,65,133002,1,8,1:0:0:0:
70,100,133205,1,2,0:0:0:0:
32,11,133408,6,0,L|10:144,1,134.999995880127,0|0,1:0|0:0,0:0:0:0:
46,177,133813,2,0,L|59:290,1,89.9999972534181,8|0,1:0|0:0,0:0:0:0:
85,306,134117,1,2,0:0:0:0:
85,306,134218,1,2,1:2:0:0:
178,352,134421,1,2,0:0:0:0:
284,333,134624,2,0,P|295:272|337:289,1,89.9999972534181,8|2,1:0|2:0,1:0:0:0:
434,295,135029,5,4,1:0:0:0:
463,200,135232,1,4,1:0:0:0:
426,109,135435,1,12,1:0:0:0:
329,127,135638,1,4,1:0:0:0:
248,72,135840,1,4,1:0:0:0:
248,72,136245,6,0,P|287:44|336:40,1,89.9999972534181,10|2,0:0|0:0,0:0:0:0:
424,61,136651,1,4,1:0:0:0:
256,192,136752,12,0,139894,1:0:0:0:
512,0,149218,6,0,L|508:50,3,30,2|2|2|2,3:0|3:0|3:0|3:0,0:0:0:0:
482,61,149624,6,0,L|481:125,1,52.4999983978272,0|0,1:0|0:0,0:0:0:0:
424,168,150029,1,8,1:0:0:0:
365,123,150232,1,2,0:0:0:0:
365,123,150333,1,2,0:0:0:0:
295,159,150536,2,0,L|257:154,3,26.2499991989136,2|0|2|8,0:0|0:0|0:0|1:0,0:0:0:0:
209,103,151043,1,2,0:0:0:0:
138,69,151245,6,0,L|100:74,3,26.2499991989136,0|0|2|0,1:0|0:0|0:0|0:0,0:0:0:0:
88,89,151651,1,2,1:2:0:0:
0,319,152056,6,0,L|36:327,1,37.5,0|0,1:0|0:0,0:0:0:0:
70,281,152259,2,0,L|93:310,1,37.5,2|0,0:0|0:0,0:0:0:0:
130,364,152462,2,0,L|118:253,1,112.5,8|0,1:0|0:0,0:0:0:0:
148,227,152867,6,0,L|192:232,2,26.2499991989136,0|0|0,1:0|0:0|0:0,0:0:0:0:
114,155,153272,1,8,1:0:0:0:
49,109,153475,2,0,L|6:115,4,26.2499991989136,2|0|0|0|2,0:0|0:0|1:0|0:0|0:0,0:0:0:0:
72,33,154083,1,8,1:0:0:0:
201,24,154387,6,0,L|244:30,3,26.2499991989136,2|0|2|2,0:0|1:2|0:0|0:0,0:0:0:0:
281,84,154894,1,8,1:0:0:0:
452,228,155299,5,0,1:0:0:0:
452,228,155400,1,0,0:0:0:0:
452,228,155501,1,2,0:0:0:0:
452,228,155603,1,0,0:0:0:0:
452,228,155705,2,0,P|390:232|335:247,1,112.5,8|0,1:0|0:0,0:0:0:0:
295,276,156110,5,0,1:0:0:0:
205,343,156313,2,0,L|158:348,1,37.5,2|2,0:0|0:0,0:0:0:0:
82,273,156617,2,0,L|35:278,6,37.5,2|2|2|0|0|2|0,0:0|0:0|0:0|1:0|0:0|0:0|0:0,0:0:0:0:
114,227,157326,1,8,1:0:0:0:
282,223,157630,2,0,L|329:222,4,37.5,0|0|0|0|0,0:0|1:0|0:0|0:0|0:0,0:0:0:0:
244,180,158137,1,8,1:0:0:0:
512,0,158745,6,0,P|462:9|426:14,1,75,2|8,0:0|1:0,0:0:0:0:
372,74,159151,1,2,0:0:0:0:
284,56,159353,2,0,P|264:54|194:61,1,75,0|2,1:0|0:0,0:0:0:0:
127,48,159759,1,8,1:0:0:0:
127,48,159860,1,0,0:0:0:0:
127,48,159962,1,2,0:0:0:0:
89,129,160164,2,0,P|108:148|100:218,1,75,0|2,1:0|0:0,0:0:0:0:
173,262,160570,1,8,1:0:0:0:
268,253,160772,1,2,0:0:0:0:
268,253,160873,1,0,0:0:0:0:
268,253,160975,5,0,1:0:0:0:
332,304,161178,1,2,0:0:0:0:
414,307,161380,1,0,1:0:0:0:
483,218,161583,1,2,0:0:0:0:
483,218,161684,2,0,B|437:185|427:115,1,112.5,2|0,0:0|1:0,0:0:0:0:
328,104,162191,1,0,1:0:0:0:
328,104,162292,1,0,1:0:0:0:
328,104,162393,1,0,1:0:0:0:
328,104,162495,1,0,1:0:0:0:
256,192,172326,5,2,0:0:0:0:
256,192,172428,12,0,173745,0:0:0:0:
256,192,173948,6,0,L|192:203,1,37.5,10|10,0:0|0:0,0:0:0:0:
160,267,174252,2,0,L|171:331,3,37.5,10|10|2|10,0:0|0:0|0:0|0:0,0:0:0:0:
32,192,174759,5,10,0:0:0:0:
256,192,174860,12,0,175975,1:0:0:0:
0,0,176786,5,8,1:0:0:0:
0,0,177191,6,0,B|42:-3|69:13|24:112,1,134.999995880127,4|0,0:0|0:0,0:0:0:0:
64,139,177596,2,0,B|106:136|145:112|219:126,1,134.999995880127,8|2,1:0|0:0,0:0:0:0:
223,170,178002,2,0,L|232:224,2,44.999998626709,0|2|2,1:2|0:0|0:0,0:0:0:0:
291,86,178407,6,0,B|311:45|297:14|386:2,1,134.999995880127,8|0,1:0|0:0,0:0:0:0:
417,6,178813,2,0,B|463:24|444:87|430:161,1,134.999995880127,0|2,1:0|0:0,0:0:0:0:
470,138,179218,2,0,B|516:156|497:219|483:293,1,134.999995880127,8|2,1:0|0:0,0:0:0:0:
503,298,179624,1,2,1:2:0:0:
503,298,179725,1,2,0:0:0:0:
503,298,179826,1,2,0:0:0:0:
382,315,180029,2,0,P|347:308|272:317,1,89.9999972534181,8|2,1:0|0:0,0:0:0:0:
205,374,180434,6,0,B|206:341|143:352|84:327,1,134.999995880127,0|0,1:0|0:0,0:0:0:0:
56,281,180840,2,0,B|83:216|69:160|101:160,1,134.999995880127,8|0,1:0|0:0,0:0:0:0:
94,116,181245,1,0,1:0:0:0:
94,116,181346,1,2,0:0:0:0:
94,116,181448,1,2,0:0:0:0:
169,39,181650,2,0,B|219:16|274:58|335:32,1,134.999995880127,8|0,1:0|0:0,0:0:0:0:
350,65,182056,6,0,P|352:92|340:122,1,44.999998626709,0|0,1:0|0:0,0:0:0:0:
320,156,182259,2,0,P|318:183|330:213,1,44.999998626709,2|0,0:0|0:0,0:0:0:0:
355,242,182461,1,8,1:0:0:0:
350,353,182664,1,2,0:0:0:0:
252,307,182867,5,2,1:2:0:0:
252,307,182968,2,0,P|223:315|201:310,1,44.999998626709,2|2,0:0|0:0,0:0:0:0:
169,212,183272,2,0,P|141:205|115:209,1,44.999998626709,8|0,1:0|1:0,0:0:0:0:
75,228,183475,2,0,P|47:235|21:231,1,44.999998626709,0|0,1:0|1:0,0:0:0:0:
9,282,183677,6,0,P|15:214|23:147,1,134.999995880127,0|0,1:0|0:0,0:0:0:0:
42,96,184083,2,0,P|109:102|176:110,1,134.999995880127,8|2,1:0|0:0,0:0:0:0:
229,103,184488,2,0,P|235:171|243:238,1,134.999995880127,2|0,1:2|0:0,0:0:0:0:
268,285,184894,5,8,1:0:0:0:
481,255,185299,2,0,P|487:187|495:120,1,134.999995880127,0|0,1:0|0:0,0:0:0:0:
470,72,185704,2,0,P|402:78|335:86,1,134.999995880127,8|2,1:0|0:0,0:0:0:0:
297,63,186110,1,2,1:2:0:0:
297,63,186211,1,2,0:0:0:0:
297,63,186312,1,2,0:0:0:0:
189,70,186515,1,8,1:0:0:0:
168,176,186718,1,2,0:0:0:0:
60,191,186921,6,0,L|193:213,1,134.999995880127,0|0,1:0|0:0,0:0:0:0:
238,241,187326,2,0,L|251:354,1,89.9999972534181,8|2,1:0|0:0,0:0:0:0:
264,382,187630,1,2,0:0:0:0:
264,382,187732,1,2,1:2:0:0:
159,384,187934,1,2,0:0:0:0:
54,355,188137,5,8,1:0:0:0:
14,254,188340,1,2,0:0:0:0:
57,155,188542,5,4,1:0:0:0:
37,57,188745,1,4,1:0:0:0:
37,57,188847,1,0,1:0:0:0:
37,57,188948,1,12,1:0:0:0:
142,34,189151,1,4,1:0:0:0:
162,139,189353,1,4,1:0:0:0:
377,123,189759,5,8,1:0:0:0:
512,384,190164,6,0,B|534:348|532:316|424:310,1,134.999995880127,0|2,1:0|0:0,0:0:0:0:
412,264,190570,2,0,B|434:228|432:196|324:190,1,134.999995880127,8|2,1:0|0:0,0:0:0:0:
312,145,190975,2,0,B|334:109|332:77|224:71,1,134.999995880127,0|0,1:0|0:0,0:0:0:0:
210,26,191380,1,8,1:0:0:0:
0,0,191786,6,0,B|-22:36|-20:68|88:74,1,134.999995880127,0|2,1:0|0:0,0:0:0:0:
100,120,192192,2,0,B|78:156|80:188|188:194,1,134.999995880127,8|2,1:0|0:0,0:0:0:0:
200,239,192597,2,0,B|178:275|180:307|288:313,1,134.999995880127,2|0,1:2|0:0,0:0:0:0:
326,323,193002,1,8,0:0:0:0:
423,276,193205,1,2,0:0:0:0:
452,172,193407,6,0,B|430:122|388:104|362:72,1,134.999995880127,0|0,1:0|0:0,0:0:0:0:
308,77,193813,2,0,B|255:87|216:63|174:60,1,134.999995880127,8|2,1:0|0:0,0:0:0:0:
121,56,194218,2,0,B|72:78|55:121|24:149,1,134.999995880127,2|0,1:2|0:0,0:0:0:0:
26,203,194624,1,8,1:0:0:0:
103,277,194826,1,2,0:0:0:0:
73,381,195029,6,0,B|95:331|137:313|163:281,1,134.999995880127,0|0,1:0|0:0,0:0:0:0:
213,298,195434,2,0,B|235:248|277:230|303:198,1,134.999995880127,8|2,1:0|0:0,0:0:0:0:
332,243,195840,2,0,B|354:193|396:175|422:143,1,134.999995880127,0|0,1:0|0:0,0:0:0:0:
442,93,196245,1,8,1:0:0:0:
345,46,196448,1,2,0:0:0:0:
261,114,196651,6,0,B|241:73|255:42|166:30,1,134.999995880127,0|0,1:0|0:0,0:0:0:0:
126,62,197056,2,0,B|85:82|54:68|42:157,1,134.999995880127,8|2,1:0|0:0,0:0:0:0:
72,198,197462,2,0,B|92:239|78:270|167:282,1,134.999995880127,2|0,1:2|0:0,0:0:0:0:
216,287,197867,1,8,1:0:0:0:
197,180,198070,1,2,0:0:0:0:
284,116,198272,6,0,B|325:136|356:122|368:211,1,134.999995880127,0|0,1:0|0:0,0:0:0:0:
385,257,198677,2,0,B|405:216|391:185|480:173,1,134.999995880127,8|2,1:0|0:0,0:0:0:0:
499,124,199083,2,0,B|458:104|427:118|357:74|313:71,1,179.999994506836,2|8,1:2|1:0,0:0:0:0:
233,19,199691,1,2,0:0:0:0:
132,57,199894,5,4,1:0:0:0:
148,222,200198,1,2,0:0:0:0:
148,222,200299,1,8,1:0:0:0:
230,292,200502,1,0,0:0:0:0:
327,245,200705,2,0,P|342:186|338:154,1,89.9999972534181,0|2,1:0|0:0,0:0:0:0:
238,132,201110,2,0,P|225:119|155:115,1,89.9999972534181,8|2,1:0|0:0,0:0:0:0:
57,194,201516,5,2,0:0:0:0:
32,288,201718,1,2,0:0:0:0:
111,327,201921,1,2,0:0:0:0:
183,323,202124,1,2,0:0:0:0:
264,366,202326,1,2,0:0:0:0:
275,372,203137,6,0,B|279:310,3,52.4999983978272,6|0|2|0,1:1|0:0|0:0|0:0,0:0:0:0:
315,275,203542,1,10,1:2:0:0:
424,231,203745,1,2,0:0:0:0:
424,231,203846,1,2,0:0:0:0:
444,117,204049,2,0,B|511:119,2,52.4999983978272,2|2|2,0:0|0:0|0:0,0:0:0:0:
416,65,204353,1,10,1:2:0:0:
301,47,204556,1,2,0:0:0:0:
235,142,204759,6,0,B|181:136,1,52.4999983978272,2|0,1:2|0:0,0:0:0:0:
135,103,204961,2,0,B|66:107,1,52.4999983978272,2|0,0:0|0:0,0:0:0:0:
32,135,205164,1,10,1:2:0:0:
40,257,205367,1,2,0:0:0:0:
40,257,205468,1,2,0:0:0:0:
40,257,205569,1,0,1:0:0:0:
201,58,205975,1,8,1:0:0:0:
181,287,206380,6,0,B|194:237,3,52.4999983978272,2|0|2|0,1:0|0:0|0:0|0:0,0:0:0:0:
160,190,206785,1,10,1:2:0:0:
244,110,206988,1,2,0:0:0:0:
244,110,207089,1,2,0:0:0:0:
304,18,207292,2,0,B|247:13,2,52.4999983978272,2|2|2,0:0|0:0|0:0,0:0:0:0:
358,38,207596,1,10,1:2:0:0:
451,105,207799,1,2,0:0:0:0:
405,211,208002,6,0,B|351:203,1,52.4999983978272,2|0,1:2|0:0,0:0:0:0:
320,250,208204,2,0,B|261:260,1,52.4999983978272,2|0,0:0|0:0,0:0:0:0:
225,298,208407,1,10,1:2:0:0:
129,251,208610,1,2,0:0:0:0:
129,251,208711,1,2,0:0:0:0:
129,251,208813,6,0,P|126:207|127:126,1,104.999996795654,0|0,1:0|3:0,0:0:0:0:
38,70,209218,1,8,1:0:0:0:
144,26,209421,1,2,3:0:0:0:
243,83,209623,6,0,B|298:89,3,52.4999983978272,2|0|2|0,1:1|0:0|0:0|0:0,0:0:0:0:
332,132,210028,1,10,1:2:0:0:
278,236,210231,1,2,0:0:0:0:
278,236,210332,1,2,0:0:0:0:
162,227,210536,2,0,B|108:206,2,52.4999983978272,2|2|2,0:0|0:0|0:0,0:0:0:0:
137,279,210839,1,10,1:2:0:0:
210,368,211042,1,2,0:0:0:0:
311,303,211245,6,0,B|364:298,1,52.4999983978272,2|0,1:2|0:0,0:0:0:0:
373,349,211447,2,0,B|400:354|400:354|430:343,1,52.4999983978272,2|0,0:0|0:0,0:0:0:0:
458,299,211650,1,10,1:2:0:0:
466,183,211853,2,0,B|439:187|439:187|413:174,1,52.4999983978272,2|2,0:0|0:0,0:0:0:0:
369,141,212056,1,0,1:0:0:0:
210,368,212461,1,8,1:0:0:0:
48,203,212866,5,2,1:0:0:0:
28,179,212967,1,0,0:0:0:0:
23,148,213069,1,2,0:0:0:0:
27,117,213170,1,0,0:0:0:0:
45,91,213271,1,10,1:2:0:0:
124,148,213475,2,0,L|191:159,1,52.4999983978272,2|2,0:0|0:0,0:0:0:0:
396,120,213779,1,2,0:0:0:0:
381,93,213880,1,2,0:0:0:0:
358,73,213981,1,2,0:0:0:0:
333,55,214083,2,0,P|292:44|204:55,1,104.999996795654,10|2,1:2|0:0,0:0:0:0:
279,149,214488,5,10,1:0:0:0:
332,269,214691,1,0,1:0:0:0:
462,246,214894,1,10,1:0:0:0:
332,269,215097,1,0,1:0:0:0:
259,378,215299,1,10,1:0:0:0:
332,269,215502,1,10,1:0:0:0:
169,265,215705,5,8,1:0:0:0:
145,237,215806,1,0,1:0:0:0:
111,224,215907,1,8,1:0:0:0:
75,232,216009,1,0,1:0:0:0:
256,192,222191,5,12,1:0:0:0:
256,192,222293,12,0,224218,0:0:0:0:
