osu file format v14

[General]
AudioFilename: audio.mp3
AudioLeadIn: 0
PreviewTime: 6516
Countdown: 0
SampleSet: Soft
StackLeniency: 0.7
Mode: 0
LetterboxInBreaks: 0
WidescreenStoryboard: 0

[Editor]
Bookmarks: 19894,45840,71786,97732,123678,149218,177191,203137
DistanceSpacing: 0.7
BeatDivisor: 4
GridSize: 16
TimelineZoom: 2.599999

[Metadata]
Title:Ghosts Play to the Audience
TitleUnicode:おばけのウケねらい
Artist:PinocchioP feat. Hatsune Miku
ArtistUnicode:ピノキオピー feat. 初音ミク
Creator:AJT
Version:Fright
Source:
Tags:yokespai corsace closed cc 2021 playins dt1 japanese pop electropop utaite vocaloid Obake no Ukenerai cover Nanawoakari ナナヲアカリ 零号 zero-go
BeatmapID:3021082
BeatmapSetID:1471627

[Difficulty]
HPDrainRate:5
CircleSize:5
OverallDifficulty:8
ApproachRate:8
SliderMultiplier:2
SliderTickRate:1

[Events]
//Background and Video events
0,0,"ghosts.jpg",0,0
//Break Periods
2,140094,148468
2,216210,218198
//Storyboard Layer 0 (Background)
//Storyboard Layer 1 (Fail)
//Storyboard Layer 2 (Pass)
//Storyboard Layer 3 (Foreground)
//Storyboard Layer 4 (Overlay)
//Storyboard Sound Samples

[TimingPoints]
435,405.405405405405,4,2,0,50,1,0
6516,-83.3333333333333,4,2,0,75,0,0
6921,-83.3333333333333,4,2,0,80,0,1
19894,-125,4,2,0,70,0,0
32867,-125,4,2,0,75,0,0
45840,-83.3333333333333,4,2,0,80,0,1
56837,-83.3333333333333,4,2,0,5,0,1
56989,-83.3333333333333,4,2,0,80,0,1
71380,-83.3333333333333,4,2,0,80,0,0
71786,-83.3333333333333,4,2,0,80,0,1
84759,-125,4,2,0,70,0,0
97732,-125,4,2,0,75,0,0
110705,-83.3333333333333,4,2,0,80,0,1
121701,-83.3333333333333,4,2,0,5,0,1
121803,-83.3333333333333,4,2,0,80,0,1
136752,-125,4,2,0,80,0,0
139894,-125,4,2,0,30,0,0
149218,-125,4,2,0,70,0,0
149624,-200,4,2,0,65,0,0
151853,-100,4,2,0,70,0,0
162597,-333.333333333333,4,2,0,60,0,0
165840,-310.510790249961,4,2,0,60,0,0
169083,-200,4,2,0,60,0,0
173948,-100,4,2,0,65,0,0
174759,-71.4285714285714,4,2,0,80,0,0
177191,-83.3333333333333,4,2,0,85,0,1
201516,-83.3333333333333,4,2,0,80,0,0
203137,-71.4285714285714,4,2,0,90,0,1
216110,-100,4,2,0,50,0,0
222191,-83.3333333333333,4,2,0,80,0,0
224218,-83.3333333333333,4,2,0,5,0,0

[Colours]
Combo1 : 86,143,98
Combo2 : 212,212,212
Combo3 : 159,159,159
Combo4 : 248,129,147
Combo5 : 255,230,151
Combo6 : 202,227,230
Combo7 : 129,164,190
Combo8 : 169,214,175

[HitObjects]
50,30,435,6,0,B|36:63|36:63|47:132,1,100,2|0,0:0|0:0,0:0:0:0:
85,184,840,1,0,0:0:0:0:
162,167,1043,2,0,L|172:111,1,50,0|2,0:0|0:0,0:0:0:0:
228,203,1347,2,0,P|222:236|202:245,1,50,0|2,0:0|0:0,0:0:0:0:
209,243,1549,1,0,0:0:0:0:
209,243,1651,1,0,0:0:0:0:
290,171,1853,1,0,0:0:0:0:
306,239,2056,6,0,B|320:205|320:205|309:137,1,100,2|0,0:0|0:0,0:0:0:0:
317,72,2462,1,0,0:0:0:0:
380,40,2664,2,0,P|389:15|408:4,1,50,0|2,0:0|0:0,0:0:0:0:
512,37,2968,2,0,L|460:57,1,50,0|2,0:0|0:0,0:0:0:0:
465,55,3170,1,0,0:0:0:0:
465,55,3272,1,0,0:0:0:0:
474,136,3475,2,0,L|498:139,2,25,2|0|0,0:0|0:0|0:0,0:0:0:0:
451,163,3678,101,2,0:0:0:0:
396,206,3880,1,0,0:0:0:0:
328,188,4083,1,0,0:0:0:0:
278,236,4286,1,0,0:0:0:0:
278,236,4387,1,2,0:0:0:0:
307,312,4590,1,0,0:0:0:0:
307,312,4691,1,0,0:0:0:0:
307,312,4792,1,0,0:0:0:0:
339,325,4894,2,0,L|389:340,3,50,2|0|0|0,0:0|0:0|0:0|0:0,0:0:0:0:
410,313,5299,6,0,L|438:356,3,50,2|0|0|0,0:0|0:0|0:0|0:0,0:0:0:0:
466,375,5705,1,2,0:0:0:0:
497,340,5840,1,2,0:0:0:0:
496,293,5975,1,2,0:0:0:0:
471,254,6110,1,2,0:0:0:0:
38,353,6516,6,0,B|46:294,1,59.9999981689454,2|0,0:2|0:0,0:0:0:0:
85,281,6718,2,0,B|77:222,1,59.9999981689454,2|0,0:2|0:0,0:0:0:0:
83,140,6921,5,6,1:0:0:0:
112,133,7022,1,0,0:0:0:0:
141,127,7124,1,2,0:0:0:0:
170,120,7225,1,0,0:0:0:0:
199,113,7326,1,10,1:2:0:0:
272,0,7529,1,2,0:0:0:0:
279,29,7630,1,2,0:0:0:0:
388,25,7833,1,2,0:0:0:0:
383,54,7934,1,2,0:0:0:0:
379,83,8036,1,2,0:0:0:0:
374,112,8137,1,10,1:2:0:0:
443,184,8340,1,2,0:0:0:0:
496,288,8543,101,2,1:2:0:0:
467,295,8644,1,0,0:0:0:0:
438,301,8746,1,2,0:0:0:0:
409,308,8847,1,0,0:0:0:0:
380,315,8948,1,10,1:2:0:0:
272,268,9151,1,2,0:0:0:0:
259,279,9252,1,2,0:0:0:0:
275,329,9353,6,0,B|291:192,1,119.999996337891,0|0,1:0|0:0,0:0:0:0:
237,329,9759,2,0,B|251:209,1,119.999996337891,8|0,1:0|0:0,0:0:0:0:
256,96,10164,101,2,1:2:0:0:
227,103,10265,1,0,0:0:0:0:
198,109,10367,1,2,0:0:0:0:
169,116,10468,1,0,0:0:0:0:
140,123,10569,1,10,1:2:0:0:
33,37,10772,1,2,0:0:0:0:
40,66,10873,1,2,0:0:0:0:
63,160,11076,1,2,0:0:0:0:
58,189,11177,1,2,0:0:0:0:
54,218,11279,1,2,0:0:0:0:
49,247,11380,1,10,1:2:0:0:
110,375,11583,1,2,0:0:0:0:
52,331,11786,5,2,1:2:0:0:
76,313,11887,1,0,0:0:0:0:
105,304,11989,1,2,0:0:0:0:
134,309,12090,1,0,0:0:0:0:
160,322,12191,1,10,1:2:0:0:
240,232,12394,1,2,0:0:0:0:
266,219,12495,1,2,0:0:0:0:
281,226,12597,102,0,L|277:145,1,59.9999981689454,0|0,1:0|0:0,0:0:0:0:
301,234,12799,2,0,L|297:153,1,59.9999981689454,0|0,3:0|0:0,0:0:0:0:
401,127,13002,2,0,L|398:67,1,59.9999981689454,8|0,1:0|0:0,0:0:0:0:
378,62,13205,2,0,L|381:122,1,59.9999981689454,2|0,3:0|0:0,0:0:0:0:
292,41,13407,5,2,1:2:0:0:
263,30,13508,1,0,0:0:0:0:
232,28,13610,1,2,0:0:0:0:
202,34,13711,1,0,0:0:0:0:
177,51,13812,1,10,1:2:0:0:
244,142,14016,1,2,0:0:0:0:
244,142,14117,1,2,0:0:0:0:
177,51,14320,1,2,0:0:0:0:
202,34,14421,1,2,0:0:0:0:
232,28,14522,1,2,0:0:0:0:
263,30,14623,1,10,1:2:0:0:
244,142,14826,1,2,0:0:0:0:
330,211,15029,101,2,1:2:0:0:
347,186,15130,1,0,0:0:0:0:
353,156,15231,1,2,0:0:0:0:
351,125,15333,1,0,0:0:0:0:
340,96,15434,1,10,1:2:0:0:
263,30,15637,1,2,0:0:0:0:
232,28,15738,1,2,0:0:0:0:
252,0,15840,2,0,L|235:135,1,119.999996337891,0|0,1:0|0:0,0:0:0:0:
202,34,16245,2,0,L|185:169,1,119.999996337891,8|0,1:0|0:0,0:0:0:0:
228,277,16650,5,2,1:2:0:0:
199,270,16751,1,0,0:0:0:0:
170,264,16853,1,2,0:0:0:0:
141,257,16954,1,0,0:0:0:0:
112,250,17055,1,10,1:2:0:0:
35,298,17259,101,2,0:0:0:0:
28,327,17360,1,2,0:0:0:0:
112,250,17563,1,2,0:0:0:0:
141,257,17664,1,2,0:0:0:0:
170,264,17765,1,2,0:0:0:0:
199,270,17867,1,10,1:2:0:0:
256,192,18070,1,2,0:0:0:0:
320,127,18272,6,0,P|349:121|379:126,1,59.9999981689454,0|0,1:0|0:0,0:0:0:0:
192,128,18475,2,0,P|163:133|134:127,1,59.9999981689454,8|0,3:0|0:0,0:0:0:0:
256,64,18678,102,0,P|262:29|254:-3,1,59.9999981689454,8|0,1:0|0:0,0:0:0:0:
256,192,18881,2,0,P|250:227|258:259,1,59.9999981689454,8|0,3:0|0:0,0:0:0:0:
336,224,19083,6,0,P|366:220|395:226,1,59.9999981689454,0|0,1:0|0:0,0:0:0:0:
176,224,19286,2,0,P|147:217|118:222,1,59.9999981689454,8|0,3:0|0:0,0:0:0:0:
256,272,19489,101,8,1:0:0:0:
256,288,19590,1,0,1:0:0:0:
256,304,19691,1,8,1:0:0:0:
256,320,19793,1,0,1:0:0:0:
256,336,19894,22,0,P|298:345|337:348,1,80,2|0,0:0|0:0,0:0:0:0:
484,307,20299,1,8,1:0:0:0:
409,299,20502,1,2,0:0:0:0:
410,318,20603,1,0,1:0:0:0:
411,338,20704,1,2,0:0:0:0:
456,236,20907,1,0,1:0:0:0:
337,310,21110,1,8,1:0:0:0:
384,227,21313,1,2,0:0:0:0:
384,227,21414,1,0,0:0:0:0:
384,227,21516,6,0,P|390:182|389:138,1,80,2|0,1:2|0:0,0:0:0:0:
331,55,21921,2,0,L|336:118,1,40,8|0,1:0|0:0,0:0:0:0:
460,122,22124,1,0,0:0:0:0:
461,108,22225,2,0,L|464:68,1,40,0|2,1:0|0:0,0:0:0:0:
395,0,22428,1,0,0:0:0:0:
393,14,22529,1,2,1:2:0:0:
403,20,22630,1,0,0:0:0:0:
401,34,22731,1,8,1:0:0:0:
256,68,22934,1,2,0:0:0:0:
260,48,23036,1,0,0:0:0:0:
248,17,23137,6,0,P|186:16|136:23,1,80,2|0,1:2|0:0,0:0:0:0:
120,149,23543,2,0,L|124:204,2,40,8|0|0,1:0|0:0|0:0,0:0:0:0:
172,93,23948,1,2,0:0:0:0:
59,103,24151,1,0,1:2:0:0:
177,102,24353,1,8,1:0:0:0:
96,2,24556,1,2,0:0:0:0:
56,112,24759,6,0,P|46:65|26:34,1,80,2|0,1:2|0:0,0:0:0:0:
19,33,25063,1,0,0:0:0:0:
8,35,25164,1,8,1:1:0:0:
36,183,25367,1,2,0:0:0:0:
47,185,25468,1,0,1:0:0:0:
128,90,25671,1,2,0:0:0:0:
126,79,25772,1,0,1:0:0:0:
161,222,25975,69,8,1:0:0:0:
183,189,26077,1,0,0:0:0:0:
156,158,26178,1,2,0:0:0:0:
119,174,26279,1,2,0:0:0:0:
122,214,26380,6,0,L|116:261,2,40,2|0|0,1:2|0:0|1:0,0:0:0:0:
180,294,26786,1,8,1:0:0:0:
34,266,26989,1,2,0:0:0:0:
45,271,27090,2,0,P|49:334|42:362,1,80,0|0,1:0|0:0,0:0:0:0:
38,360,27394,1,2,1:2:0:0:
138,384,27597,1,8,1:1:0:0:
194,282,27799,1,2,0:0:0:0:
187,301,27901,1,0,0:0:0:0:
194,333,28002,6,0,P|233:345|286:348,1,80,2|0,1:2|0:0,0:0:0:0:
337,384,28306,1,0,0:0:0:0:
344,352,28407,2,0,P|383:339|436:337,1,80,8|0,1:1|0:0,0:0:0:0:
487,365,28712,2,0,P|431:330|405:267,1,120,0|0,1:0|1:0,0:0:0:0:
430,160,29218,1,8,1:0:0:0:
469,235,29421,1,2,0:0:0:0:
469,235,29522,1,0,0:0:0:0:
469,235,29624,5,2,1:2:0:0:
362,193,29826,1,0,1:0:0:0:
505,164,30029,1,8,1:1:0:0:
392,113,30232,1,2,0:0:0:0:
395,125,30333,2,0,L|439:130,1,40,0|0,1:0|0:0,0:0:0:0:
329,76,30637,1,0,1:0:0:0:
447,58,30840,1,8,1:1:0:0:
443,46,30941,1,0,0:0:0:0:
466,36,31043,1,0,1:0:0:0:
491,38,31144,1,0,1:0:0:0:
508,18,31245,70,0,L|515:66,2,40,2|0|0,1:2|0:0|1:0,0:0:0:0:
381,8,31651,1,8,1:1:0:0:
372,1,31752,1,0,0:0:0:0:
348,7,31853,1,2,0:0:0:0:
322,3,31955,1,0,1:0:0:0:
248,171,32157,1,2,0:0:0:0:
240,144,32258,1,0,1:0:0:0:
241,118,32359,1,2,0:0:0:0:
248,92,32462,5,8,1:1:0:0:
273,58,32563,1,0,1:0:0:0:
251,25,32664,1,2,1:2:0:0:
212,35,32766,1,0,1:0:0:0:
210,75,32867,6,0,P|182:117|155:136,1,80,2|0,1:2|0:0,0:0:0:0:
79,105,33272,1,8,1:1:0:0:
91,104,33374,1,0,0:0:0:0:
141,21,33576,1,0,1:0:0:0:
140,9,33678,1,2,2:0:0:0:
116,5,33779,1,2,0:0:0:0:
6,52,33982,1,2,0:0:0:0:
2,76,34083,5,8,1:1:0:0:
3,88,34185,1,2,0:0:0:0:
4,100,34286,1,2,0:0:0:0:
5,112,34387,1,2,0:0:0:0:
6,124,34489,70,0,L|10:178,3,40,2|0|0|0,1:2|0:0|0:0|0:0,0:0:0:0:
81,181,34894,1,8,1:1:0:0:
79,200,34995,1,0,0:0:0:0:
78,220,35097,2,0,L|74:279,1,40,2|0,0:0|0:0,0:0:0:0:
15,336,35299,5,2,0:0:0:0:
7,327,35401,2,0,L|4:287,1,40,0|0,1:0|0:0,0:0:0:0:
190,288,35603,1,0,0:0:0:0:
181,296,35705,2,0,L|141:298,3,40,8|2|2|2,1:1|0:0|0:0|0:0,0:0:0:0:
161,379,36110,5,2,1:2:0:0:
180,381,36211,1,0,0:0:0:0:
200,383,36312,1,2,1:2:0:0:
220,384,36414,1,0,0:0:0:0:
240,384,36516,2,8,L|244:328,2,40,8|0|0,1:0|0:0|0:0,0:0:0:0:
309,310,36820,1,0,1:0:0:0:
294,291,36921,5,2,0:0:0:0:
296,279,37022,2,0,L|341:273,1,40,0|0,1:0|0:0,0:0:0:0:
383,343,37225,1,0,0:0:0:0:
383,343,37326,2,0,L|385:382,3,40,8|2|2|2,1:1|0:0|0:0|0:0,0:0:0:0:
440,289,37732,70,0,L|438:250,1,40,0|0,1:0|0:0,0:0:0:0:
496,345,37934,2,0,L|498:384,1,40,0|0,1:0|0:0,0:0:0:0:
450,287,38137,2,0,L|447:247,1,40,8|0,1:0|0:0,0:0:0:0:
489,138,38340,1,0,0:0:0:0:
499,146,38441,2,0,L|496:185,1,40,0|2,1:0|0:0,0:0:0:0:
346,192,38644,1,2,0:0:0:0:
354,182,38745,2,0,L|393:184,1,40,0|0,1:0|0:0,1:0:0:0:
416,110,38948,5,8,1:1:0:0:
374,107,39049,1,0,1:0:0:0:
364,68,39151,1,2,1:2:0:0:
399,47,39252,1,0,1:0:0:0:
429,72,39353,5,2,1:2:0:0:
460,4,39556,2,0,L|508:15,1,40,0|0,1:0|0:0,0:0:0:0:
501,86,39759,1,8,1:0:0:0:
504,101,39860,1,0,0:0:0:0:
493,101,39962,1,2,0:0:0:0:
496,116,40063,1,0,1:0:0:0:
303,152,40367,6,0,L|299:99,1,40,2|0,0:0|0:0,0:0:0:0:
322,37,40570,1,8,1:0:0:0:
322,37,40772,2,0,L|269:33,1,40,2|0,0:0|0:0,0:0:0:0:
207,11,40975,70,0,L|210:50,1,40,0|0,1:0|0:0,0:0:0:0:
199,16,41178,2,0,L|202:55,1,40,0|0,1:0|0:0,0:0:0:0:
228,126,41380,1,8,1:1:0:0:
123,82,41583,1,2,0:0:0:0:
126,70,41684,1,0,1:0:0:0:
5,237,41989,5,0,1:0:0:0:
24,238,42090,1,0,0:0:0:0:
44,240,42191,2,0,L|49:299,1,40,8|0,1:0|0:0,0:0:0:0:
106,195,42394,2,0,L|111:136,1,40,0|0,1:0|0:0,0:0:0:0:
233,253,42597,5,2,1:2:0:0:
213,255,42698,1,0,0:0:0:0:
194,263,42799,1,2,1:2:0:0:
179,275,42901,1,0,0:0:0:0:
148,267,43003,1,8,1:1:0:0:
148,267,43205,2,0,L|143:325,1,40,2|0,0:0|0:0,0:0:0:0:
13,355,43407,5,2,1:2:0:0:
33,357,43508,1,0,0:0:0:0:
52,365,43609,1,0,1:0:0:0:
67,377,43711,1,0,0:0:0:0:
98,369,43813,1,8,1:1:0:0:
208,384,44016,1,2,1:2:0:0:
204,344,44117,1,0,1:0:0:0:
208,332,44218,69,2,0:0:0:0:
217,333,44319,1,0,0:0:0:0:
227,334,44420,1,0,0:0:0:0:
237,335,44522,1,0,0:0:0:0:
247,336,44623,1,0,0:0:0:0:
275,307,44826,5,0,0:0:0:0:
284,306,44927,1,2,0:0:0:0:
307,349,45130,5,0,0:0:0:0:
316,350,45231,1,2,0:0:0:0:
359,246,45434,6,0,L|354:298,1,40,2|0,0:0|0:0,0:0:0:0:
451,384,45637,2,0,L|446:332,1,40,2|0,0:0|0:0,0:0:0:0:
512,195,45840,37,4,1:2:0:0:
368,32,46043,5,2,0:0:0:0:
256,64,46245,1,8,1:0:0:0:
144,32,46448,1,2,0:0:0:0:
144,32,46549,1,0,0:0:0:0:
144,32,46651,101,0,1:0:0:0:
326,90,46853,1,0,0:0:0:0:
186,90,47056,1,8,1:0:0:0:
368,32,47259,2,0,B|398:23|398:23|432:32,1,59.9999981689454,2|0,0:0|0:0,0:0:0:0:
506,6,47462,5,2,1:2:0:0:
506,6,47563,1,0,0:0:0:0:
512,35,47664,1,2,0:0:0:0:
504,63,47765,1,0,0:0:0:0:
504,63,47867,2,0,B|491:89|491:89|509:118,1,59.9999981689454,8|0,1:0|0:0,0:0:0:0:
504,207,48070,1,2,0:0:0:0:
504,207,48272,102,0,B|447:189|447:189|386:218,3,119.999996337891,2|2|8|0,0:0|0:0|1:0|0:0,0:0:0:0:
256,96,49083,5,0,1:0:0:0:
144,192,49286,101,2,0:0:0:0:
320,272,49489,1,8,1:0:0:0:
192,272,49691,1,2,0:0:0:0:
192,272,49793,1,2,0:0:0:0:
368,192,49995,1,2,0:0:0:0:
368,192,50097,1,2,0:0:0:0:
120,123,50299,6,0,B|152:116|152:116|187:135,1,59.9999981689454,8|0,1:0|0:0,0:0:0:0:
201,188,50502,2,0,B|192:184|192:184|224:76,1,119.999996337891,2|0,0:0|1:0,0:0:0:0:
241,8,50806,101,0,0:0:0:0:
241,8,50907,1,2,0:0:0:0:
241,8,51008,1,0,0:0:0:0:
241,8,51110,2,0,B|209:1|209:1|174:20,1,59.9999981689454,8|0,1:0|0:0,0:0:0:0:
299,50,51313,2,0,B|306:82|306:82|287:117,1,59.9999981689454,2|0,0:0|0:0,0:0:0:0:
223,78,51516,1,0,1:0:0:0:
382,214,51718,2,0,B|351:207|351:207|322:221,1,59.9999981689454,2|0,0:0|0:0,0:0:0:0:
365,289,51921,5,8,1:0:0:0:
365,289,52022,1,0,1:0:0:0:
371,333,52123,1,2,1:2:0:0:
371,333,52225,1,0,1:0:0:0:
374,374,52326,1,0,1:0:0:0:
112,192,52529,101,2,0:0:0:0:
112,192,52630,1,0,0:0:0:0:
99,146,52732,2,0,B|71:151|63:173|63:173|94:267,2,119.999996337891,8|2|0,1:0|0:0|1:0,0:0:0:0:
224,192,53340,1,2,0:0:0:0:
256,176,53441,1,0,0:0:0:0:
288,192,53542,1,8,1:0:0:0:
256,320,53745,1,2,0:0:0:0:
400,192,53948,5,0,1:0:0:0:
400,192,54049,1,2,0:0:0:0:
112,192,54252,1,2,0:0:0:0:
112,192,54353,1,8,1:0:0:0:
336,288,54556,1,2,0:0:0:0:
336,288,54657,1,0,0:0:0:0:
336,288,54759,102,0,B|349:346,3,59.9999981689454,0|0|0|0,1:0|0:0|0:0|0:0,0:0:0:0:
176,288,55164,2,0,B|163:346,3,59.9999981689454,8|0|0|0,1:0|0:0|0:0|0:0,0:0:0:0:
256,192,55570,1,0,1:0:0:0:
162,346,55772,5,2,0:0:0:0:
124,366,55874,1,0,0:0:0:0:
95,336,55975,2,0,B|108:278,1,59.9999981689454,8|0,1:0|0:0,0:0:0:0:
61,182,56178,2,0,B|48:240,1,59.9999981689454,2|0,0:0|0:0,0:0:0:0:
49,108,56380,1,0,1:0:0:0:
83,101,56481,1,0,0:0:0:0:
109,125,56583,1,2,0:0:0:0:
256,32,56786,2,0,L|256:0,1,29.9999990844727,8|0,1:0|0:0,0:0:0:0:
256,112,56989,1,2,0:0:0:0:
384,192,57191,101,0,1:0:0:0:
384,230,57292,1,0,1:0:0:0:
448,352,57495,5,0,1:0:0:0:
410,352,57596,1,8,1:0:0:0:
372,352,57698,1,0,0:0:0:0:
333,352,57799,1,0,1:0:0:0:
256,192,58002,1,0,1:0:0:0:
256,32,58407,1,8,1:0:0:0:
256,96,58508,1,0,1:0:0:0:
256,144,58610,1,0,1:0:0:0:
256,176,58711,1,0,1:0:0:0:
256,192,58813,102,0,B|298:195|325:179|325:179|330:114,1,119.999996337891,4|0,1:0|0:0,0:0:0:0:
328,130,59117,1,0,0:0:0:0:
328,130,59218,1,8,1:0:0:0:
280,24,59421,1,2,0:0:0:0:
280,24,59522,1,2,0:0:0:0:
164,43,59725,1,2,0:0:0:0:
164,43,59826,1,2,0:0:0:0:
70,202,60029,6,0,B|85:157|129:123|129:123|81:108|74:59,1,179.999994506836,8|0,1:0|0:0,0:0:0:0:
164,43,60434,1,0,1:0:0:0:
164,43,60535,1,0,0:0:0:0:
164,43,60637,1,2,0:0:0:0:
164,43,60739,2,0,P|188:52|230:65,1,59.9999981689454,0|8,0:0|1:0,0:0:0:0:
337,104,61043,1,2,0:0:0:0:
337,104,61144,1,2,0:0:0:0:
249,186,61347,1,2,0:0:0:0:
249,186,61448,1,2,0:0:0:0:
337,104,61651,1,8,1:0:0:0:
304,240,61853,1,2,0:0:0:0:
175,176,62056,102,0,B|132:174|120:211|120:211|114:332,1,179.999994506836,0|0,1:0|0:0,0:0:0:0:
5,328,62462,2,0,B|34:328|43:303|43:303|47:218,1,119.999996337891,8|0,1:0|0:0,0:0:0:0:
46,232,62766,1,2,0:0:0:0:
58,116,62968,1,2,0:0:0:0:
58,116,63070,1,2,0:0:0:0:
142,41,63272,2,0,B|239:26|248:121|343:72,1,179.999994506836,8|0,1:0|0:0,0:0:0:0:
292,11,63678,5,0,1:0:0:0:
321,3,63780,1,0,0:0:0:0:
350,6,63881,1,2,0:0:0:0:
375,22,63982,2,0,P|375:58|352:83,1,59.9999981689454,0|8,0:0|1:0,0:0:0:0:
355,200,64286,1,2,0:0:0:0:
355,200,64387,1,2,0:0:0:0:
355,200,64590,1,2,0:0:0:0:
355,200,64691,1,2,0:0:0:0:
437,227,64894,102,0,P|444:198|435:170,1,59.9999981689454,8|0,1:0|0:0,0:0:0:0:
262,168,65097,2,0,P|255:196|264:225,1,59.9999981689454,0|0,1:0|0:0,0:0:0:0:
200,298,65299,5,4,1:0:0:0:
163,300,65401,1,0,0:0:0:0:
137,325,65502,1,2,0:0:0:0:
118,355,65603,2,0,P|97:333|89:304,1,59.9999981689454,0|8,0:0|1:0,0:0:0:0:
64,192,65907,1,2,0:0:0:0:
64,192,66008,1,2,0:0:0:0:
89,305,66211,1,2,0:0:0:0:
89,305,66312,1,2,0:0:0:0:
33,107,66516,2,0,B|32:127|32:127|130:149,1,119.999996337891,8|0,1:0|0:0,0:0:0:0:
192,48,66921,101,0,1:0:0:0:
228,45,67023,1,0,0:0:0:0:
257,66,67124,1,2,0:0:0:0:
268,100,67225,2,0,P|283:115|331:131,1,59.9999981689454,0|8,0:0|1:0,0:0:0:0:
373,25,67529,1,2,0:0:0:0:
373,25,67630,1,2,0:0:0:0:
462,111,67833,1,2,0:0:0:0:
462,111,67934,1,2,0:0:0:0:
373,25,68137,1,8,1:0:0:0:
318,130,68340,1,2,0:0:0:0:
370,259,68543,6,0,L|347:70,1,179.999994506836,0|0,1:0|0:0,0:0:0:0:
295,223,68948,2,0,L|309:342,1,119.999996337891,8|0,1:0|0:0,0:0:0:0:
309,342,69252,1,2,0:0:0:0:
196,314,69455,1,2,0:0:0:0:
196,314,69556,1,2,0:0:0:0:
312,342,69759,1,8,1:0:0:0:
312,342,69962,1,2,0:0:0:0:
452,251,70164,101,4,1:0:0:0:
432,120,70367,1,4,1:0:0:0:
317,54,70570,1,12,1:0:0:0:
189,89,70773,1,4,1:0:0:0:
66,40,70975,5,4,1:0:0:0:
66,40,71380,2,0,L|79:170,1,119.999996337891,8|0,1:0|0:0,0:0:0:0:
329,281,71786,37,6,1:1:0:0:
358,274,71887,1,0,0:0:0:0:
387,269,71988,1,2,0:0:0:0:
411,287,72090,1,0,0:0:0:0:
418,315,72191,1,10,1:2:0:0:
505,369,72394,1,2,0:0:0:0:
512,341,72495,1,2,0:0:0:0:
493,182,72698,1,2,0:0:0:0:
500,211,72799,1,2,0:0:0:0:
505,240,72900,1,2,0:0:0:0:
487,264,73002,1,10,1:2:0:0:
469,164,73205,1,2,0:0:0:0:
507,57,73407,5,2,1:2:0:0:
479,71,73509,1,0,0:0:0:0:
449,67,73610,1,2,0:0:0:0:
422,81,73712,1,0,0:0:0:0:
392,77,73813,1,10,1:2:0:0:
292,1,74016,1,2,0:0:0:0:
306,47,74117,1,2,0:0:0:0:
296,54,74218,2,0,L|289:181,1,119.999996337891,0|0,1:0|0:0,0:0:0:0:
280,182,74624,2,0,L|286:62,1,119.999996337891,8|0,1:0|0:0,0:0:0:0:
146,88,75029,69,2,1:2:0:0:
175,90,75130,1,0,0:0:0:0:
202,78,75231,1,2,0:0:0:0:
204,49,75333,1,0,0:0:0:0:
206,19,75434,1,10,1:2:0:0:
86,13,75637,1,2,0:0:0:0:
116,15,75738,1,2,0:0:0:0:
0,11,75941,1,2,0:0:0:0:
4,40,76043,1,2,0:0:0:0:
20,65,76144,1,2,0:0:0:0:
16,94,76245,1,10,1:2:0:0:
81,148,76448,1,2,0:0:0:0:
24,273,76651,5,2,1:2:0:0:
30,244,76752,1,0,0:0:0:0:
54,227,76853,1,2,0:0:0:0:
83,232,76955,1,0,0:0:0:0:
101,255,77056,1,10,1:2:0:0:
18,360,77259,1,2,0:0:0:0:
62,342,77360,1,2,0:0:0:0:
72,349,77462,2,0,L|132:355,1,59.9999981689454,0|0,1:0|0:0,0:0:0:0:
83,357,77664,2,0,L|143:363,1,59.9999981689454,0|0,3:0|0:0,0:0:0:0:
231,254,77867,2,0,L|222:332,1,59.9999981689454,8|0,1:0|0:0,0:0:0:0:
222,384,78070,2,0,L|228:324,1,59.9999981689454,2|0,3:0|0:0,0:0:0:0:
317,180,78272,5,2,1:2:0:0:
304,206,78373,1,0,0:0:0:0:
311,234,78474,1,2,0:0:0:0:
320,262,78576,1,0,0:0:0:0:
309,289,78677,1,10,1:2:0:0:
325,372,78880,1,2,0:0:0:0:
325,372,78982,1,2,0:0:0:0:
398,298,79184,1,2,0:0:0:0:
411,324,79285,1,2,0:0:0:0:
404,352,79387,1,2,0:0:0:0:
415,379,79488,1,10,1:2:0:0:
405,270,79691,1,2,0:0:0:0:
506,308,79893,5,2,1:2:0:0:
510,279,79995,1,0,0:0:0:0:
495,254,80096,1,2,0:0:0:0:
499,226,80198,1,0,0:0:0:0:
486,200,80299,1,10,1:2:0:0:
324,125,80502,1,2,0:0:0:0:
371,135,80603,1,2,0:0:0:0:
378,125,80705,2,0,L|501:114,1,119.999996337891,0|0,1:0|0:0,0:0:0:0:
386,116,81110,2,0,L|509:105,1,119.999996337891,8|0,1:0|0:0,0:0:0:0:
477,2,81516,69,2,1:2:0:0:
463,28,81617,1,0,0:0:0:0:
433,31,81718,1,2,0:0:0:0:
403,34,81820,1,0,0:0:0:0:
373,36,81921,1,10,1:2:0:0:
375,123,82124,1,2,0:0:0:0:
375,123,82225,1,2,0:0:0:0:
373,36,82428,1,2,0:0:0:0:
343,39,82529,1,2,0:0:0:0:
313,42,82631,1,2,0:0:0:0:
283,44,82732,1,10,1:2:0:0:
285,131,82934,1,2,0:0:0:0:
207,90,83137,22,0,L|88:99,1,119.999996337891,0|0,1:0|0:0,0:0:0:0:
343,206,83543,2,0,L|462:215,1,119.999996337891,8|0,1:0|0:0,0:0:0:0:
188,171,83948,2,0,L|128:175,1,59.9999981689454,0|0,1:0|0:0,0:0:0:0:
362,287,84151,2,0,L|421:291,1,59.9999981689454,0|0,1:0|0:0,0:0:0:0:
258,223,84353,1,8,1:0:0:0:
247,251,84455,1,0,1:0:0:0:
262,289,84556,1,8,1:0:0:0:
243,326,84657,1,0,1:0:0:0:
275,369,84759,86,0,L|169:377,1,80,2|0,1:2|0:0,0:0:0:0:
130,328,85164,1,8,1:0:0:0:
43,358,85367,1,2,0:0:0:0:
54,364,85468,2,0,L|49:275,1,80,0|0,1:0|0:0,0:0:0:0:
54,273,85772,1,0,1:0:0:0:
189,219,85975,1,8,1:0:0:0:
189,222,86076,1,0,0:0:0:0:
188,225,86178,1,2,0:0:0:0:
188,228,86279,1,0,0:0:0:0:
187,231,86380,5,0,1:0:0:0:
108,207,86583,1,0,1:0:0:0:
246,165,86786,1,8,1:0:0:0:
98,201,86989,1,2,0:0:0:0:
147,79,87191,1,2,0:0:0:0:
149,89,87293,1,0,1:0:0:0:
151,99,87394,2,0,L|159:144,1,40,0|0,1:0|0:0,0:0:0:0:
30,149,87597,5,8,1:0:0:0:
41,110,87698,1,0,1:0:0:0:
75,89,87799,1,0,1:0:0:0:
77,49,87901,1,0,1:0:0:0:
104,19,88002,5,2,1:2:0:0:
123,26,88103,1,2,0:0:0:0:
140,16,88204,1,2,1:2:0:0:
160,22,88306,1,2,0:0:0:0:
175,9,88407,70,0,P|212:11|257:0,1,80,8|0,1:0|0:0,0:0:0:0:
425,44,88813,2,0,P|388:46|343:35,1,80,2|0,0:0|0:0,0:0:0:0:
340,26,89117,1,0,0:0:0:0:
334,16,89218,1,8,1:0:0:0:
369,127,89421,1,2,0:0:0:0:
505,80,89624,5,0,1:0:0:0:
447,156,89826,1,0,1:0:0:0:
509,72,90029,1,8,1:0:0:0:
489,231,90232,1,2,0:0:0:0:
478,234,90333,1,0,1:0:0:0:
445,307,90536,1,0,1:0:0:0:
456,310,90637,1,0,1:0:0:0:
330,320,90840,5,10,1:2:0:0:
369,332,90941,1,0,1:0:0:0:
369,372,91043,1,2,1:2:0:0:
331,384,91144,1,0,1:0:0:0:
307,353,91245,6,0,L|311:267,1,80,0|0,1:0|0:0,0:0:0:0:
232,152,91651,2,0,L|235:231,1,80,8|0,1:0|0:0,0:0:0:0:
165,368,92056,1,2,0:0:0:0:
155,201,92259,1,0,1:0:0:0:
155,361,92462,101,8,1:0:0:0:
119,343,92563,1,0,1:0:0:0:
102,306,92664,1,0,1:0:0:0:
76,337,92766,1,0,1:0:0:0:
37,346,92867,5,2,1:2:0:0:
7,272,93070,1,2,0:0:0:0:
61,212,93272,1,8,1:0:0:0:
28,55,93475,1,2,0:0:0:0:
23,66,93576,2,0,P|72:82|109:84,1,80,0|0,1:0|0:0,0:0:0:0:
109,93,93880,2,0,P|146:79|180:76,1,40,0|0,1:0|0:0,0:0:0:0:
227,84,94083,101,8,1:0:0:0:
264,97,94184,1,0,1:0:0:0:
287,65,94286,1,0,1:0:0:0:
264,32,94387,1,0,1:0:0:0:
227,45,94489,85,2,1:2:0:0:
338,129,94691,1,2,1:2:0:0:
436,23,94894,5,2,1:2:0:0:
345,135,95097,1,2,1:2:0:0:
193,183,95299,6,0,L|244:187,1,40,2|0,1:2|0:0,0:0:0:0:
306,219,95502,2,0,L|357:223,1,40,2|0,1:2|0:0,0:0:0:0:
502,264,95705,6,0,L|451:268,1,40,2|0,1:2|0:0,0:0:0:0:
389,300,95908,2,0,L|338:304,1,40,2|0,1:2|0:0,0:0:0:0:
462,348,96110,69,2,0:0:0:0:
462,348,96313,1,2,0:0:0:0:
462,348,96516,1,2,0:0:0:0:
244,320,96921,5,2,0:0:0:0:
244,320,97124,2,0,L|163:326,1,80,2|2,0:0|0:0,0:0:0:0:
155,336,97428,1,2,0:0:0:0:
143,337,97529,1,2,0:0:0:0:
131,338,97630,1,2,0:0:0:0:
119,339,97732,69,0,1:0:0:0:
82,322,97833,1,0,0:0:0:0:
45,337,97934,1,0,1:0:0:0:
0,221,98138,1,8,1:0:0:0:
80,128,98340,1,2,0:0:0:0:
119,126,98441,1,0,1:0:0:0:
150,150,98543,1,2,0:0:0:0:
189,145,98644,1,2,0:0:0:0:
189,145,98847,1,2,0:0:0:0:
189,145,98948,6,0,L|185:196,1,40,8|0,1:0|0:0,0:0:0:0:
236,256,99151,2,0,L|232:307,1,40,2|0,0:0|0:0,0:0:0:0:
291,185,99353,101,0,1:0:0:0:
291,185,99454,2,0,L|329:151,1,40
416,160,99657,1,2,0:0:0:0:
416,160,99758,2,0,L|450:198,1,40,8|0,1:0|0:0,0:0:0:0:
431,233,99962,1,2,0:0:0:0:
398,262,100063,1,0,1:0:0:0:
354,262,100164,1,2,0:0:0:0:
320,232,100265,1,2,0:0:0:0:
320,232,100468,1,2,0:0:0:0:
320,232,100570,6,0,L|286:270,1,40,8|0,1:0|0:0,0:0:0:0:
201,264,100772,2,0,L|174:234,1,40,2|0,0:0|0:0,0:0:0:0:
203,146,100975,101,0,1:0:0:0:
166,129,101076,1,0,0:0:0:0:
129,144,101177,1,0,1:0:0:0:
129,144,101381,2,0,L|78:140,1,40,8|0,1:0|0:0,0:0:0:0:
45,136,101583,1,2,0:0:0:0:
28,99,101684,1,0,1:0:0:0:
47,59,101786,1,2,0:0:0:0:
34,18,101887,1,2,0:0:0:0:
34,18,102090,1,2,0:0:0:0:
34,18,102191,6,0,L|85:14,1,40,8|0,1:0|0:0,0:0:0:0:
144,48,102394,2,0,L|195:52,1,40,2|0,0:0|0:0,0:0:0:0:
211,85,102597,101,0,1:0:0:0:
255,76,102699,1,0,0:0:0:0:
295,95,102800,1,0,1:0:0:0:
412,185,103002,1,8,1:0:0:0:
368,176,103104,1,0,0:0:0:0:
328,195,103205,1,2,0:0:0:0:
211,85,103407,5,2,0:0:0:0:
255,76,103509,1,2,0:0:0:0:
412,185,103712,1,2,0:0:0:0:
368,176,103814,1,8,1:0:0:0:
328,195,103915,1,0,1:0:0:0:
298,227,104016,1,0,1:0:0:0:
289,271,104118,1,0,1:0:0:0:
308,311,104219,101,2,1:2:0:0:
400,279,104421,1,0,1:0:0:0:
400,279,104522,1,0,0:0:0:0:
400,279,104624,1,8,1:0:0:0:
466,343,104826,1,2,0:0:0:0:
466,343,104927,1,0,1:0:0:0:
308,311,105130,2,0,L|257:307,1,40,2|0,0:0|0:0,0:0:0:0:
207,345,105333,1,2,0:0:0:0:
207,345,105434,2,0,L|203:396,3,40,8|0|0|0,1:0|0:0|0:0|0:0,0:0:0:0:
176,304,105840,5,0,1:0:0:0:
126,206,106043,1,0,1:0:0:0:
84,219,106144,1,0,0:0:0:0:
68,260,106246,1,8,1:0:0:0:
176,304,106448,1,2,0:0:0:0:
176,304,106549,1,0,1:0:0:0:
84,219,106752,1,0,1:0:0:0:
120,122,106955,1,2,0:0:0:0:
164,113,107057,1,8,1:0:0:0:
204,132,107158,1,0,0:0:0:0:
234,164,107259,1,2,0:0:0:0:
243,208,107361,1,0,0:0:0:0:
224,248,107462,101,0,1:0:0:0:
247,248,107563,1,0,0:0:0:0:
270,251,107664,1,0,1:0:0:0:
294,252,107766,1,0,0:0:0:0:
318,253,107867,1,8,1:0:0:0:
371,179,108070,2,0,L|375:140,1,40,2|0,0:0|0:0,0:0:0:0:
496,256,108272,5,0,1:0:0:0:
473,256,108373,1,0,0:0:0:0:
450,259,108474,1,0,1:0:0:0:
426,260,108576,1,0,0:0:0:0:
403,264,108677,1,8,1:0:0:0:
336,336,108880,2,0,L|332:375,1,40,0|0,1:0|0:0,0:0:0:0:
224,248,109083,1,2,0:0:0:0:
256,192,110705,101,4,0:0:0:0:
166,319,110908,5,2,0:0:0:0:
124,169,111110,1,8,1:0:0:0:
256,384,111313,1,2,0:0:0:0:
256,384,111414,1,0,0:0:0:0:
256,384,111516,101,0,1:0:0:0:
388,169,111718,1,0,0:0:0:0:
346,319,111921,1,8,1:0:0:0:
453,202,112124,2,0,B|462:172|462:172|455:144,1,59.9999981689454,2|0,0:0|0:0,0:0:0:0:
484,73,112327,5,2,1:2:0:0:
484,73,112428,1,0,0:0:0:0:
455,67,112529,1,2,0:0:0:0:
427,75,112630,1,0,0:0:0:0:
427,75,112732,2,0,B|401:88|401:88|375:71,1,59.9999981689454,8|0,1:0|0:0,0:0:0:0:
283,75,112935,1,2,0:0:0:0:
242,173,113137,102,0,B|257:145|257:145|233:42,3,119.999996337891,2|2|8|0,0:0|0:0|1:0|0:0,0:0:0:0:
242,173,113948,5,0,1:0:0:0:
144,304,114151,101,2,0:0:0:0:
64,128,114354,1,8,1:0:0:0:
64,256,114556,1,2,0:0:0:0:
64,256,114658,1,2,0:0:0:0:
144,80,114860,1,2,0:0:0:0:
144,80,114962,1,2,0:0:0:0:
256,272,115164,6,0,B|263:240|263:240|251:216,1,59.9999981689454,8|0,1:0|0:0,0:0:0:0:
191,191,115367,2,0,B|195:200|195:200|301:168,1,119.999996337891,2|0,0:0|1:0,0:0:0:0:
381,140,115671,101,0,0:0:0:0:
381,140,115772,1,2,0:0:0:0:
381,140,115874,2,0,B|388:172|388:172|376:195,1,59.9999981689454,0|8,0:0|1:0,0:0:0:0:
438,276,116076,1,0,0:0:0:0:
438,276,116178,2,0,B|432:243|432:243|445:221,1,59.9999981689454,2|0,0:0|0:0,0:0:0:0:
490,165,116381,1,0,1:0:0:0:
476,343,116583,2,0,B|451:355|451:355|420:348,1,59.9999981689454,2|0,0:0|0:0,0:0:0:0:
336,288,116786,5,8,1:0:0:0:
311,313,116887,1,0,1:0:0:0:
286,287,116988,1,2,1:2:0:0:
257,309,117090,1,0,1:0:0:0:
230,284,117191,1,0,1:0:0:0:
112,192,117394,101,2,0:0:0:0:
112,192,117495,1,0,0:0:0:0:
158,179,117597,2,0,B|24:159,2,119.999996337891,8|0|0,1:0|0:0|1:0,0:0:0:0:
304,224,118205,1,2,0:0:0:0:
320,192,118306,1,0,0:0:0:0:
304,160,118407,1,8,1:0:0:0:
256,320,118610,1,2,0:0:0:0:
112,192,118813,5,0,1:0:0:0:
112,192,118914,1,2,0:0:0:0:
400,192,119117,1,2,0:0:0:0:
400,192,119218,1,8,1:0:0:0:
400,192,119320,1,0,0:0:0:0:
400,192,119421,2,0,B|412:217|412:217|405:248,1,59.9999981689454,2|0,0:0|0:0,0:0:0:0:
349,346,119624,102,0,B|336:288,3,59.9999981689454,0|0|0|0,1:0|0:0|0:0|0:0,0:0:0:0:
163,346,120029,2,0,B|176:288,3,59.9999981689454,8|0|0|0,1:0|0:0|0:0|0:0,0:0:0:0:
256,192,120435,1,0,1:0:0:0:
256,384,120637,5,2,0:0:0:0:
256,368,120739,1,0,0:0:0:0:
256,352,120840,2,0,B|256:288,1,59.9999981689454,8|0,1:0|0:0,0:0:0:0:
256,192,121043,2,0,B|256:132,1,59.9999981689454,2|0,0:0|0:0,0:0:0:0:
256,240,121245,1,0,1:0:0:0:
256,64,121448,1,2,0:0:0:0:
256,48,121550,1,0,0:0:0:0:
256,32,121651,2,0,L|256:2,1,29.9999990844727,8|0,1:0|0:0,0:0:0:0:
256,112,121854,1,2,0:0:0:0:
96,48,122056,101,0,1:0:0:0:
118,67,122157,1,0,1:0:0:0:
123,96,122259,1,2,2:0:0:0:
113,124,122360,1,0,1:0:0:0:
89,140,122461,5,8,1:0:0:0:
223,191,122664,1,0,1:0:0:0:
353,130,122867,1,0,1:0:0:0:
480,320,123272,1,8,1:0:0:0:
428,339,123373,1,0,1:0:0:0:
391,322,123475,1,0,1:0:0:0:
362,336,123576,1,0,1:0:0:0:
341,327,123678,6,0,B|279:308|238:314|217:344,1,119.999996337891,4|0,0:0|0:0,0:0:0:0:
227,346,123982,1,0,0:0:0:0:
228,359,124083,1,8,1:0:0:0:
64,284,124286,1,2,0:0:0:0:
65,271,124387,1,2,0:0:0:0:
163,251,124590,1,2,0:0:0:0:
162,284,124691,1,2,0:0:0:0:
144,312,124793,1,0,0:0:0:0:
143,345,124894,6,0,B|145:363|136:380|136:380|82:382|26:361|26:361|60:363|84:328|72:300,1,239.999992675781,8|0,1:0|1:0,0:0:0:0:
64,284,125401,1,0,0:0:0:0:
65,271,125502,1,2,0:0:0:0:
85,248,125604,1,0,0:0:0:0:
84,235,125705,1,8,1:0:0:0:
37,125,125907,1,2,0:0:0:0:
28,160,126009,1,2,0:0:0:0:
199,102,126212,1,2,0:0:0:0:
190,67,126314,1,2,0:0:0:0:
17,21,126516,1,8,1:0:0:0:
107,68,126718,1,2,0:0:0:0:
293,0,126921,6,0,B|268:39|291:113|291:113|324:129|360:120,1,179.999994506836,0|0,1:0|0:0,0:0:0:0:
405,21,127326,2,0,B|382:25|365:39|365:39|409:42|429:90,1,119.999996337891,8|2,1:0|0:0,0:0:0:0:
429,91,127630,2,0,P|435:128|422:165,1,59.9999981689454,2|0,0:0|1:0,0:0:0:0:
329,237,127833,1,2,0:0:0:0:
318,233,127934,2,0,P|347:209|385:202,1,59.9999981689454,2|0,0:0|0:0,0:0:0:0:
493,206,128137,1,8,1:0:0:0:
403,281,128340,1,2,0:0:0:0:
512,379,128543,5,0,1:0:0:0:
501,384,128644,1,0,0:0:0:0:
466,375,128745,1,2,0:0:0:0:
430,377,128847,1,2,0:0:0:0:
418,375,128948,1,8,1:0:0:0:
403,281,129151,1,2,0:0:0:0:
405,293,129252,1,2,0:0:0:0:
337,342,129455,1,2,0:0:0:0:
326,337,129556,1,2,0:0:0:0:
291,346,129657,1,2,0:0:0:0:
255,344,129759,70,0,L|253:282,1,59.9999981689454,8|0,1:0|0:0,0:0:0:0:
238,213,129962,2,0,L|239:272,1,59.9999981689454,0|0,1:0|0:0,0:0:0:0:
174,369,130164,5,0,1:0:0:0:
162,341,130266,1,0,0:0:0:0:
134,330,130367,1,2,0:0:0:0:
104,329,130468,2,0,P|74:341|47:361,1,59.9999981689454,0|8,0:0|1:0,0:0:0:0:
0,249,130772,1,2,0:0:0:0:
3,279,130874,1,2,0:0:0:0:
138,203,131076,1,2,0:0:0:0:
135,233,131178,1,2,0:0:0:0:
56,180,131380,1,8,1:0:0:0:
56,180,131583,2,0,B|87:127|75:72|49:69,1,119.999996337891,2|0,0:0|1:0,0:0:0:0:
28,86,131887,5,0,0:0:0:0:
16,83,131989,1,2,0:0:0:0:
0,58,132090,1,0,0:0:0:0:
12,55,132192,1,8,1:0:0:0:
140,37,132394,1,2,0:0:0:0:
142,1,132495,1,2,0:0:0:0:
218,123,132698,1,2,0:0:0:0:
216,87,132799,1,2,0:0:0:0:
299,0,133002,1,8,1:0:0:0:
298,144,133205,1,2,0:0:0:0:
433,35,133407,6,0,B|413:25|358:46,1,59.9999981689454,0|0,1:0|0:0,0:0:0:0:
492,162,133610,2,0,B|502:142|481:87,1,59.9999981689454,2|0,0:0|0:0,0:0:0:0:
383,135,133813,2,0,B|373:211|386:256|399:234|396:208,1,119.999996337891,8|0,1:0|0:0,0:0:0:0:
405,206,134117,2,0,P|412:251|421:275,1,59.9999981689454,0|0,0:0|1:0,0:0:0:0:
511,318,134320,1,0,0:0:0:0:
503,347,134421,1,2,0:0:0:0:
503,347,134624,1,8,1:0:0:0:
503,347,134826,1,2,0:0:0:0:
425,377,135029,69,4,1:0:0:0:
333,349,135232,1,4,1:0:0:0:
264,267,135434,1,12,1:0:0:0:
187,359,135637,1,4,1:0:0:0:
56,374,135840,1,4,1:0:0:0:
56,374,136245,5,10,0:0:0:0:
14,236,136448,1,2,0:0:0:0:
43,82,136651,1,6,0:0:0:0:
256,192,136752,12,0,139894,1:0:0:0:
512,0,149218,37,2,3:0:0:0:
509,15,149320,5,2,3:0:0:0:
506,31,149421,5,2,3:0:0:0:
504,47,149522,5,2,3:0:0:0:
464,48,149624,70,0,L|460:108,1,50,0|0,1:0|0:0,0:0:0:0:
425,175,150029,1,8,1:0:0:0:
352,138,150232,1,2,0:0:0:0:
352,138,150333,1,2,0:0:0:0:
281,185,150536,1,2,0:0:0:0:
249,205,150637,1,0,0:0:0:0:
211,203,150738,1,2,0:0:0:0:
182,182,150840,1,8,1:0:0:0:
96,240,151043,1,2,0:0:0:0:
182,182,151245,5,0,1:0:0:0:
178,154,151347,1,0,0:0:0:0:
175,126,151448,1,2,0:0:0:0:
172,98,151549,1,0,0:0:0:0:
168,70,151651,1,8,1:0:0:0:
287,40,151853,1,2,0:0:0:0:
287,40,152056,6,0,L|333:59,1,50,0|0,1:0|0:0,0:0:0:0:
448,117,152259,2,0,L|401:97,1,50,2|0,0:0|0:0,0:0:0:0:
359,2,152462,2,0,L|376:154,1,150,8|0,1:0|0:0,0:0:0:0:
380,229,152867,86,0,L|425:209,2,50,0|0|0,1:0|0:0|0:0,0:0:0:0:
328,314,153272,1,8,1:0:0:0:
241,263,153475,2,0,L|194:243,1,50,2|0,0:0|0:0,0:0:0:0:
152,270,153678,2,0,L|105:250,1,50,0|0,1:0|0:0,0:0:0:0:
58,235,153880,1,2,0:0:0:0:
82,328,154083,1,8,1:0:0:0:
304,192,154387,1,2,0:0:0:0:
341,176,154489,1,0,1:2:0:0:
378,190,154590,1,2,0:0:0:0:
415,176,154691,1,2,0:0:0:0:
481,271,154894,1,8,1:0:0:0:
415,176,155299,37,0,1:0:0:0:
378,190,155400,1,0,0:0:0:0:
341,176,155501,1,2,0:0:0:0:
304,192,155603,1,0,0:0:0:0:
332,221,155705,2,0,P|328:159|306:59,1,150,8|0,1:0|0:0,0:0:0:0:
303,55,156110,1,0,1:0:0:0:
207,10,156313,69,2,0:0:0:0:
207,10,156414,1,2,0:0:0:0:
101,42,156617,5,2,0:0:0:0:
75,66,156718,1,2,0:0:0:0:
108,77,156820,1,2,0:0:0:0:
82,101,156921,1,0,1:0:0:0:
113,116,157023,1,0,0:0:0:0:
91,143,157124,2,0,L|87:205,1,50,2|0,0:0|0:0,0:0:0:0:
85,227,157326,1,8,1:0:0:0:
33,318,157630,1,0,0:0:0:0:
67,326,157732,1,0,1:0:0:0:
85,355,157833,2,0,L|147:359,2,50
160,336,158137,1,8,1:0:0:0:
160,336,158543,5,0,1:0:0:0:
232,241,158745,2,0,P|278:244|339:256,1,100,2|8,0:0|1:0,0:0:0:0:
271,336,159151,1,2,0:0:0:0:
410,279,159353,2,0,L|406:217,1,50,0|0,1:0|0:0,0:0:0:0:
448,176,159556,2,0,L|444:126,1,50,2|0,0:0|0:0,0:0:0:0:
424,91,159759,1,8,1:0:0:0:
386,76,159860,1,0,0:0:0:0:
349,92,159962,1,2,0:0:0:0:
349,92,160164,2,0,L|287:96,1,50,0|0,1:0|0:0,0:0:0:0:
259,98,160366,1,2,0:0:0:0:
179,175,160570,1,8,1:0:0:0:
87,114,160772,1,2,0:0:0:0:
80,96,160873,1,0,0:0:0:0:
96,80,160975,5,0,1:0:0:0:
179,175,161178,1,2,0:0:0:0:
108,259,161380,1,0,1:0:0:0:
192,352,161583,1,2,0:0:0:0:
192,352,161684,2,0,B|219:332|219:332|282:358,1,100,2|0,0:0|0:0,0:0:0:0:
298,366,161989,1,0,1:0:0:0:
317,188,162191,1,0,1:0:0:0:
354,201,162292,1,0,1:0:0:0:
388,180,162393,1,0,1:0:0:0:
427,188,162495,1,0,1:0:0:0:
465,177,162597,70,0,P|407:49|146:133,1,450,4|0,0:0|0:0,0:0:0:0:
4,48,165840,2,0,P|211:48|331:246,1,450.869981163299,2|0,0:0|0:0,0:0:0:0:
458,169,169083,6,0,P|283:170|111:223,1,350,2|0,0:0|0:0,0:0:0:0:
0,200,170705,2,0,P|128:277|232:384,1,300,2|0,0:0|0:0,0:0:0:0:
256,192,172326,101,2,0:0:0:0:
256,192,172428,12,0,173745,0:0:0:0:
96,0,173948,21,10,0:0:0:0:
112,32,174049,1,10,0:0:0:0:
232,83,174252,5,10,0:0:0:0:
197,118,174353,1,10,0:0:0:0:
205,167,174455,1,2,0:0:0:0:
168,201,174556,1,10,0:0:0:0:
34,244,174759,102,0,L|254:234,1,209.999993591309,10|0,0:0|0:0,0:0:0:0:
271,265,175164,5,0,1:0:0:0:
311,276,175265,1,0,1:0:0:0:
351,262,175367,1,0,1:0:0:0:
390,276,175468,1,0,1:0:0:0:
431,265,175570,69,2,1:2:0:0:
431,265,175671,1,0,1:0:0:0:
272,368,175874,5,0,1:0:0:0:
272,368,175975,1,0,1:0:0:0:
168,201,176178,5,0,1:0:0:0:
168,201,176279,1,0,1:0:0:0:
320,96,176482,5,0,1:0:0:0:
320,96,176583,1,0,1:0:0:0:
390,276,176786,101,8,1:0:0:0:
351,262,176887,1,0,1:0:0:0:
311,276,176989,1,0,1:0:0:0:
271,265,177090,1,0,1:0:0:0:
231,279,177191,54,0,B|195:301|188:340|193:387,1,119.999996337891,4|0,0:0|0:0,0:0:0:0:
272,368,177495,1,0,0:0:0:0:
274,356,177597,1,8,1:0:0:0:
169,221,177799,1,2,0:0:0:0:
167,209,177901,1,2,0:0:0:0:
71,324,178103,1,2,0:0:0:0:
107,319,178205,1,2,0:0:0:0:
112,355,178306,1,0,0:0:0:0:
76,360,178407,1,8,1:0:0:0:
76,360,178610,1,2,0:0:0:0:
16,175,178813,5,0,1:0:0:0:
0,207,178914,1,0,0:0:0:0:
24,234,179016,1,2,0:0:0:0:
8,266,179117,2,0,P|13:217|21:192,1,59.9999981689454,0|8,0:0|1:0,0:0:0:0:
169,73,179421,1,2,0:0:0:0:
160,120,179522,2,0,P|173:81|195:53,1,59.9999981689454,2|0,0:0|1:0,0:0:0:0:
35,95,179725,1,2,0:0:0:0:
82,104,179826,2,0,P|43:91|15:69,1,59.9999981689454,2|0,0:0|0:0,0:0:0:0:
87,12,180029,1,8,1:0:0:0:
108,185,180232,1,2,0:0:0:0:
261,16,180434,70,0,L|263:107,1,59.9999981689454,0|0,1:0|0:0,0:0:0:0:
269,151,180637,2,0,L|267:91,1,59.9999981689454,2|0,0:0|0:0,0:0:0:0:
356,0,180840,2,0,B|338:25|331:85|390:100,1,119.999996337891,8|0,1:0|0:0,0:0:0:0:
397,98,181144,2,0,P|434:91|462:70,1,59.9999981689454,0|0,0:0|1:0,0:0:0:0:
508,0,181347,1,0,0:0:0:0:
512,11,181448,1,2,0:0:0:0:
443,191,181651,6,0,B|466:143|539:149|555:277|424:298,1,239.999992675781,8|0,1:0|1:0,0:0:0:0:
403,291,182157,1,0,0:0:0:0:
375,302,182259,1,2,0:0:0:0:
347,292,182360,1,0,0:0:0:0:
319,303,182462,1,8,1:0:0:0:
463,375,182664,1,2,0:0:0:0:
474,380,182766,1,2,0:0:0:0:
254,355,182968,1,2,0:0:0:0:
243,360,183070,2,0,P|223:342|198:302,1,59.9999981689454,2|0,0:0|0:0,0:0:0:0:
222,212,183272,69,8,1:0:0:0:
211,218,183374,1,0,1:0:0:0:
172,203,183475,1,0,1:0:0:0:
130,206,183576,1,0,1:0:0:0:
91,222,183678,6,0,P|53:250|5:319,1,119.999996337891,0|0,1:0|0:0,0:0:0:0:
70,384,183982,1,0,0:0:0:0:
66,373,184083,1,8,1:0:0:0:
91,222,184286,1,2,0:0:0:0:
95,211,184387,1,2,0:0:0:0:
0,160,184590,1,2,0:0:0:0:
4,171,184691,1,2,0:0:0:0:
93,4,184894,1,8,1:0:0:0:
93,4,185097,1,2,0:0:0:0:
93,4,185299,5,0,1:0:0:0:
67,19,185401,1,0,0:0:0:0:
57,13,185502,1,2,0:0:0:0:
27,16,185603,1,0,0:0:0:0:
24,4,185705,1,8,1:0:0:0:
132,79,185907,1,2,0:0:0:0:
166,67,186009,1,2,0:0:0:0:
257,145,186212,1,2,0:0:0:0:
223,133,186314,1,2,0:0:0:0:
301,5,186516,1,8,1:0:0:0:
303,17,186617,1,0,0:0:0:0:
305,29,186718,1,2,0:0:0:0:
418,98,186921,5,0,1:0:0:0:
389,91,187022,1,0,0:0:0:0:
360,99,187124,1,2,0:0:0:0:
341,122,187225,2,0,L|338:191,1,59.9999981689454,0|8,0:0|1:0,0:0:0:0:
484,22,187529,1,2,0:0:0:0:
485,34,187630,1,2,0:0:0:0:
434,213,187833,1,2,0:0:0:0:
437,177,187934,1,2,0:0:0:0:
495,275,188137,1,8,1:0:0:0:
152,384,188543,69,4,1:0:0:0:
330,359,188745,1,4,1:0:0:0:
277,348,188847,1,0,1:0:0:0:
224,337,188948,1,12,1:0:0:0:
438,367,189151,1,4,1:0:0:0:
339,218,189353,1,4,1:0:0:0:
470,343,189759,5,8,1:0:0:0:
472,355,189860,1,0,1:0:0:0:
438,367,189962,1,0,1:0:0:0:
403,358,190063,1,0,1:0:0:0:
383,328,190164,6,0,B|365:298|332:273|274:276,1,119.999996337891,0|0,1:0|0:0,0:0:0:0:
224,357,190468,1,2,0:0:0:0:
266,355,190570,1,8,1:0:0:0:
187,221,190772,1,2,0:0:0:0:
186,251,190874,1,2,0:0:0:0:
201,277,190975,1,0,1:0:0:0:
172,283,191076,1,2,0:0:0:0:
147,300,191178,1,2,0:0:0:0:
55,190,191380,1,8,1:0:0:0:
55,190,191583,1,2,0:0:0:0:
20,358,191786,5,0,1:0:0:0:
27,317,191887,2,0,L|33:390,1,59.9999981689454,2|0,0:0|0:0,0:0:0:0:
70,221,192090,1,2,0:0:0:0:
63,180,192191,2,0,L|57:253,1,59.9999981689454,8|0,1:0|0:0,0:0:0:0:
12,77,192394,1,2,0:0:0:0:
53,85,192495,1,2,0:0:0:0:
185,13,192698,1,2,0:0:0:0:
144,21,192799,1,2,0:0:0:0:
155,128,193002,1,8,0:0:0:0:
262,32,193205,1,2,0:0:0:0:
146,136,193407,69,0,1:0:0:0:
155,128,193509,1,0,0:0:0:0:
191,129,193610,1,2,0:0:0:0:
224,144,193712,1,0,0:0:0:0:
246,172,193813,1,8,1:0:0:0:
184,302,194016,1,2,0:0:0:0:
196,262,194117,1,2,0:0:0:0:
321,220,194320,1,2,0:0:0:0:
333,260,194421,1,2,0:0:0:0:
309,340,194624,1,8,1:0:0:0:
234,377,194826,1,2,0:0:0:0:
389,361,195029,5,0,1:0:0:0:
407,330,195130,1,0,0:0:0:0:
439,313,195232,1,2,0:0:0:0:
475,312,195333,2,0,P|490:346|491:376,1,59.9999981689454,0|8,0:0|1:0,0:0:0:0:
411,231,195637,1,2,0:0:0:0:
429,234,195739,1,2,0:0:0:0:
467,216,195840,1,0,1:0:0:0:
509,213,195941,1,2,0:0:0:0:
512,195,196043,1,2,0:0:0:0:
490,65,196245,1,8,1:0:0:0:
409,153,196448,1,2,0:0:0:0:
496,53,196651,5,0,1:0:0:0:
461,61,196752,1,0,0:0:0:0:
431,41,196853,1,2,0:0:0:0:
396,51,196955,1,0,0:0:0:0:
363,37,197056,1,8,1:0:0:0:
305,98,197259,1,2,0:0:0:0:
305,98,197360,1,2,0:0:0:0:
208,16,197563,1,2,0:0:0:0:
201,57,197664,1,2,0:0:0:0:
218,96,197766,1,0,0:0:0:0:
225,137,197867,1,8,1:0:0:0:
225,137,198070,2,0,B|220:180|141:175|113:152,1,119.999996337891,2|0,0:0|1:0,0:0:0:0:
114,149,198374,5,0,0:0:0:0:
114,107,198475,1,2,0:0:0:0:
118,96,198576,1,0,0:0:0:0:
108,55,198678,1,8,1:0:0:0:
0,5,198880,1,2,0:0:0:0:
26,38,198982,1,2,0:0:0:0:
114,149,199184,1,2,0:0:0:0:
73,140,199286,1,2,0:0:0:0:
38,163,199387,1,0,0:0:0:0:
27,204,199489,1,8,1:0:0:0:
138,249,199691,1,2,0:0:0:0:
4,351,199894,70,0,B|24:306|93:311|170:359,1,179.999994506836,4|0,1:0|0:0,0:0:0:0:
243,376,200299,2,0,B|185:371|198:311|243:279,1,119.999996337891,8|0,1:0|0:0,0:0:0:0:
242,281,200603,2,0,L|311:270,1,59.9999981689454,0|0,0:0|1:0,0:0:0:0:
373,357,200806,1,0,0:0:0:0:
375,315,200907,1,2,0:0:0:0:
469,206,201110,1,8,1:0:0:0:
481,356,201313,1,2,0:0:0:0:
461,213,201516,5,2,0:0:0:0:
490,135,201718,1,2,0:0:0:0:
436,56,201921,1,2,0:0:0:0:
332,84,202124,1,2,0:0:0:0:
237,12,202326,1,2,0:0:0:0:
237,12,202732,5,0,1:0:0:0:
240,42,202833,1,0,1:0:0:0:
221,69,202934,1,0,1:0:0:0:
222,105,203036,1,0,1:0:0:0:
204,134,203137,85,6,1:1:0:0:
220,164,203239,1,0,0:0:0:0:
254,169,203341,1,2,0:0:0:0:
253,203,203442,1,0,0:0:0:0:
276,229,203543,1,10,1:2:0:0:
343,157,203746,1,2,0:0:0:0:
336,128,203847,1,2,0:0:0:0:
174,234,204050,1,2,0:0:0:0:
169,263,204151,1,2,0:0:0:0:
165,292,204253,1,2,0:0:0:0:
160,321,204354,1,10,1:2:0:0:
256,384,204557,1,2,0:0:0:0:
176,176,204760,5,2,1:2:0:0:
147,183,204861,1,0,0:0:0:0:
118,189,204963,1,2,0:0:0:0:
89,196,205064,1,0,0:0:0:0:
60,203,205165,1,10,1:2:0:0:
192,336,205368,1,2,0:0:0:0:
240,336,205469,1,2,0:0:0:0:
288,336,205570,102,0,B|304:192,1,139.999995727539,0|0,1:0|0:0,0:0:0:0:
320,192,205975,2,0,B|304:336,1,139.999995727539,8|0,1:0|0:0,0:0:0:0:
244,116,206381,5,2,1:0:0:0:
273,109,206482,1,0,0:0:0:0:
302,103,206584,1,2,0:0:0:0:
331,96,206685,1,0,0:0:0:0:
360,89,206786,1,10,1:2:0:0:
448,160,206989,1,2,0:0:0:0:
455,189,207090,1,2,0:0:0:0:
324,29,207293,1,2,0:0:0:0:
295,24,207394,1,2,0:0:0:0:
266,20,207496,1,2,0:0:0:0:
237,15,207597,1,10,1:2:0:0:
181,100,207800,1,2,0:0:0:0:
81,152,208003,101,2,1:2:0:0:
63,128,208104,1,0,0:0:0:0:
54,99,208206,1,2,0:0:0:0:
59,70,208307,1,0,0:0:0:0:
72,44,208408,1,10,1:2:0:0:
181,100,208611,1,2,0:0:0:0:
224,112,208712,1,2,0:0:0:0:
256,128,208814,6,0,L|252:209,1,69.9999978637696,0|0,1:0|0:0,0:0:0:0:
288,160,209016,2,0,L|284:241,1,69.9999978637696,0|0,3:0|0:0,0:0:0:0:
318,348,209219,2,0,P|285:329|252:332,1,69.9999978637696,8|0,1:0|0:0,0:0:0:0:
223,343,209422,1,2,3:0:0:0:
197,360,209522,1,2,3:0:0:0:
162,366,209624,101,2,1:1:0:0:
149,337,209725,1,0,0:0:0:0:
128,314,209827,1,2,0:0:0:0:
103,297,209928,1,0,0:0:0:0:
73,291,210029,1,10,1:2:0:0:
75,383,210233,1,2,0:0:0:0:
75,383,210334,1,2,0:0:0:0:
256,272,210537,1,2,0:0:0:0:
281,255,210638,1,2,0:0:0:0:
311,249,210739,1,2,0:0:0:0:
342,251,210840,1,10,1:2:0:0:
317,330,211043,1,2,0:0:0:0:
176,192,211246,5,2,1:2:0:0:
155,168,211347,1,0,0:0:0:0:
127,154,211448,1,2,0:0:0:0:
97,149,211550,1,0,0:0:0:0:
66,151,211651,1,10,1:2:0:0:
256,32,211854,1,2,0:0:0:0:
304,32,211955,1,2,0:0:0:0:
352,32,212056,102,0,B|368:176,1,139.999995727539,0|0,1:0|0:0,0:0:0:0:
384,176,212461,2,0,B|368:32,1,139.999995727539,8|0,1:0|0:0,0:0:0:0:
224,288,212867,5,2,1:0:0:0:
191,280,212968,1,0,0:0:0:0:
158,273,213070,1,2,0:0:0:0:
126,265,213171,1,0,0:0:0:0:
93,257,213272,1,10,1:2:0:0:
7,311,213476,101,2,0:0:0:0:
0,344,213577,1,2,0:0:0:0:
93,257,213780,1,2,0:0:0:0:
126,265,213881,1,2,0:0:0:0:
158,273,213982,1,2,0:0:0:0:
191,280,214084,1,10,1:2:0:0:
255,192,214287,1,2,0:0:0:0:
448,80,214489,6,0,P|419:101|384:110,1,69.9999978637696,10|0,1:0|0:0,0:0:0:0:
451,236,214691,2,0,P|415:230|384:213,1,69.9999978637696,0|0,1:0|0:0,0:0:0:0:
342,349,214894,2,0,P|320:320|311:285,1,69.9999978637696,10|0,1:0|0:0,0:0:0:0:
185,353,215096,2,0,P|190:317|207:286,1,69.9999978637696,0|0,1:0|0:0,0:0:0:0:
72,244,215299,2,0,P|100:222|135:213,1,69.9999978637696,10|0,1:0|0:0,0:0:0:0:
69,87,215501,2,0,P|104:92|135:109,1,69.9999978637696,10|0,1:0|0:0,0:0:0:0:
256,0,215706,101,8,1:0:0:0:
256,48,215807,1,0,1:0:0:0:
256,97,215908,1,8,1:0:0:0:
256,146,216010,1,0,1:0:0:0:
2,0,218948,86,0,L|-2:49,1,50
23,93,219151,2,0,L|20:117,2,25,2|0|0,0:0|0:0|0:0,0:0:0:0:
70,75,219354,5,2,0:0:0:0:
148,60,219556,1,0,0:0:0:0:
209,111,219759,1,0,0:0:0:0:
201,193,219962,2,0,P|232:212|256:217,1,50,0|2,0:0|0:0,0:0:0:0:
124,215,220266,1,0,0:0:0:0:
84,215,220367,1,0,0:0:0:0:
59,246,220468,2,0,L|-12:236,1,50,0|2,0:0|0:0,0:0:0:0:
9,239,220772,1,0,0:0:0:0:
58,337,220975,101,0,0:0:0:0:
161,299,221178,1,2,0:0:0:0:
83,376,221380,1,0,0:0:0:0:
211,343,221583,2,0,L|187:340,2,25,2|0|0,0:0|0:0|0:0,0:0:0:0:
320,384,221786,1,0,0:0:0:0:
256,192,222191,5,12,1:0:0:0:
256,192,222293,12,0,224218,0:0:0:0:
