osu file format v14

[General]
AudioFilename: audio.mp3
AudioLeadIn: 0
PreviewTime: 180077
Countdown: 0
SampleSet: Normal
StackLeniency: 0.7
Mode: 1
LetterboxInBreaks: 0
WidescreenStoryboard: 0

[Editor]
DistanceSpacing: 1.6
BeatDivisor: 4
GridSize: 32
TimelineZoom: 1.8

[Metadata]
Title:Because You're Here
TitleUnicode:愛されなくても君がいる
Artist:PinocchioP feat. Hatsune Miku
ArtistUnicode:ピノキオピー feat. 初音ミク
Creator:KeyWee
Version:Together Forever
Source:MAGICAL MIRAI 2020
Tags:ボーカロイド vocaloid 雪ミク japanese pop jpop j-pop 初音ミク Hatsune Miku Magical Mirai 2020 Pinocchio-P
BeatmapID:3428337
BeatmapSetID:1678045

[Difficulty]
HPDrainRate:5
CircleSize:2
OverallDifficulty:5
ApproachRate:0
SliderMultiplier:1.4
SliderTickRate:1

[Events]
//Background and Video events
0,0,"Magical Mirai 2020.jpg",0,35
//Break Periods
//Storyboard Layer 0 (Background)
//Storyboard Layer 1 (Fail)
//Storyboard Layer 2 (Pass)
//Storyboard Layer 3 (Foreground)
//Storyboard Layer 4 (Overlay)
//Storyboard Sound Samples

[TimingPoints]
524,400,4,1,0,45,1,0
524,-142.857142857143,4,1,0,45,0,0
921,400,4,1,0,45,1,8
921,-142.857142857143,4,1,0,45,0,0
2121,400,4,1,0,45,1,0
2121,-142.857142857143,4,1,0,45,0,0
3721,400,4,1,0,45,1,0
3721,-142.857142857143,4,1,0,45,0,0
4113,400,4,1,0,45,1,8
4113,-142.857142857143,4,1,0,45,0,0
5313,400,4,1,0,45,1,0
5313,-142.857142857143,4,1,0,45,0,0
6877,400,4,1,0,45,1,0
6877,-100,4,1,0,10,0,0
7277,-100,4,1,0,15,0,0
7677,-100,4,1,0,20,0,0
8077,-100,4,1,0,25,0,0
8477,-100,4,1,0,30,0,0
8877,-100,4,1,0,35,0,0
9277,-100,4,1,0,40,0,0
9677,-100,4,1,0,45,0,0
10077,-100,4,1,0,50,0,0
10477,-100,4,1,0,55,0,0
10877,-100,4,1,0,60,0,0
11277,-100,4,1,0,65,0,0
11677,-100,4,1,0,70,0,0
12077,-100,4,1,0,75,0,0
12477,-100,4,1,0,80,0,0
12877,-80,4,1,0,80,0,0
13277,-80,4,1,0,80,0,1
13377,-90.9090909090909,4,1,0,85,0,1
26077,-90.9090909090909,4,1,0,85,0,0
26177,-100,4,1,0,70,0,0
38877,-100,4,1,0,75,0,0
51677,-100,4,1,0,60,0,0
54877,-90.9090909090909,4,1,0,75,0,0
58177,-100,4,1,0,60,0,0
61277,-90.9090909090909,4,1,0,75,0,0
64577,-100,4,1,0,75,0,0
70877,-100,4,1,0,75,0,0
76677,-80,4,1,0,80,0,0
77277,-80,4,1,0,80,0,1
77477,-90.9090909090909,4,1,0,85,0,1
101277,-90.9090909090909,4,1,0,85,0,0
101377,-111.111111111111,4,1,0,70,0,0
102277,-80,4,1,0,80,0,0
102877,-80,4,1,0,80,0,1
102977,-90.9090909090909,4,1,0,85,0,1
115677,-90.9090909090909,4,1,0,85,0,0
115777,-100,4,1,0,70,0,0
122077,-100,4,1,0,75,0,0
126877,-90.9090909090909,4,1,0,75,0,0
128577,-100,4,1,0,60,0,0
131677,-90.9090909090909,4,1,0,75,0,0
134977,-100,4,1,0,60,0,0
138077,-90.9090909090909,4,1,0,75,0,0
141377,-100,4,1,0,75,0,0
152477,-86.9565217391304,4,1,0,75,0,0
153677,-80,4,1,0,80,0,0
154077,-80,4,1,0,80,0,1
154177,-90.9090909090909,4,1,0,85,0,1
178077,-90.9090909090909,4,1,0,85,0,0
179677,-90.9090909090909,4,1,0,85,0,0
179777,-111.111111111111,4,1,0,65,0,0
192577,-125,4,1,0,40,0,0
205277,-86.9565217391304,4,1,0,70,0,0
206877,-80,4,1,0,75,0,0
207677,-74.0740740740741,4,1,0,80,0,0
208477,-90.9090909090909,4,1,0,85,0,1
232477,-90.9090909090909,4,1,0,85,0,0
232577,-100,4,1,0,75,0,0
233277,-80,4,1,0,80,0,0
234077,-80,4,1,0,85,0,1
234177,-90.9090909090909,4,1,0,85,0,1
259677,400,4,1,0,45,1,0
259677,-83.3333333333333,4,1,0,85,0,0
259777,-142.857142857143,4,1,0,45,0,0
260122,379.746835443038,4,1,0,45,1,8
260122,-150.602409638554,4,1,0,45,0,0
261306,408.163265306122,4,1,0,45,1,0
261306,-140.056022408964,4,1,0,45,0,0
263326,400,4,1,0,45,1,8
263326,-142.857142857143,4,1,0,45,0,0
264526,400,4,1,0,45,1,0
264526,-142.857142857143,4,1,0,45,0,0

[HitObjects]
256,192,524,5,0,0:0:0:0:
256,192,921,1,0,0:0:0:0:
256,192,1321,1,8,0:0:0:0:
256,192,2121,1,0,0:0:0:0:
256,192,2721,1,8,0:0:0:0:
256,192,3721,1,0,0:0:0:0:
256,192,4113,1,0,0:0:0:0:
256,192,4513,1,8,0:0:0:0:
256,192,5313,1,0,0:0:0:0:
256,192,5913,1,8,0:0:0:0:
0,32,6877,6,8,B|512:32|512:32|512:352|512:352|0:352|0:352|0:160|0:160|0:32|0:32|320:32|320:32,1,1960
256,192,12877,1,0,0:0:0:0:
256,192,13077,1,8,0:0:0:0:
256,192,13277,5,4,0:0:0:0:
256,192,13477,1,8,0:0:0:0:
256,192,13577,1,8,0:0:0:0:
256,192,13677,1,8,0:0:0:0:
256,192,13877,1,8,0:0:0:0:
256,192,13977,1,8,0:0:0:0:
256,192,14077,1,0,0:0:0:0:
256,192,14277,1,0,0:0:0:0:
256,192,14377,1,0,0:0:0:0:
256,192,14477,1,8,0:0:0:0:
256,192,14677,1,8,0:0:0:0:
256,192,14777,1,8,0:0:0:0:
256,192,14877,1,0,0:0:0:0:
256,192,15077,1,0,0:0:0:0:
256,192,15177,1,0,0:0:0:0:
256,192,15277,1,8,0:0:0:0:
256,192,15477,1,8,0:0:0:0:
256,192,15577,1,8,0:0:0:0:
256,192,15677,1,0,0:0:0:0:
256,192,15877,1,0,0:0:0:0:
256,192,16077,1,8,0:0:0:0:
256,192,16177,1,8,0:0:0:0:
256,192,16277,1,8,0:0:0:0:
256,192,16377,1,8,0:0:0:0:
256,192,16477,1,4,0:0:0:0:
256,192,16877,1,8,0:0:0:0:
256,192,17077,1,8,0:0:0:0:
256,192,17177,1,8,0:0:0:0:
256,192,17277,1,0,0:0:0:0:
256,192,17477,1,0,0:0:0:0:
256,192,17577,1,0,0:0:0:0:
256,192,17677,1,8,0:0:0:0:
256,192,17877,1,8,0:0:0:0:
256,192,17977,1,8,0:0:0:0:
256,192,18077,1,0,0:0:0:0:
256,192,18277,1,0,0:0:0:0:
256,192,18377,1,0,0:0:0:0:
256,192,18477,1,8,0:0:0:0:
256,192,18677,1,8,0:0:0:0:
256,192,18777,1,8,0:0:0:0:
256,192,18877,1,8,0:0:0:0:
256,192,19077,1,0,0:0:0:0:
256,192,19277,1,8,0:0:0:0:
256,192,19377,1,8,0:0:0:0:
256,192,19477,1,8,0:0:0:0:
256,192,19577,1,8,0:0:0:0:
256,192,19677,1,4,0:0:0:0:
256,192,20077,1,8,0:0:0:0:
256,192,20277,1,8,0:0:0:0:
256,192,20377,1,8,0:0:0:0:
256,192,20477,1,0,0:0:0:0:
256,192,20677,1,0,0:0:0:0:
256,192,20777,1,0,0:0:0:0:
256,192,20877,1,8,0:0:0:0:
256,192,21077,1,8,0:0:0:0:
256,192,21177,1,8,0:0:0:0:
256,192,21277,1,0,0:0:0:0:
256,192,21477,1,0,0:0:0:0:
256,192,21577,1,0,0:0:0:0:
256,192,21677,1,8,0:0:0:0:
256,192,21877,1,8,0:0:0:0:
256,192,21977,1,8,0:0:0:0:
256,192,22077,1,8,0:0:0:0:
256,192,22277,1,0,0:0:0:0:
256,192,22477,1,8,0:0:0:0:
256,192,22577,1,8,0:0:0:0:
256,192,22677,1,8,0:0:0:0:
256,192,22777,1,8,0:0:0:0:
256,192,22877,1,4,0:0:0:0:
256,192,23277,1,8,0:0:0:0:
256,192,23377,1,8,0:0:0:0:
256,192,23477,1,0,0:0:0:0:
256,192,23577,1,0,0:0:0:0:
256,192,23677,1,8,0:0:0:0:
256,192,23877,1,0,0:0:0:0:
256,192,24077,1,8,0:0:0:0:
256,192,24177,1,8,0:0:0:0:
256,192,24277,1,8,0:0:0:0:
256,192,24377,1,8,0:0:0:0:
256,192,24477,1,4,0:0:0:0:
256,192,24677,1,8,0:0:0:0:
256,192,24777,1,8,0:0:0:0:
256,192,24877,1,0,0:0:0:0:
256,192,25077,1,8,0:0:0:0:
256,192,25277,1,0,0:0:0:0:
256,192,25377,1,0,0:0:0:0:
256,192,25477,1,0,0:0:0:0:
256,192,25677,1,8,0:0:0:0:
256,192,25777,1,8,0:0:0:0:
256,192,25877,1,8,0:0:0:0:
256,192,25977,1,8,0:0:0:0:
256,192,26077,5,4,0:0:0:0:
256,192,26477,1,8,0:0:0:0:
256,192,26677,1,0,0:0:0:0:
256,192,26777,1,0,0:0:0:0:
256,192,26877,1,8,0:0:0:0:
256,192,27077,1,0,0:0:0:0:
256,192,27277,1,8,0:0:0:0:
256,192,27477,1,8,0:0:0:0:
256,192,27877,1,8,0:0:0:0:
256,192,27977,1,8,0:0:0:0:
256,192,28077,1,8,0:0:0:0:
256,192,28277,1,0,0:0:0:0:
256,192,28377,1,0,0:0:0:0:
256,192,28477,1,8,0:0:0:0:
256,192,28677,1,0,0:0:0:0:
256,192,28877,1,8,0:0:0:0:
256,192,29077,1,8,0:0:0:0:
256,192,29477,1,8,0:0:0:0:
256,192,29677,1,8,0:0:0:0:
256,192,29877,1,0,0:0:0:0:
256,192,29977,1,0,0:0:0:0:
256,192,30077,1,8,0:0:0:0:
256,192,30277,1,0,0:0:0:0:
256,192,30477,1,8,0:0:0:0:
256,192,30677,1,0,0:0:0:0:
256,192,30877,1,8,0:0:0:0:
256,192,31077,1,8,0:0:0:0:
256,192,31277,1,0,0:0:0:0:
256,192,31477,1,8,0:0:0:0:
256,192,31877,1,0,0:0:0:0:
256,192,32077,1,8,0:0:0:0:
256,192,32277,1,0,0:0:0:0:
256,192,32677,1,8,0:0:0:0:
256,192,32877,1,8,0:0:0:0:
256,192,33077,1,8,0:0:0:0:
256,192,33177,1,8,0:0:0:0:
256,192,33277,1,0,0:0:0:0:
256,192,33477,1,8,0:0:0:0:
256,192,33677,1,0,0:0:0:0:
256,192,33877,1,0,0:0:0:0:
256,192,34077,1,8,0:0:0:0:
256,192,34477,1,8,0:0:0:0:
256,192,34677,1,8,0:0:0:0:
256,192,34877,1,0,0:0:0:0:
256,192,35277,1,8,0:0:0:0:
256,192,35677,1,0,0:0:0:0:
256,192,35877,1,8,0:0:0:0:
256,192,36077,1,8,0:0:0:0:
256,192,36277,1,8,0:0:0:0:
256,192,36377,1,8,0:0:0:0:
256,192,36477,1,0,0:0:0:0:
256,192,36677,1,8,0:0:0:0:
256,192,36877,1,0,0:0:0:0:
256,192,37077,1,0,0:0:0:0:
256,192,37277,1,8,0:0:0:0:
256,192,37677,1,8,0:0:0:0:
256,192,37877,1,8,0:0:0:0:
256,192,38077,1,0,0:0:0:0:
256,192,38277,1,0,0:0:0:0:
256,192,38477,1,8,0:0:0:0:
256,192,38577,1,8,0:0:0:0:
256,192,38677,1,8,0:0:0:0:
256,192,38777,1,8,0:0:0:0:
256,192,38877,5,4,0:0:0:0:
256,192,39077,1,8,0:0:0:0:
256,192,39277,1,0,0:0:0:0:
256,192,39477,1,0,0:0:0:0:
256,192,39577,1,0,0:0:0:0:
256,192,39677,1,8,0:0:0:0:
256,192,39877,1,0,0:0:0:0:
256,192,40077,1,8,0:0:0:0:
256,192,40177,1,8,0:0:0:0:
256,192,40277,1,8,0:0:0:0:
256,192,40477,1,0,0:0:0:0:
256,192,40677,1,8,0:0:0:0:
256,192,40877,1,0,0:0:0:0:
256,192,41077,1,0,0:0:0:0:
256,192,41177,1,0,0:0:0:0:
256,192,41277,1,8,0:0:0:0:
256,192,41477,1,0,0:0:0:0:
256,192,41677,1,8,0:0:0:0:
256,192,41777,1,8,0:0:0:0:
256,192,41877,1,8,0:0:0:0:
256,192,42077,1,0,0:0:0:0:
256,192,42277,1,8,0:0:0:0:
256,192,42477,1,8,0:0:0:0:
256,192,42677,1,8,0:0:0:0:
256,192,42777,1,8,0:0:0:0:
256,192,42877,1,0,0:0:0:0:
256,192,43077,1,0,0:0:0:0:
256,192,43277,1,8,0:0:0:0:
256,192,43377,1,8,0:0:0:0:
256,192,43477,1,0,0:0:0:0:
256,192,43677,1,8,0:0:0:0:
256,192,44077,1,8,0:0:0:0:
256,192,44277,1,8,0:0:0:0:
256,192,44477,1,0,0:0:0:0:
256,192,44677,1,8,0:0:0:0:
256,192,44877,1,0,0:0:0:0:
256,192,44977,1,0,0:0:0:0:
256,192,45077,1,8,0:0:0:0:
256,192,45277,1,0,0:0:0:0:
256,192,45477,1,8,0:0:0:0:
256,192,45677,1,0,0:0:0:0:
256,192,45877,1,0,0:0:0:0:
256,192,45977,1,0,0:0:0:0:
256,192,46077,1,8,0:0:0:0:
256,192,46277,1,0,0:0:0:0:
256,192,46477,1,8,0:0:0:0:
256,192,46577,1,8,0:0:0:0:
256,192,46677,1,0,0:0:0:0:
256,192,46877,1,0,0:0:0:0:
256,192,47277,1,8,0:0:0:0:
256,192,47477,1,8,0:0:0:0:
256,192,47677,1,0,0:0:0:0:
256,192,47877,1,8,0:0:0:0:
256,192,48077,1,0,0:0:0:0:
256,192,48177,1,0,0:0:0:0:
256,192,48277,1,8,0:0:0:0:
256,192,48477,1,0,0:0:0:0:
256,192,48677,1,8,0:0:0:0:
256,192,48877,1,8,0:0:0:0:
256,192,49077,1,8,0:0:0:0:
256,192,49177,1,8,0:0:0:0:
256,192,49277,1,0,0:0:0:0:
256,192,49477,1,0,0:0:0:0:
256,192,49677,1,8,0:0:0:0:
256,192,49777,1,8,0:0:0:0:
256,192,49877,1,0,0:0:0:0:
256,192,50077,1,8,0:0:0:0:
256,192,50477,1,8,0:0:0:0:
256,192,50677,1,0,0:0:0:0:
256,192,50877,1,8,0:0:0:0:
256,192,51077,1,8,0:0:0:0:
256,192,51277,1,0,0:0:0:0:
256,192,51377,1,0,0:0:0:0:
256,192,51477,1,8,0:0:0:0:
256,192,51577,1,8,0:0:0:0:
256,192,51677,5,4,0:0:0:0:
256,192,51977,1,0,0:0:0:0:
256,192,52077,1,8,0:0:0:0:
256,192,52277,1,0,0:0:0:0:
256,192,52477,1,8,0:0:0:0:
256,192,52877,1,0,0:0:0:0:
256,192,53277,1,12,0:0:0:0:
256,192,53477,1,0,0:0:0:0:
256,192,53677,1,0,0:0:0:0:
256,192,53877,1,8,0:0:0:0:
256,192,54277,1,0,0:0:0:0:
256,192,54477,1,8,0:0:0:0:
256,192,54877,5,12,0:0:0:0:
256,192,55277,1,0,0:0:0:0:
256,192,55377,1,8,0:0:0:0:
256,192,55577,1,8,0:0:0:0:
256,192,55677,1,0,0:0:0:0:
256,192,55877,1,0,0:0:0:0:
256,192,56077,1,8,0:0:0:0:
256,192,56177,1,8,0:0:0:0:
256,192,56277,1,8,0:0:0:0:
256,192,56477,1,0,0:0:0:0:
256,192,56577,1,0,0:0:0:0:
256,192,56677,1,8,0:0:0:0:
256,192,56877,1,0,0:0:0:0:
256,192,57077,1,8,0:0:0:0:
256,192,57177,1,0,0:0:0:0:
256,192,57277,1,8,0:0:0:0:
256,192,57477,1,8,0:0:0:0:
256,192,57677,1,0,0:0:0:0:
256,192,57777,1,0,0:0:0:0:
256,192,57877,1,8,0:0:0:0:
256,192,57977,1,8,0:0:0:0:
256,192,58077,5,4,0:0:0:0:
256,192,58377,1,0,0:0:0:0:
256,192,58577,1,0,0:0:0:0:
256,192,58677,1,8,0:0:0:0:
256,192,59077,1,8,0:0:0:0:
256,192,59277,1,0,0:0:0:0:
256,192,59477,1,8,0:0:0:0:
256,192,59677,1,4,0:0:0:0:
256,192,59977,1,8,0:0:0:0:
256,192,60277,1,0,0:0:0:0:
256,192,60477,1,8,0:0:0:0:
256,192,60677,1,8,0:0:0:0:
256,192,60877,1,0,0:0:0:0:
256,192,61277,5,12,0:0:0:0:
256,192,61677,1,0,0:0:0:0:
256,192,61777,1,8,0:0:0:0:
256,192,61977,1,8,0:0:0:0:
256,192,62077,1,0,0:0:0:0:
256,192,62277,1,0,0:0:0:0:
256,192,62477,1,8,0:0:0:0:
256,192,62577,1,8,0:0:0:0:
256,192,62677,1,8,0:0:0:0:
256,192,62877,1,0,0:0:0:0:
256,192,62977,1,0,0:0:0:0:
256,192,63077,1,8,0:0:0:0:
256,192,63277,1,0,0:0:0:0:
256,192,63477,1,8,0:0:0:0:
256,192,63577,1,0,0:0:0:0:
256,192,63677,1,8,0:0:0:0:
256,192,63877,1,8,0:0:0:0:
256,192,64077,1,0,0:0:0:0:
256,192,64177,1,0,0:0:0:0:
256,192,64277,1,8,0:0:0:0:
256,192,64377,1,8,0:0:0:0:
256,192,64477,5,4,0:0:0:0:
256,192,64677,1,8,0:0:0:0:
256,192,65077,1,8,0:0:0:0:
256,192,65277,1,0,0:0:0:0:
256,192,65477,1,0,0:0:0:0:
256,192,65577,1,0,0:0:0:0:
256,192,65677,1,8,0:0:0:0:
256,192,65877,1,0,0:0:0:0:
256,192,66077,1,8,0:0:0:0:
256,192,66477,1,8,0:0:0:0:
256,192,66677,1,0,0:0:0:0:
256,192,66877,1,8,0:0:0:0:
256,192,67077,1,8,0:0:0:0:
256,192,67177,1,8,0:0:0:0:
256,192,67277,1,0,0:0:0:0:
256,192,67477,1,0,0:0:0:0:
256,192,67677,1,8,0:0:0:0:
256,192,68077,1,8,0:0:0:0:
256,192,68277,1,0,0:0:0:0:
256,192,68477,1,8,0:0:0:0:
256,192,68777,1,8,0:0:0:0:
256,192,68877,1,0,0:0:0:0:
256,192,69077,1,8,0:0:0:0:
256,192,69277,1,0,0:0:0:0:
256,192,69677,1,0,0:0:0:0:
256,192,69977,1,8,0:0:0:0:
256,192,70077,1,0,0:0:0:0:
256,192,70377,1,0,0:0:0:0:
256,192,70477,1,8,0:0:0:0:
256,192,70677,1,8,0:0:0:0:
256,192,70877,5,0,0:0:0:0:
256,192,71277,1,0,0:0:0:0:
256,192,71477,1,8,0:0:0:0:
256,192,71677,1,0,0:0:0:0:
256,192,72077,1,8,0:0:0:0:
256,192,72477,1,0,0:0:0:0:
256,192,72877,1,0,0:0:0:0:
256,192,73077,1,8,0:0:0:0:
256,192,73277,1,0,0:0:0:0:
256,192,73477,1,0,0:0:0:0:
256,192,73677,1,8,0:0:0:0:
256,192,73877,1,0,0:0:0:0:
256,192,74077,1,12,0:0:0:0:
256,192,74277,1,4,0:0:0:0:
256,192,74677,1,12,0:0:0:0:
256,192,74877,1,4,0:0:0:0:
256,192,75277,1,12,0:0:0:0:
256,192,75477,1,4,0:0:0:0:
256,192,75677,5,8,0:0:0:0:
256,192,76677,1,8,0:0:0:0:
256,192,76877,1,0,0:0:0:0:
256,192,77077,1,8,0:0:0:0:
256,192,77277,5,4,0:0:0:0:
256,192,77677,1,8,0:0:0:0:
256,192,77777,1,8,0:0:0:0:
256,192,77877,1,8,0:0:0:0:
256,192,78077,1,0,0:0:0:0:
256,192,78277,1,8,0:0:0:0:
256,192,78377,1,8,0:0:0:0:
256,192,78477,1,0,0:0:0:0:
256,192,78677,1,8,0:0:0:0:
256,192,78877,1,0,0:0:0:0:
256,192,78977,1,0,0:0:0:0:
256,192,79077,1,8,0:0:0:0:
256,192,79177,1,8,0:0:0:0:
256,192,79277,1,0,0:0:0:0:
256,192,79477,1,8,0:0:0:0:
256,192,79677,1,0,0:0:0:0:
256,192,79877,1,8,0:0:0:0:
256,192,79977,1,8,0:0:0:0:
256,192,80077,1,0,0:0:0:0:
256,192,80277,1,8,0:0:0:0:
256,192,80477,1,0,0:0:0:0:
256,192,80677,1,8,0:0:0:0:
256,192,80777,1,8,0:0:0:0:
256,192,80877,1,8,0:0:0:0:
256,192,81077,1,0,0:0:0:0:
256,192,81277,1,0,0:0:0:0:
256,192,81377,1,0,0:0:0:0:
256,192,81477,1,8,0:0:0:0:
256,192,81677,1,8,0:0:0:0:
256,192,81877,1,0,0:0:0:0:
256,192,82077,1,8,0:0:0:0:
256,192,82177,1,8,0:0:0:0:
256,192,82277,1,0,0:0:0:0:
256,192,82377,1,0,0:0:0:0:
256,192,82477,1,8,0:0:0:0:
256,192,82677,1,0,0:0:0:0:
256,192,82777,1,0,0:0:0:0:
256,192,82877,1,8,0:0:0:0:
256,192,83077,1,8,0:0:0:0:
256,192,83177,1,8,0:0:0:0:
256,192,83277,1,0,0:0:0:0:
256,192,83477,1,8,0:0:0:0:
256,192,83677,1,0,0:0:0:0:
256,192,84077,1,8,0:0:0:0:
256,192,84277,1,0,0:0:0:0:
256,192,84477,1,8,0:0:0:0:
256,192,84677,1,8,0:0:0:0:
256,192,84777,1,8,0:0:0:0:
256,192,84877,1,0,0:0:0:0:
256,192,85077,1,8,0:0:0:0:
256,192,85277,1,8,0:0:0:0:
256,192,85377,1,8,0:0:0:0:
256,192,85477,1,0,0:0:0:0:
256,192,85577,1,0,0:0:0:0:
256,192,85677,1,8,0:0:0:0:
256,192,85877,1,0,0:0:0:0:
256,192,86077,1,8,0:0:0:0:
256,192,86177,1,8,0:0:0:0:
256,192,86277,1,0,0:0:0:0:
256,192,86477,1,0,0:0:0:0:
256,192,86677,1,8,0:0:0:0:
256,192,86877,1,0,0:0:0:0:
256,192,86977,1,0,0:0:0:0:
256,192,87077,1,8,0:0:0:0:
256,192,87277,1,8,0:0:0:0:
256,192,87477,1,0,0:0:0:0:
256,192,87677,1,8,0:0:0:0:
256,192,87777,1,8,0:0:0:0:
256,192,87877,1,0,0:0:0:0:
256,192,88077,1,0,0:0:0:0:
256,192,88277,1,8,0:0:0:0:
256,192,88477,1,8,0:0:0:0:
256,192,88577,1,8,0:0:0:0:
256,192,88677,1,0,0:0:0:0:
256,192,88877,1,0,0:0:0:0:
256,192,89077,1,8,0:0:0:0:
256,192,89277,1,8,0:0:0:0:
256,192,89377,1,8,0:0:0:0:
256,192,89477,1,0,0:0:0:0:
256,192,89677,1,0,0:0:0:0:
256,192,89777,1,0,0:0:0:0:
256,192,89877,1,8,0:0:0:0:
256,192,89977,1,8,0:0:0:0:
256,192,90077,1,4,0:0:0:0:
256,192,90477,1,8,0:0:0:0:
256,192,90577,1,8,0:0:0:0:
256,192,90677,1,8,0:0:0:0:
256,192,90877,1,0,0:0:0:0:
256,192,91077,1,8,0:0:0:0:
256,192,91177,1,8,0:0:0:0:
256,192,91277,1,0,0:0:0:0:
256,192,91477,1,8,0:0:0:0:
256,192,91677,1,0,0:0:0:0:
256,192,91777,1,0,0:0:0:0:
256,192,91877,1,8,0:0:0:0:
256,192,91977,1,8,0:0:0:0:
256,192,92077,1,0,0:0:0:0:
256,192,92277,1,8,0:0:0:0:
256,192,92477,1,0,0:0:0:0:
256,192,92677,1,8,0:0:0:0:
256,192,92777,1,8,0:0:0:0:
256,192,92877,1,0,0:0:0:0:
256,192,93077,1,8,0:0:0:0:
256,192,93277,1,0,0:0:0:0:
256,192,93477,1,8,0:0:0:0:
256,192,93577,1,8,0:0:0:0:
256,192,93677,1,8,0:0:0:0:
256,192,93877,1,0,0:0:0:0:
256,192,94077,1,0,0:0:0:0:
256,192,94177,1,0,0:0:0:0:
256,192,94277,1,0,0:0:0:0:
256,192,94477,1,8,0:0:0:0:
256,192,94677,1,0,0:0:0:0:
256,192,94877,1,8,0:0:0:0:
256,192,94977,1,8,0:0:0:0:
256,192,95077,1,0,0:0:0:0:
256,192,95177,1,0,0:0:0:0:
256,192,95277,1,8,0:0:0:0:
256,192,95477,1,0,0:0:0:0:
256,192,95577,1,0,0:0:0:0:
256,192,95677,1,8,0:0:0:0:
256,192,95877,1,8,0:0:0:0:
256,192,95977,1,8,0:0:0:0:
256,192,96077,1,0,0:0:0:0:
256,192,96277,1,0,0:0:0:0:
256,192,96477,1,8,0:0:0:0:
256,192,96877,1,8,0:0:0:0:
256,192,97077,1,0,0:0:0:0:
256,192,97277,1,8,0:0:0:0:
256,192,97477,1,8,0:0:0:0:
256,192,97577,1,8,0:0:0:0:
256,192,97677,1,0,0:0:0:0:
256,192,97877,1,8,0:0:0:0:
256,192,98077,1,8,0:0:0:0:
256,192,98177,1,8,0:0:0:0:
256,192,98277,1,0,0:0:0:0:
256,192,98377,1,0,0:0:0:0:
256,192,98477,1,8,0:0:0:0:
256,192,98677,1,0,0:0:0:0:
256,192,98877,1,8,0:0:0:0:
256,192,98977,1,8,0:0:0:0:
256,192,99077,1,0,0:0:0:0:
256,192,99277,1,0,0:0:0:0:
256,192,99477,1,8,0:0:0:0:
256,192,99677,1,0,0:0:0:0:
256,192,99777,1,0,0:0:0:0:
256,192,99877,1,8,0:0:0:0:
256,192,100077,1,8,0:0:0:0:
256,192,100277,1,0,0:0:0:0:
256,192,100477,1,8,0:0:0:0:
256,192,100577,1,8,0:0:0:0:
256,192,100677,1,0,0:0:0:0:
256,192,100877,1,0,0:0:0:0:
256,192,100977,1,0,0:0:0:0:
256,192,101077,1,8,0:0:0:0:
256,192,101277,1,0,0:0:0:0:
256,192,102277,1,8,0:0:0:0:
256,192,102477,1,0,0:0:0:0:
256,192,102577,1,0,0:0:0:0:
256,192,102677,1,8,0:0:0:0:
256,192,102877,5,4,0:0:0:0:
256,192,103077,1,8,0:0:0:0:
256,192,103177,1,8,0:0:0:0:
256,192,103277,1,8,0:0:0:0:
256,192,103477,1,8,0:0:0:0:
256,192,103577,1,8,0:0:0:0:
256,192,103677,1,0,0:0:0:0:
256,192,103877,1,0,0:0:0:0:
256,192,103977,1,0,0:0:0:0:
256,192,104077,1,8,0:0:0:0:
256,192,104277,1,8,0:0:0:0:
256,192,104377,1,8,0:0:0:0:
256,192,104477,1,0,0:0:0:0:
256,192,104677,1,0,0:0:0:0:
256,192,104777,1,0,0:0:0:0:
256,192,104877,1,8,0:0:0:0:
256,192,105077,1,8,0:0:0:0:
256,192,105177,1,8,0:0:0:0:
256,192,105277,1,8,0:0:0:0:
256,192,105477,1,0,0:0:0:0:
256,192,105677,1,8,0:0:0:0:
256,192,105777,1,8,0:0:0:0:
256,192,105877,1,8,0:0:0:0:
256,192,105977,1,8,0:0:0:0:
256,192,106077,1,4,0:0:0:0:
256,192,106477,1,8,0:0:0:0:
256,192,106677,1,8,0:0:0:0:
256,192,106777,1,8,0:0:0:0:
256,192,106877,1,0,0:0:0:0:
256,192,107077,1,0,0:0:0:0:
256,192,107177,1,0,0:0:0:0:
256,192,107277,1,8,0:0:0:0:
256,192,107477,1,8,0:0:0:0:
256,192,107577,1,8,0:0:0:0:
256,192,107677,1,0,0:0:0:0:
256,192,107877,1,0,0:0:0:0:
256,192,107977,1,0,0:0:0:0:
256,192,108077,1,8,0:0:0:0:
256,192,108277,1,8,0:0:0:0:
256,192,108377,1,8,0:0:0:0:
256,192,108477,1,0,0:0:0:0:
256,192,108677,1,0,0:0:0:0:
256,192,108877,1,8,0:0:0:0:
256,192,108977,1,8,0:0:0:0:
256,192,109077,1,8,0:0:0:0:
256,192,109177,1,8,0:0:0:0:
256,192,109277,1,4,0:0:0:0:
256,192,109677,1,8,0:0:0:0:
256,192,109877,1,8,0:0:0:0:
256,192,109977,1,8,0:0:0:0:
256,192,110077,1,0,0:0:0:0:
256,192,110277,1,0,0:0:0:0:
256,192,110377,1,0,0:0:0:0:
256,192,110477,1,8,0:0:0:0:
256,192,110677,1,8,0:0:0:0:
256,192,110777,1,8,0:0:0:0:
256,192,110877,1,0,0:0:0:0:
256,192,111077,1,0,0:0:0:0:
256,192,111177,1,0,0:0:0:0:
256,192,111277,1,8,0:0:0:0:
256,192,111477,1,8,0:0:0:0:
256,192,111577,1,8,0:0:0:0:
256,192,111677,1,8,0:0:0:0:
256,192,111877,1,0,0:0:0:0:
256,192,112077,1,8,0:0:0:0:
256,192,112177,1,8,0:0:0:0:
256,192,112277,1,8,0:0:0:0:
256,192,112377,1,8,0:0:0:0:
256,192,112477,1,4,0:0:0:0:
256,192,112877,1,8,0:0:0:0:
256,192,112977,1,8,0:0:0:0:
256,192,113077,1,0,0:0:0:0:
256,192,113177,1,0,0:0:0:0:
256,192,113277,1,8,0:0:0:0:
256,192,113477,1,0,0:0:0:0:
256,192,113677,1,8,0:0:0:0:
256,192,113777,1,8,0:0:0:0:
256,192,113877,1,8,0:0:0:0:
256,192,113977,1,8,0:0:0:0:
256,192,114077,1,4,0:0:0:0:
256,192,114277,1,8,0:0:0:0:
256,192,114377,1,8,0:0:0:0:
256,192,114477,1,0,0:0:0:0:
256,192,114677,1,8,0:0:0:0:
256,192,114877,1,0,0:0:0:0:
256,192,114977,1,0,0:0:0:0:
256,192,115077,1,0,0:0:0:0:
256,192,115277,1,8,0:0:0:0:
256,192,115377,1,8,0:0:0:0:
256,192,115477,1,8,0:0:0:0:
256,192,115577,1,8,0:0:0:0:
256,192,115677,5,4,0:0:0:0:
256,192,116077,1,8,0:0:0:0:
256,192,116277,1,0,0:0:0:0:
256,192,116377,1,0,0:0:0:0:
256,192,116477,1,8,0:0:0:0:
256,192,116677,1,0,0:0:0:0:
256,192,116877,1,8,0:0:0:0:
256,192,117077,1,8,0:0:0:0:
256,192,117477,1,8,0:0:0:0:
256,192,117677,1,0,0:0:0:0:
256,192,117877,1,8,0:0:0:0:
256,192,117977,1,8,0:0:0:0:
256,192,118077,1,0,0:0:0:0:
256,192,118277,1,0,0:0:0:0:
256,192,118477,1,8,0:0:0:0:
256,192,118677,1,8,0:0:0:0:
256,192,119077,1,8,0:0:0:0:
256,192,119277,1,8,0:0:0:0:
256,192,119477,1,0,0:0:0:0:
256,192,119577,1,0,0:0:0:0:
256,192,119677,1,8,0:0:0:0:
256,192,119877,1,0,0:0:0:0:
256,192,120077,1,8,0:0:0:0:
256,192,120277,1,8,0:0:0:0:
256,192,120477,1,0,0:0:0:0:
256,192,120877,1,8,0:0:0:0:
256,192,121077,1,0,0:0:0:0:
256,192,121177,1,8,0:0:0:0:
256,192,121277,1,0,0:0:0:0:
256,192,121477,1,8,0:0:0:0:
256,192,121677,1,8,0:0:0:0:
256,192,121777,1,8,0:0:0:0:
256,192,121877,1,0,0:0:0:0:
256,192,121977,1,0,0:0:0:0:
256,192,122077,1,8,0:0:0:0:
256,192,122277,1,0,0:0:0:0:
256,192,122477,1,8,0:0:0:0:
256,192,122677,1,8,0:0:0:0:
256,192,122777,1,8,0:0:0:0:
256,192,122877,1,0,0:0:0:0:
256,192,123077,1,8,0:0:0:0:
256,192,123277,1,0,0:0:0:0:
256,192,123377,1,0,0:0:0:0:
256,192,123477,1,8,0:0:0:0:
256,192,123677,1,0,0:0:0:0:
256,192,123877,1,0,0:0:0:0:
256,192,124077,1,8,0:0:0:0:
256,192,124277,1,8,0:0:0:0:
256,192,124377,1,8,0:0:0:0:
256,192,124477,1,0,0:0:0:0:
256,192,124677,1,0,0:0:0:0:
256,192,124877,1,8,0:0:0:0:
256,192,125277,5,0,0:0:0:0:
256,192,126877,1,12,0:0:0:0:
256,192,127077,1,0,0:0:0:0:
256,192,127177,1,0,0:0:0:0:
256,192,127277,1,8,0:0:0:0:
256,192,127377,1,8,0:0:0:0:
256,192,127477,1,4,0:0:0:0:
256,192,127677,1,8,0:0:0:0:
256,192,127777,1,8,0:0:0:0:
256,192,127877,1,0,0:0:0:0:
256,192,128077,1,8,0:0:0:0:
256,192,128177,1,8,0:0:0:0:
256,192,128277,1,0,0:0:0:0:
256,192,128377,1,0,0:0:0:0:
256,192,128477,5,12,0:0:0:0:
256,192,128777,1,8,0:0:0:0:
256,192,128877,1,0,0:0:0:0:
256,192,129077,1,0,0:0:0:0:
256,192,129277,1,8,0:0:0:0:
256,192,129677,1,8,0:0:0:0:
256,192,129877,1,0,0:0:0:0:
256,192,130077,1,12,0:0:0:0:
256,192,130277,1,0,0:0:0:0:
256,192,130477,1,8,0:0:0:0:
256,192,130677,1,8,0:0:0:0:
256,192,130877,1,0,0:0:0:0:
256,192,130977,1,8,0:0:0:0:
256,192,131277,1,8,0:0:0:0:
256,192,131677,5,12,0:0:0:0:
256,192,132077,1,8,0:0:0:0:
256,192,132177,1,8,0:0:0:0:
256,192,132277,1,0,0:0:0:0:
256,192,132477,1,8,0:0:0:0:
256,192,132577,1,0,0:0:0:0:
256,192,132677,1,8,0:0:0:0:
256,192,132877,1,0,0:0:0:0:
256,192,133077,1,8,0:0:0:0:
256,192,133177,1,8,0:0:0:0:
256,192,133277,1,0,0:0:0:0:
256,192,133477,1,0,0:0:0:0:
256,192,133577,1,8,0:0:0:0:
256,192,133677,1,0,0:0:0:0:
256,192,133877,1,8,0:0:0:0:
256,192,134077,1,0,0:0:0:0:
256,192,134277,1,0,0:0:0:0:
256,192,134377,1,0,0:0:0:0:
256,192,134477,1,8,0:0:0:0:
256,192,134677,1,8,0:0:0:0:
256,192,134877,5,4,0:0:0:0:
256,192,135177,1,8,0:0:0:0:
256,192,135277,1,0,0:0:0:0:
256,192,135477,1,8,0:0:0:0:
256,192,135877,1,8,0:0:0:0:
256,192,136077,1,0,0:0:0:0:
256,192,136277,1,8,0:0:0:0:
256,192,136477,1,12,0:0:0:0:
256,192,136877,1,8,0:0:0:0:
256,192,137077,1,0,0:0:0:0:
256,192,137277,1,8,0:0:0:0:
256,192,137477,1,8,0:0:0:0:
256,192,137677,1,0,0:0:0:0:
256,192,138077,5,12,0:0:0:0:
256,192,138477,1,8,0:0:0:0:
256,192,138577,1,8,0:0:0:0:
256,192,138677,1,8,0:0:0:0:
256,192,138877,1,0,0:0:0:0:
256,192,139077,1,8,0:0:0:0:
256,192,139177,1,8,0:0:0:0:
256,192,139277,1,0,0:0:0:0:
256,192,139477,1,0,0:0:0:0:
256,192,139577,1,0,0:0:0:0:
256,192,139677,1,8,0:0:0:0:
256,192,139877,1,0,0:0:0:0:
256,192,139977,1,8,0:0:0:0:
256,192,140077,1,0,0:0:0:0:
256,192,140277,1,8,0:0:0:0:
256,192,140477,1,0,0:0:0:0:
256,192,140677,1,0,0:0:0:0:
256,192,140777,1,0,0:0:0:0:
256,192,140877,1,8,0:0:0:0:
256,192,141077,1,8,0:0:0:0:
256,192,141277,5,4,0:0:0:0:
256,192,141477,1,8,0:0:0:0:
256,192,141877,1,8,0:0:0:0:
256,192,142077,1,0,0:0:0:0:
256,192,142277,1,0,0:0:0:0:
256,192,142377,1,0,0:0:0:0:
256,192,142477,1,8,0:0:0:0:
256,192,142677,1,8,0:0:0:0:
256,192,142877,1,0,0:0:0:0:
256,192,143277,1,8,0:0:0:0:
256,192,143477,1,0,0:0:0:0:
256,192,143677,1,8,0:0:0:0:
256,192,143877,1,8,0:0:0:0:
256,192,143977,1,8,0:0:0:0:
256,192,144077,1,0,0:0:0:0:
256,192,144277,1,8,0:0:0:0:
256,192,144477,1,0,0:0:0:0:
256,192,144877,1,8,0:0:0:0:
256,192,145177,1,0,0:0:0:0:
256,192,145277,1,8,0:0:0:0:
256,192,145577,1,8,0:0:0:0:
256,192,145677,1,0,0:0:0:0:
256,192,145877,1,8,0:0:0:0:
256,192,146077,1,0,0:0:0:0:
256,192,146477,1,8,0:0:0:0:
256,192,146777,1,8,0:0:0:0:
256,192,146877,1,0,0:0:0:0:
256,192,147177,1,0,0:0:0:0:
256,192,147277,1,8,0:0:0:0:
256,192,147477,1,8,0:0:0:0:
256,192,147677,5,0,0:0:0:0:
256,192,148077,1,0,0:0:0:0:
256,192,148277,1,8,0:0:0:0:
256,192,148477,1,0,0:0:0:0:
256,192,148877,1,8,0:0:0:0:
256,192,149277,1,0,0:0:0:0:
256,192,149677,1,0,0:0:0:0:
256,192,149877,1,8,0:0:0:0:
256,192,150077,1,0,0:0:0:0:
256,192,150277,1,0,0:0:0:0:
256,192,150477,1,8,0:0:0:0:
256,192,150677,1,0,0:0:0:0:
256,192,150877,1,12,0:0:0:0:
256,192,151077,1,4,0:0:0:0:
256,192,151477,1,12,0:0:0:0:
256,192,151677,1,4,0:0:0:0:
256,192,152077,1,12,0:0:0:0:
256,192,152277,1,4,0:0:0:0:
256,192,152477,5,8,0:0:0:0:
256,192,152877,1,0,0:0:0:0:
256,192,153277,1,8,0:0:0:0:
256,192,153477,1,0,0:0:0:0:
256,192,153677,1,8,0:0:0:0:
256,192,153777,1,8,0:0:0:0:
256,192,153877,1,8,0:0:0:0:
256,192,153977,1,8,0:0:0:0:
256,192,154077,5,4,0:0:0:0:
256,192,154477,1,8,0:0:0:0:
256,192,154577,1,8,0:0:0:0:
256,192,154677,1,8,0:0:0:0:
256,192,154877,1,0,0:0:0:0:
256,192,155077,1,8,0:0:0:0:
256,192,155177,1,8,0:0:0:0:
256,192,155277,1,0,0:0:0:0:
256,192,155477,1,8,0:0:0:0:
256,192,155677,1,0,0:0:0:0:
256,192,155777,1,0,0:0:0:0:
256,192,155877,1,8,0:0:0:0:
256,192,155977,1,8,0:0:0:0:
256,192,156077,1,0,0:0:0:0:
256,192,156277,1,8,0:0:0:0:
256,192,156477,1,0,0:0:0:0:
256,192,156677,1,8,0:0:0:0:
256,192,156777,1,8,0:0:0:0:
256,192,156877,1,0,0:0:0:0:
256,192,157077,1,8,0:0:0:0:
256,192,157277,1,0,0:0:0:0:
256,192,157477,1,8,0:0:0:0:
256,192,157577,1,8,0:0:0:0:
256,192,157677,1,8,0:0:0:0:
256,192,157877,1,0,0:0:0:0:
256,192,158077,1,0,0:0:0:0:
256,192,158177,1,0,0:0:0:0:
256,192,158277,1,8,0:0:0:0:
256,192,158477,1,8,0:0:0:0:
256,192,158677,1,0,0:0:0:0:
256,192,158877,1,8,0:0:0:0:
256,192,158977,1,8,0:0:0:0:
256,192,159077,1,0,0:0:0:0:
256,192,159177,1,0,0:0:0:0:
256,192,159277,1,8,0:0:0:0:
256,192,159477,1,0,0:0:0:0:
256,192,159577,1,0,0:0:0:0:
256,192,159677,1,8,0:0:0:0:
256,192,159877,1,8,0:0:0:0:
256,192,159977,1,8,0:0:0:0:
256,192,160077,1,0,0:0:0:0:
256,192,160277,1,8,0:0:0:0:
256,192,160477,1,0,0:0:0:0:
256,192,160877,1,8,0:0:0:0:
256,192,161077,1,0,0:0:0:0:
256,192,161277,1,8,0:0:0:0:
256,192,161477,1,8,0:0:0:0:
256,192,161577,1,8,0:0:0:0:
256,192,161677,1,0,0:0:0:0:
256,192,161877,1,8,0:0:0:0:
256,192,162077,1,8,0:0:0:0:
256,192,162177,1,8,0:0:0:0:
256,192,162277,1,0,0:0:0:0:
256,192,162377,1,0,0:0:0:0:
256,192,162477,1,8,0:0:0:0:
256,192,162677,1,0,0:0:0:0:
256,192,162877,1,8,0:0:0:0:
256,192,162977,1,8,0:0:0:0:
256,192,163077,1,0,0:0:0:0:
256,192,163277,1,0,0:0:0:0:
256,192,163477,1,8,0:0:0:0:
256,192,163677,1,0,0:0:0:0:
256,192,163777,1,0,0:0:0:0:
256,192,163877,1,8,0:0:0:0:
256,192,164077,1,8,0:0:0:0:
256,192,164277,1,0,0:0:0:0:
256,192,164477,1,8,0:0:0:0:
256,192,164577,1,8,0:0:0:0:
256,192,164677,1,0,0:0:0:0:
256,192,164877,1,0,0:0:0:0:
256,192,165077,1,8,0:0:0:0:
256,192,165277,1,8,0:0:0:0:
256,192,165377,1,8,0:0:0:0:
256,192,165477,1,0,0:0:0:0:
256,192,165677,1,0,0:0:0:0:
256,192,165877,1,8,0:0:0:0:
256,192,166077,1,8,0:0:0:0:
256,192,166177,1,8,0:0:0:0:
256,192,166277,1,0,0:0:0:0:
256,192,166477,1,0,0:0:0:0:
256,192,166577,1,0,0:0:0:0:
256,192,166677,1,8,0:0:0:0:
256,192,166777,1,8,0:0:0:0:
256,192,166877,1,4,0:0:0:0:
256,192,167277,1,8,0:0:0:0:
256,192,167377,1,8,0:0:0:0:
256,192,167477,1,8,0:0:0:0:
256,192,167677,1,0,0:0:0:0:
256,192,167877,1,8,0:0:0:0:
256,192,167977,1,8,0:0:0:0:
256,192,168077,1,0,0:0:0:0:
256,192,168277,1,8,0:0:0:0:
256,192,168477,1,0,0:0:0:0:
256,192,168577,1,0,0:0:0:0:
256,192,168677,1,8,0:0:0:0:
256,192,168777,1,8,0:0:0:0:
256,192,168877,1,0,0:0:0:0:
256,192,169077,1,8,0:0:0:0:
256,192,169277,1,0,0:0:0:0:
256,192,169477,1,8,0:0:0:0:
256,192,169577,1,8,0:0:0:0:
256,192,169677,1,0,0:0:0:0:
256,192,169877,1,8,0:0:0:0:
256,192,170077,1,0,0:0:0:0:
256,192,170277,1,8,0:0:0:0:
256,192,170377,1,8,0:0:0:0:
256,192,170477,1,8,0:0:0:0:
256,192,170677,1,0,0:0:0:0:
256,192,170877,1,0,0:0:0:0:
256,192,170977,1,0,0:0:0:0:
256,192,171077,1,8,0:0:0:0:
256,192,171277,1,8,0:0:0:0:
256,192,171477,1,0,0:0:0:0:
256,192,171677,1,8,0:0:0:0:
256,192,171777,1,8,0:0:0:0:
256,192,171877,1,0,0:0:0:0:
256,192,171977,1,0,0:0:0:0:
256,192,172077,1,8,0:0:0:0:
256,192,172277,1,0,0:0:0:0:
256,192,172377,1,0,0:0:0:0:
256,192,172477,1,8,0:0:0:0:
256,192,172677,1,8,0:0:0:0:
256,192,172777,1,8,0:0:0:0:
256,192,172877,1,0,0:0:0:0:
256,192,173077,1,0,0:0:0:0:
256,192,173277,1,8,0:0:0:0:
256,192,173677,1,8,0:0:0:0:
256,192,173877,1,0,0:0:0:0:
256,192,174077,1,8,0:0:0:0:
256,192,174277,1,8,0:0:0:0:
256,192,174377,1,8,0:0:0:0:
256,192,174477,1,0,0:0:0:0:
256,192,174677,1,8,0:0:0:0:
256,192,174877,1,8,0:0:0:0:
256,192,174977,1,8,0:0:0:0:
256,192,175077,1,0,0:0:0:0:
256,192,175177,1,0,0:0:0:0:
256,192,175277,1,8,0:0:0:0:
256,192,175477,1,0,0:0:0:0:
256,192,175677,1,8,0:0:0:0:
256,192,175777,1,8,0:0:0:0:
256,192,175877,1,0,0:0:0:0:
256,192,176077,1,0,0:0:0:0:
256,192,176277,1,8,0:0:0:0:
256,192,176477,1,0,0:0:0:0:
256,192,176577,1,0,0:0:0:0:
256,192,176677,1,8,0:0:0:0:
256,192,176877,1,8,0:0:0:0:
256,192,177077,1,0,0:0:0:0:
256,192,177277,1,8,0:0:0:0:
256,192,177377,1,8,0:0:0:0:
256,192,177477,1,0,0:0:0:0:
256,192,177677,1,0,0:0:0:0:
256,192,177777,1,0,0:0:0:0:
256,192,177877,1,8,0:0:0:0:
256,192,178077,1,0,0:0:0:0:
256,192,179077,1,8,0:0:0:0:
256,192,179277,1,0,0:0:0:0:
256,192,179377,1,0,0:0:0:0:
256,192,179477,1,8,0:0:0:0:
256,192,179677,5,4,0:0:0:0:
256,192,180077,1,8,0:0:0:0:
256,192,180477,1,0,0:0:0:0:
256,192,180677,1,8,0:0:0:0:
256,192,181077,1,8,0:0:0:0:
256,192,181277,1,0,0:0:0:0:
256,192,181577,1,0,0:0:0:0:
256,192,181677,1,8,0:0:0:0:
256,192,181877,1,0,0:0:0:0:
256,192,182277,1,8,0:0:0:0:
256,192,182477,1,8,0:0:0:0:
256,192,182677,1,0,0:0:0:0:
256,192,182877,1,8,0:0:0:0:
256,192,183277,1,0,0:0:0:0:
256,192,183677,1,8,0:0:0:0:
256,192,183977,1,0,0:0:0:0:
256,192,184077,1,8,0:0:0:0:
256,192,184477,1,0,0:0:0:0:
256,192,184677,5,0,0:0:0:0:
256,192,184877,1,8,0:0:0:0:
256,192,185077,1,0,0:0:0:0:
256,192,185277,1,8,0:0:0:0:
256,192,185677,1,0,0:0:0:0:
256,192,186077,1,8,0:0:0:0:
256,192,186277,1,0,0:0:0:0:
256,192,186477,1,8,0:0:0:0:
256,192,186677,1,0,0:0:0:0:
256,192,187077,1,0,0:0:0:0:
256,192,187277,1,8,0:0:0:0:
256,192,187477,1,8,0:0:0:0:
256,192,187677,1,0,0:0:0:0:
256,192,188077,1,0,0:0:0:0:
256,192,188477,1,8,0:0:0:0:
256,192,188677,1,0,0:0:0:0:
256,192,188877,1,8,0:0:0:0:
256,192,189077,1,8,0:0:0:0:
256,192,189277,1,0,0:0:0:0:
256,192,189477,1,8,0:0:0:0:
256,192,189677,1,0,0:0:0:0:
256,192,190077,1,8,0:0:0:0:
256,192,190277,1,0,0:0:0:0:
256,192,190677,1,8,0:0:0:0:
256,192,190777,1,8,0:0:0:0:
256,192,190877,1,0,0:0:0:0:
256,192,191177,1,8,0:0:0:0:
256,192,191277,1,0,0:0:0:0:
256,192,191477,1,8,0:0:0:0:
256,192,191677,1,0,0:0:0:0:
256,192,191877,1,8,0:0:0:0:
256,192,192077,1,8,0:0:0:0:
256,192,192277,1,0,0:0:0:0:
256,192,192477,5,8,0:0:0:0:
256,192,192877,1,8,0:0:0:0:
256,192,193277,1,0,0:0:0:0:
256,192,193477,1,8,0:0:0:0:
256,192,193877,1,8,0:0:0:0:
256,192,194077,1,0,0:0:0:0:
256,192,194377,1,0,0:0:0:0:
256,192,194477,1,8,0:0:0:0:
256,192,194677,1,0,0:0:0:0:
256,192,195077,1,8,0:0:0:0:
256,192,195277,1,8,0:0:0:0:
256,192,195477,1,0,0:0:0:0:
256,192,195677,1,8,0:0:0:0:
256,192,196477,1,8,0:0:0:0:
256,192,196877,1,0,0:0:0:0:
256,192,197077,1,8,0:0:0:0:
256,192,197277,1,0,0:0:0:0:
256,192,197677,1,8,0:0:0:0:
256,192,197877,1,0,0:0:0:0:
256,192,198877,1,8,0:0:0:0:
256,192,199277,1,8,0:0:0:0:
256,192,199477,1,0,0:0:0:0:
256,192,199677,1,8,0:0:0:0:
256,192,200077,1,8,0:0:0:0:
256,192,200277,1,0,0:0:0:0:
256,192,200477,1,8,0:0:0:0:
256,192,201477,1,0,0:0:0:0:
256,192,201877,1,0,0:0:0:0:
256,192,202077,1,8,0:0:0:0:
256,192,202477,1,8,0:0:0:0:
256,192,202677,1,8,0:0:0:0:
256,192,202877,1,0,0:0:0:0:
256,192,203277,1,8,0:0:0:0:
256,192,203477,1,0,0:0:0:0:
256,192,203677,1,8,0:0:0:0:
256,192,204077,1,0,0:0:0:0:
256,192,204277,1,8,0:0:0:0:
256,192,204477,1,8,0:0:0:0:
256,192,204677,1,0,0:0:0:0:
256,192,204877,1,0,0:0:0:0:
256,192,205077,1,8,0:0:0:0:
256,192,205277,5,4,0:0:0:0:
256,192,205877,1,4,0:0:0:0:
256,192,206477,1,4,0:0:0:0:
256,192,206877,1,12,0:0:0:0:
256,192,207277,1,4,0:0:0:0:
256,192,207677,1,8,0:0:0:0:
256,192,207777,1,8,0:0:0:0:
256,192,207877,1,8,0:0:0:0:
256,192,207977,1,8,0:0:0:0:
256,192,208077,1,8,0:0:0:0:
256,192,208477,5,4,0:0:0:0:
256,192,208877,1,8,0:0:0:0:
256,192,208977,1,8,0:0:0:0:
256,192,209077,1,8,0:0:0:0:
256,192,209277,1,0,0:0:0:0:
256,192,209477,1,8,0:0:0:0:
256,192,209577,1,8,0:0:0:0:
256,192,209677,1,0,0:0:0:0:
256,192,209877,1,8,0:0:0:0:
256,192,210077,1,0,0:0:0:0:
256,192,210177,1,0,0:0:0:0:
256,192,210277,1,8,0:0:0:0:
256,192,210377,1,8,0:0:0:0:
256,192,210477,1,0,0:0:0:0:
256,192,210677,1,8,0:0:0:0:
256,192,210877,1,0,0:0:0:0:
256,192,211077,1,8,0:0:0:0:
256,192,211177,1,8,0:0:0:0:
256,192,211277,1,0,0:0:0:0:
256,192,211477,1,8,0:0:0:0:
256,192,211677,1,0,0:0:0:0:
256,192,211877,1,8,0:0:0:0:
256,192,211977,1,8,0:0:0:0:
256,192,212077,1,8,0:0:0:0:
256,192,212277,1,0,0:0:0:0:
256,192,212477,1,0,0:0:0:0:
256,192,212577,1,0,0:0:0:0:
256,192,212677,1,8,0:0:0:0:
256,192,212877,1,8,0:0:0:0:
256,192,213077,1,0,0:0:0:0:
256,192,213277,1,8,0:0:0:0:
256,192,213377,1,8,0:0:0:0:
256,192,213477,1,0,0:0:0:0:
256,192,213577,1,0,0:0:0:0:
256,192,213677,1,8,0:0:0:0:
256,192,213877,1,0,0:0:0:0:
256,192,213977,1,0,0:0:0:0:
256,192,214077,1,8,0:0:0:0:
256,192,214277,1,8,0:0:0:0:
256,192,214377,1,8,0:0:0:0:
256,192,214477,1,0,0:0:0:0:
256,192,214677,1,8,0:0:0:0:
256,192,214877,1,0,0:0:0:0:
256,192,215277,1,8,0:0:0:0:
256,192,215477,1,0,0:0:0:0:
256,192,215677,1,8,0:0:0:0:
256,192,215877,1,8,0:0:0:0:
256,192,215977,1,8,0:0:0:0:
256,192,216077,1,0,0:0:0:0:
256,192,216277,1,8,0:0:0:0:
256,192,216477,1,8,0:0:0:0:
256,192,216577,1,8,0:0:0:0:
256,192,216677,1,0,0:0:0:0:
256,192,216777,1,0,0:0:0:0:
256,192,216877,1,8,0:0:0:0:
256,192,217077,1,0,0:0:0:0:
256,192,217277,1,8,0:0:0:0:
256,192,217377,1,8,0:0:0:0:
256,192,217477,1,0,0:0:0:0:
256,192,217677,1,0,0:0:0:0:
256,192,217877,1,8,0:0:0:0:
256,192,218077,1,0,0:0:0:0:
256,192,218177,1,0,0:0:0:0:
256,192,218277,1,8,0:0:0:0:
256,192,218477,1,8,0:0:0:0:
256,192,218677,1,0,0:0:0:0:
256,192,218877,1,8,0:0:0:0:
256,192,218977,1,8,0:0:0:0:
256,192,219077,1,0,0:0:0:0:
256,192,219277,1,0,0:0:0:0:
256,192,219477,1,8,0:0:0:0:
256,192,219677,1,8,0:0:0:0:
256,192,219777,1,8,0:0:0:0:
256,192,219877,1,0,0:0:0:0:
256,192,220077,1,0,0:0:0:0:
256,192,220277,1,8,0:0:0:0:
256,192,220477,1,8,0:0:0:0:
256,192,220577,1,8,0:0:0:0:
256,192,220677,1,0,0:0:0:0:
256,192,220877,1,0,0:0:0:0:
256,192,220977,1,0,0:0:0:0:
256,192,221077,1,8,0:0:0:0:
256,192,221177,1,8,0:0:0:0:
256,192,221277,1,4,0:0:0:0:
256,192,221677,1,8,0:0:0:0:
256,192,221777,1,0,0:0:0:0:
256,192,221877,1,8,0:0:0:0:
256,192,222077,1,0,0:0:0:0:
256,192,222277,1,0,0:0:0:0:
256,192,222377,1,0,0:0:0:0:
256,192,222477,1,8,0:0:0:0:
256,192,222677,1,8,0:0:0:0:
256,192,222877,1,0,0:0:0:0:
256,192,222977,1,0,0:0:0:0:
256,192,223077,1,8,0:0:0:0:
256,192,223177,1,8,0:0:0:0:
256,192,223277,1,0,0:0:0:0:
256,192,223477,1,8,0:0:0:0:
256,192,223677,1,0,0:0:0:0:
256,192,223877,1,0,0:0:0:0:
256,192,223977,1,0,0:0:0:0:
256,192,224077,1,8,0:0:0:0:
256,192,224277,1,0,0:0:0:0:
256,192,224477,1,8,0:0:0:0:
256,192,224677,1,8,0:0:0:0:
256,192,224777,1,8,0:0:0:0:
256,192,224877,1,8,0:0:0:0:
256,192,225077,1,0,0:0:0:0:
256,192,225277,1,0,0:0:0:0:
256,192,225377,1,0,0:0:0:0:
256,192,225477,1,8,0:0:0:0:
256,192,225677,1,8,0:0:0:0:
256,192,225877,1,0,0:0:0:0:
256,192,226077,1,8,0:0:0:0:
256,192,226177,1,8,0:0:0:0:
256,192,226277,1,0,0:0:0:0:
256,192,226377,1,0,0:0:0:0:
256,192,226477,1,8,0:0:0:0:
256,192,226677,1,8,0:0:0:0:
256,192,226777,1,8,0:0:0:0:
256,192,226877,1,0,0:0:0:0:
256,192,227077,1,8,0:0:0:0:
256,192,227177,1,8,0:0:0:0:
256,192,227277,1,0,0:0:0:0:
256,192,227477,1,0,0:0:0:0:
256,192,227677,1,8,0:0:0:0:
256,192,228077,1,8,0:0:0:0:
256,192,228277,1,0,0:0:0:0:
256,192,228477,1,8,0:0:0:0:
256,192,228677,1,8,0:0:0:0:
256,192,228777,1,8,0:0:0:0:
256,192,228877,1,0,0:0:0:0:
256,192,229077,1,0,0:0:0:0:
256,192,229277,1,8,0:0:0:0:
256,192,229377,1,8,0:0:0:0:
256,192,229477,1,0,0:0:0:0:
256,192,229577,1,0,0:0:0:0:
256,192,229677,1,8,0:0:0:0:
256,192,229877,1,0,0:0:0:0:
256,192,230077,1,8,0:0:0:0:
256,192,230177,1,8,0:0:0:0:
256,192,230277,1,0,0:0:0:0:
256,192,230477,1,8,0:0:0:0:
256,192,230677,1,0,0:0:0:0:
256,192,230877,1,8,0:0:0:0:
256,192,230977,1,8,0:0:0:0:
256,192,231077,1,0,0:0:0:0:
256,192,231277,1,8,0:0:0:0:
256,192,231477,1,0,0:0:0:0:
256,192,231677,1,8,0:0:0:0:
256,192,231777,1,8,0:0:0:0:
256,192,231877,1,0,0:0:0:0:
256,192,232077,1,0,0:0:0:0:
256,192,232177,1,0,0:0:0:0:
256,192,232277,1,8,0:0:0:0:
256,192,232477,1,0,0:0:0:0:
256,192,233277,1,0,0:0:0:0:
256,192,233477,1,8,0:0:0:0:
256,192,233677,1,0,0:0:0:0:
256,192,233777,1,0,0:0:0:0:
256,192,233877,1,8,0:0:0:0:
256,192,234077,5,4,0:0:0:0:
256,192,234277,1,8,0:0:0:0:
256,192,234377,1,8,0:0:0:0:
256,192,234477,1,8,0:0:0:0:
256,192,234677,1,8,0:0:0:0:
256,192,234777,1,8,0:0:0:0:
256,192,234877,1,0,0:0:0:0:
256,192,235077,1,0,0:0:0:0:
256,192,235177,1,0,0:0:0:0:
256,192,235277,1,8,0:0:0:0:
256,192,235477,1,8,0:0:0:0:
256,192,235577,1,8,0:0:0:0:
256,192,235677,1,0,0:0:0:0:
256,192,235877,1,0,0:0:0:0:
256,192,235977,1,0,0:0:0:0:
256,192,236077,1,8,0:0:0:0:
256,192,236277,1,8,0:0:0:0:
256,192,236377,1,8,0:0:0:0:
256,192,236477,1,0,0:0:0:0:
256,192,236677,1,0,0:0:0:0:
256,192,236877,1,8,0:0:0:0:
256,192,236977,1,8,0:0:0:0:
256,192,237077,1,8,0:0:0:0:
256,192,237177,1,8,0:0:0:0:
256,192,237277,1,4,0:0:0:0:
256,192,237677,1,8,0:0:0:0:
256,192,237877,1,8,0:0:0:0:
256,192,237977,1,8,0:0:0:0:
256,192,238077,1,0,0:0:0:0:
256,192,238277,1,0,0:0:0:0:
256,192,238377,1,0,0:0:0:0:
256,192,238477,1,8,0:0:0:0:
256,192,238677,1,8,0:0:0:0:
256,192,238777,1,8,0:0:0:0:
256,192,238877,1,0,0:0:0:0:
256,192,239077,1,0,0:0:0:0:
256,192,239177,1,0,0:0:0:0:
256,192,239277,1,8,0:0:0:0:
256,192,239477,1,8,0:0:0:0:
256,192,239577,1,8,0:0:0:0:
256,192,239677,1,8,0:0:0:0:
256,192,239877,1,0,0:0:0:0:
256,192,240077,1,8,0:0:0:0:
256,192,240177,1,8,0:0:0:0:
256,192,240277,1,8,0:0:0:0:
256,192,240377,1,8,0:0:0:0:
256,192,240477,1,4,0:0:0:0:
256,192,240877,1,8,0:0:0:0:
256,192,241077,1,8,0:0:0:0:
256,192,241177,1,8,0:0:0:0:
256,192,241277,1,0,0:0:0:0:
256,192,241477,1,0,0:0:0:0:
256,192,241577,1,0,0:0:0:0:
256,192,241677,1,8,0:0:0:0:
256,192,241877,1,8,0:0:0:0:
256,192,241977,1,8,0:0:0:0:
256,192,242077,1,0,0:0:0:0:
256,192,242277,1,0,0:0:0:0:
256,192,242377,1,0,0:0:0:0:
256,192,242477,1,8,0:0:0:0:
256,192,242677,1,8,0:0:0:0:
256,192,242777,1,8,0:0:0:0:
256,192,242877,1,8,0:0:0:0:
256,192,243077,1,0,0:0:0:0:
256,192,243277,1,8,0:0:0:0:
256,192,243377,1,8,0:0:0:0:
256,192,243477,1,8,0:0:0:0:
256,192,243577,1,8,0:0:0:0:
256,192,243677,1,4,0:0:0:0:
256,192,244077,1,0,0:0:0:0:
256,192,244277,1,0,0:0:0:0:
256,192,244377,1,0,0:0:0:0:
256,192,244477,1,8,0:0:0:0:
256,192,244677,1,8,0:0:0:0:
256,192,244877,1,8,0:0:0:0:
256,192,244977,1,8,0:0:0:0:
256,192,245077,1,0,0:0:0:0:
256,192,245177,1,0,0:0:0:0:
256,192,245277,1,12,0:0:0:0:
256,192,245477,1,8,0:0:0:0:
256,192,245577,1,8,0:0:0:0:
256,192,245677,1,0,0:0:0:0:
256,192,245877,1,8,0:0:0:0:
256,192,246077,1,8,0:0:0:0:
256,192,246177,1,8,0:0:0:0:
256,192,246277,1,0,0:0:0:0:
256,192,246477,1,8,0:0:0:0:
256,192,246577,1,8,0:0:0:0:
256,192,246677,1,8,0:0:0:0:
256,192,246777,1,8,0:0:0:0:
256,192,246877,5,4,0:0:0:0:
256,192,247077,1,8,0:0:0:0:
256,192,247277,1,8,0:0:0:0:
256,192,247477,1,0,0:0:0:0:
256,192,247577,1,0,0:0:0:0:
256,192,247677,1,8,0:0:0:0:
256,192,247877,1,0,0:0:0:0:
256,192,248077,1,8,0:0:0:0:
256,192,248177,1,8,0:0:0:0:
256,192,248277,1,8,0:0:0:0:
256,192,248377,1,8,0:0:0:0:
256,192,248477,1,4,0:0:0:0:
256,192,248677,1,8,0:0:0:0:
256,192,248877,1,8,0:0:0:0:
256,192,248977,1,0,0:0:0:0:
256,192,249077,1,8,0:0:0:0:
256,192,249277,1,0,0:0:0:0:
256,192,249477,1,0,0:0:0:0:
256,192,249677,1,8,0:0:0:0:
256,192,249777,1,8,0:0:0:0:
256,192,249877,1,8,0:0:0:0:
256,192,249977,1,8,0:0:0:0:
256,192,250077,1,4,0:0:0:0:
256,192,250277,1,8,0:0:0:0:
256,192,250477,1,8,0:0:0:0:
256,192,250677,1,0,0:0:0:0:
256,192,250777,1,0,0:0:0:0:
256,192,250877,1,8,0:0:0:0:
256,192,251077,1,0,0:0:0:0:
256,192,251277,1,8,0:0:0:0:
256,192,251377,1,8,0:0:0:0:
256,192,251477,1,8,0:0:0:0:
256,192,251577,1,8,0:0:0:0:
256,192,251677,1,4,0:0:0:0:
256,192,251877,1,8,0:0:0:0:
256,192,252077,1,8,0:0:0:0:
256,192,252177,1,0,0:0:0:0:
256,192,252277,1,8,0:0:0:0:
256,192,252477,1,0,0:0:0:0:
256,192,252677,1,0,0:0:0:0:
256,192,252877,1,8,0:0:0:0:
256,192,252977,1,8,0:0:0:0:
256,192,253077,1,8,0:0:0:0:
256,192,253177,1,8,0:0:0:0:
256,192,253277,1,4,0:0:0:0:
256,192,253477,1,8,0:0:0:0:
256,192,253677,1,8,0:0:0:0:
256,192,253877,1,0,0:0:0:0:
256,192,253977,1,0,0:0:0:0:
256,192,254077,1,8,0:0:0:0:
256,192,254277,1,0,0:0:0:0:
256,192,254477,1,8,0:0:0:0:
256,192,254577,1,8,0:0:0:0:
256,192,254677,1,8,0:0:0:0:
256,192,254777,1,8,0:0:0:0:
256,192,254877,1,4,0:0:0:0:
256,192,255077,1,8,0:0:0:0:
256,192,255277,1,8,0:0:0:0:
256,192,255377,1,0,0:0:0:0:
256,192,255477,1,8,0:0:0:0:
256,192,255677,1,0,0:0:0:0:
256,192,255877,1,0,0:0:0:0:
256,192,256077,1,8,0:0:0:0:
256,192,256177,1,8,0:0:0:0:
256,192,256277,1,8,0:0:0:0:
256,192,256377,1,8,0:0:0:0:
256,192,256477,1,4,0:0:0:0:
256,192,257077,1,0,0:0:0:0:
256,192,257277,1,8,0:0:0:0:
256,192,257477,1,0,0:0:0:0:
256,192,257677,1,8,0:0:0:0:
256,192,257777,1,8,0:0:0:0:
256,192,257877,1,8,0:0:0:0:
256,192,258077,1,0,0:0:0:0:
256,192,258177,1,0,0:0:0:0:
256,192,258277,1,0,0:0:0:0:
256,192,258477,1,8,0:0:0:0:
256,192,258677,1,0,0:0:0:0:
256,192,258777,1,0,0:0:0:0:
256,192,258877,1,8,0:0:0:0:
256,192,259077,1,0,0:0:0:0:
256,192,259277,1,8,0:0:0:0:
256,192,259377,1,8,0:0:0:0:
256,192,259477,1,8,0:0:0:0:
256,192,259577,1,8,0:0:0:0:
256,192,259677,5,4,0:0:0:0:
256,192,260122,1,0,0:0:0:0:
256,192,260501,1,8,0:0:0:0:
256,192,261306,1,0,0:0:0:0:
256,192,261918,1,8,0:0:0:0:
256,192,263326,1,0,0:0:0:0:
256,192,263726,1,8,0:0:0:0:
256,192,264526,1,8,0:0:0:0:
256,192,265126,1,0,0:0:0:0:
