osu file format v14

[General]
AudioFilename: audio.mp3
AudioLeadIn: 0
PreviewTime: 72236
Countdown: 0
SampleSet: Normal
StackLeniency: 0.7
Mode: 1
LetterboxInBreaks: 0
WidescreenStoryboard: 1

[Editor]
DistanceSpacing: 0.8
BeatDivisor: 16
GridSize: 32
TimelineZoom: 4.599998

[Metadata]
Title:Tonchinkan Feast feat. Hatsune Miku
TitleUnicode:頓珍漢の宴 feat. 初音ミク
Artist:PinocchioP
ArtistUnicode:ピノキオピー
Creator:Nekomusya7563
Version:Neko Warrior (Short ver)
Source:
Tags:HUMAN electronic vocaloid japanese pinnochio-p Yuma Saito piapro gozu mezu ox horse
BeatmapID:2528855
BeatmapSetID:1215136

[Difficulty]
HPDrainRate:6.3
CircleSize:5
OverallDifficulty:7.5
ApproachRate:5
SliderMultiplier:1.4
SliderTickRate:1

[Events]
//Background and Video events
0,0,"49057840_p2.jpg",0,0
//Break Periods
//Storyboard Layer 0 (Background)
//Storyboard Layer 1 (Fail)
//Storyboard Layer 2 (Pass)
//Storyboard Layer 3 (Foreground)
//Storyboard Layer 4 (Overlay)
//Storyboard Sound Samples

[TimingPoints]
10168,206.896551724138,4,1,0,100,1,0
16788,-100,4,1,0,100,0,1
31685,-100,4,1,0,100,0,0
44926,-100,4,1,0,100,0,1
51547,-100,4,1,0,100,0,0
72236,-200,4,1,0,100,0,0
73064,-100,4,1,0,100,0,1
89616,-100,4,1,0,100,0,0
123754,-200,4,1,0,100,0,0
124374,-100,4,1,0,100,0,1
140926,-100,4,1,0,100,0,0
157892,-105.263157894737,4,1,0,100,0,0
158305,-111.111111111111,4,1,0,100,0,0
158719,-117.647058823529,4,1,0,100,0,0
159133,-125,4,1,0,100,0,0
164099,-133.333333333333,4,1,0,100,0,0
170719,-142.857142857143,4,1,0,100,0,0
183961,-125,4,1,0,100,0,0
193892,-100,4,1,0,100,0,1
213754,-100,4,1,0,100,0,0
217064,-100,4,1,0,100,0,1
231133,-100,4,1,0,100,0,0
231340,-105.263157894737,4,1,0,100,0,0
231547,-111.111111111111,4,1,0,100,0,0
231754,-117.647058823529,4,1,0,100,0,0

[HitObjects]
257,195,10168,5,0,0:0:0:0:
355,142,10374,1,2,0:0:0:0:
259,200,10581,1,0,0:0:0:0:
307,170,10685,1,0,0:0:0:0:
252,160,10788,1,2,0:0:0:0:
307,148,10892,1,0,0:0:0:0:
194,144,11099,1,2,0:0:0:0:
305,138,11305,1,2,0:0:0:0:
360,126,11409,1,0,0:0:0:0:
305,138,11512,1,0,0:0:0:0:
293,82,11616,1,2,0:0:0:0:
252,186,11823,1,0,0:0:0:0:
360,126,12030,1,2,0:0:0:0:
308,225,12236,1,0,0:0:0:0:
324,171,12340,1,0,0:0:0:0:
277,140,12443,1,2,0:0:0:0:
332,146,12547,1,0,0:0:0:0:
239,209,12754,1,2,0:0:0:0:
258,186,12961,1,2,0:0:0:0:
208,162,13064,1,0,0:0:0:0:
311,170,13168,1,2,0:0:0:0:
283,168,13271,1,0,0:0:0:0:
333,145,13374,1,0,0:0:0:0:
388,151,13478,1,0,0:0:0:0:
339,49,13685,1,2,0:0:0:0:
331,160,13892,1,0,0:0:0:0:
338,104,13995,1,0,0:0:0:0:
328,159,14099,1,2,0:0:0:0:
333,145,14202,1,0,0:0:0:0:
224,118,14409,1,2,0:0:0:0:
335,127,14616,1,2,0:0:0:0:
388,110,14719,1,0,0:0:0:0:
346,147,14823,1,0,0:0:0:0:
401,145,14926,1,2,0:0:0:0:
388,110,15030,1,2,0:0:0:0:
411,160,15133,1,4,0:0:0:0:
300,143,15340,1,2,0:0:0:0:
352,125,15443,1,2,0:0:0:0:
301,149,15547,1,4,0:0:0:0:
301,149,15754,1,2,0:0:0:0:
346,180,15857,1,2,0:0:0:0:
391,146,15961,1,0,0:0:0:0:
352,125,16064,1,0,0:0:0:0:
324,128,16116,1,0,0:0:0:0:
300,148,16168,1,2,0:0:0:0:
353,163,16271,1,0,0:0:0:0:
297,168,16374,1,6,0:0:0:0:
368,379,16788,1,0,0:0:0:0:
351,325,16892,1,0,0:0:0:0:
339,270,16995,1,2,0:0:0:0:
296,233,17099,1,0,0:0:0:0:
276,213,17150,1,0,0:0:0:0:
256,193,17202,1,0,0:0:0:0:
308,173,17305,1,2,0:0:0:0:
308,173,17409,1,0,0:0:0:0:
308,173,17512,1,2,0:0:0:0:
333,160,17564,1,2,0:0:0:0:
333,160,17616,1,0,0:0:0:0:
388,155,17719,1,2,0:0:0:0:
359,155,17771,1,2,0:0:0:0:
386,151,17823,1,0,0:0:0:0:
439,166,17926,1,2,0:0:0:0:
382,170,18030,1,0,0:0:0:0:
382,170,18133,1,0,0:0:0:0:
406,155,18185,1,0,0:0:0:0:
439,166,18236,1,2,0:0:0:0:
327,157,18443,1,0,0:0:0:0:
386,151,18547,1,2,0:0:0:0:
386,151,18650,1,2,0:0:0:0:
327,157,18754,1,0,0:0:0:0:
352,145,18805,1,2,0:0:0:0:
324,150,18857,1,0,0:0:0:0:
366,113,18961,1,2,0:0:0:0:
415,139,19064,1,0,0:0:0:0:
415,139,19168,1,2,0:0:0:0:
388,147,19219,1,2,0:0:0:0:
360,153,19271,1,0,0:0:0:0:
327,157,19374,1,0,0:0:0:0:
383,152,19478,1,2,0:0:0:0:
392,178,19530,1,2,0:0:0:0:
324,150,19581,1,0,0:0:0:0:
327,157,19685,1,0,0:0:0:0:
327,157,19736,1,0,0:0:0:0:
354,152,19788,1,2,0:0:0:0:
415,139,19840,1,2,0:0:0:0:
442,146,19892,1,0,0:0:0:0:
360,153,19995,1,2,0:0:0:0:
313,185,20099,1,0,0:0:0:0:
313,185,20202,1,0,0:0:0:0:
324,150,20305,1,2,0:0:0:0:
361,191,20409,1,0,0:0:0:0:
386,202,20461,1,0,0:0:0:0:
415,139,20512,1,2,0:0:0:0:
415,139,20616,1,2,0:0:0:0:
388,129,20719,1,0,0:0:0:0:
354,174,20823,1,2,0:0:0:0:
361,191,20926,1,0,0:0:0:0:
361,191,21030,1,0,0:0:0:0:
335,180,21081,1,0,0:0:0:0:
311,164,21133,1,2,0:0:0:0:
319,145,21236,1,0,0:0:0:0:
354,174,21340,1,0,0:0:0:0:
354,174,21392,1,0,0:0:0:0:
319,145,21443,1,2,0:0:0:0:
346,149,21495,1,0,0:0:0:0:
322,163,21547,1,2,0:0:0:0:
354,174,21650,1,2,0:0:0:0:
297,174,21754,1,0,0:0:0:0:
241,168,21857,1,0,0:0:0:0:
269,119,21961,1,2,0:0:0:0:
324,118,22064,1,0,0:0:0:0:
324,118,22116,1,0,0:0:0:0:
212,156,22168,1,0,0:0:0:0:
268,148,22271,1,0,0:0:0:0:
323,141,22374,1,2,0:0:0:0:
373,166,22478,1,0,0:0:0:0:
241,168,22530,1,0,0:0:0:0:
321,187,22581,1,0,0:0:0:0:
267,202,22685,1,2,0:0:0:0:
318,180,22788,1,0,0:0:0:0:
373,166,22892,1,2,0:0:0:0:
292,191,22995,1,0,0:0:0:0:
318,180,23099,1,0,0:0:0:0:
373,177,23202,1,2,0:0:0:0:
267,202,23409,1,0,0:0:0:0:
292,191,23512,1,0,0:0:0:0:
292,191,23564,1,0,0:0:0:0:
373,166,23616,1,2,0:0:0:0:
373,166,23719,1,0,0:0:0:0:
345,170,23771,1,0,0:0:0:0:
367,187,23823,1,2,0:0:0:0:
345,170,23926,1,2,0:0:0:0:
330,224,24030,1,0,0:0:0:0:
308,172,24133,1,0,0:0:0:0:
308,172,24185,1,0,0:0:0:0:
373,166,24236,1,2,0:0:0:0:
345,170,24340,1,0,0:0:0:0:
316,168,24392,1,0,0:0:0:0:
345,170,24443,1,2,0:0:0:0:
301,205,24547,1,2,0:0:0:0:
301,205,24650,1,0,0:0:0:0:
301,205,24754,1,0,0:0:0:0:
301,205,24805,1,0,0:0:0:0:
373,166,24857,1,2,0:0:0:0:
373,166,24961,1,0,0:0:0:0:
400,160,25012,1,0,0:0:0:0:
382,181,25064,1,2,0:0:0:0:
298,187,25168,1,2,0:0:0:0:
243,177,25271,1,0,0:0:0:0:
188,167,25374,1,0,0:0:0:0:
159,168,25426,1,0,0:0:0:0:
187,165,25478,1,2,0:0:0:0:
242,157,25581,1,0,0:0:0:0:
269,153,25633,1,0,0:0:0:0:
297,150,25685,1,2,0:0:0:0:
298,187,25788,1,2,0:0:0:0:
243,177,25892,1,0,0:0:0:0:
243,177,25943,1,0,0:0:0:0:
270,172,25995,1,2,0:0:0:0:
298,169,26047,1,0,0:0:0:0:
325,162,26099,1,2,0:0:0:0:
380,160,26202,1,2,0:0:0:0:
256,192,26305,12,0,26512,0:0:0:0:
314,190,26719,5,0,0:0:0:0:
259,176,26823,1,0,0:0:0:0:
286,180,26874,1,0,0:0:0:0:
311,168,26926,1,2,0:0:0:0:
353,204,27030,1,0,0:0:0:0:
314,190,27081,1,0,0:0:0:0:
336,173,27133,1,2,0:0:0:0:
387,151,27236,1,2,0:0:0:0:
336,173,27340,1,0,0:0:0:0:
336,173,27443,1,0,0:0:0:0:
387,151,27495,1,0,0:0:0:0:
286,180,27547,1,2,0:0:0:0:
314,190,27650,1,0,0:0:0:0:
314,190,27702,1,0,0:0:0:0:
314,190,27754,1,2,0:0:0:0:
367,174,27857,1,2,0:0:0:0:
336,173,27961,1,0,0:0:0:0:
336,173,28064,1,0,0:0:0:0:
336,173,28116,1,0,0:0:0:0:
362,164,28168,1,2,0:0:0:0:
336,173,28271,1,0,0:0:0:0:
307,156,28323,1,0,0:0:0:0:
307,156,28374,1,2,0:0:0:0:
307,156,28581,1,2,0:0:0:0:
359,138,28685,1,2,0:0:0:0:
307,156,28788,1,4,0:0:0:0:
339,110,28892,1,2,0:0:0:0:
323,133,28995,1,2,0:0:0:0:
339,110,29099,1,2,0:0:0:0:
343,165,29202,1,4,0:0:0:0:
397,151,29305,1,2,0:0:0:0:
424,144,29357,1,2,0:0:0:0:
396,149,29409,1,0,0:0:0:0:
340,137,29512,1,2,0:0:0:0:
393,150,29616,1,0,0:0:0:0:
343,165,29668,1,0,0:0:0:0:
343,165,29719,1,0,0:0:0:0:
343,165,29771,1,0,0:0:0:0:
424,144,29823,1,2,0:0:0:0:
146,106,30236,1,0,0:0:0:0:
173,110,30288,1,0,0:0:0:0:
200,115,30340,1,2,0:0:0:0:
289,182,30547,1,0,0:0:0:0:
266,165,30599,1,0,0:0:0:0:
293,162,30650,1,2,0:0:0:0:
196,104,30857,1,0,0:0:0:0:
266,165,30909,1,0,0:0:0:0:
266,165,30961,1,0,0:0:0:0:
271,192,31012,1,0,0:0:0:0:
294,163,31064,1,2,0:0:0:0:
350,165,31168,1,2,0:0:0:0:
289,182,31271,1,0,0:0:0:0:
289,182,31323,1,0,0:0:0:0:
313,168,31374,1,2,0:0:0:0:
374,176,31478,1,0,0:0:0:0:
363,151,31530,1,0,0:0:0:0:
335,151,31581,1,2,0:0:0:0:
389,163,31633,1,2,0:0:0:0:
369,215,31685,1,0,0:0:0:0:
329,154,31892,1,2,0:0:0:0:
307,171,31995,1,2,0:0:0:0:
251,182,32099,1,0,0:0:0:0:
307,171,32202,1,0,0:0:0:0:
307,226,32305,1,2,0:0:0:0:
316,170,32409,1,2,0:0:0:0:
278,211,32512,1,0,0:0:0:0:
271,266,32616,1,0,0:0:0:0:
282,240,32668,1,0,0:0:0:0:
303,223,32719,1,2,0:0:0:0:
307,226,32823,1,0,0:0:0:0:
343,183,32926,1,2,0:0:0:0:
399,181,33030,1,2,0:0:0:0:
392,236,33133,1,0,0:0:0:0:
279,233,33340,1,0,0:0:0:0:
249,185,33443,1,0,0:0:0:0:
304,175,33547,1,2,0:0:0:0:
355,195,33650,1,2,0:0:0:0:
308,226,33754,1,0,0:0:0:0:
308,226,33805,1,0,0:0:0:0:
308,226,33857,1,0,0:0:0:0:
358,200,33961,1,2,0:0:0:0:
328,247,34064,1,0,0:0:0:0:
249,185,34168,1,0,0:0:0:0:
249,185,34271,1,0,0:0:0:0:
270,203,34323,1,0,0:0:0:0:
296,195,34374,1,2,0:0:0:0:
350,182,34478,1,2,0:0:0:0:
405,180,34581,1,0,0:0:0:0:
380,70,34788,1,2,0:0:0:0:
364,124,34892,1,2,0:0:0:0:
296,195,34995,1,0,0:0:0:0:
336,90,35202,1,2,0:0:0:0:
340,145,35305,1,2,0:0:0:0:
383,180,35409,1,0,0:0:0:0:
328,192,35512,1,2,0:0:0:0:
328,192,35564,1,2,0:0:0:0:
319,165,35616,1,2,0:0:0:0:
319,165,35719,1,2,0:0:0:0:
272,196,35823,1,0,0:0:0:0:
319,166,35926,1,0,0:0:0:0:
272,196,36030,1,2,0:0:0:0:
321,170,36133,1,0,0:0:0:0:
280,208,36236,1,0,0:0:0:0:
391,193,36443,1,2,0:0:0:0:
335,201,36547,1,2,0:0:0:0:
272,196,36650,1,0,0:0:0:0:
272,196,36754,1,0,0:0:0:0:
246,185,36805,1,0,0:0:0:0:
280,208,36857,1,2,0:0:0:0:
336,204,36961,1,2,0:0:0:0:
383,174,37064,1,0,0:0:0:0:
272,196,37168,1,2,0:0:0:0:
294,179,37219,1,0,0:0:0:0:
320,187,37271,1,2,0:0:0:0:
373,170,37374,1,2,0:0:0:0:
373,170,37478,1,0,0:0:0:0:
320,187,37581,1,0,0:0:0:0:
320,187,37633,1,0,0:0:0:0:
337,165,37685,1,2,0:0:0:0:
376,204,37788,1,2,0:0:0:0:
337,165,37892,1,0,0:0:0:0:
449,162,38099,1,2,0:0:0:0:
376,204,38202,1,2,0:0:0:0:
348,155,38305,1,4,0:0:0:0:
348,155,38512,1,2,0:0:0:0:
337,165,38616,1,2,0:0:0:0:
348,155,38719,1,0,0:0:0:0:
337,165,38823,1,2,0:0:0:0:
309,169,38874,1,2,0:0:0:0:
328,149,38926,1,2,0:0:0:0:
348,155,39030,1,2,0:0:0:0:
361,209,39133,1,0,0:0:0:0:
378,155,39236,1,0,0:0:0:0:
405,148,39288,1,0,0:0:0:0:
383,166,39340,1,2,0:0:0:0:
348,155,39443,1,2,0:0:0:0:
394,187,39547,1,0,0:0:0:0:
349,84,39754,1,2,0:0:0:0:
378,155,39857,1,2,0:0:0:0:
422,189,39961,1,0,0:0:0:0:
367,199,40064,1,0,0:0:0:0:
348,155,40168,1,2,0:0:0:0:
296,132,40271,1,2,0:0:0:0:
296,132,40374,1,0,0:0:0:0:
270,119,40426,1,0,0:0:0:0:
348,155,40478,1,2,0:0:0:0:
378,155,40530,1,0,0:0:0:0:
350,149,40581,1,2,0:0:0:0:
405,156,40685,1,2,0:0:0:0:
350,166,40788,1,0,0:0:0:0:
327,187,40892,1,0,0:0:0:0:
300,179,40943,1,0,0:0:0:0:
303,206,40995,1,2,0:0:0:0:
303,206,41099,1,2,0:0:0:0:
216,135,41305,1,2,0:0:0:0:
350,149,41357,1,2,0:0:0:0:
257,172,41409,1,2,0:0:0:0:
350,149,41512,1,2,0:0:0:0:
293,152,41616,1,0,0:0:0:0:
348,156,41719,1,0,0:0:0:0:
293,168,41823,1,2,0:0:0:0:
298,129,41926,1,2,0:0:0:0:
324,135,41978,1,2,0:0:0:0:
315,161,42030,1,0,0:0:0:0:
315,161,42133,1,0,0:0:0:0:
350,149,42236,1,2,0:0:0:0:
315,161,42340,1,2,0:0:0:0:
315,161,42392,1,2,0:0:0:0:
293,152,42443,1,0,0:0:0:0:
284,207,42547,1,2,0:0:0:0:
338,196,42650,1,0,0:0:0:0:
394,191,42754,1,2,0:0:0:0:
340,92,42961,1,2,0:0:0:0:
306,136,43064,1,2,0:0:0:0:
258,165,43168,1,2,0:0:0:0:
330,181,43271,1,0,0:0:0:0:
304,192,43374,1,0,0:0:0:0:
304,192,43426,1,0,0:0:0:0:
330,181,43478,1,2,0:0:0:0:
273,185,43581,1,2,0:0:0:0:
380,156,43685,1,0,0:0:0:0:
330,181,43788,1,0,0:0:0:0:
347,160,43840,1,0,0:0:0:0:
304,192,43892,1,2,0:0:0:0:
304,192,43995,1,2,0:0:0:0:
330,181,44099,1,0,0:0:0:0:
330,181,44202,1,2,0:0:0:0:
302,177,44254,1,2,0:0:0:0:
330,181,44305,1,0,0:0:0:0:
385,170,44409,1,2,0:0:0:0:
347,160,44512,1,0,0:0:0:0:
347,160,44564,1,0,0:0:0:0:
374,154,44616,1,0,0:0:0:0:
345,155,44668,1,0,0:0:0:0:
372,151,44719,1,2,0:0:0:0:
362,382,44926,1,0,0:0:0:0:
345,328,45030,1,0,0:0:0:0:
333,273,45133,1,2,0:0:0:0:
290,236,45236,1,0,0:0:0:0:
270,216,45288,1,0,0:0:0:0:
250,196,45340,1,0,0:0:0:0:
302,176,45443,1,2,0:0:0:0:
302,176,45547,1,0,0:0:0:0:
302,176,45650,1,2,0:0:0:0:
327,163,45702,1,2,0:0:0:0:
327,163,45754,1,0,0:0:0:0:
382,158,45857,1,2,0:0:0:0:
353,158,45909,1,2,0:0:0:0:
380,154,45961,1,0,0:0:0:0:
433,169,46064,1,2,0:0:0:0:
376,173,46168,1,0,0:0:0:0:
376,173,46271,1,0,0:0:0:0:
400,158,46323,1,0,0:0:0:0:
433,169,46374,1,2,0:0:0:0:
321,160,46581,1,0,0:0:0:0:
380,154,46685,1,2,0:0:0:0:
380,154,46788,1,2,0:0:0:0:
321,160,46892,1,0,0:0:0:0:
346,148,46943,1,2,0:0:0:0:
318,153,46995,1,0,0:0:0:0:
360,116,47099,1,2,0:0:0:0:
409,142,47202,1,0,0:0:0:0:
409,142,47305,1,2,0:0:0:0:
382,150,47357,1,2,0:0:0:0:
354,156,47409,1,0,0:0:0:0:
321,160,47512,1,0,0:0:0:0:
377,155,47616,1,2,0:0:0:0:
386,181,47668,1,2,0:0:0:0:
318,153,47719,1,0,0:0:0:0:
321,160,47823,1,0,0:0:0:0:
321,160,47874,1,0,0:0:0:0:
348,155,47926,1,2,0:0:0:0:
409,142,47978,1,2,0:0:0:0:
436,149,48030,1,0,0:0:0:0:
354,156,48133,1,2,0:0:0:0:
307,188,48236,1,0,0:0:0:0:
307,188,48340,1,0,0:0:0:0:
318,153,48443,1,2,0:0:0:0:
355,194,48547,1,0,0:0:0:0:
380,205,48599,1,0,0:0:0:0:
409,142,48650,1,2,0:0:0:0:
409,142,48754,1,2,0:0:0:0:
382,132,48857,1,0,0:0:0:0:
348,177,48961,1,2,0:0:0:0:
355,194,49064,1,0,0:0:0:0:
355,194,49168,1,0,0:0:0:0:
329,183,49219,1,0,0:0:0:0:
305,167,49271,1,2,0:0:0:0:
286,145,49323,1,2,0:0:0:0:
313,148,49374,1,0,0:0:0:0:
348,177,49478,1,0,0:0:0:0:
348,177,49530,1,0,0:0:0:0:
313,148,49581,1,0,0:0:0:0:
340,152,49633,1,0,0:0:0:0:
316,166,49685,1,2,0:0:0:0:
348,177,49788,1,2,0:0:0:0:
291,177,49892,1,0,0:0:0:0:
235,171,49995,1,0,0:0:0:0:
263,122,50099,1,2,0:0:0:0:
318,121,50202,1,0,0:0:0:0:
206,159,50305,1,0,0:0:0:0:
262,151,50409,1,0,0:0:0:0:
317,144,50512,1,2,0:0:0:0:
367,169,50616,1,0,0:0:0:0:
315,190,50719,1,0,0:0:0:0:
260,177,50823,1,0,0:0:0:0:
285,165,50874,1,0,0:0:0:0:
313,165,50926,1,2,0:0:0:0:
269,200,51030,1,0,0:0:0:0:
316,171,51133,1,2,0:0:0:0:
340,157,51185,1,2,0:0:0:0:
366,148,51236,1,0,0:0:0:0:
313,165,51340,1,2,0:0:0:0:
344,272,51547,1,0,0:0:0:0:
288,174,51754,1,2,0:0:0:0:
316,171,51857,1,2,0:0:0:0:
316,171,51909,1,2,0:0:0:0:
288,174,51961,1,0,0:0:0:0:
288,174,52064,1,0,0:0:0:0:
344,171,52168,1,2,0:0:0:0:
288,174,52271,1,2,0:0:0:0:
288,174,52323,1,0,0:0:0:0:
261,182,52374,1,0,0:0:0:0:
310,209,52478,1,0,0:0:0:0:
316,171,52581,1,2,0:0:0:0:
267,199,52685,1,2,0:0:0:0:
266,188,52788,1,0,0:0:0:0:
316,171,52995,1,2,0:0:0:0:
316,171,53099,1,2,0:0:0:0:
369,155,53202,1,0,0:0:0:0:
316,171,53409,1,2,0:0:0:0:
371,173,53512,1,2,0:0:0:0:
396,158,53564,1,2,0:0:0:0:
369,155,53616,1,0,0:0:0:0:
350,125,53719,1,2,0:0:0:0:
387,166,53823,1,0,0:0:0:0:
438,188,53926,1,2,0:0:0:0:
382,195,54030,1,0,0:0:0:0:
326,202,54133,1,0,0:0:0:0:
298,205,54185,1,0,0:0:0:0:
396,158,54236,1,2,0:0:0:0:
396,158,54340,1,2,0:0:0:0:
340,166,54443,1,0,0:0:0:0:
382,195,54650,1,2,0:0:0:0:
434,175,54754,1,0,0:0:0:0:
382,195,54805,1,0,0:0:0:0:
382,195,54857,1,0,0:0:0:0:
325,190,54961,1,0,0:0:0:0:
357,144,55064,1,2,0:0:0:0:
340,166,55168,1,2,0:0:0:0:
357,144,55219,1,2,0:0:0:0:
376,164,55271,1,0,0:0:0:0:
320,168,55374,1,0,0:0:0:0:
375,156,55478,1,2,0:0:0:0:
373,100,55581,1,2,0:0:0:0:
327,132,55685,1,0,0:0:0:0:
304,148,55736,1,0,0:0:0:0:
281,165,55788,1,0,0:0:0:0:
281,165,55840,1,0,0:0:0:0:
376,164,55892,1,2,0:0:0:0:
431,172,55995,1,0,0:0:0:0:
395,215,56099,1,2,0:0:0:0:
318,174,56305,1,2,0:0:0:0:
372,164,56409,1,2,0:0:0:0:
428,168,56512,1,0,0:0:0:0:
372,168,56616,1,0,0:0:0:0:
343,168,56668,1,0,0:0:0:0:
335,195,56719,1,2,0:0:0:0:
389,185,56823,1,2,0:0:0:0:
318,174,56874,1,2,0:0:0:0:
339,191,56926,1,0,0:0:0:0:
366,239,57030,1,0,0:0:0:0:
342,223,57133,1,2,0:0:0:0:
366,239,57236,1,2,0:0:0:0:
379,214,57288,1,2,0:0:0:0:
335,195,57340,1,0,0:0:0:0:
279,187,57443,1,0,0:0:0:0:
262,240,57547,1,0,0:0:0:0:
324,259,57650,1,0,0:0:0:0:
304,91,57961,1,2,0:0:0:0:
307,118,58012,1,2,0:0:0:0:
310,145,58064,1,2,0:0:0:0:
332,161,58116,1,2,0:0:0:0:
305,169,58168,1,0,0:0:0:0:
346,272,58374,1,2,0:0:0:0:
354,245,58426,1,2,0:0:0:0:
376,228,58478,1,0,0:0:0:0:
331,194,58581,1,0,0:0:0:0:
323,209,58685,1,2,0:0:0:0:
305,169,58736,1,0,0:0:0:0:
331,177,58788,1,0,0:0:0:0:
383,196,58892,1,2,0:0:0:0:
435,215,58995,1,0,0:0:0:0:
378,209,59099,1,0,0:0:0:0:
354,158,59202,1,2,0:0:0:0:
382,159,59254,1,2,0:0:0:0:
407,169,59305,1,0,0:0:0:0:
250,230,59616,1,2,0:0:0:0:
276,221,59668,1,0,0:0:0:0:
300,208,59719,1,2,0:0:0:0:
273,216,59771,1,2,0:0:0:0:
300,218,59823,1,0,0:0:0:0:
355,212,59926,1,0,0:0:0:0:
276,221,60030,1,2,0:0:0:0:
330,210,60133,1,2,0:0:0:0:
336,182,60185,1,2,0:0:0:0:
363,181,60236,1,0,0:0:0:0:
315,150,60340,1,2,0:0:0:0:
366,170,60443,1,0,0:0:0:0:
355,212,60547,1,2,0:0:0:0:
333,193,60599,1,2,0:0:0:0:
300,200,60650,1,0,0:0:0:0:
354,186,60754,1,2,0:0:0:0:
330,210,60857,1,0,0:0:0:0:
330,210,60909,1,0,0:0:0:0:
357,207,60961,1,2,0:0:0:0:
333,193,61271,1,2,0:0:0:0:
333,193,61323,1,2,0:0:0:0:
333,193,61374,1,2,0:0:0:0:
333,193,61426,1,2,0:0:0:0:
359,182,61478,1,0,0:0:0:0:
433,98,61685,1,2,0:0:0:0:
422,123,61736,1,2,0:0:0:0:
414,150,61788,1,0,0:0:0:0:
381,196,61892,1,0,0:0:0:0:
325,192,61995,1,2,0:0:0:0:
277,199,62047,1,2,0:0:0:0:
258,177,62099,1,2,0:0:0:0:
333,193,62202,1,2,0:0:0:0:
331,208,62305,1,0,0:0:0:0:
277,199,62409,1,0,0:0:0:0:
277,199,62512,1,0,0:0:0:0:
300,213,62564,1,0,0:0:0:0:
325,192,62616,1,2,0:0:0:0:
333,193,62926,1,2,0:0:0:0:
358,202,62978,1,0,0:0:0:0:
381,186,63030,1,2,0:0:0:0:
407,194,63081,1,2,0:0:0:0:
385,211,63133,1,0,0:0:0:0:
358,202,63236,1,0,0:0:0:0:
313,235,63340,1,2,0:0:0:0:
381,186,63443,1,2,0:0:0:0:
358,202,63495,1,2,0:0:0:0:
407,194,63547,1,0,0:0:0:0:
355,172,63650,1,0,0:0:0:0:
411,175,63754,1,2,0:0:0:0:
378,129,63857,1,2,0:0:0:0:
411,175,63909,1,2,0:0:0:0:
382,177,63961,1,0,0:0:0:0:
326,177,64064,1,0,0:0:0:0:
326,177,64116,1,0,0:0:0:0:
381,169,64168,1,2,0:0:0:0:
326,177,64271,1,4,0:0:0:0:
213,177,64478,1,0,0:0:0:0:
268,176,64581,1,2,0:0:0:0:
322,191,64685,1,2,0:0:0:0:
295,183,64736,1,2,0:0:0:0:
271,198,64788,1,0,0:0:0:0:
252,144,64892,1,0,0:0:0:0:
304,162,64995,1,2,0:0:0:0:
360,160,65099,1,2,0:0:0:0:
384,171,65150,1,2,0:0:0:0:
407,186,65202,1,0,0:0:0:0:
351,193,65305,1,0,0:0:0:0:
384,171,65409,1,2,0:0:0:0:
356,177,65512,1,0,0:0:0:0:
300,167,65616,1,0,0:0:0:0:
252,144,65668,1,0,0:0:0:0:
384,171,65719,1,2,0:0:0:0:
384,171,65823,1,2,0:0:0:0:
356,177,65926,1,0,0:0:0:0:
329,187,65978,1,0,0:0:0:0:
329,187,66030,1,2,0:0:0:0:
421,125,66236,1,2,0:0:0:0:
384,171,66340,1,2,0:0:0:0:
330,185,66443,1,0,0:0:0:0:
384,169,66547,1,2,0:0:0:0:
359,183,66599,1,2,0:0:0:0:
435,190,66650,1,0,0:0:0:0:
384,171,66754,1,2,0:0:0:0:
359,183,66857,1,0,0:0:0:0:
330,185,66961,1,2,0:0:0:0:
323,226,67012,1,2,0:0:0:0:
295,233,67064,1,0,0:0:0:0:
295,233,67168,1,2,0:0:0:0:
272,181,67271,1,0,0:0:0:0:
299,184,67323,1,0,0:0:0:0:
299,184,67374,1,2,0:0:0:0:
435,190,67478,1,2,0:0:0:0:
379,185,67581,1,0,0:0:0:0:
351,184,67633,1,0,0:0:0:0:
435,190,67685,1,2,0:0:0:0:
474,171,67892,1,2,0:0:0:0:
446,168,67943,1,2,0:0:0:0:
420,155,67995,1,2,0:0:0:0:
392,161,68047,1,2,0:0:0:0:
419,184,68099,1,0,0:0:0:0:
363,176,68202,1,2,0:0:0:0:
363,176,68254,1,0,0:0:0:0:
337,166,68305,1,2,0:0:0:0:
363,176,68409,1,2,0:0:0:0:
337,166,68512,1,0,0:0:0:0:
378,128,68616,1,0,0:0:0:0:
330,157,68719,1,2,0:0:0:0:
337,166,68823,1,2,0:0:0:0:
281,166,68926,1,0,0:0:0:0:
281,166,68978,1,0,0:0:0:0:
308,159,69030,1,2,0:0:0:0:
363,156,69133,1,2,0:0:0:0:
337,166,69236,1,0,0:0:0:0:
308,159,69288,1,0,0:0:0:0:
335,164,69340,1,2,0:0:0:0:
243,99,69547,1,2,0:0:0:0:
292,123,69650,1,2,0:0:0:0:
337,166,69754,1,0,0:0:0:0:
392,166,69857,1,2,0:0:0:0:
363,156,69909,1,2,0:0:0:0:
337,166,69961,1,2,0:0:0:0:
389,148,70064,1,2,0:0:0:0:
392,166,70168,1,0,0:0:0:0:
437,134,70271,1,2,0:0:0:0:
392,166,70323,1,2,0:0:0:0:
363,156,70374,1,2,0:0:0:0:
419,157,70478,1,2,0:0:0:0:
340,186,70581,1,0,0:0:0:0:
363,156,70633,1,0,0:0:0:0:
363,156,70685,1,2,0:0:0:0:
336,164,70736,1,2,0:0:0:0:
336,164,70788,1,0,0:0:0:0:
308,160,70892,1,2,0:0:0:0:
256,192,70995,12,0,72133,0:0:0:0:
342,177,72236,5,2,0:0:0:0:
287,164,72443,1,2,0:0:0:0:
312,176,72547,1,2,0:0:0:0:
314,173,72650,1,0,0:0:0:0:
364,177,72754,1,2,0:0:0:0:
364,177,72857,1,2,0:0:0:0:
342,177,72961,1,2,0:0:0:0:
314,173,73064,1,0,0:0:0:0:
287,164,73168,1,0,0:0:0:0:
287,164,73219,1,0,0:0:0:0:
314,170,73271,1,2,0:0:0:0:
297,223,73374,1,0,0:0:0:0:
289,250,73426,1,0,0:0:0:0:
313,236,73478,1,2,0:0:0:0:
293,183,73581,1,0,0:0:0:0:
342,177,73685,1,2,0:0:0:0:
395,162,73788,1,0,0:0:0:0:
342,181,73892,1,2,0:0:0:0:
338,153,73943,1,2,0:0:0:0:
365,160,73995,1,2,0:0:0:0:
337,155,74047,1,2,0:0:0:0:
365,153,74099,1,0,0:0:0:0:
395,162,74202,1,2,0:0:0:0:
339,166,74305,1,0,0:0:0:0:
342,177,74409,1,0,0:0:0:0:
293,183,74461,1,0,0:0:0:0:
338,153,74512,1,2,0:0:0:0:
342,177,74616,1,2,0:0:0:0:
364,194,74668,1,2,0:0:0:0:
389,183,74719,1,0,0:0:0:0:
373,237,74823,1,0,0:0:0:0:
322,212,74926,1,2,0:0:0:0:
293,183,75030,1,0,0:0:0:0:
293,183,75081,1,0,0:0:0:0:
320,176,75133,1,2,0:0:0:0:
342,177,75185,1,2,0:0:0:0:
320,176,75236,1,0,0:0:0:0:
320,176,75340,1,2,0:0:0:0:
362,139,75443,1,2,0:0:0:0:
336,150,75495,1,2,0:0:0:0:
362,139,75547,1,0,0:0:0:0:
320,176,75650,1,0,0:0:0:0:
375,182,75754,1,2,0:0:0:0:
320,176,75805,1,2,0:0:0:0:
342,177,75857,1,0,0:0:0:0:
342,177,75961,1,2,0:0:0:0:
320,176,76012,1,0,0:0:0:0:
342,177,76064,1,2,0:0:0:0:
296,209,76168,1,2,0:0:0:0:
346,186,76271,1,2,0:0:0:0:
362,139,76323,1,2,0:0:0:0:
362,139,76374,1,0,0:0:0:0:
307,153,76478,1,0,0:0:0:0:
307,153,76530,1,0,0:0:0:0:
307,153,76581,1,2,0:0:0:0:
320,176,76685,1,2,0:0:0:0:
266,192,76788,1,0,0:0:0:0:
240,179,76840,1,0,0:0:0:0:
268,176,76892,1,2,0:0:0:0:
320,176,76995,1,2,0:0:0:0:
266,192,77099,1,2,0:0:0:0:
321,185,77202,1,0,0:0:0:0:
277,150,77305,1,0,0:0:0:0:
240,210,77409,1,2,0:0:0:0:
266,201,77461,1,2,0:0:0:0:
320,176,77512,1,2,0:0:0:0:
348,174,77564,1,2,0:0:0:0:
332,197,77616,1,0,0:0:0:0:
294,237,77719,1,2,0:0:0:0:
321,185,77823,1,0,0:0:0:0:
293,185,77874,1,0,0:0:0:0:
348,174,77926,1,2,0:0:0:0:
348,174,77978,1,2,0:0:0:0:
364,196,78030,1,0,0:0:0:0:
348,174,78236,1,2,0:0:0:0:
396,203,78340,1,2,0:0:0:0:
340,200,78443,1,0,0:0:0:0:
293,185,78547,1,0,0:0:0:0:
348,190,78650,1,2,0:0:0:0:
402,174,78754,1,2,0:0:0:0:
357,208,78857,1,0,0:0:0:0:
311,241,78961,1,0,0:0:0:0:
311,241,79012,1,0,0:0:0:0:
396,203,79064,1,2,0:0:0:0:
340,200,79168,1,0,0:0:0:0:
362,148,79271,1,2,0:0:0:0:
340,200,79374,1,0,0:0:0:0:
311,198,79426,1,2,0:0:0:0:
396,203,79478,1,2,0:0:0:0:
343,221,79581,1,2,0:0:0:0:
287,213,79685,1,0,0:0:0:0:
287,213,79788,1,0,0:0:0:0:
312,200,79840,1,0,0:0:0:0:
335,184,79892,1,2,0:0:0:0:
294,145,79995,1,2,0:0:0:0:
347,162,80099,1,0,0:0:0:0:
291,164,80202,1,2,0:0:0:0:
284,191,80254,1,2,0:0:0:0:
310,183,80305,1,2,0:0:0:0:
287,213,80409,1,2,0:0:0:0:
339,193,80512,1,0,0:0:0:0:
339,193,80616,1,2,0:0:0:0:
319,212,80668,1,2,0:0:0:0:
345,203,80719,1,0,0:0:0:0:
319,212,80823,1,2,0:0:0:0:
319,212,80874,1,2,0:0:0:0:
342,196,80926,1,0,0:0:0:0:
229,199,81133,1,2,0:0:0:0:
339,193,81236,1,2,0:0:0:0:
282,190,81340,1,0,0:0:0:0:
282,190,81443,1,0,0:0:0:0:
255,198,81495,1,0,0:0:0:0:
342,196,81547,1,2,0:0:0:0:
326,142,81650,1,2,0:0:0:0:
316,197,81754,1,0,0:0:0:0:
316,197,81857,1,0,0:0:0:0:
326,142,81961,1,2,0:0:0:0:
358,187,82064,1,2,0:0:0:0:
309,214,82168,1,0,0:0:0:0:
285,228,82271,1,0,0:0:0:0:
261,212,82323,1,0,0:0:0:0:
272,187,82374,1,2,0:0:0:0:
250,205,82478,1,2,0:0:0:0:
316,197,82581,1,0,0:0:0:0:
265,177,82685,1,2,0:0:0:0:
309,214,82736,1,2,0:0:0:0:
316,197,82788,1,0,0:0:0:0:
330,173,82840,1,2,0:0:0:0:
265,177,82892,1,2,0:0:0:0:
265,177,82943,1,2,0:0:0:0:
309,214,82995,1,0,0:0:0:0:
316,197,83099,1,2,0:0:0:0:
316,197,83150,1,2,0:0:0:0:
308,169,83202,1,0,0:0:0:0:
346,209,83305,1,2,0:0:0:0:
396,183,83409,1,0,0:0:0:0:
369,173,83461,1,0,0:0:0:0:
347,210,83512,1,2,0:0:0:0:
365,188,83564,1,2,0:0:0:0:
369,214,83616,1,0,0:0:0:0:
314,202,83719,1,0,0:0:0:0:
334,182,83771,1,0,0:0:0:0:
369,173,83823,1,0,0:0:0:0:
365,188,83926,1,0,0:0:0:0:
336,187,83978,1,0,0:0:0:0:
346,209,84030,1,2,0:0:0:0:
397,186,84133,1,0,0:0:0:0:
347,210,84236,1,2,0:0:0:0:
365,188,84288,1,2,0:0:0:0:
346,209,84340,1,0,0:0:0:0:
369,214,84392,1,2,0:0:0:0:
397,186,84443,1,0,0:0:0:0:
422,235,84547,1,2,0:0:0:0:
400,183,84650,1,0,0:0:0:0:
397,186,84754,1,2,0:0:0:0:
369,191,84805,1,2,0:0:0:0:
397,186,84857,1,0,0:0:0:0:
341,192,84961,1,2,0:0:0:0:
341,192,85064,1,0,0:0:0:0:
293,221,85168,1,0,0:0:0:0:
316,206,85219,1,0,0:0:0:0:
344,208,85271,1,0,0:0:0:0:
376,162,85374,1,2,0:0:0:0:
293,221,85478,1,0,0:0:0:0:
376,162,85530,1,0,0:0:0:0:
397,186,85581,1,2,0:0:0:0:
411,210,85633,1,2,0:0:0:0:
316,206,85685,1,0,0:0:0:0:
376,162,85788,1,2,0:0:0:0:
320,173,85840,1,2,0:0:0:0:
320,173,85892,1,0,0:0:0:0:
320,173,85995,1,2,0:0:0:0:
347,166,86047,1,0,0:0:0:0:
359,191,86099,1,2,0:0:0:0:
347,166,86202,1,2,0:0:0:0:
309,124,86305,1,0,0:0:0:0:
320,173,86409,1,0,0:0:0:0:
320,173,86461,1,0,0:0:0:0:
318,145,86512,1,2,0:0:0:0:
318,145,86616,1,2,0:0:0:0:
359,191,86719,1,0,0:0:0:0:
350,246,86823,1,2,0:0:0:0:
368,225,86874,1,2,0:0:0:0:
393,214,86926,1,0,0:0:0:0:
320,173,87030,1,2,0:0:0:0:
372,155,87133,1,0,0:0:0:0:
320,173,87236,1,0,0:0:0:0:
320,173,87288,1,0,0:0:0:0:
292,170,87340,1,2,0:0:0:0:
320,171,87392,1,2,0:0:0:0:
359,191,87443,1,0,0:0:0:0:
334,204,87495,1,2,0:0:0:0:
306,208,87547,1,0,0:0:0:0:
372,155,87650,1,2,0:0:0:0:
393,214,87702,1,2,0:0:0:0:
393,214,87754,1,0,0:0:0:0:
361,208,87857,1,2,0:0:0:0:
455,205,87961,1,0,0:0:0:0:
288,180,88271,1,0,0:0:0:0:
260,176,88323,1,0,0:0:0:0:
287,175,88374,1,2,0:0:0:0:
453,150,88685,1,2,0:0:0:0:
425,154,88736,1,2,0:0:0:0:
400,168,88788,1,0,0:0:0:0:
347,146,88892,1,2,0:0:0:0:
367,197,88995,1,0,0:0:0:0:
400,168,89099,1,2,0:0:0:0:
400,168,89202,1,2,0:0:0:0:
344,172,89305,1,0,0:0:0:0:
367,197,89409,1,0,0:0:0:0:
261,234,89616,1,0,0:0:0:0:
261,234,89926,1,2,0:0:0:0:
212,206,90030,1,0,0:0:0:0:
416,115,90236,1,2,0:0:0:0:
365,140,90443,1,0,0:0:0:0:
289,222,90650,1,2,0:0:0:0:
325,178,90754,1,2,0:0:0:0:
380,180,90857,1,0,0:0:0:0:
414,103,91064,1,2,0:0:0:0:
379,147,91271,1,0,0:0:0:0:
379,147,91581,1,2,0:0:0:0:
238,153,91685,1,2,0:0:0:0:
347,181,91892,1,2,0:0:0:0:
347,181,92099,1,0,0:0:0:0:
291,177,92202,1,0,0:0:0:0:
341,154,92305,1,2,0:0:0:0:
347,181,92409,1,2,0:0:0:0:
291,179,92512,1,0,0:0:0:0:
350,84,92719,1,2,0:0:0:0:
291,177,92926,1,0,0:0:0:0:
388,121,93133,1,2,0:0:0:0:
343,154,93236,1,2,0:0:0:0:
392,180,93340,1,2,0:0:0:0:
288,222,93547,1,2,0:0:0:0:
371,146,93754,1,4,0:0:0:0:
268,211,94581,1,0,0:0:0:0:
268,211,94685,1,0,0:0:0:0:
322,199,94788,1,2,0:0:0:0:
426,158,94995,1,0,0:0:0:0:
322,199,95099,1,2,0:0:0:0:
420,146,95305,1,0,0:0:0:0:
322,199,95409,1,2,0:0:0:0:
322,199,95512,1,2,0:0:0:0:
374,179,95616,1,0,0:0:0:0:
374,179,95719,1,2,0:0:0:0:
387,124,95823,1,2,0:0:0:0:
354,169,95926,1,0,0:0:0:0:
410,171,96030,1,2,0:0:0:0:
358,150,96133,1,2,0:0:0:0:
369,209,96236,1,0,0:0:0:0:
