osu file format v14

[General]
AudioFilename: audio.mp3
AudioLeadIn: 0
PreviewTime: 72262
Countdown: 0
SampleSet: Normal
StackLeniency: 0.7
Mode: 1
LetterboxInBreaks: 0
WidescreenStoryboard: 1

[Editor]
Bookmarks: 72678,123989
DistanceSpacing: 0.8
BeatDivisor: 4
GridSize: 32
TimelineZoom: 8

[Metadata]
Title:Tonchinkan Feast feat. Hatsune Miku
TitleUnicode:頓珍漢の宴 feat. 初音ミク
Artist:PinocchioP
ArtistUnicode:ピノキオピー
Creator:Axer
Version:Inner Oni
Source:
Tags:uone tag2 compatible HUMAN electronic japanese vocaloid Tonchinkan no En バンケット utage pop jpop j-pop banquet Feast of Absurdity
BeatmapID:3597518
BeatmapSetID:1755557

[Difficulty]
HPDrainRate:5
CircleSize:2
OverallDifficulty:6
ApproachRate:10
SliderMultiplier:1.4
SliderTickRate:1

[Events]
//Background and Video events
0,0,"pinocchio.jpg",0,55
Video,-165,"feast.mp4"
//Break Periods
2,3773,8088
//Storyboard Layer 0 (Background)
//Storyboard Layer 1 (Fail)
//Storyboard Layer 2 (Pass)
//Storyboard Layer 3 (Foreground)
//Storyboard Layer 4 (Overlay)
//Storyboard Sound Samples

[TimingPoints]
1090,413.793103448276,7,1,0,11,1,8
3573,413.793103448276,12,1,0,99,1,0
3573,-60.2409638554217,4,1,0,99,0,0
8538,413.793103448276,4,1,0,99,1,8
8538,-81.9672131147541,4,1,0,99,0,0
73089,-69.4444444444444,4,1,0,99,0,1
87986,-69.4444444444444,4,1,0,99,0,0
88293,-71.4902807775378,4,1,0,99,0,0
88397,-72.2038985742457,4,1,0,99,0,0
88603,-73.6603168951397,4,1,0,99,0,0
88707,-74.4181445375733,4,1,0,99,0,0
88810,-75.1842126781934,4,1,0,99,0,0
88914,-75.9738888531845,4,1,0,99,0,0
89017,-76.7724936448147,4,1,0,99,0,0
89121,-77.5960690909773,4,1,0,99,0,0
89224,-78.4293283037466,4,1,0,99,0,0
89293,-78.9976133651551,4,1,0,99,0,0
89362,-79.5741939206277,4,1,0,99,0,0
89431,-80.1592529448233,4,1,0,99,0,0
89500,-80.7529788334488,4,1,0,99,0,0
89569,-81.3555656055214,4,1,0,99,0,0
89638,-81.9672131147541,4,1,0,99,0,0
124400,-69.4444444444444,4,1,0,99,0,1
139296,-69.4444444444444,4,1,0,99,0,0
139603,-71.4902807775378,4,1,0,99,0,0
139707,-72.2038985742457,4,1,0,99,0,0
139914,-73.6675302014618,4,1,0,99,0,0
140017,-74.4181445375733,4,1,0,99,0,0
140121,-75.1917275469778,4,1,0,99,0,0
140224,-75.9738888531845,4,1,0,99,0,0
140328,-76.7803293899327,4,1,0,99,0,0
140431,-77.5960690909773,4,1,0,99,0,0
140535,-78.4375059242829,4,1,0,99,0,0
140603,-78.9976133651551,4,1,0,99,0,0
140672,-79.5741939206277,4,1,0,99,0,0
140741,-80.1592529448233,4,1,0,99,0,0
140810,-80.7529788334488,4,1,0,99,0,0
140879,-81.3555656055214,4,1,0,99,0,0
140948,-81.9672131147541,4,1,0,99,0,0
157500,-113.636363636364,4,1,0,99,0,0
157603,-113.067811194537,4,1,0,99,0,0
157707,-112.49948216579,4,1,0,99,0,0
157914,-111.385123356781,4,1,0,99,0,0
158121,-110.29262448217,4,1,0,99,0,0
158328,-109.221348563155,4,1,0,99,0,0
158431,-108.696014729623,4,1,0,99,0,0
158535,-108.17068313085,4,1,0,99,0,0
158741,-107.144970803304,4,1,0,99,0,0
158845,-106.634489528796,4,1,0,99,0,0
158948,-106.133688550752,4,1,0,99,0,0
159156,-105.136568652123,4,1,0,99,0,0
159362,-104.167332613046,4,1,0,99,0,0
159466,-103.68476649252,4,1,0,99,0,0
159569,-103.211227101122,4,1,0,99,0,0
159672,-102.741993454779,4,1,0,99,0,0
159776,-102.272513291111,4,1,0,99,0,0
159983,-101.350720923578,4,1,0,99,0,0
160086,-100.898214716974,4,1,0,99,0,0
160190,-100.445396541627,4,1,0,99,0,0
160397,-99.5561027470916,4,1,0,99,0,0
160500,-99.1194452048545,4,1,0,99,0,0
160603,-98.6866013349,4,1,0,99,0,0
160811,-97.8239334301942,4,1,0,99,0,0
161017,-96.9842979929049,4,1,0,99,0,0
161224,-96.1549810271875,4,1,0,99,0,0
161431,-95.3397268610081,4,1,0,99,0,0
161638,-94.5381808054494,4,1,0,99,0,0
161741,-94.144344550245,4,1,0,99,0,0
161845,-93.75,4,1,0,99,0,0
162052,-92.9748529235545,4,1,0,99,0,0
162259,-92.2124189294729,4,1,0,99,0,0
162467,-91.4587940770345,4,1,0,99,0,0
162672,-90.7279955899303,4,1,0,99,0,0
162879,-90.001822821728,4,1,0,99,0,0
163086,-89.2871821006428,4,1,0,99,0,0
163190,-88.9324018229948,4,1,0,99,0,0
163293,-88.5838008872651,4,1,0,99,0,0
163397,-88.2345773946194,4,1,0,99,0,0
163500,-87.8914151630391,4,1,0,99,0,0
163707,-87.2097690998426,4,1,0,99,0,0
163914,-86.5386147448256,4,1,0,99,0,0
164122,-85.8745434517943,4,1,0,99,0,0
164224,-85.5526035294797,4,1,0,99,0,0
164328,-85.2268269336388,4,1,0,99,0,0
164431,-84.9066190034497,4,1,0,99,0,0
164638,-84.2703166779587,4,1,0,99,0,0
164845,-83.6434804928132,4,1,0,99,0,0
164948,-83.335038180042,4,1,0,99,0,0
165155,-82.7219881200183,4,1,0,99,0,0
165362,-82.1178919357521,4,1,0,99,0,0
165569,-81.5225548862249,4,1,0,99,0,0
165777,-80.9329737140132,4,1,0,99,0,0
165983,-80.3574070603553,4,1,0,99,0,0
166086,-80.0726827758039,4,1,0,99,0,0
166293,-79.5065288675489,4,1,0,99,0,0
166397,-79.2250953010736,4,1,0,99,0,0
166603,-78.6734812125192,4,1,0,99,0,0
166707,-78.3979040965386,4,1,0,99,0,0
166810,-78.1268730071204,4,1,0,99,0,0
167017,-77.587807851279,4,1,0,99,0,0
167328,-76.7917485543003,4,1,0,99,0,0
167432,-76.5291744360267,4,1,0,99,0,0
167638,-76.0143409641196,4,1,0,99,0,0
167845,-75.5039388322521,4,1,0,99,0,0
168052,-75.0003452259849,4,1,0,99,0,0
168155,-74.7522594852503,4,1,0,99,0,0
168259,-74.5034248141272,4,1,0,99,0,0
168466,-74.0130458284692,4,1,0,99,0,0
168672,-73.5314027320851,4,1,0,99,0,0
168776,-73.2906165520406,4,1,0,99,0,0
168879,-73.0536948860732,4,1,0,99,0,0
168983,-72.8160220945094,4,1,0,99,0,0
169087,-72.5798907765909,4,1,0,99,0,0
169293,-72.1166613554281,4,1,0,99,0,0
169397,-71.8850368827869,4,1,0,99,0,0
169500,-71.6571013919124,4,1,0,99,0,0
169603,-71.4306068231436,4,1,0,99,0,0
169707,-71.2033613886048,4,1,0,99,0,0
169810,-70.9797216353379,4,1,0,99,0,0
169914,-70.7553314834356,4,1,0,99,0,0
170121,-70.3129045621667,4,1,0,99,0,0
170328,-69.8759761730158,4,1,0,99,0,0
170431,-69.6605843472908,4,1,0,99,0,0
170535,-69.4444444444444,4,1,0,99,0,0
170675,-81.9672131147541,4,1,0,99,0,0
193917,-69.4444444444444,4,1,0,99,0,1
203848,-69.4444444444444,4,1,0,99,0,0
204882,-69.4444444444444,4,1,0,99,0,1
208813,-69.4444444444444,4,1,0,99,0,0
208948,-70.3399765533411,4,1,0,99,0,0
209086,-71.2589073634204,4,1,0,99,0,0
209224,-72.202166064982,4,1,0,99,0,0
209362,-73.1707317073171,4,1,0,99,0,0
209500,-74.1656365883807,4,1,0,99,0,0
209638,-75.187969924812,4,1,0,99,0,0
209845,-76.7754318618042,4,1,0,99,0,0
209948,-77.5905691849242,4,1,0,99,0,0
210052,-78.4313725490196,4,1,0,99,0,0
210121,-78.9993416721527,4,1,0,99,0,0
210190,-79.5755968169761,4,1,0,99,0,0
210259,-80.1603206412826,4,1,0,99,0,0
210328,-80.7537012113055,4,1,0,99,0,0
210397,-81.3559322033898,4,1,0,99,0,0
210466,-81.9672131147541,4,1,0,99,0,0

[HitObjects]
256,192,3573,5,4,0:0:0:0:
256,192,8538,12,0,9986,0:0:0:0:
256,192,10193,5,4,0:0:0:0:
256,192,10400,1,8,0:0:0:0:
256,192,10606,1,0,0:0:0:0:
256,192,10710,1,0,0:0:0:0:
256,192,10917,1,8,0:0:0:0:
256,192,11124,1,0,0:0:0:0:
256,192,11331,1,8,0:0:0:0:
256,192,11434,1,0,0:0:0:0:
256,192,11538,1,0,0:0:0:0:
256,192,11641,1,8,0:0:0:0:
256,192,11848,1,0,0:0:0:0:
256,192,12055,1,8,0:0:0:0:
256,192,12262,1,0,0:0:0:0:
256,192,12365,1,8,0:0:0:0:
256,192,12572,1,0,0:0:0:0:
256,192,12779,1,8,0:0:0:0:
256,192,12986,1,8,0:0:0:0:
256,192,13089,1,0,0:0:0:0:
256,192,13193,1,8,0:0:0:0:
256,192,13296,1,8,0:0:0:0:
256,192,13400,1,8,0:0:0:0:
256,192,13503,1,0,0:0:0:0:
256,192,13710,1,8,0:0:0:0:
256,192,13917,1,0,0:0:0:0:
256,192,14020,1,0,0:0:0:0:
256,192,14227,1,8,0:0:0:0:
256,192,14434,1,0,0:0:0:0:
256,192,14641,1,8,0:0:0:0:
256,192,14744,1,0,0:0:0:0:
256,192,14848,1,0,0:0:0:0:
256,192,14951,1,8,0:0:0:0:
256,192,15158,1,4,0:0:0:0:
256,192,15572,1,4,0:0:0:0:
256,192,15986,1,4,0:0:0:0:
256,192,16400,1,12,0:0:0:0:
256,192,16813,1,4,0:0:0:0:
256,192,17020,1,8,0:0:0:0:
256,192,17227,1,0,0:0:0:0:
256,192,17331,1,0,0:0:0:0:
256,192,17434,1,0,0:0:0:0:
256,192,17538,1,8,0:0:0:0:
256,192,17744,1,0,0:0:0:0:
256,192,17951,1,8,0:0:0:0:
256,192,18055,1,0,0:0:0:0:
256,192,18158,1,0,0:0:0:0:
256,192,18262,1,8,0:0:0:0:
256,192,18469,1,0,0:0:0:0:
256,192,18675,1,8,0:0:0:0:
256,192,18882,1,0,0:0:0:0:
256,192,18986,1,8,0:0:0:0:
256,192,19193,1,0,0:0:0:0:
256,192,19400,1,8,0:0:0:0:
256,192,19606,1,8,0:0:0:0:
256,192,19710,1,0,0:0:0:0:
256,192,19917,1,8,0:0:0:0:
256,192,20020,1,8,0:0:0:0:
256,192,20124,1,4,0:0:0:0:
256,192,20331,1,8,0:0:0:0:
256,192,20538,1,0,0:0:0:0:
256,192,20641,1,0,0:0:0:0:
256,192,20744,1,0,0:0:0:0:
256,192,20848,1,8,0:0:0:0:
256,192,21055,1,0,0:0:0:0:
256,192,21262,1,8,0:0:0:0:
256,192,21365,1,0,0:0:0:0:
256,192,21469,1,0,0:0:0:0:
256,192,21572,1,8,0:0:0:0:
256,192,21779,1,0,0:0:0:0:
256,192,21986,1,0,0:0:0:0:
256,192,22089,1,0,0:0:0:0:
256,192,22193,1,0,0:0:0:0:
256,192,22296,1,8,0:0:0:0:
256,192,22503,1,0,0:0:0:0:
256,192,22606,1,8,0:0:0:0:
256,192,22813,1,8,0:0:0:0:
256,192,22917,1,0,0:0:0:0:
256,192,23020,1,8,0:0:0:0:
256,192,23227,1,8,0:0:0:0:
256,192,23434,1,8,0:0:0:0:
256,192,23538,1,0,0:0:0:0:
256,192,23641,1,8,0:0:0:0:
256,192,23744,1,0,0:0:0:0:
256,192,23848,1,8,0:0:0:0:
256,192,24055,1,8,0:0:0:0:
256,192,24158,1,0,0:0:0:0:
256,192,24262,1,8,0:0:0:0:
256,192,24365,1,0,0:0:0:0:
256,192,24469,1,8,0:0:0:0:
256,192,24675,1,8,0:0:0:0:
256,192,24779,1,0,0:0:0:0:
256,192,24882,1,8,0:0:0:0:
256,192,24986,1,0,0:0:0:0:
256,192,25089,1,8,0:0:0:0:
256,192,25296,1,8,0:0:0:0:
256,192,25400,1,0,0:0:0:0:
256,192,25503,1,8,0:0:0:0:
256,192,25606,1,0,0:0:0:0:
256,192,25710,1,8,0:0:0:0:
256,192,25917,1,8,0:0:0:0:
256,192,26020,1,0,0:0:0:0:
256,192,26124,1,8,0:0:0:0:
256,192,26227,1,0,0:0:0:0:
256,192,26331,1,8,0:0:0:0:
256,192,26434,1,8,0:0:0:0:
256,192,26538,1,8,0:0:0:0:
256,192,26744,1,8,0:0:0:0:
256,192,26848,1,0,0:0:0:0:
256,192,26951,1,8,0:0:0:0:
256,192,27055,1,0,0:0:0:0:
256,192,27158,1,8,0:0:0:0:
256,192,27365,1,8,0:0:0:0:
256,192,27469,1,0,0:0:0:0:
256,192,27572,1,8,0:0:0:0:
256,192,27675,1,0,0:0:0:0:
256,192,27779,1,8,0:0:0:0:
256,192,27986,1,8,0:0:0:0:
256,192,28089,1,0,0:0:0:0:
256,192,28193,1,8,0:0:0:0:
256,192,28296,1,0,0:0:0:0:
256,192,28400,1,12,0:0:0:0:
256,192,28813,1,4,0:0:0:0:
256,192,29227,12,0,29365,0:0:0:0:
256,192,29434,12,0,29572,0:0:0:0:
256,192,29641,12,0,29779,0:0:0:0:
256,192,29848,12,0,29986,0:0:0:0:
256,192,30262,5,0,0:0:0:0:
256,192,30365,1,8,0:0:0:0:
256,192,30572,1,0,0:0:0:0:
256,192,30675,1,8,0:0:0:0:
256,192,30882,1,0,0:0:0:0:
256,192,30986,1,8,0:0:0:0:
256,192,31089,1,0,0:0:0:0:
256,192,31193,1,0,0:0:0:0:
256,192,31296,1,8,0:0:0:0:
256,192,31400,1,8,0:0:0:0:
256,192,31503,1,0,0:0:0:0:
256,192,31710,1,4,0:0:0:0:
256,192,31917,1,0,0:0:0:0:
256,192,32020,1,8,0:0:0:0:
256,192,32124,1,0,0:0:0:0:
256,192,32227,1,8,0:0:0:0:
256,192,32434,1,0,0:0:0:0:
256,192,32538,1,0,0:0:0:0:
256,192,32641,1,8,0:0:0:0:
256,192,32744,1,0,0:0:0:0:
256,192,32951,1,8,0:0:0:0:
256,192,33158,1,0,0:0:0:0:
256,192,33365,1,8,0:0:0:0:
256,192,33469,1,8,0:0:0:0:
256,192,33572,1,8,0:0:0:0:
256,192,33675,1,0,0:0:0:0:
256,192,33882,1,8,0:0:0:0:
256,192,33986,1,8,0:0:0:0:
256,192,34089,1,0,0:0:0:0:
256,192,34193,1,0,0:0:0:0:
256,192,34296,1,8,0:0:0:0:
256,192,34400,1,0,0:0:0:0:
256,192,34503,1,8,0:0:0:0:
256,192,34813,1,0,0:0:0:0:
256,192,35020,1,8,0:0:0:0:
256,192,35227,1,0,0:0:0:0:
256,192,35331,1,8,0:0:0:0:
256,192,35434,1,0,0:0:0:0:
256,192,35538,1,0,0:0:0:0:
256,192,35641,1,8,0:0:0:0:
256,192,35848,1,0,0:0:0:0:
256,192,35951,1,8,0:0:0:0:
256,192,36055,1,0,0:0:0:0:
256,192,36158,1,8,0:0:0:0:
256,192,36262,1,0,0:0:0:0:
256,192,36469,1,0,0:0:0:0:
256,192,36675,1,8,0:0:0:0:
256,192,36779,1,8,0:0:0:0:
256,192,36882,1,0,0:0:0:0:
256,192,37089,1,8,0:0:0:0:
256,192,37193,1,0,0:0:0:0:
256,192,37296,1,8,0:0:0:0:
256,192,37400,1,8,0:0:0:0:
256,192,37606,1,8,0:0:0:0:
256,192,37710,1,0,0:0:0:0:
256,192,37813,1,0,0:0:0:0:
256,192,37917,1,8,0:0:0:0:
256,192,38124,1,0,0:0:0:0:
256,192,38331,1,8,0:0:0:0:
256,192,38434,1,8,0:0:0:0:
256,192,38538,1,0,0:0:0:0:
256,192,38744,1,8,0:0:0:0:
256,192,38951,1,8,0:0:0:0:
256,192,39055,1,0,0:0:0:0:
256,192,39262,1,8,0:0:0:0:
256,192,39469,1,0,0:0:0:0:
256,192,39675,1,0,0:0:0:0:
256,192,39779,1,8,0:0:0:0:
256,192,39882,1,0,0:0:0:0:
256,192,39986,1,8,0:0:0:0:
256,192,40193,1,0,0:0:0:0:
256,192,40296,1,8,0:0:0:0:
256,192,40400,1,0,0:0:0:0:
256,192,40503,1,0,0:0:0:0:
256,192,40606,1,8,0:0:0:0:
256,192,40710,1,8,0:0:0:0:
256,192,40813,1,0,0:0:0:0:
256,192,41020,1,8,0:0:0:0:
256,192,41124,1,8,0:0:0:0:
256,192,41331,1,0,0:0:0:0:
256,192,41434,1,0,0:0:0:0:
256,192,41641,1,8,0:0:0:0:
256,192,41848,1,0,0:0:0:0:
256,192,42055,1,8,0:0:0:0:
256,192,42158,1,8,0:0:0:0:
256,192,42262,1,0,0:0:0:0:
256,192,42365,1,8,0:0:0:0:
256,192,42469,1,0,0:0:0:0:
256,192,42675,1,8,0:0:0:0:
256,192,42779,1,8,0:0:0:0:
256,192,42986,1,0,0:0:0:0:
256,192,43089,1,8,0:0:0:0:
256,192,43193,1,8,0:0:0:0:
256,192,43296,1,0,0:0:0:0:
256,192,43503,1,0,0:0:0:0:
256,192,43710,1,0,0:0:0:0:
256,192,43917,1,0,0:0:0:0:
256,192,44020,1,0,0:0:0:0:
256,192,44227,1,0,0:0:0:0:
256,192,44434,1,0,0:0:0:0:
256,192,44538,1,0,0:0:0:0:
256,192,44744,1,0,0:0:0:0:
256,192,44951,1,4,0:0:0:0:
256,192,45158,1,8,0:0:0:0:
256,192,45365,1,0,0:0:0:0:
256,192,45469,1,0,0:0:0:0:
256,192,45572,1,0,0:0:0:0:
256,192,45675,1,8,0:0:0:0:
256,192,45882,1,0,0:0:0:0:
256,192,46089,1,8,0:0:0:0:
256,192,46193,1,0,0:0:0:0:
256,192,46296,1,0,0:0:0:0:
256,192,46400,1,8,0:0:0:0:
256,192,46606,1,0,0:0:0:0:
256,192,46813,1,8,0:0:0:0:
256,192,47020,1,0,0:0:0:0:
256,192,47124,1,8,0:0:0:0:
256,192,47331,1,0,0:0:0:0:
256,192,47538,1,8,0:0:0:0:
256,192,47744,1,8,0:0:0:0:
256,192,47848,1,0,0:0:0:0:
256,192,48055,1,8,0:0:0:0:
256,192,48158,1,8,0:0:0:0:
256,192,48262,1,4,0:0:0:0:
256,192,48469,1,8,0:0:0:0:
256,192,48675,1,0,0:0:0:0:
256,192,48779,1,0,0:0:0:0:
256,192,48882,1,0,0:0:0:0:
256,192,48986,1,8,0:0:0:0:
256,192,49193,1,0,0:0:0:0:
256,192,49400,1,8,0:0:0:0:
256,192,49503,1,0,0:0:0:0:
256,192,49606,1,0,0:0:0:0:
256,192,49710,1,8,0:0:0:0:
256,192,49917,1,0,0:0:0:0:
256,192,50020,1,0,0:0:0:0:
256,192,50124,1,8,0:0:0:0:
256,192,50227,1,8,0:0:0:0:
256,192,50331,1,0,0:0:0:0:
256,192,50538,1,8,0:0:0:0:
256,192,50641,1,0,0:0:0:0:
256,192,50951,1,8,0:0:0:0:
256,192,51055,1,0,0:0:0:0:
256,192,51158,1,8,0:0:0:0:
256,192,51262,1,0,0:0:0:0:
256,192,51365,1,8,0:0:0:0:
256,192,51572,1,4,0:0:0:0:
256,192,51986,1,8,0:0:0:0:
256,192,52089,1,8,0:0:0:0:
256,192,52193,1,0,0:0:0:0:
256,192,52296,1,8,0:0:0:0:
256,192,52503,1,0,0:0:0:0:
256,192,52606,1,0,0:0:0:0:
256,192,52710,1,8,0:0:0:0:
256,192,52813,1,0,0:0:0:0:
256,192,53020,1,8,0:0:0:0:
256,192,53227,1,0,0:0:0:0:
256,192,53641,1,8,0:0:0:0:
256,192,53744,1,8,0:0:0:0:
256,192,53848,1,0,0:0:0:0:
256,192,53951,1,8,0:0:0:0:
256,192,54158,1,0,0:0:0:0:
256,192,54262,1,0,0:0:0:0:
256,192,54365,1,8,0:0:0:0:
256,192,54469,1,0,0:0:0:0:
256,192,54675,1,8,0:0:0:0:
256,192,54779,1,8,0:0:0:0:
256,192,54882,1,0,0:0:0:0:
256,192,55089,1,8,0:0:0:0:
256,192,55296,1,8,0:0:0:0:
256,192,55400,1,8,0:0:0:0:
256,192,55503,1,0,0:0:0:0:
256,192,55606,1,8,0:0:0:0:
256,192,55813,1,8,0:0:0:0:
256,192,55917,1,0,0:0:0:0:
256,192,56020,1,8,0:0:0:0:
256,192,56331,1,0,0:0:0:0:
256,192,56434,1,0,0:0:0:0:
256,192,56538,1,8,0:0:0:0:
256,192,56744,1,8,0:0:0:0:
256,192,56951,1,0,0:0:0:0:
256,192,57055,1,8,0:0:0:0:
256,192,57365,1,8,0:0:0:0:
256,192,57469,1,0,0:0:0:0:
256,192,57572,1,0,0:0:0:0:
256,192,57675,1,8,0:0:0:0:
256,192,57986,1,8,0:0:0:0:
256,192,58193,1,4,0:0:0:0:
256,192,58400,1,8,0:0:0:0:
256,192,58503,1,0,0:0:0:0:
256,192,58710,1,0,0:0:0:0:
256,192,58813,1,8,0:0:0:0:
256,192,58917,1,0,0:0:0:0:
256,192,59020,1,8,0:0:0:0:
256,192,59124,1,8,0:0:0:0:
256,192,59227,1,0,0:0:0:0:
256,192,59331,1,8,0:0:0:0:
256,192,59641,1,0,0:0:0:0:
256,192,59744,1,0,0:0:0:0:
256,192,59848,1,8,0:0:0:0:
256,192,60055,1,0,0:0:0:0:
256,192,60262,1,8,0:0:0:0:
256,192,60365,1,0,0:0:0:0:
256,192,60469,1,8,0:0:0:0:
256,192,60572,1,8,0:0:0:0:
256,192,60779,1,0,0:0:0:0:
256,192,60882,1,8,0:0:0:0:
256,192,60986,1,0,0:0:0:0:
256,192,61296,1,8,0:0:0:0:
256,192,61503,1,4,0:0:0:0:
256,192,61710,1,8,0:0:0:0:
256,192,61813,1,0,0:0:0:0:
256,192,62020,1,8,0:0:0:0:
256,192,62227,1,0,0:0:0:0:
256,192,62331,1,8,0:0:0:0:
256,192,62434,1,0,0:0:0:0:
256,192,62538,1,0,0:0:0:0:
256,192,62641,1,8,0:0:0:0:
256,192,62951,1,0,0:0:0:0:
256,192,63158,1,8,0:0:0:0:
256,192,63262,1,0,0:0:0:0:
256,192,63365,1,8,0:0:0:0:
256,192,63572,1,0,0:0:0:0:
256,192,63779,1,8,0:0:0:0:
256,192,63882,1,0,0:0:0:0:
256,192,64089,1,8,0:0:0:0:
256,192,64193,1,0,0:0:0:0:
256,192,64296,1,8,0:0:0:0:
256,192,64606,1,0,0:0:0:0:
256,192,64813,1,4,0:0:0:0:
256,192,65020,1,8,0:0:0:0:
256,192,65227,1,0,0:0:0:0:
256,192,65331,1,0,0:0:0:0:
256,192,65434,1,8,0:0:0:0:
256,192,65538,1,8,0:0:0:0:
256,192,65641,1,4,0:0:0:0:
256,192,65848,1,8,0:0:0:0:
256,192,65951,1,0,0:0:0:0:
256,192,66055,1,8,0:0:0:0:
256,192,66262,1,8,0:0:0:0:
256,192,66469,1,4,0:0:0:0:
256,192,66675,1,0,0:0:0:0:
256,192,66882,1,8,0:0:0:0:
256,192,67089,1,0,0:0:0:0:
256,192,67193,1,8,0:0:0:0:
256,192,67296,1,4,0:0:0:0:
256,192,67503,1,8,0:0:0:0:
256,192,67606,1,0,0:0:0:0:
256,192,67710,1,8,0:0:0:0:
256,192,67917,1,0,0:0:0:0:
256,192,68124,1,4,0:0:0:0:
256,192,68331,1,0,0:0:0:0:
256,192,68434,1,8,0:0:0:0:
256,192,68538,1,0,0:0:0:0:
256,192,68744,1,8,0:0:0:0:
256,192,68951,1,4,0:0:0:0:
256,192,69158,1,8,0:0:0:0:
256,192,69262,1,0,0:0:0:0:
256,192,69365,1,8,0:0:0:0:
256,192,69572,1,8,0:0:0:0:
256,192,69779,1,0,0:0:0:0:
256,192,70089,1,0,0:0:0:0:
256,192,70193,1,8,0:0:0:0:
256,192,70400,1,0,0:0:0:0:
256,192,70710,1,0,0:0:0:0:
256,192,70813,1,8,0:0:0:0:
256,192,71020,1,0,0:0:0:0:
256,192,71227,1,8,0:0:0:0:
256,192,71434,1,0,0:0:0:0:
256,192,71538,8,0,72262,0:0:0:0:
256,192,73089,5,4,0:0:0:0:
256,192,73296,1,8,0:0:0:0:
256,192,73400,1,0,0:0:0:0:
256,192,73503,1,8,0:0:0:0:
256,192,73606,1,8,0:0:0:0:
256,192,73710,1,0,0:0:0:0:
256,192,73813,1,0,0:0:0:0:
256,192,73917,1,8,0:0:0:0:
256,192,74020,1,8,0:0:0:0:
256,192,74124,1,0,0:0:0:0:
256,192,74227,1,0,0:0:0:0:
256,192,74331,1,8,0:0:0:0:
256,192,74400,1,0,0:0:0:0:
256,192,74469,1,0,0:0:0:0:
256,192,74538,1,8,0:0:0:0:
256,192,74641,1,8,0:0:0:0:
256,192,74744,1,0,0:0:0:0:
256,192,74848,1,0,0:0:0:0:
256,192,74951,1,8,0:0:0:0:
256,192,75055,1,0,0:0:0:0:
256,192,75158,1,8,0:0:0:0:
256,192,75262,1,8,0:0:0:0:
256,192,75365,1,0,0:0:0:0:
256,192,75469,1,8,0:0:0:0:
256,192,75572,1,0,0:0:0:0:
256,192,75675,1,8,0:0:0:0:
256,192,75779,1,0,0:0:0:0:
256,192,75882,1,0,0:0:0:0:
256,192,75986,1,8,0:0:0:0:
256,192,76089,1,0,0:0:0:0:
256,192,76193,1,8,0:0:0:0:
256,192,76296,1,8,0:0:0:0:
256,192,76400,1,0,0:0:0:0:
256,192,76503,1,0,0:0:0:0:
256,192,76606,1,8,0:0:0:0:
256,192,76710,1,0,0:0:0:0:
256,192,76813,1,8,0:0:0:0:
256,192,76917,1,8,0:0:0:0:
256,192,77020,1,0,0:0:0:0:
256,192,77124,1,8,0:0:0:0:
256,192,77227,1,0,0:0:0:0:
256,192,77331,1,8,0:0:0:0:
256,192,77434,1,0,0:0:0:0:
256,192,77538,1,0,0:0:0:0:
256,192,77641,1,8,0:0:0:0:
256,192,77744,1,0,0:0:0:0:
256,192,77848,1,8,0:0:0:0:
256,192,77951,1,0,0:0:0:0:
256,192,78055,1,8,0:0:0:0:
256,192,78262,1,8,0:0:0:0:
256,192,78365,1,0,0:0:0:0:
256,192,78469,1,8,0:0:0:0:
256,192,78572,1,8,0:0:0:0:
256,192,78675,1,8,0:0:0:0:
256,192,78779,1,0,0:0:0:0:
256,192,78986,1,0,0:0:0:0:
256,192,79089,1,8,0:0:0:0:
256,192,79193,1,0,0:0:0:0:
256,192,79296,1,8,0:0:0:0:
256,192,79400,1,0,0:0:0:0:
256,192,79503,1,8,0:0:0:0:
256,192,79606,1,0,0:0:0:0:
256,192,79710,1,8,0:0:0:0:
256,192,79917,1,8,0:0:0:0:
256,192,80020,1,0,0:0:0:0:
256,192,80124,1,8,0:0:0:0:
256,192,80227,1,8,0:0:0:0:
256,192,80331,1,0,0:0:0:0:
256,192,80434,1,8,0:0:0:0:
256,192,80641,1,8,0:0:0:0:
256,192,80744,1,0,0:0:0:0:
256,192,80848,1,8,0:0:0:0:
256,192,80951,1,4,0:0:0:0:
256,192,81158,1,4,0:0:0:0:
256,192,81365,1,8,0:0:0:0:
256,192,81469,1,0,0:0:0:0:
256,192,81675,1,0,0:0:0:0:
256,192,81779,1,8,0:0:0:0:
256,192,81882,1,0,0:0:0:0:
256,192,81986,1,8,0:0:0:0:
256,192,82089,1,4,0:0:0:0:
256,192,82296,1,8,0:0:0:0:
256,192,82400,1,4,0:0:0:0:
256,192,82606,1,4,0:0:0:0:
256,192,82813,1,4,0:0:0:0:
256,192,83020,1,4,0:0:0:0:
256,192,83227,1,8,0:0:0:0:
256,192,83331,1,0,0:0:0:0:
256,192,83434,1,8,0:0:0:0:
256,192,83538,1,8,0:0:0:0:
256,192,83641,1,0,0:0:0:0:
256,192,83744,1,0,0:0:0:0:
256,192,83848,1,0,0:0:0:0:
256,192,83951,1,8,0:0:0:0:
256,192,84055,1,0,0:0:0:0:
256,192,84158,1,0,0:0:0:0:
256,192,84262,1,8,0:0:0:0:
256,192,84331,1,0,0:0:0:0:
256,192,84400,1,0,0:0:0:0:
256,192,84469,1,8,0:0:0:0:
256,192,84572,1,8,0:0:0:0:
256,192,84675,1,0,0:0:0:0:
256,192,84779,1,0,0:0:0:0:
256,192,84882,1,8,0:0:0:0:
256,192,84986,1,0,0:0:0:0:
256,192,85089,1,8,0:0:0:0:
256,192,85193,1,8,0:0:0:0:
256,192,85296,1,0,0:0:0:0:
256,192,85400,1,8,0:0:0:0:
256,192,85503,1,0,0:0:0:0:
256,192,85606,1,8,0:0:0:0:
256,192,85710,1,0,0:0:0:0:
256,192,85813,1,0,0:0:0:0:
256,192,85917,1,8,0:0:0:0:
256,192,85986,1,0,0:0:0:0:
256,192,86055,1,0,0:0:0:0:
256,192,86124,1,8,0:0:0:0:
256,192,86193,1,8,0:0:0:0:
256,192,86262,1,8,0:0:0:0:
256,192,86331,1,0,0:0:0:0:
256,192,86434,1,0,0:0:0:0:
256,192,86538,1,8,0:0:0:0:
256,192,86641,1,0,0:0:0:0:
256,192,86744,1,8,0:0:0:0:
256,192,86848,1,8,0:0:0:0:
256,192,86951,1,0,0:0:0:0:
256,192,87055,1,8,0:0:0:0:
256,192,87158,1,0,0:0:0:0:
256,192,87262,1,0,0:0:0:0:
256,192,87365,1,8,0:0:0:0:
256,192,87469,1,0,0:0:0:0:
256,192,87572,1,8,0:0:0:0:
256,192,87675,1,0,0:0:0:0:
256,192,87779,1,8,0:0:0:0:
256,192,87986,1,4,0:0:0:0:
256,192,88296,1,8,0:0:0:0:
256,192,88400,1,4,0:0:0:0:
256,192,88606,1,0,0:0:0:0:
256,192,88710,1,8,0:0:0:0:
256,192,88813,1,0,0:0:0:0:
256,192,88917,1,8,0:0:0:0:
256,192,89020,1,0,0:0:0:0:
256,192,89124,1,8,0:0:0:0:
256,192,89227,1,0,0:0:0:0:
256,192,89296,1,8,0:0:0:0:
256,192,89365,1,8,0:0:0:0:
256,192,89434,1,0,0:0:0:0:
256,192,89503,1,8,0:0:0:0:
256,192,89572,1,8,0:0:0:0:
256,192,89641,1,4,0:0:0:0:
256,192,89951,1,0,0:0:0:0:
256,192,90262,1,4,0:0:0:0:
256,192,90675,1,0,0:0:0:0:
256,192,90882,1,8,0:0:0:0:
256,192,91089,1,8,0:0:0:0:
256,192,91193,1,8,0:0:0:0:
256,192,91296,1,4,0:0:0:0:
256,192,91606,1,0,0:0:0:0:
256,192,91917,1,4,0:0:0:0:
256,192,92331,1,0,0:0:0:0:
256,192,92538,1,8,0:0:0:0:
256,192,93779,1,4,0:0:0:0:
256,192,94606,1,0,0:0:0:0:
256,192,94710,1,0,0:0:0:0:
256,192,94813,1,8,0:0:0:0:
256,192,95020,1,0,0:0:0:0:
256,192,95124,1,8,0:0:0:0:
256,192,95331,1,0,0:0:0:0:
256,192,95538,1,0,0:0:0:0:
256,192,95641,1,8,0:0:0:0:
256,192,95744,1,0,0:0:0:0:
256,192,95848,1,8,0:0:0:0:
256,192,96055,1,8,0:0:0:0:
256,192,96262,1,4,0:0:0:0:
256,192,96882,1,0,0:0:0:0:
256,192,97503,1,0,0:0:0:0:
256,192,97917,1,0,0:0:0:0:
256,192,98538,1,0,0:0:0:0:
256,192,99158,1,0,0:0:0:0:
256,192,99572,1,0,0:0:0:0:
256,192,100193,1,0,0:0:0:0:
256,192,100400,1,0,0:0:0:0:
256,192,101020,1,0,0:0:0:0:
256,192,101227,1,0,0:0:0:0:
256,192,101641,1,0,0:0:0:0:
256,192,101951,1,0,0:0:0:0:
256,192,102055,1,8,0:0:0:0:
256,192,102158,1,0,0:0:0:0:
256,192,102262,1,0,0:0:0:0:
256,192,102365,1,8,0:0:0:0:
256,192,102675,1,8,0:0:0:0:
256,192,102882,1,0,0:0:0:0:
256,192,103089,1,0,0:0:0:0:
256,192,103296,1,8,0:0:0:0:
256,192,103503,1,0,0:0:0:0:
256,192,103606,1,0,0:0:0:0:
256,192,103710,1,8,0:0:0:0:
256,192,103813,1,0,0:0:0:0:
256,192,104020,1,8,0:0:0:0:
256,192,104227,1,0,0:0:0:0:
256,192,104331,1,0,0:0:0:0:
256,192,104538,1,8,0:0:0:0:
256,192,104744,1,0,0:0:0:0:
256,192,104848,1,0,0:0:0:0:
256,192,104951,1,8,0:0:0:0:
256,192,105158,1,0,0:0:0:0:
256,192,105262,1,8,0:0:0:0:
256,192,105365,1,0,0:0:0:0:
256,192,105469,1,0,0:0:0:0:
256,192,105572,1,8,0:0:0:0:
256,192,105675,1,8,0:0:0:0:
256,192,105882,1,8,0:0:0:0:
256,192,105986,1,0,0:0:0:0:
256,192,106089,1,8,0:0:0:0:
256,192,106193,1,0,0:0:0:0:
256,192,106400,1,8,0:0:0:0:
256,192,106503,1,8,0:0:0:0:
256,192,106606,1,0,0:0:0:0:
256,192,106710,1,8,0:0:0:0:
256,192,106917,1,0,0:0:0:0:
256,192,107020,1,8,0:0:0:0:
256,192,107124,1,0,0:0:0:0:
256,192,107331,1,8,0:0:0:0:
256,192,107434,1,0,0:0:0:0:
256,192,107538,1,8,0:0:0:0:
256,192,107848,1,4,0:0:0:0:
256,192,108055,1,4,0:0:0:0:
256,192,108262,1,4,0:0:0:0:
256,192,108365,1,4,0:0:0:0:
256,192,108572,1,4,0:0:0:0:
256,192,108779,1,4,0:0:0:0:
256,192,108986,1,4,0:0:0:0:
256,192,109089,1,4,0:0:0:0:
256,192,109296,1,4,0:0:0:0:
256,192,109503,1,4,0:0:0:0:
256,192,110124,1,0,0:0:0:0:
256,192,110227,1,0,0:0:0:0:
256,192,110331,1,8,0:0:0:0:
256,192,110951,1,0,0:0:0:0:
256,192,111158,1,0,0:0:0:0:
256,192,111365,1,0,0:0:0:0:
256,192,111469,1,0,0:0:0:0:
256,192,111779,1,0,0:0:0:0:
256,192,111882,1,0,0:0:0:0:
256,192,111986,1,8,0:0:0:0:
256,192,112606,1,0,0:0:0:0:
256,192,112813,1,4,0:0:0:0:
256,192,113434,1,0,0:0:0:0:
256,192,113538,1,0,0:0:0:0:
256,192,113641,1,8,0:0:0:0:
256,192,114262,1,0,0:0:0:0:
256,192,114469,1,0,0:0:0:0:
256,192,114675,1,0,0:0:0:0:
256,192,114779,1,0,0:0:0:0:
256,192,115089,1,0,0:0:0:0:
256,192,115296,1,8,0:0:0:0:
256,192,115400,1,0,0:0:0:0:
256,192,115503,1,0,0:0:0:0:
256,192,115606,1,0,0:0:0:0:
256,192,115710,1,0,0:0:0:0:
256,192,115813,1,0,0:0:0:0:
256,192,115917,1,8,0:0:0:0:
256,192,116124,1,4,0:0:0:0:
256,192,116331,1,8,0:0:0:0:
256,192,116538,1,4,0:0:0:0:
256,192,116744,1,8,0:0:0:0:
256,192,116848,1,8,0:0:0:0:
256,192,116951,1,4,0:0:0:0:
256,192,117158,1,0,0:0:0:0:
256,192,117262,1,8,0:0:0:0:
256,192,117365,1,4,0:0:0:0:
256,192,117572,1,8,0:0:0:0:
256,192,117779,1,4,0:0:0:0:
256,192,117986,1,8,0:0:0:0:
256,192,118193,1,4,0:0:0:0:
256,192,118400,1,8,0:0:0:0:
256,192,118606,1,4,0:0:0:0:
256,192,118813,1,8,0:0:0:0:
256,192,118917,1,8,0:0:0:0:
256,192,119020,1,4,0:0:0:0:
256,192,119227,1,8,0:0:0:0:
256,192,119331,1,8,0:0:0:0:
256,192,119434,1,4,0:0:0:0:
256,192,119641,1,0,0:0:0:0:
256,192,119744,1,8,0:0:0:0:
256,192,119848,1,4,0:0:0:0:
256,192,120055,1,8,0:0:0:0:
256,192,120262,1,4,0:0:0:0:
256,192,120469,1,8,0:0:0:0:
256,192,120572,1,8,0:0:0:0:
256,192,120675,1,4,0:0:0:0:
256,192,120882,1,8,0:0:0:0:
256,192,121503,1,4,0:0:0:0:
256,192,121917,1,0,0:0:0:0:
256,192,122227,1,8,0:0:0:0:
256,192,122434,1,0,0:0:0:0:
256,192,122538,1,8,0:0:0:0:
256,192,122641,1,8,0:0:0:0:
256,192,122744,1,0,0:0:0:0:
256,192,123158,1,0,0:0:0:0:
256,192,124400,1,4,0:0:0:0:
256,192,124606,1,8,0:0:0:0:
256,192,124710,1,0,0:0:0:0:
256,192,124813,1,8,0:0:0:0:
256,192,124917,1,8,0:0:0:0:
256,192,125020,1,0,0:0:0:0:
256,192,125124,1,8,0:0:0:0:
256,192,125227,1,8,0:0:0:0:
256,192,125331,1,0,0:0:0:0:
256,192,125434,1,8,0:0:0:0:
256,192,125538,1,0,0:0:0:0:
256,192,125641,1,8,0:0:0:0:
256,192,125710,1,0,0:0:0:0:
256,192,125779,1,0,0:0:0:0:
256,192,125848,1,8,0:0:0:0:
256,192,125951,1,8,0:0:0:0:
256,192,126055,1,0,0:0:0:0:
256,192,126158,1,8,0:0:0:0:
256,192,126262,1,0,0:0:0:0:
256,192,126365,1,0,0:0:0:0:
256,192,126469,1,8,0:0:0:0:
256,192,126572,1,0,0:0:0:0:
256,192,126675,1,8,0:0:0:0:
256,192,126779,1,8,0:0:0:0:
256,192,126882,1,0,0:0:0:0:
256,192,126986,1,8,0:0:0:0:
256,192,127089,1,0,0:0:0:0:
256,192,127193,1,0,0:0:0:0:
256,192,127296,1,8,0:0:0:0:
256,192,127400,1,0,0:0:0:0:
256,192,127503,1,8,0:0:0:0:
256,192,127606,1,8,0:0:0:0:
256,192,127710,1,0,0:0:0:0:
256,192,127813,1,0,0:0:0:0:
256,192,127917,1,8,0:0:0:0:
256,192,128020,1,0,0:0:0:0:
256,192,128124,1,8,0:0:0:0:
256,192,128227,1,8,0:0:0:0:
256,192,128331,1,0,0:0:0:0:
256,192,128434,1,8,0:0:0:0:
256,192,128538,1,0,0:0:0:0:
256,192,128641,1,8,0:0:0:0:
256,192,128744,1,0,0:0:0:0:
256,192,128848,1,0,0:0:0:0:
256,192,128951,1,8,0:0:0:0:
256,192,129055,1,8,0:0:0:0:
256,192,129158,1,0,0:0:0:0:
256,192,129262,1,8,0:0:0:0:
256,192,129365,1,0,0:0:0:0:
256,192,129469,1,0,0:0:0:0:
256,192,129572,1,8,0:0:0:0:
256,192,129675,1,0,0:0:0:0:
256,192,129779,1,8,0:0:0:0:
256,192,129882,1,8,0:0:0:0:
256,192,129986,1,8,0:0:0:0:
256,192,130089,1,0,0:0:0:0:
256,192,130296,1,0,0:0:0:0:
256,192,130400,1,8,0:0:0:0:
256,192,130503,1,0,0:0:0:0:
256,192,130606,1,8,0:0:0:0:
256,192,130710,1,0,0:0:0:0:
256,192,130813,1,8,0:0:0:0:
256,192,130917,1,0,0:0:0:0:
256,192,131020,1,8,0:0:0:0:
256,192,131227,1,8,0:0:0:0:
256,192,131331,1,0,0:0:0:0:
256,192,131434,1,8,0:0:0:0:
256,192,131538,1,8,0:0:0:0:
256,192,131641,1,0,0:0:0:0:
256,192,131744,1,8,0:0:0:0:
256,192,131951,1,8,0:0:0:0:
256,192,132055,1,0,0:0:0:0:
256,192,132158,1,8,0:0:0:0:
256,192,132262,1,4,0:0:0:0:
256,192,132469,1,4,0:0:0:0:
256,192,132675,1,8,0:0:0:0:
256,192,132779,1,0,0:0:0:0:
256,192,132986,1,0,0:0:0:0:
256,192,133089,1,8,0:0:0:0:
256,192,133193,1,0,0:0:0:0:
256,192,133296,1,8,0:0:0:0:
256,192,133400,1,4,0:0:0:0:
256,192,133606,1,8,0:0:0:0:
256,192,133710,1,4,0:0:0:0:
256,192,133917,1,8,0:0:0:0:
256,192,134124,1,4,0:0:0:0:
256,192,134331,1,4,0:0:0:0:
256,192,134538,1,0,0:0:0:0:
256,192,134641,1,0,0:0:0:0:
256,192,134744,1,8,0:0:0:0:
256,192,134848,1,8,0:0:0:0:
256,192,134951,1,0,0:0:0:0:
256,192,135055,1,8,0:0:0:0:
256,192,135158,1,0,0:0:0:0:
256,192,135262,1,8,0:0:0:0:
256,192,135365,1,0,0:0:0:0:
256,192,135469,1,0,0:0:0:0:
256,192,135572,1,8,0:0:0:0:
256,192,135641,1,0,0:0:0:0:
256,192,135710,1,0,0:0:0:0:
256,192,135779,1,8,0:0:0:0:
256,192,135882,1,8,0:0:0:0:
256,192,135986,1,0,0:0:0:0:
256,192,136089,1,0,0:0:0:0:
256,192,136193,1,8,0:0:0:0:
256,192,136296,1,0,0:0:0:0:
256,192,136400,1,8,0:0:0:0:
256,192,136503,1,8,0:0:0:0:
256,192,136606,1,0,0:0:0:0:
256,192,136710,1,8,0:0:0:0:
256,192,136813,1,0,0:0:0:0:
256,192,136917,1,8,0:0:0:0:
256,192,137020,1,0,0:0:0:0:
256,192,137124,1,0,0:0:0:0:
256,192,137227,1,8,0:0:0:0:
256,192,137296,1,0,0:0:0:0:
256,192,137365,1,0,0:0:0:0:
256,192,137434,1,8,0:0:0:0:
256,192,137503,1,8,0:0:0:0:
256,192,137572,1,8,0:0:0:0:
256,192,137641,1,0,0:0:0:0:
256,192,137744,1,0,0:0:0:0:
256,192,137848,1,8,0:0:0:0:
256,192,137951,1,0,0:0:0:0:
256,192,138055,1,8,0:0:0:0:
256,192,138158,1,8,0:0:0:0:
256,192,138262,1,0,0:0:0:0:
256,192,138365,1,8,0:0:0:0:
256,192,138469,1,0,0:0:0:0:
256,192,138572,1,8,0:0:0:0:
256,192,138675,1,0,0:0:0:0:
256,192,138779,1,0,0:0:0:0:
256,192,138882,1,8,0:0:0:0:
256,192,138986,1,0,0:0:0:0:
256,192,139089,1,8,0:0:0:0:
256,192,139296,1,4,0:0:0:0:
256,192,139606,1,8,0:0:0:0:
256,192,139710,1,4,0:0:0:0:
256,192,139917,1,0,0:0:0:0:
256,192,140020,1,8,0:0:0:0:
256,192,140124,1,0,0:0:0:0:
256,192,140227,1,8,0:0:0:0:
256,192,140331,1,0,0:0:0:0:
256,192,140434,1,8,0:0:0:0:
256,192,140538,1,0,0:0:0:0:
256,192,140606,1,8,0:0:0:0:
256,192,140675,1,8,0:0:0:0:
256,192,140744,1,0,0:0:0:0:
256,192,140813,1,8,0:0:0:0:
256,192,140882,1,8,0:0:0:0:
256,192,140951,1,4,0:0:0:0:
256,192,141262,1,0,0:0:0:0:
256,192,141572,1,4,0:0:0:0:
256,192,141986,1,0,0:0:0:0:
256,192,142193,1,12,0:0:0:0:
256,192,142503,1,8,0:0:0:0:
256,192,142606,1,4,0:0:0:0:
256,192,142917,1,0,0:0:0:0:
256,192,143227,1,4,0:0:0:0:
256,192,143641,1,0,0:0:0:0:
256,192,143848,1,12,0:0:0:0:
256,192,144262,1,4,0:0:0:0:
256,192,144572,1,0,0:0:0:0:
256,192,144675,1,8,0:0:0:0:
256,192,144882,1,4,0:0:0:0:
256,192,145296,1,0,0:0:0:0:
256,192,145503,1,8,0:0:0:0:
256,192,145917,1,0,0:0:0:0:
256,192,146227,1,0,0:0:0:0:
256,192,146331,1,8,0:0:0:0:
256,192,146538,1,0,0:0:0:0:
256,192,146951,1,0,0:0:0:0:
256,192,147158,1,8,0:0:0:0:
256,192,147572,1,4,0:0:0:0:
256,192,147882,1,0,0:0:0:0:
256,192,147986,1,8,0:0:0:0:
256,192,148193,1,4,0:0:0:0:
256,192,148606,1,0,0:0:0:0:
256,192,148813,1,8,0:0:0:0:
256,192,149020,1,0,0:0:0:0:
256,192,149227,1,0,0:0:0:0:
256,192,150158,1,0,0:0:0:0:
256,192,150262,1,8,0:0:0:0:
256,192,150365,1,0,0:0:0:0:
256,192,150469,1,8,0:0:0:0:
256,192,150572,1,8,0:0:0:0:
256,192,150675,1,8,0:0:0:0:
256,192,150779,1,8,0:0:0:0:
256,192,150882,1,4,0:0:0:0:
256,192,151193,1,0,0:0:0:0:
256,192,151296,1,8,0:0:0:0:
256,192,151503,1,4,0:0:0:0:
256,192,151917,1,0,0:0:0:0:
256,192,152124,1,8,0:0:0:0:
256,192,152538,1,0,0:0:0:0:
256,192,152675,1,8,0:0:0:0:
256,192,152813,1,8,0:0:0:0:
256,192,152951,1,0,0:0:0:0:
256,192,153089,1,8,0:0:0:0:
256,192,153227,1,8,0:0:0:0:
256,192,153365,1,0,0:0:0:0:
256,192,153503,1,8,0:0:0:0:
256,192,153641,1,8,0:0:0:0:
256,192,153779,1,0,0:0:0:0:
256,192,153986,1,8,0:0:0:0:
256,192,154193,1,4,0:0:0:0:
256,192,154503,1,0,0:0:0:0:
256,192,154606,1,8,0:0:0:0:
256,192,154813,1,4,0:0:0:0:
256,192,155020,1,8,0:0:0:0:
256,192,155124,1,8,0:0:0:0:
256,192,155227,1,0,0:0:0:0:
256,192,155434,1,4,0:0:0:0:
256,192,155641,1,8,0:0:0:0:
256,192,155848,1,4,0:0:0:0:
256,192,156055,1,8,0:0:0:0:
256,192,156158,1,8,0:0:0:0:
256,192,156262,1,8,0:0:0:0:
256,192,156469,1,4,0:0:0:0:
256,192,156675,1,8,0:0:0:0:
256,192,156779,1,8,0:0:0:0:
256,192,156882,1,8,0:0:0:0:
256,192,157089,1,4,0:0:0:0:
256,192,157503,1,0,0:0:0:0:
256,192,157606,1,8,0:0:0:0:
256,192,157710,1,0,0:0:0:0:
256,192,157917,1,8,0:0:0:0:
256,192,158124,1,0,0:0:0:0:
256,192,158331,1,0,0:0:0:0:
256,192,158434,1,8,0:0:0:0:
256,192,158538,1,0,0:0:0:0:
256,192,158744,1,8,0:0:0:0:
256,192,158848,1,8,0:0:0:0:
256,192,158951,1,0,0:0:0:0:
256,192,159159,1,8,0:0:0:0:
256,192,159365,1,0,0:0:0:0:
256,192,159469,1,0,0:0:0:0:
256,192,159572,1,8,0:0:0:0:
256,192,159675,1,8,0:0:0:0:
256,192,159779,1,0,0:0:0:0:
256,192,159986,1,0,0:0:0:0:
256,192,160089,1,8,0:0:0:0:
256,192,160193,1,0,0:0:0:0:
256,192,160400,1,8,0:0:0:0:
256,192,160503,1,8,0:0:0:0:
256,192,160606,1,0,0:0:0:0:
256,192,160814,1,8,0:0:0:0:
256,192,161020,1,0,0:0:0:0:
256,192,161227,1,8,0:0:0:0:
256,192,161434,1,8,0:0:0:0:
256,192,161641,1,0,0:0:0:0:
256,192,161744,1,8,0:0:0:0:
256,192,161848,1,0,0:0:0:0:
256,192,162055,1,8,0:0:0:0:
256,192,162262,1,0,0:0:0:0:
256,192,162470,1,8,0:0:0:0:
256,192,162675,1,0,0:0:0:0:
256,192,162882,1,8,0:0:0:0:
256,192,163089,1,0,0:0:0:0:
256,192,163193,1,0,0:0:0:0:
256,192,163296,1,8,0:0:0:0:
256,192,163400,1,8,0:0:0:0:
256,192,163503,1,0,0:0:0:0:
256,192,163710,1,8,0:0:0:0:
256,192,163917,1,0,0:0:0:0:
256,192,164125,1,8,0:0:0:0:
256,192,164227,1,8,0:0:0:0:
256,192,164331,1,0,0:0:0:0:
256,192,164434,1,8,0:0:0:0:
256,192,164641,1,0,0:0:0:0:
256,192,164848,1,8,0:0:0:0:
256,192,164951,1,8,0:0:0:0:
256,192,165158,1,0,0:0:0:0:
256,192,165365,1,8,0:0:0:0:
256,192,165572,1,0,0:0:0:0:
256,192,165780,1,8,0:0:0:0:
256,192,165986,1,0,0:0:0:0:
256,192,166089,1,8,0:0:0:0:
256,192,166296,1,0,0:0:0:0:
256,192,166400,1,8,0:0:0:0:
256,192,166606,1,0,0:0:0:0:
256,192,166710,1,8,0:0:0:0:
256,192,166813,1,0,0:0:0:0:
256,192,167020,1,8,0:0:0:0:
256,192,167331,1,0,0:0:0:0:
256,192,167435,1,0,0:0:0:0:
256,192,167641,1,8,0:0:0:0:
256,192,167848,1,0,0:0:0:0:
256,192,168055,1,0,0:0:0:0:
256,192,168158,1,8,0:0:0:0:
256,192,168262,1,8,0:0:0:0:
256,192,168469,1,0,0:0:0:0:
256,192,168675,1,8,0:0:0:0:
256,192,168779,1,8,0:0:0:0:
256,192,168882,1,0,0:0:0:0:
256,192,168986,1,8,0:0:0:0:
256,192,169090,1,0,0:0:0:0:
256,192,169296,1,8,0:0:0:0:
256,192,169400,1,8,0:0:0:0:
256,192,169503,1,0,0:0:0:0:
256,192,169606,1,0,0:0:0:0:
256,192,169710,1,8,0:0:0:0:
256,192,169813,1,8,0:0:0:0:
256,192,169917,1,0,0:0:0:0:
256,192,170124,1,8,0:0:0:0:
256,192,170331,1,0,0:0:0:0:
256,192,170434,1,0,0:0:0:0:
256,192,170538,1,8,0:0:0:0:
256,192,170744,1,0,0:0:0:0:
256,192,170951,1,8,0:0:0:0:
256,192,171055,1,8,0:0:0:0:
256,192,171158,1,8,0:0:0:0:
256,192,171365,1,0,0:0:0:0:
256,192,172400,1,0,0:0:0:0:
256,192,172606,1,8,0:0:0:0:
256,192,172710,1,8,0:0:0:0:
256,192,172813,1,8,0:0:0:0:
256,192,173020,1,0,0:0:0:0:
256,192,173331,1,8,0:0:0:0:
256,192,173538,1,0,0:0:0:0:
256,192,173641,1,8,0:0:0:0:
256,192,173744,1,0,0:0:0:0:
256,192,173848,1,8,0:0:0:0:
256,192,173951,1,8,0:0:0:0:
256,192,174055,1,0,0:0:0:0:
256,192,174262,1,8,0:0:0:0:
256,192,174365,1,8,0:0:0:0:
256,192,174469,1,8,0:0:0:0:
256,192,174675,1,0,0:0:0:0:
256,192,175710,1,0,0:0:0:0:
256,192,175917,1,8,0:0:0:0:
256,192,176020,1,8,0:0:0:0:
256,192,176124,1,8,0:0:0:0:
256,192,176331,1,0,0:0:0:0:
256,192,176641,1,0,0:0:0:0:
256,192,176744,1,8,0:0:0:0:
256,192,176848,1,8,0:0:0:0:
256,192,176951,1,0,0:0:0:0:
256,192,177158,1,8,0:0:0:0:
256,192,177365,1,0,0:0:0:0:
256,192,177572,1,8,0:0:0:0:
256,192,177675,1,8,0:0:0:0:
256,192,177779,1,8,0:0:0:0:
256,192,177986,1,0,0:0:0:0:
256,192,178193,1,8,0:0:0:0:
256,192,179020,1,0,0:0:0:0:
256,192,179227,1,8,0:0:0:0:
256,192,179331,1,8,0:0:0:0:
256,192,179434,1,8,0:0:0:0:
256,192,179641,1,0,0:0:0:0:
256,192,180675,1,0,0:0:0:0:
256,192,180882,1,0,0:0:0:0:
256,192,181089,1,0,0:0:0:0:
256,192,181296,1,0,0:0:0:0:
256,192,181503,1,0,0:0:0:0:
256,192,181710,1,0,0:0:0:0:
256,192,181917,1,0,0:0:0:0:
256,192,182124,1,0,0:0:0:0:
256,192,182331,1,0,0:0:0:0:
256,192,182538,1,0,0:0:0:0:
256,192,182744,1,0,0:0:0:0:
256,192,182848,1,0,0:0:0:0:
256,192,182951,1,0,0:0:0:0:
256,192,183055,1,0,0:0:0:0:
256,192,183158,1,4,0:0:0:0:
256,192,183986,1,4,0:0:0:0:
256,192,184193,1,0,0:0:0:0:
256,192,184400,1,8,0:0:0:0:
256,192,184606,1,0,0:0:0:0:
256,192,184813,1,8,0:0:0:0:
256,192,184917,1,8,0:0:0:0:
256,192,185020,1,0,0:0:0:0:
256,192,185227,1,8,0:0:0:0:
256,192,185434,1,0,0:0:0:0:
256,192,185538,1,0,0:0:0:0:
256,192,185641,1,8,0:0:0:0:
256,192,185848,1,0,0:0:0:0:
256,192,186055,1,8,0:0:0:0:
256,192,186262,1,0,0:0:0:0:
256,192,186469,1,0,0:0:0:0:
256,192,186572,1,8,0:0:0:0:
256,192,186675,1,0,0:0:0:0:
256,192,186882,1,8,0:0:0:0:
256,192,187089,1,0,0:0:0:0:
256,192,187296,1,8,0:0:0:0:
256,192,187503,1,0,0:0:0:0:
256,192,187710,1,8,0:0:0:0:
256,192,187917,1,0,0:0:0:0:
256,192,188020,1,8,0:0:0:0:
256,192,188227,1,8,0:0:0:0:
256,192,188331,1,0,0:0:0:0:
256,192,188538,1,8,0:0:0:0:
256,192,188744,1,0,0:0:0:0:
256,192,188848,1,0,0:0:0:0:
256,192,188951,1,8,0:0:0:0:
256,192,189158,1,8,0:0:0:0:
256,192,189365,1,8,0:0:0:0:
256,192,189469,1,8,0:0:0:0:
256,192,189675,1,0,0:0:0:0:
256,192,189882,1,0,0:0:0:0:
256,192,189986,1,8,0:0:0:0:
256,192,190193,1,8,0:0:0:0:
256,192,190296,1,0,0:0:0:0:
256,192,190400,1,8,0:0:0:0:
256,192,190503,1,0,0:0:0:0:
256,192,190606,1,8,0:0:0:0:
256,192,190813,1,8,0:0:0:0:
256,192,190917,1,0,0:0:0:0:
256,192,191020,1,8,0:0:0:0:
256,192,191227,1,0,0:0:0:0:
256,192,191331,1,8,0:0:0:0:
256,192,191538,1,0,0:0:0:0:
256,192,191641,1,8,0:0:0:0:
256,192,191744,1,8,0:0:0:0:
256,192,191848,1,4,0:0:0:0:
256,192,192055,1,4,0:0:0:0:
256,192,192262,1,8,0:0:0:0:
256,192,192365,1,0,0:0:0:0:
256,192,192572,1,0,0:0:0:0:
256,192,192675,1,8,0:0:0:0:
256,192,192779,1,0,0:0:0:0:
256,192,192882,1,0,0:0:0:0:
256,192,192986,1,8,0:0:0:0:
256,192,193193,1,0,0:0:0:0:
256,192,193296,1,0,0:0:0:0:
256,192,193503,1,8,0:0:0:0:
256,192,193710,1,8,0:0:0:0:
256,192,193917,1,4,0:0:0:0:
256,192,194124,1,0,0:0:0:0:
256,192,194227,1,0,0:0:0:0:
256,192,194331,1,8,0:0:0:0:
256,192,194400,1,8,0:0:0:0:
256,192,194469,1,0,0:0:0:0:
256,192,194538,1,0,0:0:0:0:
256,192,194641,1,8,0:0:0:0:
256,192,194744,1,0,0:0:0:0:
256,192,194848,1,8,0:0:0:0:
256,192,194951,1,0,0:0:0:0:
256,192,195055,1,0,0:0:0:0:
256,192,195158,1,8,0:0:0:0:
256,192,195227,1,8,0:0:0:0:
256,192,195296,1,8,0:0:0:0:
256,192,195365,1,0,0:0:0:0:
256,192,195469,1,0,0:0:0:0:
256,192,195572,1,8,0:0:0:0:
256,192,195675,1,0,0:0:0:0:
256,192,195779,1,8,0:0:0:0:
256,192,195882,1,0,0:0:0:0:
256,192,195986,1,8,0:0:0:0:
256,192,196089,1,8,0:0:0:0:
256,192,196193,1,0,0:0:0:0:
256,192,196296,1,0,0:0:0:0:
256,192,196400,1,8,0:0:0:0:
256,192,196503,1,0,0:0:0:0:
256,192,196606,1,8,0:0:0:0:
256,192,196710,1,0,0:0:0:0:
256,192,196813,1,8,0:0:0:0:
256,192,196917,1,0,0:0:0:0:
256,192,197020,1,8,0:0:0:0:
256,192,197124,1,8,0:0:0:0:
256,192,197227,1,0,0:0:0:0:
256,192,197331,1,0,0:0:0:0:
256,192,197434,1,8,0:0:0:0:
256,192,197538,1,8,0:0:0:0:
256,192,197641,1,0,0:0:0:0:
256,192,197710,1,0,0:0:0:0:
256,192,197779,1,0,0:0:0:0:
256,192,197848,1,8,0:0:0:0:
256,192,197951,1,0,0:0:0:0:
256,192,198055,1,8,0:0:0:0:
256,192,198158,1,8,0:0:0:0:
256,192,198262,1,0,0:0:0:0:
256,192,198365,1,0,0:0:0:0:
256,192,198469,1,8,0:0:0:0:
256,192,198538,1,0,0:0:0:0:
256,192,198606,1,0,0:0:0:0:
256,192,198675,1,8,0:0:0:0:
256,192,198779,1,8,0:0:0:0:
256,192,198882,1,0,0:0:0:0:
256,192,198986,1,0,0:0:0:0:
256,192,199089,1,8,0:0:0:0:
256,192,199193,1,0,0:0:0:0:
256,192,199296,1,8,0:0:0:0:
256,192,199400,1,8,0:0:0:0:
256,192,199503,1,0,0:0:0:0:
256,192,199606,1,0,0:0:0:0:
256,192,199710,1,8,0:0:0:0:
256,192,199813,1,8,0:0:0:0:
256,192,199917,1,0,0:0:0:0:
256,192,200020,1,0,0:0:0:0:
256,192,200124,1,8,0:0:0:0:
256,192,200227,1,0,0:0:0:0:
256,192,200331,1,8,0:0:0:0:
256,192,200434,1,8,0:0:0:0:
256,192,200538,1,0,0:0:0:0:
256,192,200744,1,0,0:0:0:0:
256,192,200848,1,8,0:0:0:0:
256,192,200951,1,0,0:0:0:0:
256,192,201055,1,8,0:0:0:0:
256,192,201158,1,0,0:0:0:0:
256,192,201262,1,8,0:0:0:0:
256,192,201365,1,8,0:0:0:0:
256,192,201469,1,0,0:0:0:0:
256,192,201572,1,8,0:0:0:0:
256,192,201675,1,8,0:0:0:0:
256,192,201779,1,4,0:0:0:0:
256,192,201986,1,4,0:0:0:0:
256,192,202193,1,8,0:0:0:0:
256,192,202296,1,0,0:0:0:0:
256,192,202400,1,8,0:0:0:0:
256,192,202503,1,8,0:0:0:0:
256,192,202606,1,0,0:0:0:0:
256,192,202710,1,8,0:0:0:0:
256,192,202813,1,0,0:0:0:0:
256,192,202917,1,8,0:0:0:0:
256,192,203020,1,4,0:0:0:0:
256,192,203331,1,4,0:0:0:0:
256,192,203641,1,4,0:0:0:0:
256,192,203848,1,4,0:0:0:0:
256,192,203951,1,4,0:0:0:0:
256,192,204055,1,4,0:0:0:0:
256,192,204158,1,4,0:0:0:0:
256,192,204262,1,4,0:0:0:0:
256,192,204882,1,4,0:0:0:0:
256,192,205089,1,8,0:0:0:0:
256,192,205296,1,4,0:0:0:0:
256,192,205503,1,4,0:0:0:0:
256,192,205710,1,8,0:0:0:0:
256,192,205813,1,0,0:0:0:0:
256,192,205917,1,8,0:0:0:0:
256,192,206020,1,8,0:0:0:0:
256,192,206124,1,0,0:0:0:0:
256,192,206227,1,8,0:0:0:0:
256,192,206331,1,0,0:0:0:0:
256,192,206434,1,8,0:0:0:0:
256,192,206538,1,8,0:0:0:0:
256,192,206641,1,0,0:0:0:0:
256,192,206744,1,8,0:0:0:0:
256,192,206813,1,0,0:0:0:0:
256,192,206882,1,0,0:0:0:0:
256,192,206951,1,8,0:0:0:0:
256,192,207020,1,8,0:0:0:0:
256,192,207089,1,8,0:0:0:0:
256,192,207158,1,0,0:0:0:0:
256,192,207262,1,0,0:0:0:0:
256,192,207365,1,8,0:0:0:0:
256,192,207469,1,0,0:0:0:0:
256,192,207572,1,8,0:0:0:0:
256,192,207675,1,8,0:0:0:0:
256,192,207779,1,0,0:0:0:0:
256,192,207882,1,8,0:0:0:0:
256,192,207986,1,0,0:0:0:0:
256,192,208089,1,8,0:0:0:0:
256,192,208193,1,0,0:0:0:0:
256,192,208296,1,0,0:0:0:0:
256,192,208400,1,8,0:0:0:0:
256,192,208503,1,0,0:0:0:0:
256,192,208606,1,8,0:0:0:0:
256,192,208813,1,4,0:0:0:0:
256,192,208951,1,8,0:0:0:0:
256,192,209089,1,8,0:0:0:0:
256,192,209227,1,4,0:0:0:0:
256,192,209365,1,8,0:0:0:0:
256,192,209503,1,8,0:0:0:0:
256,192,209641,1,4,0:0:0:0:
256,192,209848,1,0,0:0:0:0:
256,192,209951,1,8,0:0:0:0:
256,192,210055,1,0,0:0:0:0:
256,192,210124,1,8,0:0:0:0:
256,192,210193,1,8,0:0:0:0:
256,192,210262,1,0,0:0:0:0:
256,192,210331,1,8,0:0:0:0:
256,192,210400,1,8,0:0:0:0:
256,192,210469,1,4,0:0:0:0:
256,192,210779,1,0,0:0:0:0:
256,192,211089,1,4,0:0:0:0:
256,192,211503,1,0,0:0:0:0:
256,192,211710,1,12,0:0:0:0:
256,192,212124,1,4,0:0:0:0:
256,192,212434,1,0,0:0:0:0:
256,192,212744,1,4,0:0:0:0:
256,192,213158,1,0,0:0:0:0:
256,192,213365,1,12,0:0:0:0:
256,192,213779,1,0,0:0:0:0:
256,192,214193,1,0,0:0:0:0:
256,192,214606,1,0,0:0:0:0:
256,192,215020,1,0,0:0:0:0:
256,192,215434,1,0,0:0:0:0:
256,192,215641,1,8,0:0:0:0:
256,192,215848,1,0,0:0:0:0:
256,192,215951,1,8,0:0:0:0:
256,192,216158,1,8,0:0:0:0:
256,192,216365,1,0,0:0:0:0:
256,192,216469,1,0,0:0:0:0:
256,192,216675,1,8,0:0:0:0:
256,192,217089,1,4,0:0:0:0:
256,192,217296,1,8,0:0:0:0:
256,192,217503,1,0,0:0:0:0:
256,192,217606,1,0,0:0:0:0:
256,192,217710,1,0,0:0:0:0:
256,192,217813,1,8,0:0:0:0:
256,192,218020,1,0,0:0:0:0:
256,192,218227,1,8,0:0:0:0:
256,192,218331,1,0,0:0:0:0:
256,192,218434,1,0,0:0:0:0:
256,192,218538,1,8,0:0:0:0:
256,192,218744,1,0,0:0:0:0:
256,192,218951,1,8,0:0:0:0:
256,192,219158,1,0,0:0:0:0:
256,192,219262,1,8,0:0:0:0:
256,192,219469,1,0,0:0:0:0:
256,192,219675,1,8,0:0:0:0:
256,192,219882,1,8,0:0:0:0:
256,192,219986,1,0,0:0:0:0:
256,192,220193,1,8,0:0:0:0:
256,192,220296,1,8,0:0:0:0:
256,192,220400,1,4,0:0:0:0:
256,192,220606,1,8,0:0:0:0:
256,192,220813,1,0,0:0:0:0:
256,192,220917,1,0,0:0:0:0:
256,192,221020,1,0,0:0:0:0:
256,192,221124,1,8,0:0:0:0:
256,192,221331,1,0,0:0:0:0:
256,192,221538,1,8,0:0:0:0:
256,192,221641,1,0,0:0:0:0:
256,192,221744,1,0,0:0:0:0:
256,192,221848,1,8,0:0:0:0:
256,192,222055,1,0,0:0:0:0:
256,192,222262,1,0,0:0:0:0:
256,192,222365,1,0,0:0:0:0:
256,192,222469,1,0,0:0:0:0:
256,192,222572,1,8,0:0:0:0:
256,192,222779,1,0,0:0:0:0:
256,192,222882,1,8,0:0:0:0:
256,192,223089,1,8,0:0:0:0:
256,192,223193,1,0,0:0:0:0:
256,192,223296,1,8,0:0:0:0:
256,192,223503,1,8,0:0:0:0:
256,192,223710,1,8,0:0:0:0:
256,192,223813,1,0,0:0:0:0:
256,192,223917,1,8,0:0:0:0:
256,192,224020,1,0,0:0:0:0:
256,192,224124,1,8,0:0:0:0:
256,192,224331,1,8,0:0:0:0:
256,192,224434,1,0,0:0:0:0:
256,192,224538,1,8,0:0:0:0:
256,192,224641,1,0,0:0:0:0:
256,192,224744,1,8,0:0:0:0:
256,192,224951,1,8,0:0:0:0:
256,192,225055,1,0,0:0:0:0:
256,192,225158,1,8,0:0:0:0:
256,192,225262,1,0,0:0:0:0:
256,192,225365,1,8,0:0:0:0:
256,192,225572,1,8,0:0:0:0:
256,192,225675,1,0,0:0:0:0:
256,192,225779,1,8,0:0:0:0:
256,192,225882,1,0,0:0:0:0:
256,192,225986,1,8,0:0:0:0:
256,192,226193,1,8,0:0:0:0:
256,192,226296,1,0,0:0:0:0:
256,192,226400,1,8,0:0:0:0:
256,192,226503,1,0,0:0:0:0:
256,192,226606,1,8,0:0:0:0:
256,192,226710,1,8,0:0:0:0:
256,192,226813,1,8,0:0:0:0:
256,192,227020,1,8,0:0:0:0:
256,192,227124,1,0,0:0:0:0:
256,192,227227,1,8,0:0:0:0:
256,192,227331,1,0,0:0:0:0:
256,192,227434,1,8,0:0:0:0:
256,192,227641,1,8,0:0:0:0:
256,192,227744,1,0,0:0:0:0:
256,192,227848,1,8,0:0:0:0:
256,192,227951,1,0,0:0:0:0:
256,192,228055,1,8,0:0:0:0:
256,192,228262,1,8,0:0:0:0:
256,192,228365,1,0,0:0:0:0:
256,192,228469,1,8,0:0:0:0:
256,192,228572,1,0,0:0:0:0:
256,192,228675,1,12,0:0:0:0:
256,192,229089,1,4,0:0:0:0:
256,192,229503,1,12,0:0:0:0:
256,192,229917,1,4,0:0:0:0:
256,192,230331,1,12,0:0:0:0:
256,192,230744,1,4,0:0:0:0:
256,192,231158,12,0,231296,0:0:0:0:
256,192,231365,8,0,231503,0:0:0:0:
256,192,231572,8,0,231710,0:0:0:0:
256,192,231779,8,0,231917,0:0:0:0:
