osu file format v14

[General]
AudioFilename: audio.mp3
AudioLeadIn: 0
PreviewTime: 72262
Countdown: 0
SampleSet: Normal
StackLeniency: 0
Mode: 1
LetterboxInBreaks: 0
WidescreenStoryboard: 0

[Editor]
Bookmarks: 72678,123989
DistanceSpacing: 0.8
BeatDivisor: 16
GridSize: 32
TimelineZoom: 1.400006

[Metadata]
Title:Tonchinkan Feast feat. Hatsune Miku
TitleUnicode:頓珍漢の宴 feat. 初音ミク
Artist:PinocchioP
ArtistUnicode:ピノキオピー
Creator:Axer
Version:Banketto
Source:
Tags:uone tag2 compatible HUMAN electronic japanese vocaloid Tonchinkan no En バンケット utage pop jpop j-pop banquet Feast of Absurdity
BeatmapID:3592637
BeatmapSetID:1755557

[Difficulty]
HPDrainRate:7
CircleSize:2
OverallDifficulty:7
ApproachRate:10
SliderMultiplier:1.4
SliderTickRate:1

[Events]
//Background and Video events
0,0,"pinocchio.jpg",0,55
Video,-165,"feast.mp4"
//Break Periods
2,3774,8088
//Storyboard Layer 0 (Background)
//Storyboard Layer 1 (Fail)
//Storyboard Layer 2 (Pass)
//Storyboard Layer 3 (Foreground)
//Storyboard Layer 4 (Overlay)
//Storyboard Sound Samples

[TimingPoints]
1090,413.793103448276,7,1,0,11,1,8
1090,-10000,4,1,0,11,0,0
3469,-10000,4,1,0,99,0,0
3573,413.793103448276,12,1,0,99,1,0
3573,-90.0900900900901,4,1,0,99,0,0
3574,-22.5225225225225,4,1,0,99,0,0
3676,-22.5225225225225,4,1,0,11,0,0
8538,413.793103448276,4,1,0,99,1,8
8538,-909.090909090909,4,1,0,99,0,0
10193,-129.87012987013,4,1,0,99,0,0
13707,-127.27096938641,4,1,0,99,0,0
13914,-124.773804394657,4,1,0,99,0,0
14017,-123.567411655274,4,1,0,99,0,0
14224,-121.212121212121,4,1,0,99,0,0
14431,-118.944938679284,4,1,0,99,0,0
14638,-116.761010853613,4,1,0,99,0,0
14741,-115.703932175761,4,1,0,99,0,0
14845,-114.655834540862,4,1,0,99,0,0
14948,-113.636363636364,4,1,0,99,0,0
15155,-101.010101010101,4,1,0,99,0,0
15569,-84.985835694051,4,1,0,99,0,0
15983,-73.3496332518337,4,1,0,99,0,0
16397,-64.5161290322581,4,1,0,99,0,0
16813,-90.0900900900901,4,1,0,99,0,0
23431,-83.3333333333333,4,1,0,99,0,0
23535,-81.6246056782334,4,1,0,99,0,0
23638,-80,4,1,0,99,0,0
23741,-78.4388025767336,4,1,0,99,0,0
23845,-76.9230769230769,4,1,0,99,0,0
24052,-86.9565217391304,4,1,0,99,0,0
24155,-83.3501107308234,4,1,0,99,0,0
24259,-80,4,1,0,99,0,0
24362,-76.9373722356439,4,1,0,99,0,0
24466,-74.0740740740741,4,1,0,99,0,0
24672,-90.9090909090909,4,1,0,99,0,0
24776,-85.0801479654747,4,1,0,99,0,0
24879,-80,4,1,0,99,0,0
24983,-75.4510661563696,4,1,0,99,0,0
25086,-71.4285714285714,4,1,0,99,0,0
25293,-95.2380952380952,4,1,0,99,0,0
25397,-86.9200083980684,4,1,0,99,0,0
25500,-80,4,1,0,99,0,0
25603,-74.100590656882,4,1,0,99,0,0
25707,-68.9655172413793,4,1,0,99,0,0
25914,-100,4,1,0,99,0,0
26017,-88.936627282492,4,1,0,99,0,0
26121,-80,4,1,0,99,0,0
26224,-72.7592267135325,4,1,0,99,0,0
26328,-60.2409638554217,4,1,0,99,0,0
26741,-83.3333333333333,4,1,0,99,0,0
26845,-81.6246056782334,4,1,0,99,0,0
26948,-80,4,1,0,99,0,0
27051,-78.4388025767336,4,1,0,99,0,0
27155,-76.9230769230769,4,1,0,99,0,0
27362,-86.9565217391304,4,1,0,99,0,0
27465,-83.3501107308234,4,1,0,99,0,0
27569,-80,4,1,0,99,0,0
27672,-76.9373722356439,4,1,0,99,0,0
27776,-74.0740740740741,4,1,0,99,0,0
27982,-90.9090909090909,4,1,0,99,0,0
28086,-85.0801479654747,4,1,0,99,0,0
28189,-80,4,1,0,99,0,0
28293,-75.4510661563696,4,1,0,99,0,0
28396,-71.4285714285714,4,1,0,99,0,0
28810,-86.6251488121945,4,1,0,99,0,0
29224,-91.8577727027627,4,1,0,99,0,0
29431,-94.7185263681202,4,1,0,99,0,0
29638,-97.7631943178519,4,1,0,99,0,0
29845,-101.010101010101,4,1,0,99,0,0
30259,-75.187969924812,4,1,0,99,0,0
30362,-76.5805311981045,4,1,0,99,0,0
30569,-79.5412098174068,4,1,0,99,0,0
30672,-81.1013655050352,4,1,0,99,0,0
30879,-84.429517678888,4,1,0,99,0,0
30983,-86.2068965517241,4,1,0,99,0,0
31086,-88.0425133462235,4,1,0,99,0,0
31190,-89.9770086372957,4,1,0,99,0,0
31293,-91.9785552760627,4,1,0,99,0,0
31397,-94.0919605957425,4,1,0,99,0,0
31500,-96.28299753973,4,1,0,99,0,0
31707,-101.010101010101,4,1,0,99,0,0
43500,-99.5015902217894,4,1,0,99,0,0
43707,-98.0374734173316,4,1,0,99,0,0
43914,-96.6158193079855,4,1,0,99,0,0
44017,-95.9236783687758,4,1,0,99,0,0
44224,-94.5622425250119,4,1,0,99,0,0
44431,-93.238911330077,4,1,0,99,0,0
44535,-92.5879305618493,4,1,0,99,0,0
44741,-91.3249568206775,4,1,0,99,0,0
44948,-90.0900900900901,4,1,0,99,0,0
50744,-101.010101010101,4,1,0,99,0,0
51052,-102.925333554322,4,1,0,99,0,0
51155,-104.895104895105,4,1,0,99,0,0
51259,-106.962003513728,4,1,0,99,0,0
51362,-109.090909090909,4,1,0,99,0,0
51569,-113.636363636364,4,1,0,99,0,0
57986,-90.0900900900901,4,1,0,99,0,0
64813,-64.5161290322581,4,1,0,99,0,0
70086,-67.1958423841328,4,1,0,99,0,0
70190,-68.1454153164541,4,1,0,99,0,0
70397,-70.1176111713666,4,1,0,99,0,0
70707,-73.2943020876697,4,1,0,99,0,0
70810,-74.4144638336713,4,1,0,99,0,0
71017,-76.7724936448147,4,1,0,99,0,0
71224,-79.2848553949631,4,1,0,99,0,0
71431,-81.9672131147541,4,1,0,99,0,0
71538,-10000,4,1,0,55,0,0
72986,-10000,4,1,0,99,0,0
73089,-53.1914893617021,4,1,0,99,0,1
82293,-47.39336492891,4,1,0,99,0,1
82345,-47.7673387522432,4,1,0,99,0,1
82397,-48.1472614582502,4,1,0,99,0,1
82603,-49.7136657648626,4,1,0,99,0,1
82810,-51.3938086077531,4,1,0,99,0,1
83017,-53.1914893617021,4,1,0,99,0,1
87986,-53.1914893617021,4,1,0,99,0,0
88293,-56.4971751412429,4,1,0,99,0,0
88345,-56.9073700332982,4,1,0,99,0,0
88397,-57.3235648864397,4,1,0,99,0,0
88603,-59.033950007681,4,1,0,99,0,0
88707,-59.9368101139468,4,1,0,99,0,0
88810,-60.8586269931766,4,1,0,99,0,0
88914,-61.8186163660765,4,1,0,99,0,0
89017,-62.7996993085029,4,1,0,99,0,0
89121,-63.8224170901723,4,1,0,99,0,0
89224,-64.8686710844884,4,1,0,99,0,0
89276,-65.4100162430821,4,1,0,99,0,0
89328,-65.9604727575891,4,1,0,99,0,0
89379,-66.5094176346383,4,1,0,99,0,0
89431,-67.0786141408701,4,1,0,99,0,0
89483,-67.6576372645187,4,1,0,99,0,0
89535,-68.246743691616,4,1,0,99,0,0
89586,-68.8345718438453,4,1,0,99,0,0
89638,-69.4444444444444,4,1,0,99,0,0
89948,-71.1902058790283,4,1,0,99,0,0
90259,-73.0320791580009,4,1,0,99,0,0
90672,-75.630603112942,4,1,0,99,0,0
90879,-77.0038408888535,4,1,0,99,0,0
91086,-78.4278691009898,4,1,0,99,0,0
91190,-79.1633875480937,4,1,0,99,0,0
91293,-79.905558635565,4,1,0,99,0,0
91603,-82.2256849538634,4,1,0,99,0,0
91914,-84.6927439630474,4,1,0,99,0,0
92328,-88.2161279910353,4,1,0,99,0,0
92535,-90.0900900900901,4,1,0,99,0,0
93776,-101.010101010101,4,1,0,99,0,0
94603,-113.624923350082,4,1,0,99,0,0
94707,-115.437901568617,4,1,0,99,0,0
94810,-117.291386192399,4,1,0,99,0,0
95017,-121.202358637926,4,1,0,99,0,0
95121,-123.267405377497,4,1,0,99,0,0
95328,-127.594411128411,4,1,0,99,0,0
95535,-132.236246471747,4,1,0,99,0,0
95638,-134.674108184042,4,1,0,99,0,0
95741,-137.203545299825,4,1,0,99,0,0
95845,-139.855807142052,4,1,0,99,0,0
96052,-145.452202285761,4,1,0,99,0,0
96259,-151.515151515152,4,1,0,99,0,0
99569,-143.093122416431,4,1,0,99,0,0
100190,-132.080502634475,4,1,0,99,0,0
100397,-128.776894122472,4,1,0,99,0,0
101017,-119.801885764116,4,1,0,99,0,0
101224,-117.077620098602,4,1,0,99,0,0
101638,-111.98461445388,4,1,0,99,0,0
101948,-108.451976773947,4,1,0,99,0,0
102052,-107.316239629199,4,1,0,99,0,0
102155,-106.214627841098,4,1,0,99,0,0
102259,-105.125032132331,4,1,0,99,0,0
102362,-104.067725393768,4,1,0,99,0,0
102672,-101.010101010101,4,1,0,99,0,0
107845,-53.1914893617021,4,1,0,99,0,0
108052,-56.0634957198654,4,1,0,99,0,0
108259,-59.2633440998059,4,1,0,99,0,0
108362,-60.9956105273633,4,1,0,99,0,0
108569,-64.8023430647789,4,1,0,99,0,0
108776,-69.1158598973494,4,1,0,99,0,0
108983,-74.044578863069,4,1,0,99,0,0
109086,-76.7685763719774,4,1,0,99,0,0
109293,-82.8975576526217,4,1,0,99,0,0
109500,-90.0900900900901,4,1,0,99,0,0
109710,-129.87012987013,4,1,0,99,0,0
115293,-101.010101010101,4,1,0,99,0,0
115397,-93.0964695300202,4,1,0,99,0,0
115500,-86.3930885529158,4,1,0,99,0,0
115603,-80.5902162698799,4,1,0,99,0,0
115707,-75.4716981132076,4,1,0,99,0,0
115810,-71.0053082470779,4,1,0,99,0,0
115914,-67.0016750418761,4,1,0,99,0,0
116121,-60.2409638554217,4,1,0,99,0,0
121914,-66.0844560413228,4,1,0,99,0,0
122224,-71.2604076945162,4,1,0,99,0,0
122431,-75.192981180548,4,1,0,99,0,0
122535,-77.3372552441016,4,1,0,99,0,0
122638,-79.5849526081547,4,1,0,99,0,0
122741,-81.9672131147541,4,1,0,99,0,0
124400,-53.1914893617021,4,1,0,99,0,1
133603,-47.39336492891,4,1,0,99,0,1
133655,-47.7668188616344,4,1,0,99,0,1
133707,-48.1462050829111,4,1,0,99,0,1
133914,-49.7181495247631,4,1,0,99,0,1
134121,-51.3962044789134,4,1,0,99,0,1
134328,-53.1914893617021,4,1,0,99,0,1
139296,-53.1914893617021,4,1,0,99,0,0
139603,-56.4971751412429,4,1,0,99,0,0
139655,-56.9073700332982,4,1,0,99,0,0
139707,-57.3235648864397,4,1,0,99,0,0
139914,-59.0425018217575,4,1,0,99,0,0
140017,-59.9368101139468,4,1,0,99,0,0
140121,-60.8677156730974,4,1,0,99,0,0
140224,-61.8186163660765,4,1,0,99,0,0
140328,-62.8093770430559,4,1,0,99,0,0
140431,-63.8224170901723,4,1,0,99,0,0
140535,-64.8789970527088,4,1,0,99,0,0
140586,-65.4100162430821,4,1,0,99,0,0
140638,-65.9604727575891,4,1,0,99,0,0
140690,-66.5202726094741,4,1,0,99,0,0
140741,-67.0786141408701,4,1,0,99,0,0
140793,-67.6576372645187,4,1,0,99,0,0
140845,-68.246743691616,4,1,0,99,0,0
140897,-68.8461991267538,4,1,0,99,0,0
140948,-69.4444444444444,4,1,0,99,0,0
141259,-71.1959794055123,4,1,0,99,0,0
141569,-73.0320791580009,4,1,0,99,0,0
141983,-75.6371193667056,4,1,0,99,0,0
142190,-77.0105959349464,4,1,0,99,0,0
142500,-79.1633875480937,4,1,0,99,0,0
142603,-79.905558635565,4,1,0,99,0,0
142914,-82.2333872661728,4,1,0,99,0,0
143224,-84.6927439630474,4,1,0,99,0,0
143638,-88.2161279910353,4,1,0,99,0,0
143845,-90.0900900900901,4,1,0,99,0,0
144262,-101.010101010101,4,1,0,99,0,0
150259,-99.2814436948055,4,1,0,99,0,0
150362,-97.6267529665588,4,1,0,99,0,0
150466,-96.0110333121154,4,1,0,99,0,0
150569,-94.4627107144721,4,1,0,99,0,0
150672,-92.9635336414997,4,1,0,99,0,0
150776,-91.4973207966838,4,1,0,99,0,0
150879,-90.0900900900901,4,1,0,99,0,0
152535,-113.636363636364,4,1,0,99,0,0
152672,-111.229845891217,4,1,0,99,0,0
152810,-108.906656137926,4,1,0,99,0,0
152948,-106.678526998369,4,1,0,99,0,0
153086,-104.539740893041,4,1,0,99,0,0
153224,-102.485029754717,4,1,0,99,0,0
153362,-100.509531704532,4,1,0,99,0,0
153500,-98.6087526439658,4,1,0,99,0,0
153638,-96.7785321240402,4,1,0,99,0,0
153776,-95.0150129461543,4,1,0,99,0,0
153879,-93.7400879061126,4,1,0,99,0,0
154086,-91.2786176391103,4,1,0,99,0,0
154190,-90.0900900900901,4,1,0,99,0,0
154500,-88.2184503283822,4,1,0,99,0,0
154603,-87.613676930617,4,1,0,99,0,0
154810,-86.4229952013751,4,1,0,99,0,0
155017,-85.2642426026792,4,1,0,99,0,0
155121,-84.6937164047283,4,1,0,99,0,0
155224,-84.1361518169458,4,1,0,99,0,0
155431,-83.0375217199319,4,1,0,99,0,0
155638,-81.9672131147541,4,1,0,99,0,0
155845,-77.9483645916324,4,1,0,99,0,0
156052,-74.3051849419106,4,1,0,99,0,0
156155,-72.6163968626507,4,1,0,99,0,0
156259,-70.9873517011472,4,1,0,99,0,0
156466,-67.9531461180357,4,1,0,99,0,0
156672,-65.1805970686737,4,1,0,99,0,0
156776,-63.8650718041001,4,1,0,99,0,0
156879,-62.6135086050333,4,1,0,99,0,0
157086,-60.2409638554217,4,1,0,99,0,0
157503,-151.515151515152,4,1,0,99,0,0
159158,-129.87012987013,4,1,0,99,0,0
159159,-151.515151515152,4,1,0,99,0,0
160813,-113.636363636364,4,1,0,99,0,0
160814,-151.515151515152,4,1,0,99,0,0
162469,-101.010101010101,4,1,0,99,0,0
162470,-151.515151515152,4,1,0,99,0,0
164124,-90.0900900900901,4,1,0,99,0,0
164125,-151.515151515152,4,1,0,99,0,0
165779,-81.9672131147541,4,1,0,99,0,0
165780,-151.515151515152,4,1,0,99,0,0
167434,-75.187969924812,4,1,0,99,0,0
167435,-151.515151515152,4,1,0,99,0,0
169089,-69.4444444444444,4,1,0,99,0,0
169090,-151.515151515152,4,1,0,99,0,0
170744,-129.87012987013,4,1,0,99,0,0
173227,-69.4444444444444,4,1,0,99,0,0
174003,-129.87012987013,4,1,0,99,0,0
176538,-69.4444444444444,4,1,0,99,0,0
177262,-129.87012987013,4,1,0,99,0,0
178089,-69.4444444444444,4,1,0,99,0,0
178296,-129.87012987013,4,1,0,99,0,0
180672,-151.515151515152,4,1,0,99,0,0
180879,-145.452202285761,4,1,0,99,0,0
181086,-139.855807142052,4,1,0,99,0,0
181293,-134.674108184042,4,1,0,99,0,0
181500,-129.862658340394,4,1,0,99,0,0
181707,-125.383143213505,4,1,0,99,0,0
181914,-121.202358637926,4,1,0,99,0,0
182121,-117.291386192399,4,1,0,99,0,0
182328,-113.624923350082,4,1,0,99,0,0
182535,-110.1807354553,4,1,0,99,0,0
182741,-106.954405461868,4,1,0,99,0,0
182845,-105.396307945685,4,1,0,99,0,0
182948,-103.897299423397,4,1,0,99,0,0
183052,-102.426387479478,4,1,0,99,0,0
183155,-101.010101010101,4,1,0,99,0,0
183986,-81.9672131147541,4,1,0,99,0,0
193917,-50.251256281407,4,1,0,99,0,1
203744,-39.2156862745098,4,1,0,99,0,1
203848,-39.2156862745098,4,1,0,99,0,0
204882,-47.39336492891,4,1,0,99,0,1
205086,-48.3091787439614,4,1,0,99,0,1
205293,-49.2610837438424,4,1,0,99,0,1
205500,-50.251256281407,4,1,0,99,0,1
208813,-53.1914893617021,4,1,0,99,0,0
208948,-54.249547920434,4,1,0,99,0,0
209086,-55.3505535055351,4,1,0,99,0,0
209224,-56.4971751412429,4,1,0,99,0,0
209362,-57.6923076923077,4,1,0,99,0,0
209500,-58.9390962671906,4,1,0,99,0,0
209638,-60.2409638554217,4,1,0,99,0,0
209845,-62.3052959501558,4,1,0,99,0,0
209914,-63.0252100840336,4,1,0,99,0,0
209983,-63.7619553666312,4,1,0,99,0,0
210052,-64.5161290322581,4,1,0,99,0,0
210103,-65.0851294628119,4,1,0,99,0,0
210155,-65.6757142630519,4,1,0,99,0,0
210207,-66.2771151845033,4,1,0,99,0,0
210259,-66.8896321070234,4,1,0,99,0,0
210310,-67.5014674232049,4,1,0,99,0,0
210362,-68.1369321922317,4,1,0,99,0,0
210414,-68.7844753106932,4,1,0,99,0,0
210466,-69.4444444444444,4,1,0,99,0,0
210776,-71.1908238567924,4,1,0,99,0,0
211086,-73.0273045460506,4,1,0,99,0,0
211500,-75.6329295746692,4,1,0,99,0,0
211707,-77.0067354302778,4,1,0,99,0,0
212121,-79.9097152664531,4,1,0,99,0,0
212431,-82.2309109856068,4,1,0,99,0,0
212741,-84.6909919315453,4,1,0,99,0,0
213155,-88.2154943692562,4,1,0,99,0,0
213362,-90.0900900900901,4,1,0,99,0,0
213779,-101.010101010101,4,1,0,99,0,0
216262,-69.4444444444444,4,1,0,99,0,0
216779,-90.0900900900901,4,1,0,99,0,0
223684,-83.3333333333333,4,1,0,99,0,0
223788,-81.6246056782334,4,1,0,99,0,0
223891,-80,4,1,0,99,0,0
223994,-78.4388025767336,4,1,0,99,0,0
224098,-76.9230769230769,4,1,0,99,0,0
224305,-86.9565217391304,4,1,0,99,0,0
224408,-83.3501107308234,4,1,0,99,0,0
224512,-80,4,1,0,99,0,0
224615,-76.9373722356439,4,1,0,99,0,0
224719,-74.0740740740741,4,1,0,99,0,0
224925,-90.9090909090909,4,1,0,99,0,0
225029,-85.0801479654747,4,1,0,99,0,0
225132,-80,4,1,0,99,0,0
225236,-75.4510661563696,4,1,0,99,0,0
225339,-71.4285714285714,4,1,0,99,0,0
225546,-95.2380952380952,4,1,0,99,0,0
225650,-86.9200083980684,4,1,0,99,0,0
225753,-80,4,1,0,99,0,0
225856,-74.100590656882,4,1,0,99,0,0
225960,-68.9655172413793,4,1,0,99,0,0
226167,-100,4,1,0,99,0,0
226270,-88.936627282492,4,1,0,99,0,0
226374,-80,4,1,0,99,0,0
226477,-72.7592267135325,4,1,0,99,0,0
226581,-60.2409638554217,4,1,0,99,0,0
226994,-83.3333333333333,4,1,0,99,0,0
227098,-81.6246056782334,4,1,0,99,0,0
227201,-80,4,1,0,99,0,0
227304,-78.4388025767336,4,1,0,99,0,0
227408,-76.9230769230769,4,1,0,99,0,0
227615,-86.9565217391304,4,1,0,99,0,0
227718,-83.3501107308234,4,1,0,99,0,0
227822,-80,4,1,0,99,0,0
227925,-76.9373722356439,4,1,0,99,0,0
228029,-74.0740740740741,4,1,0,99,0,0
228235,-90.9090909090909,4,1,0,99,0,0
228339,-85.0801479654747,4,1,0,99,0,0
228442,-80,4,1,0,99,0,0
228546,-75.4510661563696,4,1,0,99,0,0
228649,-71.4285714285714,4,1,0,99,0,0
229086,-88.4989819836775,4,1,0,99,0,0
229500,-96.1618903317562,4,1,0,99,0,0
229914,-105.27761947407,4,1,0,99,0,0
230328,-116.302600366502,4,1,0,99,0,0
230741,-129.87012987013,4,1,0,99,0,0
231155,-91.8577727027627,4,1,0,99,0,0
231362,-94.7185263681202,4,1,0,99,0,0
231569,-97.7631943178519,4,1,0,99,0,0
231776,-101.010101010101,4,1,0,99,0,0

[Colours]
Combo1 : 18,124,255
Combo2 : 0,202,0

[HitObjects]
256,192,3574,5,4,0:0:0:0:
256,192,8538,12,0,9986,0:0:0:0:
256,192,10193,5,4,0:0:0:0:
256,192,10400,1,8,0:0:0:0:
256,192,10606,1,0,0:0:0:0:
256,192,10710,1,0,0:0:0:0:
256,192,10917,1,8,0:0:0:0:
256,192,11124,1,0,0:0:0:0:
256,192,11331,1,8,0:0:0:0:
256,192,11434,1,0,0:0:0:0:
256,192,11538,1,0,0:0:0:0:
256,192,11641,1,8,0:0:0:0:
256,192,11848,1,0,0:0:0:0:
256,192,12055,1,8,0:0:0:0:
256,192,12262,1,0,0:0:0:0:
256,192,12365,1,8,0:0:0:0:
256,192,12572,1,0,0:0:0:0:
256,192,12779,1,8,0:0:0:0:
256,192,12986,1,8,0:0:0:0:
256,192,13089,1,0,0:0:0:0:
256,192,13193,1,8,0:0:0:0:
256,192,13296,1,8,0:0:0:0:
256,192,13400,1,8,0:0:0:0:
256,192,13503,1,0,0:0:0:0:
256,192,13710,1,8,0:0:0:0:
256,192,13917,1,0,0:0:0:0:
256,192,14020,1,0,0:0:0:0:
256,192,14227,1,8,0:0:0:0:
256,192,14434,1,0,0:0:0:0:
256,192,14641,1,8,0:0:0:0:
256,192,14744,1,0,0:0:0:0:
256,192,14848,1,0,0:0:0:0:
256,192,14951,1,8,0:0:0:0:
256,192,15158,1,4,0:0:0:0:
256,192,15572,1,4,0:0:0:0:
256,192,15986,1,4,0:0:0:0:
256,192,16400,1,12,0:0:0:0:
256,192,16813,5,4,0:0:0:0:
256,192,17020,1,8,0:0:0:0:
256,192,17227,1,0,0:0:0:0:
256,192,17296,1,0,0:0:0:0:
256,192,17365,1,0,0:0:0:0:
256,192,17434,1,0,0:0:0:0:
256,192,17538,1,8,0:0:0:0:
256,192,17744,1,0,0:0:0:0:
256,192,17951,1,8,0:0:0:0:
256,192,18055,1,0,0:0:0:0:
256,192,18158,1,0,0:0:0:0:
256,192,18262,1,8,0:0:0:0:
256,192,18365,1,8,0:0:0:0:
256,192,18469,1,0,0:0:0:0:
256,192,18675,1,8,0:0:0:0:
256,192,18779,1,0,0:0:0:0:
256,192,18882,1,0,0:0:0:0:
256,192,18986,1,8,0:0:0:0:
256,192,19193,1,0,0:0:0:0:
256,192,19400,1,8,0:0:0:0:
256,192,19606,1,8,0:0:0:0:
256,192,19710,1,0,0:0:0:0:
256,192,19813,1,8,0:0:0:0:
256,192,19917,1,8,0:0:0:0:
256,192,20020,1,8,0:0:0:0:
256,192,20124,1,4,0:0:0:0:
256,192,20331,5,8,0:0:0:0:
256,192,20538,1,0,0:0:0:0:
256,192,20606,1,0,0:0:0:0:
256,192,20675,1,0,0:0:0:0:
256,192,20744,1,0,0:0:0:0:
256,192,20848,1,8,0:0:0:0:
256,192,21055,1,0,0:0:0:0:
256,192,21262,1,8,0:0:0:0:
256,192,21365,1,0,0:0:0:0:
256,192,21469,1,0,0:0:0:0:
256,192,21572,1,8,0:0:0:0:
256,192,21779,1,0,0:0:0:0:
256,192,21882,1,0,0:0:0:0:
256,192,21986,1,8,0:0:0:0:
256,192,22089,1,0,0:0:0:0:
256,192,22193,1,0,0:0:0:0:
256,192,22296,1,8,0:0:0:0:
256,192,22503,1,0,0:0:0:0:
256,192,22606,1,8,0:0:0:0:
256,192,22710,1,0,0:0:0:0:
256,192,22813,1,8,0:0:0:0:
256,192,22917,1,0,0:0:0:0:
256,192,23020,1,8,0:0:0:0:
256,192,23124,1,8,0:0:0:0:
256,192,23227,1,8,0:0:0:0:
256,192,23434,5,8,0:0:0:0:
256,192,23538,1,0,0:0:0:0:
256,192,23641,1,8,0:0:0:0:
256,192,23744,1,0,0:0:0:0:
256,192,23848,1,8,0:0:0:0:
256,192,24055,5,8,0:0:0:0:
256,192,24158,1,0,0:0:0:0:
256,192,24262,1,8,0:0:0:0:
256,192,24365,1,0,0:0:0:0:
256,192,24469,1,8,0:0:0:0:
256,192,24675,5,8,0:0:0:0:
256,192,24779,1,0,0:0:0:0:
256,192,24882,1,8,0:0:0:0:
256,192,24986,1,0,0:0:0:0:
256,192,25089,1,8,0:0:0:0:
256,192,25296,5,8,0:0:0:0:
256,192,25400,1,0,0:0:0:0:
256,192,25503,1,8,0:0:0:0:
256,192,25606,1,0,0:0:0:0:
256,192,25710,1,8,0:0:0:0:
256,192,25917,5,8,0:0:0:0:
256,192,26020,1,0,0:0:0:0:
256,192,26124,1,8,0:0:0:0:
256,192,26227,1,0,0:0:0:0:
256,192,26331,1,8,0:0:0:0:
256,192,26400,1,8,0:0:0:0:
256,192,26469,1,8,0:0:0:0:
256,192,26538,1,8,0:0:0:0:
256,192,26744,5,8,0:0:0:0:
256,192,26848,1,0,0:0:0:0:
256,192,26951,1,8,0:0:0:0:
256,192,27055,1,0,0:0:0:0:
256,192,27158,1,8,0:0:0:0:
256,192,27365,5,8,0:0:0:0:
256,192,27469,1,0,0:0:0:0:
256,192,27572,1,8,0:0:0:0:
256,192,27675,1,0,0:0:0:0:
256,192,27779,1,8,0:0:0:0:
256,192,27986,5,8,0:0:0:0:
256,192,28089,1,0,0:0:0:0:
256,192,28193,1,8,0:0:0:0:
256,192,28296,1,0,0:0:0:0:
256,192,28400,1,12,0:0:0:0:
256,192,28813,5,4,0:0:0:0:
256,192,29227,12,0,29365,0:0:0:0:
256,192,29434,12,0,29572,0:0:0:0:
256,192,29641,12,0,29779,0:0:0:0:
256,192,29848,12,0,29986,0:0:0:0:
256,192,30262,5,0,0:0:0:0:
256,192,30365,1,8,0:0:0:0:
256,192,30572,1,0,0:0:0:0:
256,192,30675,1,8,0:0:0:0:
256,192,30882,1,0,0:0:0:0:
256,192,30986,1,8,0:0:0:0:
256,192,31089,1,0,0:0:0:0:
256,192,31193,1,0,0:0:0:0:
256,192,31296,1,8,0:0:0:0:
256,192,31400,1,8,0:0:0:0:
256,192,31503,1,0,0:0:0:0:
256,192,31710,5,4,0:0:0:0:
256,192,31917,1,0,0:0:0:0:
256,192,32020,1,8,0:0:0:0:
256,192,32124,1,0,0:0:0:0:
256,192,32227,1,8,0:0:0:0:
256,192,32331,1,8,0:0:0:0:
256,192,32434,1,0,0:0:0:0:
256,192,32538,1,0,0:0:0:0:
256,192,32641,1,8,0:0:0:0:
256,192,32744,1,0,0:0:0:0:
256,192,32951,1,8,0:0:0:0:
256,192,33158,1,0,0:0:0:0:
256,192,33365,1,8,0:0:0:0:
256,192,33469,1,8,0:0:0:0:
256,192,33572,1,8,0:0:0:0:
256,192,33675,1,0,0:0:0:0:
256,192,33882,1,8,0:0:0:0:
256,192,33986,1,8,0:0:0:0:
256,192,34089,1,0,0:0:0:0:
256,192,34193,1,0,0:0:0:0:
256,192,34296,1,8,0:0:0:0:
256,192,34400,1,0,0:0:0:0:
256,192,34503,1,8,0:0:0:0:
256,192,34813,1,0,0:0:0:0:
256,192,35020,1,8,0:0:0:0:
256,192,35227,1,0,0:0:0:0:
256,192,35331,1,8,0:0:0:0:
256,192,35434,1,0,0:0:0:0:
256,192,35538,1,0,0:0:0:0:
256,192,35641,1,8,0:0:0:0:
256,192,35744,1,8,0:0:0:0:
256,192,35848,1,0,0:0:0:0:
256,192,35951,1,8,0:0:0:0:
256,192,36055,1,0,0:0:0:0:
256,192,36158,1,8,0:0:0:0:
256,192,36262,1,0,0:0:0:0:
256,192,36469,1,0,0:0:0:0:
256,192,36572,1,0,0:0:0:0:
256,192,36675,1,8,0:0:0:0:
256,192,36779,1,8,0:0:0:0:
256,192,36882,1,0,0:0:0:0:
256,192,37089,1,8,0:0:0:0:
256,192,37193,1,0,0:0:0:0:
256,192,37296,1,8,0:0:0:0:
256,192,37400,1,8,0:0:0:0:
256,192,37503,1,0,0:0:0:0:
256,192,37606,1,8,0:0:0:0:
256,192,37710,1,0,0:0:0:0:
256,192,37813,1,0,0:0:0:0:
256,192,37917,1,8,0:0:0:0:
256,192,38124,1,0,0:0:0:0:
256,192,38331,5,8,0:0:0:0:
256,192,38434,1,8,0:0:0:0:
256,192,38538,1,0,0:0:0:0:
256,192,38744,1,8,0:0:0:0:
256,192,38848,1,0,0:0:0:0:
256,192,38951,1,8,0:0:0:0:
256,192,39055,1,0,0:0:0:0:
256,192,39262,1,8,0:0:0:0:
256,192,39365,1,8,0:0:0:0:
256,192,39469,1,0,0:0:0:0:
256,192,39675,1,0,0:0:0:0:
256,192,39779,1,8,0:0:0:0:
256,192,39882,1,0,0:0:0:0:
256,192,39986,1,8,0:0:0:0:
256,192,40089,1,8,0:0:0:0:
256,192,40193,1,0,0:0:0:0:
256,192,40296,1,8,0:0:0:0:
256,192,40400,1,0,0:0:0:0:
256,192,40503,1,0,0:0:0:0:
256,192,40606,1,8,0:0:0:0:
256,192,40710,1,8,0:0:0:0:
256,192,40813,1,0,0:0:0:0:
256,192,41020,1,8,0:0:0:0:
256,192,41124,1,8,0:0:0:0:
256,192,41331,1,0,0:0:0:0:
256,192,41434,1,0,0:0:0:0:
256,192,41641,1,8,0:0:0:0:
256,192,41848,1,0,0:0:0:0:
256,192,42055,1,8,0:0:0:0:
256,192,42158,1,8,0:0:0:0:
256,192,42262,1,0,0:0:0:0:
256,192,42365,1,8,0:0:0:0:
256,192,42469,1,0,0:0:0:0:
256,192,42572,1,0,0:0:0:0:
256,192,42675,1,8,0:0:0:0:
256,192,42779,1,8,0:0:0:0:
256,192,42986,1,0,0:0:0:0:
256,192,43089,1,8,0:0:0:0:
256,192,43193,1,8,0:0:0:0:
256,192,43296,1,0,0:0:0:0:
256,192,43503,1,0,0:0:0:0:
256,192,43710,1,0,0:0:0:0:
256,192,43917,1,0,0:0:0:0:
256,192,44020,1,0,0:0:0:0:
256,192,44227,1,0,0:0:0:0:
256,192,44434,1,0,0:0:0:0:
256,192,44538,1,0,0:0:0:0:
256,192,44744,1,0,0:0:0:0:
256,192,44951,5,4,0:0:0:0:
256,192,45158,1,8,0:0:0:0:
256,192,45365,1,0,0:0:0:0:
256,192,45434,1,0,0:0:0:0:
256,192,45503,1,0,0:0:0:0:
256,192,45572,1,0,0:0:0:0:
256,192,45675,1,8,0:0:0:0:
256,192,45882,1,0,0:0:0:0:
256,192,46089,1,8,0:0:0:0:
256,192,46193,1,0,0:0:0:0:
256,192,46296,1,0,0:0:0:0:
256,192,46400,1,8,0:0:0:0:
256,192,46503,1,8,0:0:0:0:
256,192,46606,1,0,0:0:0:0:
256,192,46813,1,8,0:0:0:0:
256,192,46917,1,0,0:0:0:0:
256,192,47020,1,0,0:0:0:0:
256,192,47124,1,8,0:0:0:0:
256,192,47331,1,0,0:0:0:0:
256,192,47538,1,8,0:0:0:0:
256,192,47744,1,8,0:0:0:0:
256,192,47848,1,0,0:0:0:0:
256,192,47951,1,8,0:0:0:0:
256,192,48055,1,8,0:0:0:0:
256,192,48158,1,8,0:0:0:0:
256,192,48262,1,4,0:0:0:0:
256,192,48469,1,8,0:0:0:0:
256,192,48675,1,0,0:0:0:0:
256,192,48744,1,0,0:0:0:0:
256,192,48813,1,0,0:0:0:0:
256,192,48882,1,0,0:0:0:0:
256,192,48986,1,8,0:0:0:0:
256,192,49193,1,0,0:0:0:0:
256,192,49400,1,8,0:0:0:0:
256,192,49503,1,0,0:0:0:0:
256,192,49606,1,0,0:0:0:0:
256,192,49710,1,8,0:0:0:0:
256,192,49917,1,0,0:0:0:0:
256,192,50020,1,0,0:0:0:0:
256,192,50124,1,8,0:0:0:0:
256,192,50227,1,8,0:0:0:0:
256,192,50331,1,0,0:0:0:0:
256,192,50538,1,8,0:0:0:0:
256,192,50641,1,0,0:0:0:0:
256,192,50951,1,8,0:0:0:0:
256,192,51055,1,0,0:0:0:0:
256,192,51158,1,8,0:0:0:0:
256,192,51262,1,0,0:0:0:0:
256,192,51365,1,8,0:0:0:0:
256,192,51572,5,4,0:0:0:0:
256,192,51986,1,8,0:0:0:0:
256,192,52089,1,8,0:0:0:0:
256,192,52193,1,0,0:0:0:0:
256,192,52296,1,8,0:0:0:0:
256,192,52503,1,0,0:0:0:0:
256,192,52606,1,0,0:0:0:0:
256,192,52710,1,8,0:0:0:0:
256,192,52813,1,0,0:0:0:0:
256,192,53020,1,8,0:0:0:0:
256,192,53227,1,0,0:0:0:0:
256,192,53641,1,8,0:0:0:0:
256,192,53744,1,8,0:0:0:0:
256,192,53848,1,0,0:0:0:0:
256,192,53951,1,8,0:0:0:0:
256,192,54055,1,0,0:0:0:0:
256,192,54158,1,0,0:0:0:0:
256,192,54262,1,0,0:0:0:0:
256,192,54365,1,8,0:0:0:0:
256,192,54469,1,0,0:0:0:0:
256,192,54675,1,8,0:0:0:0:
256,192,54779,1,8,0:0:0:0:
256,192,54882,1,0,0:0:0:0:
256,192,55089,1,8,0:0:0:0:
256,192,55193,1,0,0:0:0:0:
256,192,55296,1,8,0:0:0:0:
256,192,55400,1,8,0:0:0:0:
256,192,55503,1,0,0:0:0:0:
256,192,55606,1,8,0:0:0:0:
256,192,55813,1,8,0:0:0:0:
256,192,55917,1,0,0:0:0:0:
256,192,56020,1,8,0:0:0:0:
256,192,56331,1,0,0:0:0:0:
256,192,56434,1,0,0:0:0:0:
256,192,56538,1,8,0:0:0:0:
256,192,56744,1,8,0:0:0:0:
256,192,56951,1,0,0:0:0:0:
256,192,57055,1,8,0:0:0:0:
256,192,57262,1,0,0:0:0:0:
256,192,57365,1,8,0:0:0:0:
256,192,57469,1,0,0:0:0:0:
256,192,57572,1,0,0:0:0:0:
256,192,57675,1,8,0:0:0:0:
256,192,57986,5,8,0:0:0:0:
256,192,58193,1,4,0:0:0:0:
256,192,58400,1,8,0:0:0:0:
256,192,58503,1,0,0:0:0:0:
256,192,58710,1,0,0:0:0:0:
256,192,58813,1,8,0:0:0:0:
256,192,58917,1,0,0:0:0:0:
256,192,59020,1,8,0:0:0:0:
256,192,59124,1,8,0:0:0:0:
256,192,59227,1,0,0:0:0:0:
256,192,59331,1,8,0:0:0:0:
256,192,59641,1,0,0:0:0:0:
256,192,59744,1,0,0:0:0:0:
256,192,59848,1,8,0:0:0:0:
256,192,60055,1,0,0:0:0:0:
256,192,60262,1,8,0:0:0:0:
256,192,60365,1,0,0:0:0:0:
256,192,60469,1,8,0:0:0:0:
256,192,60572,1,8,0:0:0:0:
256,192,60779,1,0,0:0:0:0:
256,192,60882,1,8,0:0:0:0:
256,192,60986,1,0,0:0:0:0:
256,192,61296,5,8,0:0:0:0:
256,192,61503,1,4,0:0:0:0:
256,192,61710,1,8,0:0:0:0:
256,192,61813,1,0,0:0:0:0:
256,192,62020,1,8,0:0:0:0:
256,192,62227,1,0,0:0:0:0:
256,192,62331,1,8,0:0:0:0:
256,192,62434,1,0,0:0:0:0:
256,192,62538,1,0,0:0:0:0:
256,192,62641,1,8,0:0:0:0:
256,192,62951,1,0,0:0:0:0:
256,192,63158,1,8,0:0:0:0:
256,192,63262,1,0,0:0:0:0:
256,192,63365,1,8,0:0:0:0:
256,192,63572,1,0,0:0:0:0:
256,192,63675,1,0,0:0:0:0:
256,192,63779,1,8,0:0:0:0:
256,192,63882,1,0,0:0:0:0:
256,192,64089,1,8,0:0:0:0:
256,192,64193,1,0,0:0:0:0:
256,192,64296,1,8,0:0:0:0:
256,192,64606,1,0,0:0:0:0:
256,192,64813,5,4,0:0:0:0:
256,192,65020,1,8,0:0:0:0:
256,192,65227,1,0,0:0:0:0:
256,192,65331,1,0,0:0:0:0:
256,192,65434,1,8,0:0:0:0:
256,192,65538,1,8,0:0:0:0:
256,192,65641,1,4,0:0:0:0:
256,192,65744,1,8,0:0:0:0:
256,192,65951,1,0,0:0:0:0:
256,192,66055,1,8,0:0:0:0:
256,192,66262,1,0,0:0:0:0:
256,192,66469,5,4,0:0:0:0:
256,192,66572,1,8,0:0:0:0:
256,192,66675,1,0,0:0:0:0:
256,192,66882,1,8,0:0:0:0:
256,192,67089,1,0,0:0:0:0:
256,192,67193,1,8,0:0:0:0:
256,192,67296,1,4,0:0:0:0:
256,192,67400,1,8,0:0:0:0:
256,192,67606,1,0,0:0:0:0:
256,192,67710,1,8,0:0:0:0:
256,192,67917,1,0,0:0:0:0:
256,192,68124,5,4,0:0:0:0:
256,192,68227,1,8,0:0:0:0:
256,192,68331,1,0,0:0:0:0:
256,192,68434,1,8,0:0:0:0:
256,192,68538,1,0,0:0:0:0:
256,192,68744,1,8,0:0:0:0:
256,192,68951,1,4,0:0:0:0:
256,192,69055,1,8,0:0:0:0:
256,192,69158,1,0,0:0:0:0:
256,192,69262,1,0,0:0:0:0:
256,192,69365,1,8,0:0:0:0:
256,192,69572,1,0,0:0:0:0:
256,192,69779,1,0,0:0:0:0:
256,192,70089,1,0,0:0:0:0:
256,192,70193,1,8,0:0:0:0:
256,192,70400,1,0,0:0:0:0:
256,192,70710,1,0,0:0:0:0:
256,192,70813,1,8,0:0:0:0:
256,192,71020,1,0,0:0:0:0:
256,192,71227,1,8,0:0:0:0:
256,192,71434,1,0,0:0:0:0:
256,192,71538,8,0,72262,0:0:0:0:
256,192,73089,5,4,0:0:0:0:
256,192,73296,1,8,0:0:0:0:
256,192,73400,1,0,0:0:0:0:
256,192,73503,1,8,0:0:0:0:
256,192,73555,1,8,0:0:0:0:
256,192,73606,1,8,0:0:0:0:
256,192,73710,1,0,0:0:0:0:
256,192,73813,1,0,0:0:0:0:
256,192,73865,1,0,0:0:0:0:
256,192,73917,1,8,0:0:0:0:
256,192,73969,1,0,0:0:0:0:
256,192,74020,1,8,0:0:0:0:
256,192,74072,1,8,0:0:0:0:
256,192,74124,1,0,0:0:0:0:
256,192,74227,1,0,0:0:0:0:
256,192,74331,1,8,0:0:0:0:
256,192,74434,1,0,0:0:0:0:
256,192,74486,1,0,0:0:0:0:
256,192,74538,1,8,0:0:0:0:
256,192,74641,1,8,0:0:0:0:
256,192,74744,1,0,0:0:0:0:
256,192,74796,1,0,0:0:0:0:
256,192,74848,1,0,0:0:0:0:
256,192,74951,1,8,0:0:0:0:
256,192,75055,1,0,0:0:0:0:
256,192,75158,1,8,0:0:0:0:
256,192,75210,1,8,0:0:0:0:
256,192,75262,1,8,0:0:0:0:
256,192,75365,1,0,0:0:0:0:
256,192,75469,1,8,0:0:0:0:
256,192,75572,1,0,0:0:0:0:
256,192,75624,1,0,0:0:0:0:
256,192,75675,1,8,0:0:0:0:
256,192,75727,1,8,0:0:0:0:
256,192,75779,1,0,0:0:0:0:
256,192,75882,1,0,0:0:0:0:
256,192,75986,1,8,0:0:0:0:
256,192,76038,1,8,0:0:0:0:
256,192,76089,1,0,0:0:0:0:
256,192,76141,1,0,0:0:0:0:
256,192,76193,1,8,0:0:0:0:
256,192,76244,1,0,0:0:0:0:
256,192,76296,1,8,0:0:0:0:
256,192,76348,1,8,0:0:0:0:
256,192,76400,1,0,0:0:0:0:
256,192,76503,1,0,0:0:0:0:
256,192,76606,1,8,0:0:0:0:
256,192,76710,1,0,0:0:0:0:
256,192,76813,1,8,0:0:0:0:
256,192,76865,1,8,0:0:0:0:
256,192,76917,1,8,0:0:0:0:
256,192,77020,1,0,0:0:0:0:
256,192,77072,1,0,0:0:0:0:
256,192,77124,1,8,0:0:0:0:
256,192,77175,1,8,0:0:0:0:
256,192,77227,1,0,0:0:0:0:
256,192,77331,1,8,0:0:0:0:
256,192,77434,1,0,0:0:0:0:
256,192,77486,1,0,0:0:0:0:
256,192,77538,1,0,0:0:0:0:
256,192,77589,1,0,0:0:0:0:
256,192,77641,1,8,0:0:0:0:
256,192,77744,1,0,0:0:0:0:
256,192,77848,1,8,0:0:0:0:
256,192,77900,1,8,0:0:0:0:
256,192,77951,1,0,0:0:0:0:
256,192,78003,1,0,0:0:0:0:
256,192,78055,1,8,0:0:0:0:
256,192,78158,1,0,0:0:0:0:
256,192,78262,1,8,0:0:0:0:
256,192,78365,1,0,0:0:0:0:
256,192,78469,1,8,0:0:0:0:
256,192,78572,1,8,0:0:0:0:
256,192,78675,1,8,0:0:0:0:
256,192,78779,1,0,0:0:0:0:
256,192,78986,1,0,0:0:0:0:
256,192,79089,1,8,0:0:0:0:
256,192,79193,1,0,0:0:0:0:
256,192,79296,1,8,0:0:0:0:
256,192,79400,1,0,0:0:0:0:
256,192,79503,1,8,0:0:0:0:
256,192,79606,1,0,0:0:0:0:
256,192,79710,1,8,0:0:0:0:
256,192,79917,1,8,0:0:0:0:
256,192,80020,1,0,0:0:0:0:
256,192,80072,1,0,0:0:0:0:
256,192,80124,1,8,0:0:0:0:
256,192,80227,1,8,0:0:0:0:
256,192,80331,1,0,0:0:0:0:
256,192,80434,1,8,0:0:0:0:
256,192,80641,1,8,0:0:0:0:
256,192,80744,1,0,0:0:0:0:
256,192,80848,1,8,0:0:0:0:
256,192,80900,1,8,0:0:0:0:
256,192,80951,1,4,0:0:0:0:
256,192,81158,1,4,0:0:0:0:
256,192,81365,1,8,0:0:0:0:
256,192,81469,1,0,0:0:0:0:
256,192,81675,1,0,0:0:0:0:
256,192,81779,1,8,0:0:0:0:
256,192,81882,1,0,0:0:0:0:
256,192,81934,1,0,0:0:0:0:
256,192,81986,1,8,0:0:0:0:
256,192,82089,1,4,0:0:0:0:
256,192,82296,1,8,0:0:0:0:
256,192,82348,1,8,0:0:0:0:
256,192,82400,1,4,0:0:0:0:
256,192,82606,1,4,0:0:0:0:
256,192,82813,1,4,0:0:0:0:
256,192,83020,5,4,0:0:0:0:
256,192,83227,1,8,0:0:0:0:
256,192,83331,1,0,0:0:0:0:
256,192,83434,1,8,0:0:0:0:
256,192,83486,1,8,0:0:0:0:
256,192,83538,1,8,0:0:0:0:
256,192,83641,1,0,0:0:0:0:
256,192,83744,1,0,0:0:0:0:
256,192,83796,1,8,0:0:0:0:
256,192,83848,1,0,0:0:0:0:
256,192,83900,1,0,0:0:0:0:
256,192,83951,1,8,0:0:0:0:
256,192,84003,1,8,0:0:0:0:
256,192,84055,1,0,0:0:0:0:
256,192,84158,1,0,0:0:0:0:
256,192,84262,1,8,0:0:0:0:
256,192,84365,1,0,0:0:0:0:
256,192,84417,1,0,0:0:0:0:
256,192,84469,1,8,0:0:0:0:
256,192,84572,1,8,0:0:0:0:
256,192,84675,1,0,0:0:0:0:
256,192,84727,1,0,0:0:0:0:
256,192,84779,1,0,0:0:0:0:
256,192,84831,1,0,0:0:0:0:
256,192,84882,1,8,0:0:0:0:
256,192,84986,1,0,0:0:0:0:
256,192,85089,1,8,0:0:0:0:
256,192,85141,1,8,0:0:0:0:
256,192,85193,1,8,0:0:0:0:
256,192,85244,1,8,0:0:0:0:
256,192,85296,1,0,0:0:0:0:
256,192,85400,1,8,0:0:0:0:
256,192,85503,1,0,0:0:0:0:
256,192,85555,1,0,0:0:0:0:
256,192,85606,1,8,0:0:0:0:
256,192,85658,1,0,0:0:0:0:
256,192,85710,1,8,0:0:0:0:
256,192,85813,1,0,0:0:0:0:
256,192,85917,1,8,0:0:0:0:
256,192,85969,1,8,0:0:0:0:
256,192,86020,1,0,0:0:0:0:
256,192,86072,1,0,0:0:0:0:
256,192,86124,1,8,0:0:0:0:
256,192,86175,1,0,0:0:0:0:
256,192,86227,1,8,0:0:0:0:
256,192,86279,1,8,0:0:0:0:
256,192,86331,1,0,0:0:0:0:
256,192,86434,1,0,0:0:0:0:
256,192,86538,1,8,0:0:0:0:
256,192,86589,1,8,0:0:0:0:
256,192,86641,1,0,0:0:0:0:
256,192,86693,1,0,0:0:0:0:
256,192,86744,1,8,0:0:0:0:
256,192,86848,1,0,0:0:0:0:
256,192,86900,1,0,0:0:0:0:
256,192,86951,1,8,0:0:0:0:
256,192,87055,1,0,0:0:0:0:
256,192,87158,1,8,0:0:0:0:
256,192,87210,1,8,0:0:0:0:
256,192,87262,1,0,0:0:0:0:
256,192,87365,1,8,0:0:0:0:
256,192,87469,1,0,0:0:0:0:
256,192,87572,1,8,0:0:0:0:
256,192,87675,1,0,0:0:0:0:
256,192,87727,1,0,0:0:0:0:
256,192,87779,1,8,0:0:0:0:
256,192,87986,1,4,0:0:0:0:
256,192,88296,1,8,0:0:0:0:
256,192,88348,1,8,0:0:0:0:
256,192,88400,1,4,0:0:0:0:
256,192,88606,1,0,0:0:0:0:
256,192,88710,1,8,0:0:0:0:
256,192,88813,1,0,0:0:0:0:
256,192,88917,1,8,0:0:0:0:
256,192,89020,1,0,0:0:0:0:
256,192,89124,1,8,0:0:0:0:
256,192,89227,1,0,0:0:0:0:
256,192,89279,1,0,0:0:0:0:
256,192,89331,1,8,0:0:0:0:
256,192,89382,1,8,0:0:0:0:
256,192,89434,1,0,0:0:0:0:
256,192,89486,1,0,0:0:0:0:
256,192,89538,1,8,0:0:0:0:
256,192,89589,1,8,0:0:0:0:
256,192,89641,1,4,0:0:0:0:
256,192,89951,1,0,0:0:0:0:
256,192,90262,1,4,0:0:0:0:
256,192,90675,1,0,0:0:0:0:
256,192,90882,1,8,0:0:0:0:
256,192,91089,1,8,0:0:0:0:
256,192,91193,1,8,0:0:0:0:
256,192,91296,1,4,0:0:0:0:
256,192,91606,1,0,0:0:0:0:
256,192,91917,1,4,0:0:0:0:
256,192,92331,1,0,0:0:0:0:
256,192,92538,1,8,0:0:0:0:
256,192,93779,5,4,0:0:0:0:
256,192,94606,1,0,0:0:0:0:
256,192,94710,1,0,0:0:0:0:
256,192,94813,1,8,0:0:0:0:
256,192,95020,1,0,0:0:0:0:
256,192,95124,1,8,0:0:0:0:
256,192,95331,1,0,0:0:0:0:
256,192,95538,1,0,0:0:0:0:
256,192,95641,1,8,0:0:0:0:
256,192,95744,1,0,0:0:0:0:
256,192,95848,1,8,0:0:0:0:
256,192,96055,1,8,0:0:0:0:
256,192,96262,1,4,0:0:0:0:
256,192,96882,1,0,0:0:0:0:
256,192,97503,1,0,0:0:0:0:
256,192,97917,1,0,0:0:0:0:
256,192,98538,1,0,0:0:0:0:
256,192,99158,1,0,0:0:0:0:
256,192,99572,1,0,0:0:0:0:
256,192,100193,1,0,0:0:0:0:
256,192,100400,1,0,0:0:0:0:
256,192,101020,1,0,0:0:0:0:
256,192,101227,1,0,0:0:0:0:
256,192,101641,1,0,0:0:0:0:
256,192,101951,1,0,0:0:0:0:
256,192,102055,1,8,0:0:0:0:
256,192,102158,1,0,0:0:0:0:
256,192,102262,1,0,0:0:0:0:
256,192,102365,1,8,0:0:0:0:
256,192,102675,5,8,0:0:0:0:
256,192,102882,1,0,0:0:0:0:
256,192,103089,1,0,0:0:0:0:
256,192,103296,1,8,0:0:0:0:
256,192,103503,1,0,0:0:0:0:
256,192,103606,1,0,0:0:0:0:
256,192,103710,1,8,0:0:0:0:
256,192,103813,1,0,0:0:0:0:
256,192,104020,1,8,0:0:0:0:
256,192,104227,1,0,0:0:0:0:
256,192,104331,1,0,0:0:0:0:
256,192,104538,1,8,0:0:0:0:
256,192,104744,1,0,0:0:0:0:
256,192,104848,1,0,0:0:0:0:
256,192,104951,1,8,0:0:0:0:
256,192,105158,1,0,0:0:0:0:
256,192,105262,1,8,0:0:0:0:
256,192,105365,1,0,0:0:0:0:
256,192,105469,1,0,0:0:0:0:
256,192,105572,1,8,0:0:0:0:
256,192,105675,1,8,0:0:0:0:
256,192,105882,1,8,0:0:0:0:
256,192,105986,1,0,0:0:0:0:
256,192,106089,1,8,0:0:0:0:
256,192,106193,1,0,0:0:0:0:
256,192,106296,1,0,0:0:0:0:
256,192,106400,1,8,0:0:0:0:
256,192,106503,1,8,0:0:0:0:
256,192,106606,1,0,0:0:0:0:
256,192,106710,1,8,0:0:0:0:
256,192,106917,1,0,0:0:0:0:
256,192,107020,1,8,0:0:0:0:
256,192,107124,1,0,0:0:0:0:
256,192,107331,1,8,0:0:0:0:
256,192,107434,1,0,0:0:0:0:
256,192,107538,1,8,0:0:0:0:
256,192,107848,1,4,0:0:0:0:
256,192,108055,1,4,0:0:0:0:
256,192,108262,1,4,0:0:0:0:
256,192,108365,1,4,0:0:0:0:
256,192,108572,1,4,0:0:0:0:
256,192,108779,1,4,0:0:0:0:
256,192,108986,1,4,0:0:0:0:
256,192,109089,1,4,0:0:0:0:
256,192,109296,1,4,0:0:0:0:
256,192,109503,1,4,0:0:0:0:
256,192,110124,5,0,0:0:0:0:
256,192,110227,1,0,0:0:0:0:
256,192,110331,1,8,0:0:0:0:
256,192,110951,1,0,0:0:0:0:
256,192,111158,1,0,0:0:0:0:
256,192,111365,1,0,0:0:0:0:
256,192,111469,1,0,0:0:0:0:
256,192,111779,1,0,0:0:0:0:
256,192,111882,1,0,0:0:0:0:
256,192,111986,1,8,0:0:0:0:
256,192,112606,1,0,0:0:0:0:
256,192,112813,1,4,0:0:0:0:
256,192,113434,1,0,0:0:0:0:
256,192,113538,1,0,0:0:0:0:
256,192,113641,1,8,0:0:0:0:
256,192,114262,1,0,0:0:0:0:
256,192,114469,1,0,0:0:0:0:
256,192,114675,1,0,0:0:0:0:
256,192,114779,1,0,0:0:0:0:
256,192,115089,1,0,0:0:0:0:
256,192,115296,1,8,0:0:0:0:
256,192,115400,1,0,0:0:0:0:
256,192,115503,1,8,0:0:0:0:
256,192,115606,1,0,0:0:0:0:
256,192,115710,1,8,0:0:0:0:
256,192,115813,1,0,0:0:0:0:
256,192,115917,1,8,0:0:0:0:
256,192,116124,5,4,0:0:0:0:
256,192,116331,1,8,0:0:0:0:
256,192,116538,1,4,0:0:0:0:
256,192,116744,1,8,0:0:0:0:
256,192,116848,1,8,0:0:0:0:
256,192,116951,1,4,0:0:0:0:
256,192,117055,1,8,0:0:0:0:
256,192,117262,1,8,0:0:0:0:
256,192,117365,1,4,0:0:0:0:
256,192,117572,1,8,0:0:0:0:
256,192,117779,5,4,0:0:0:0:
256,192,117882,1,0,0:0:0:0:
256,192,117986,1,8,0:0:0:0:
256,192,118193,1,4,0:0:0:0:
256,192,118400,1,8,0:0:0:0:
256,192,118503,1,8,0:0:0:0:
256,192,118606,1,4,0:0:0:0:
256,192,118710,1,8,0:0:0:0:
256,192,118917,1,8,0:0:0:0:
256,192,119020,1,4,0:0:0:0:
256,192,119227,1,8,0:0:0:0:
256,192,119331,1,8,0:0:0:0:
256,192,119434,5,4,0:0:0:0:
256,192,119538,1,8,0:0:0:0:
256,192,119641,1,0,0:0:0:0:
256,192,119744,1,8,0:0:0:0:
256,192,119848,1,4,0:0:0:0:
256,192,120055,1,8,0:0:0:0:
256,192,120262,1,4,0:0:0:0:
256,192,120365,1,0,0:0:0:0:
256,192,120469,1,8,0:0:0:0:
256,192,120572,1,8,0:0:0:0:
256,192,120675,1,4,0:0:0:0:
256,192,120882,1,8,0:0:0:0:
256,192,121503,5,4,0:0:0:0:
256,192,121917,1,0,0:0:0:0:
256,192,122227,1,8,0:0:0:0:
256,192,122434,1,0,0:0:0:0:
256,192,122538,1,8,0:0:0:0:
256,192,122641,1,8,0:0:0:0:
256,192,122744,1,0,0:0:0:0:
256,192,123158,1,0,0:0:0:0:
256,192,124400,5,4,0:0:0:0:
256,192,124606,1,8,0:0:0:0:
256,192,124710,1,0,0:0:0:0:
256,192,124813,1,8,0:0:0:0:
256,192,124865,1,8,0:0:0:0:
256,192,124917,1,8,0:0:0:0:
256,192,125020,1,0,0:0:0:0:
256,192,125124,1,8,0:0:0:0:
256,192,125175,1,0,0:0:0:0:
256,192,125227,1,8,0:0:0:0:
256,192,125279,1,8,0:0:0:0:
256,192,125331,1,0,0:0:0:0:
256,192,125382,1,0,0:0:0:0:
256,192,125434,1,8,0:0:0:0:
256,192,125538,1,0,0:0:0:0:
256,192,125641,1,8,0:0:0:0:
256,192,125744,1,0,0:0:0:0:
256,192,125796,1,0,0:0:0:0:
256,192,125848,1,8,0:0:0:0:
256,192,125951,1,8,0:0:0:0:
256,192,126055,1,0,0:0:0:0:
256,192,126106,1,0,0:0:0:0:
256,192,126158,1,8,0:0:0:0:
256,192,126262,1,0,0:0:0:0:
256,192,126365,1,0,0:0:0:0:
256,192,126469,1,8,0:0:0:0:
256,192,126520,1,8,0:0:0:0:
256,192,126572,1,0,0:0:0:0:
256,192,126675,1,8,0:0:0:0:
256,192,126779,1,8,0:0:0:0:
256,192,126882,1,0,0:0:0:0:
256,192,126934,1,0,0:0:0:0:
256,192,126986,1,8,0:0:0:0:
256,192,127038,1,8,0:0:0:0:
256,192,127089,1,0,0:0:0:0:
256,192,127193,1,0,0:0:0:0:
256,192,127296,1,8,0:0:0:0:
256,192,127348,1,8,0:0:0:0:
256,192,127400,1,0,0:0:0:0:
256,192,127451,1,0,0:0:0:0:
256,192,127503,1,8,0:0:0:0:
256,192,127555,1,0,0:0:0:0:
256,192,127606,1,8,0:0:0:0:
256,192,127658,1,8,0:0:0:0:
256,192,127710,1,0,0:0:0:0:
256,192,127813,1,0,0:0:0:0:
256,192,127917,1,8,0:0:0:0:
256,192,128020,1,0,0:0:0:0:
256,192,128124,1,8,0:0:0:0:
256,192,128175,1,8,0:0:0:0:
256,192,128227,1,8,0:0:0:0:
256,192,128331,1,0,0:0:0:0:
256,192,128382,1,0,0:0:0:0:
256,192,128434,1,8,0:0:0:0:
256,192,128486,1,8,0:0:0:0:
256,192,128538,1,0,0:0:0:0:
256,192,128641,1,8,0:0:0:0:
256,192,128744,1,0,0:0:0:0:
256,192,128796,1,0,0:0:0:0:
256,192,128848,1,0,0:0:0:0:
256,192,128900,1,0,0:0:0:0:
256,192,128951,1,8,0:0:0:0:
256,192,129055,1,0,0:0:0:0:
256,192,129158,1,8,0:0:0:0:
256,192,129210,1,8,0:0:0:0:
256,192,129262,1,0,0:0:0:0:
256,192,129313,1,0,0:0:0:0:
256,192,129365,1,8,0:0:0:0:
256,192,129469,1,0,0:0:0:0:
256,192,129572,1,8,0:0:0:0:
256,192,129675,1,0,0:0:0:0:
256,192,129779,1,8,0:0:0:0:
256,192,129882,1,8,0:0:0:0:
256,192,129986,1,8,0:0:0:0:
256,192,130089,1,0,0:0:0:0:
256,192,130296,1,0,0:0:0:0:
256,192,130400,1,8,0:0:0:0:
256,192,130503,1,0,0:0:0:0:
256,192,130606,1,8,0:0:0:0:
256,192,130710,1,0,0:0:0:0:
256,192,130813,1,8,0:0:0:0:
256,192,130917,1,0,0:0:0:0:
256,192,131020,1,8,0:0:0:0:
256,192,131227,1,8,0:0:0:0:
256,192,131331,1,0,0:0:0:0:
256,192,131382,1,0,0:0:0:0:
256,192,131434,1,8,0:0:0:0:
256,192,131538,1,8,0:0:0:0:
256,192,131641,1,0,0:0:0:0:
256,192,131744,1,8,0:0:0:0:
256,192,131951,1,8,0:0:0:0:
256,192,132055,1,0,0:0:0:0:
256,192,132158,1,8,0:0:0:0:
256,192,132210,1,8,0:0:0:0:
256,192,132262,1,4,0:0:0:0:
256,192,132469,1,4,0:0:0:0:
256,192,132675,1,8,0:0:0:0:
256,192,132779,1,0,0:0:0:0:
256,192,132986,1,0,0:0:0:0:
256,192,133089,1,8,0:0:0:0:
256,192,133193,1,0,0:0:0:0:
256,192,133244,1,0,0:0:0:0:
256,192,133296,1,8,0:0:0:0:
256,192,133400,1,4,0:0:0:0:
256,192,133606,1,8,0:0:0:0:
256,192,133658,1,8,0:0:0:0:
256,192,133710,1,4,0:0:0:0:
256,192,133917,1,8,0:0:0:0:
256,192,134124,1,4,0:0:0:0:
256,192,134331,5,4,0:0:0:0:
256,192,134538,1,0,0:0:0:0:
256,192,134641,1,0,0:0:0:0:
256,192,134744,1,8,0:0:0:0:
256,192,134796,1,8,0:0:0:0:
256,192,134848,1,8,0:0:0:0:
256,192,134951,1,0,0:0:0:0:
256,192,135055,1,0,0:0:0:0:
256,192,135106,1,8,0:0:0:0:
256,192,135158,1,0,0:0:0:0:
256,192,135210,1,0,0:0:0:0:
256,192,135262,1,8,0:0:0:0:
256,192,135313,1,8,0:0:0:0:
256,192,135365,1,0,0:0:0:0:
256,192,135469,1,0,0:0:0:0:
256,192,135572,1,8,0:0:0:0:
256,192,135675,1,0,0:0:0:0:
256,192,135727,1,0,0:0:0:0:
256,192,135779,1,8,0:0:0:0:
256,192,135882,1,8,0:0:0:0:
256,192,135986,1,0,0:0:0:0:
256,192,136038,1,8,0:0:0:0:
256,192,136089,1,0,0:0:0:0:
256,192,136141,1,0,0:0:0:0:
256,192,136193,1,8,0:0:0:0:
256,192,136296,1,0,0:0:0:0:
256,192,136400,1,8,0:0:0:0:
256,192,136451,1,0,0:0:0:0:
256,192,136503,1,8,0:0:0:0:
256,192,136555,1,8,0:0:0:0:
256,192,136606,1,0,0:0:0:0:
256,192,136710,1,8,0:0:0:0:
256,192,136813,1,0,0:0:0:0:
256,192,136865,1,0,0:0:0:0:
256,192,136917,1,8,0:0:0:0:
256,192,136969,1,8,0:0:0:0:
256,192,137020,1,0,0:0:0:0:
256,192,137124,1,0,0:0:0:0:
256,192,137227,1,8,0:0:0:0:
256,192,137331,1,0,0:0:0:0:
256,192,137382,1,0,0:0:0:0:
256,192,137434,1,8,0:0:0:0:
256,192,137486,1,8,0:0:0:0:
256,192,137538,1,0,0:0:0:0:
256,192,137589,1,8,0:0:0:0:
256,192,137641,1,0,0:0:0:0:
256,192,137744,1,0,0:0:0:0:
256,192,137848,1,8,0:0:0:0:
256,192,137900,1,8,0:0:0:0:
256,192,137951,1,0,0:0:0:0:
256,192,138003,1,0,0:0:0:0:
256,192,138055,1,8,0:0:0:0:
256,192,138158,1,0,0:0:0:0:
256,192,138210,1,0,0:0:0:0:
256,192,138262,1,8,0:0:0:0:
256,192,138365,1,0,0:0:0:0:
256,192,138469,1,8,0:0:0:0:
256,192,138520,1,8,0:0:0:0:
256,192,138572,1,0,0:0:0:0:
256,192,138675,1,8,0:0:0:0:
256,192,138779,1,0,0:0:0:0:
256,192,138882,1,8,0:0:0:0:
256,192,138986,1,0,0:0:0:0:
256,192,139038,1,0,0:0:0:0:
256,192,139089,1,8,0:0:0:0:
256,192,139296,1,4,0:0:0:0:
256,192,139606,1,8,0:0:0:0:
256,192,139658,1,8,0:0:0:0:
256,192,139710,1,4,0:0:0:0:
256,192,139917,1,0,0:0:0:0:
256,192,140020,1,8,0:0:0:0:
256,192,140124,1,0,0:0:0:0:
256,192,140227,1,8,0:0:0:0:
256,192,140331,1,0,0:0:0:0:
256,192,140434,1,8,0:0:0:0:
256,192,140538,1,0,0:0:0:0:
256,192,140589,1,0,0:0:0:0:
256,192,140641,1,8,0:0:0:0:
256,192,140693,1,8,0:0:0:0:
256,192,140744,1,0,0:0:0:0:
256,192,140796,1,0,0:0:0:0:
256,192,140848,1,8,0:0:0:0:
256,192,140900,1,8,0:0:0:0:
256,192,140951,1,4,0:0:0:0:
256,192,141262,1,0,0:0:0:0:
256,192,141572,1,4,0:0:0:0:
256,192,141986,1,0,0:0:0:0:
256,192,142193,1,12,0:0:0:0:
256,192,142503,1,8,0:0:0:0:
256,192,142606,1,4,0:0:0:0:
256,192,142917,1,0,0:0:0:0:
256,192,143227,1,4,0:0:0:0:
256,192,143641,1,0,0:0:0:0:
256,192,143848,1,12,0:0:0:0:
256,192,144262,5,4,0:0:0:0:
256,192,144572,1,0,0:0:0:0:
256,192,144675,1,8,0:0:0:0:
256,192,144882,1,4,0:0:0:0:
256,192,145296,1,0,0:0:0:0:
256,192,145503,1,8,0:0:0:0:
256,192,145917,1,0,0:0:0:0:
256,192,146227,1,0,0:0:0:0:
256,192,146331,1,8,0:0:0:0:
256,192,146538,1,0,0:0:0:0:
256,192,146951,1,0,0:0:0:0:
256,192,147158,1,8,0:0:0:0:
256,192,147572,1,4,0:0:0:0:
256,192,147882,1,0,0:0:0:0:
256,192,147986,1,8,0:0:0:0:
256,192,148193,1,4,0:0:0:0:
256,192,148606,1,0,0:0:0:0:
256,192,148813,1,8,0:0:0:0:
256,192,149020,1,0,0:0:0:0:
256,192,149227,1,0,0:0:0:0:
256,192,150158,5,0,0:0:0:0:
256,192,150262,1,8,0:0:0:0:
256,192,150365,1,0,0:0:0:0:
256,192,150469,1,8,0:0:0:0:
256,192,150572,1,8,0:0:0:0:
256,192,150675,1,8,0:0:0:0:
256,192,150779,1,8,0:0:0:0:
256,192,150882,1,4,0:0:0:0:
256,192,151193,1,0,0:0:0:0:
256,192,151296,1,8,0:0:0:0:
256,192,151503,1,4,0:0:0:0:
256,192,151917,1,0,0:0:0:0:
256,192,152124,1,8,0:0:0:0:
256,192,152538,1,0,0:0:0:0:
256,192,152675,1,8,0:0:0:0:
256,192,152813,1,8,0:0:0:0:
256,192,152951,1,0,0:0:0:0:
256,192,153089,1,8,0:0:0:0:
256,192,153227,1,8,0:0:0:0:
256,192,153365,1,0,0:0:0:0:
256,192,153503,1,8,0:0:0:0:
256,192,153641,1,8,0:0:0:0:
256,192,153779,1,0,0:0:0:0:
256,192,153882,1,0,0:0:0:0:
256,192,154089,1,8,0:0:0:0:
256,192,154193,1,4,0:0:0:0:
256,192,154503,5,0,0:0:0:0:
256,192,154606,1,8,0:0:0:0:
256,192,154813,1,4,0:0:0:0:
256,192,155020,1,8,0:0:0:0:
256,192,155124,1,8,0:0:0:0:
256,192,155227,1,0,0:0:0:0:
256,192,155434,1,4,0:0:0:0:
256,192,155641,1,8,0:0:0:0:
256,192,155848,1,4,0:0:0:0:
256,192,156055,1,8,0:0:0:0:
256,192,156158,1,8,0:0:0:0:
256,192,156262,1,8,0:0:0:0:
256,192,156469,1,4,0:0:0:0:
256,192,156675,1,8,0:0:0:0:
256,192,156779,1,8,0:0:0:0:
256,192,156882,1,8,0:0:0:0:
256,192,157089,1,4,0:0:0:0:
256,192,157503,5,0,0:0:0:0:
256,192,157606,1,8,0:0:0:0:
256,192,157710,1,0,0:0:0:0:
256,192,157917,1,8,0:0:0:0:
256,192,158124,1,0,0:0:0:0:
256,192,158331,1,0,0:0:0:0:
256,192,158434,1,8,0:0:0:0:
256,192,158538,1,0,0:0:0:0:
256,192,158744,1,8,0:0:0:0:
256,192,158848,1,8,0:0:0:0:
256,192,158951,1,0,0:0:0:0:
256,192,159159,5,8,0:0:0:0:
256,192,159365,1,0,0:0:0:0:
256,192,159469,1,0,0:0:0:0:
256,192,159572,1,8,0:0:0:0:
256,192,159675,1,8,0:0:0:0:
256,192,159779,1,0,0:0:0:0:
256,192,159986,1,0,0:0:0:0:
256,192,160089,1,8,0:0:0:0:
256,192,160193,1,0,0:0:0:0:
256,192,160400,1,8,0:0:0:0:
256,192,160503,1,8,0:0:0:0:
256,192,160606,1,0,0:0:0:0:
256,192,160814,5,8,0:0:0:0:
256,192,161020,1,0,0:0:0:0:
256,192,161227,1,8,0:0:0:0:
256,192,161434,1,8,0:0:0:0:
256,192,161641,1,0,0:0:0:0:
256,192,161744,1,8,0:0:0:0:
256,192,161848,1,0,0:0:0:0:
256,192,162055,1,8,0:0:0:0:
256,192,162262,1,0,0:0:0:0:
256,192,162470,5,8,0:0:0:0:
256,192,162675,1,0,0:0:0:0:
256,192,162882,1,8,0:0:0:0:
256,192,163089,1,0,0:0:0:0:
256,192,163193,1,0,0:0:0:0:
256,192,163296,1,8,0:0:0:0:
256,192,163400,1,8,0:0:0:0:
256,192,163503,1,0,0:0:0:0:
256,192,163710,1,8,0:0:0:0:
256,192,163917,1,0,0:0:0:0:
256,192,164125,5,8,0:0:0:0:
256,192,164227,1,8,0:0:0:0:
256,192,164331,1,0,0:0:0:0:
256,192,164434,1,8,0:0:0:0:
256,192,164641,1,0,0:0:0:0:
256,192,164848,1,8,0:0:0:0:
256,192,164951,1,8,0:0:0:0:
256,192,165158,1,0,0:0:0:0:
256,192,165365,1,8,0:0:0:0:
256,192,165572,1,0,0:0:0:0:
256,192,165780,5,8,0:0:0:0:
256,192,165986,1,0,0:0:0:0:
256,192,166089,1,8,0:0:0:0:
256,192,166296,1,0,0:0:0:0:
256,192,166400,1,8,0:0:0:0:
256,192,166606,1,0,0:0:0:0:
256,192,166710,1,8,0:0:0:0:
256,192,166813,1,0,0:0:0:0:
256,192,167020,1,8,0:0:0:0:
256,192,167331,5,0,0:0:0:0:
256,192,167435,1,0,0:0:0:0:
256,192,167641,1,8,0:0:0:0:
256,192,167848,1,0,0:0:0:0:
256,192,168055,1,0,0:0:0:0:
256,192,168158,1,8,0:0:0:0:
256,192,168262,1,8,0:0:0:0:
256,192,168469,1,0,0:0:0:0:
256,192,168675,1,8,0:0:0:0:
256,192,168779,1,8,0:0:0:0:
256,192,168882,1,0,0:0:0:0:
256,192,168986,1,8,0:0:0:0:
256,192,169090,5,0,0:0:0:0:
256,192,169296,1,8,0:0:0:0:
256,192,169400,1,8,0:0:0:0:
256,192,169503,1,0,0:0:0:0:
256,192,169606,1,0,0:0:0:0:
256,192,169710,1,8,0:0:0:0:
256,192,169813,1,8,0:0:0:0:
256,192,169917,1,0,0:0:0:0:
256,192,170124,1,8,0:0:0:0:
256,192,170331,1,0,0:0:0:0:
256,192,170434,1,0,0:0:0:0:
256,192,170538,1,8,0:0:0:0:
256,192,170744,5,0,0:0:0:0:
256,192,170951,1,8,0:0:0:0:
256,192,171055,1,8,0:0:0:0:
256,192,171158,1,8,0:0:0:0:
256,192,171365,1,0,0:0:0:0:
256,192,172400,1,0,0:0:0:0:
256,192,172606,1,8,0:0:0:0:
256,192,172710,1,8,0:0:0:0:
256,192,172813,1,8,0:0:0:0:
256,192,173020,1,0,0:0:0:0:
256,192,173331,5,8,0:0:0:0:
256,192,173538,1,0,0:0:0:0:
256,192,173641,1,8,0:0:0:0:
256,192,173744,1,0,0:0:0:0:
256,192,173848,1,8,0:0:0:0:
256,192,173951,1,8,0:0:0:0:
256,192,174055,5,0,0:0:0:0:
256,192,174262,1,8,0:0:0:0:
256,192,174365,1,8,0:0:0:0:
256,192,174469,1,8,0:0:0:0:
256,192,174675,1,0,0:0:0:0:
256,192,175710,1,0,0:0:0:0:
256,192,175917,1,8,0:0:0:0:
256,192,176020,1,8,0:0:0:0:
256,192,176124,1,8,0:0:0:0:
256,192,176331,1,0,0:0:0:0:
256,192,176641,5,0,0:0:0:0:
256,192,176744,1,8,0:0:0:0:
256,192,176848,1,8,0:0:0:0:
256,192,176951,1,0,0:0:0:0:
256,192,177158,1,8,0:0:0:0:
256,192,177365,5,0,0:0:0:0:
256,192,177572,1,8,0:0:0:0:
256,192,177675,1,8,0:0:0:0:
256,192,177779,1,8,0:0:0:0:
256,192,177986,1,0,0:0:0:0:
256,192,178193,5,8,0:0:0:0:
256,192,179020,5,0,0:0:0:0:
256,192,179227,1,8,0:0:0:0:
256,192,179331,1,8,0:0:0:0:
256,192,179434,1,8,0:0:0:0:
256,192,179641,1,0,0:0:0:0:
256,192,180675,5,0,0:0:0:0:
256,192,180882,1,0,0:0:0:0:
256,192,181089,1,0,0:0:0:0:
256,192,181296,1,0,0:0:0:0:
256,192,181503,1,0,0:0:0:0:
256,192,181710,1,0,0:0:0:0:
256,192,181917,1,0,0:0:0:0:
256,192,182124,1,0,0:0:0:0:
256,192,182331,1,0,0:0:0:0:
256,192,182538,1,0,0:0:0:0:
256,192,182744,1,0,0:0:0:0:
256,192,182848,1,0,0:0:0:0:
256,192,182951,1,0,0:0:0:0:
256,192,183055,1,0,0:0:0:0:
256,192,183158,5,4,0:0:0:0:
256,192,183986,5,4,0:0:0:0:
256,192,184193,1,0,0:0:0:0:
256,192,184400,1,8,0:0:0:0:
256,192,184606,1,0,0:0:0:0:
256,192,184813,1,8,0:0:0:0:
256,192,184917,1,8,0:0:0:0:
256,192,185020,1,0,0:0:0:0:
256,192,185227,1,8,0:0:0:0:
256,192,185434,1,0,0:0:0:0:
256,192,185538,1,0,0:0:0:0:
256,192,185641,1,8,0:0:0:0:
256,192,185848,1,0,0:0:0:0:
256,192,186055,1,8,0:0:0:0:
256,192,186262,1,0,0:0:0:0:
256,192,186469,1,0,0:0:0:0:
256,192,186572,1,8,0:0:0:0:
256,192,186675,1,0,0:0:0:0:
256,192,186882,1,8,0:0:0:0:
256,192,187089,1,0,0:0:0:0:
256,192,187296,1,8,0:0:0:0:
256,192,187503,1,0,0:0:0:0:
256,192,187710,1,8,0:0:0:0:
256,192,187917,1,0,0:0:0:0:
256,192,188020,1,8,0:0:0:0:
256,192,188227,1,8,0:0:0:0:
256,192,188331,1,0,0:0:0:0:
256,192,188538,1,8,0:0:0:0:
256,192,188744,1,0,0:0:0:0:
256,192,188848,1,0,0:0:0:0:
256,192,188951,1,8,0:0:0:0:
256,192,189158,1,8,0:0:0:0:
256,192,189365,1,8,0:0:0:0:
256,192,189469,1,8,0:0:0:0:
256,192,189675,1,0,0:0:0:0:
256,192,189882,1,0,0:0:0:0:
256,192,189986,1,8,0:0:0:0:
256,192,190089,1,0,0:0:0:0:
256,192,190193,1,8,0:0:0:0:
256,192,190296,1,0,0:0:0:0:
256,192,190400,1,8,0:0:0:0:
256,192,190503,1,0,0:0:0:0:
256,192,190606,1,8,0:0:0:0:
256,192,190813,1,8,0:0:0:0:
256,192,190917,1,0,0:0:0:0:
256,192,191020,1,8,0:0:0:0:
256,192,191124,1,8,0:0:0:0:
256,192,191227,1,0,0:0:0:0:
256,192,191331,1,8,0:0:0:0:
256,192,191538,1,0,0:0:0:0:
256,192,191641,1,8,0:0:0:0:
256,192,191744,1,8,0:0:0:0:
256,192,191848,1,4,0:0:0:0:
256,192,192055,1,4,0:0:0:0:
256,192,192262,1,8,0:0:0:0:
256,192,192365,1,0,0:0:0:0:
256,192,192572,1,0,0:0:0:0:
256,192,192675,1,8,0:0:0:0:
256,192,192779,1,0,0:0:0:0:
256,192,192882,1,0,0:0:0:0:
256,192,192986,1,8,0:0:0:0:
256,192,193193,1,0,0:0:0:0:
256,192,193296,1,0,0:0:0:0:
256,192,193503,1,8,0:0:0:0:
256,192,193710,1,8,0:0:0:0:
256,192,193917,5,4,0:0:0:0:
256,192,194124,1,0,0:0:0:0:
256,192,194227,1,0,0:0:0:0:
256,192,194331,1,8,0:0:0:0:
256,192,194382,1,8,0:0:0:0:
256,192,194434,1,8,0:0:0:0:
256,192,194538,1,0,0:0:0:0:
256,192,194641,1,0,0:0:0:0:
256,192,194693,1,8,0:0:0:0:
256,192,194744,1,0,0:0:0:0:
256,192,194796,1,0,0:0:0:0:
256,192,194848,1,8,0:0:0:0:
256,192,194900,1,8,0:0:0:0:
256,192,194951,1,0,0:0:0:0:
256,192,195055,1,0,0:0:0:0:
256,192,195158,1,8,0:0:0:0:
256,192,195210,1,8,0:0:0:0:
256,192,195262,1,8,0:0:0:0:
256,192,195313,1,8,0:0:0:0:
256,192,195365,1,0,0:0:0:0:
256,192,195469,1,0,0:0:0:0:
256,192,195572,1,8,0:0:0:0:
256,192,195675,1,0,0:0:0:0:
256,192,195727,1,0,0:0:0:0:
256,192,195779,1,8,0:0:0:0:
256,192,195882,1,0,0:0:0:0:
256,192,195934,1,0,0:0:0:0:
256,192,195986,1,8,0:0:0:0:
256,192,196038,1,0,0:0:0:0:
256,192,196089,1,8,0:0:0:0:
256,192,196141,1,8,0:0:0:0:
256,192,196193,1,0,0:0:0:0:
256,192,196296,1,0,0:0:0:0:
256,192,196400,1,8,0:0:0:0:
256,192,196503,1,0,0:0:0:0:
256,192,196555,1,0,0:0:0:0:
256,192,196606,1,8,0:0:0:0:
256,192,196710,1,0,0:0:0:0:
256,192,196813,1,8,0:0:0:0:
256,192,196865,1,8,0:0:0:0:
256,192,196917,1,0,0:0:0:0:
256,192,196969,1,0,0:0:0:0:
256,192,197020,1,8,0:0:0:0:
256,192,197072,1,0,0:0:0:0:
256,192,197124,1,8,0:0:0:0:
256,192,197175,1,8,0:0:0:0:
256,192,197227,1,0,0:0:0:0:
256,192,197331,1,0,0:0:0:0:
256,192,197434,1,8,0:0:0:0:
256,192,197538,1,8,0:0:0:0:
256,192,197641,1,0,0:0:0:0:
256,192,197693,1,0,0:0:0:0:
256,192,197744,1,0,0:0:0:0:
256,192,197796,1,0,0:0:0:0:
256,192,197848,1,8,0:0:0:0:
256,192,197951,1,0,0:0:0:0:
256,192,198055,1,8,0:0:0:0:
256,192,198106,1,0,0:0:0:0:
256,192,198158,1,8,0:0:0:0:
256,192,198210,1,8,0:0:0:0:
256,192,198262,1,0,0:0:0:0:
256,192,198365,1,0,0:0:0:0:
256,192,198469,1,8,0:0:0:0:
256,192,198572,1,0,0:0:0:0:
256,192,198624,1,0,0:0:0:0:
256,192,198675,1,8,0:0:0:0:
256,192,198779,1,8,0:0:0:0:
256,192,198882,1,0,0:0:0:0:
256,192,198934,1,8,0:0:0:0:
256,192,198986,1,0,0:0:0:0:
256,192,199038,1,0,0:0:0:0:
256,192,199089,1,8,0:0:0:0:
256,192,199193,1,0,0:0:0:0:
256,192,199296,1,8,0:0:0:0:
256,192,199348,1,0,0:0:0:0:
256,192,199400,1,8,0:0:0:0:
256,192,199451,1,8,0:0:0:0:
256,192,199503,1,0,0:0:0:0:
256,192,199606,1,0,0:0:0:0:
256,192,199658,1,0,0:0:0:0:
256,192,199710,1,8,0:0:0:0:
256,192,199762,1,0,0:0:0:0:
256,192,199813,1,8,0:0:0:0:
256,192,199865,1,8,0:0:0:0:
256,192,199917,1,0,0:0:0:0:
256,192,200020,1,0,0:0:0:0:
256,192,200124,1,8,0:0:0:0:
256,192,200227,1,0,0:0:0:0:
256,192,200279,1,0,0:0:0:0:
256,192,200331,1,8,0:0:0:0:
256,192,200434,1,8,0:0:0:0:
256,192,200538,1,0,0:0:0:0:
256,192,200744,5,0,0:0:0:0:
256,192,200848,1,8,0:0:0:0:
256,192,200900,1,8,0:0:0:0:
256,192,200951,1,0,0:0:0:0:
256,192,201055,1,8,0:0:0:0:
256,192,201158,1,0,0:0:0:0:
256,192,201262,1,8,0:0:0:0:
256,192,201365,1,8,0:0:0:0:
256,192,201469,1,0,0:0:0:0:
256,192,201572,1,8,0:0:0:0:
256,192,201624,1,8,0:0:0:0:
256,192,201675,1,8,0:0:0:0:
256,192,201727,1,8,0:0:0:0:
256,192,201779,1,4,0:0:0:0:
256,192,201986,1,4,0:0:0:0:
256,192,202193,1,8,0:0:0:0:
256,192,202296,1,0,0:0:0:0:
256,192,202348,1,0,0:0:0:0:
256,192,202400,1,8,0:0:0:0:
256,192,202503,1,8,0:0:0:0:
256,192,202606,1,0,0:0:0:0:
256,192,202710,1,8,0:0:0:0:
256,192,202813,1,0,0:0:0:0:
256,192,202865,1,0,0:0:0:0:
256,192,202917,1,8,0:0:0:0:
256,192,202969,1,8,0:0:0:0:
256,192,203020,1,4,0:0:0:0:
256,192,203331,1,4,0:0:0:0:
256,192,203641,1,4,0:0:0:0:
256,192,203848,5,4,0:0:0:0:
256,192,203951,1,4,0:0:0:0:
256,192,204055,1,4,0:0:0:0:
256,192,204158,1,4,0:0:0:0:
256,192,204262,1,4,0:0:0:0:
256,192,204882,5,4,0:0:0:0:
256,192,205089,1,8,0:0:0:0:
256,192,205296,1,4,0:0:0:0:
256,192,205503,1,4,0:0:0:0:
256,192,205710,1,8,0:0:0:0:
256,192,205813,1,0,0:0:0:0:
256,192,205917,1,8,0:0:0:0:
256,192,205969,1,8,0:0:0:0:
256,192,206020,1,8,0:0:0:0:
256,192,206072,1,8,0:0:0:0:
256,192,206124,1,0,0:0:0:0:
256,192,206227,1,8,0:0:0:0:
256,192,206331,1,0,0:0:0:0:
256,192,206382,1,0,0:0:0:0:
256,192,206434,1,8,0:0:0:0:
256,192,206486,1,0,0:0:0:0:
256,192,206538,1,8,0:0:0:0:
256,192,206641,1,0,0:0:0:0:
256,192,206744,1,8,0:0:0:0:
256,192,206796,1,8,0:0:0:0:
256,192,206848,1,0,0:0:0:0:
256,192,206900,1,0,0:0:0:0:
256,192,206951,1,8,0:0:0:0:
256,192,207003,1,0,0:0:0:0:
256,192,207055,1,8,0:0:0:0:
256,192,207106,1,8,0:0:0:0:
256,192,207158,1,0,0:0:0:0:
256,192,207262,1,0,0:0:0:0:
256,192,207365,1,8,0:0:0:0:
256,192,207417,1,8,0:0:0:0:
256,192,207469,1,0,0:0:0:0:
256,192,207520,1,0,0:0:0:0:
256,192,207572,1,8,0:0:0:0:
256,192,207675,1,0,0:0:0:0:
256,192,207727,1,0,0:0:0:0:
256,192,207779,1,8,0:0:0:0:
256,192,207882,1,0,0:0:0:0:
256,192,207986,1,8,0:0:0:0:
256,192,208038,1,8,0:0:0:0:
256,192,208089,1,0,0:0:0:0:
256,192,208193,1,8,0:0:0:0:
256,192,208296,1,0,0:0:0:0:
256,192,208400,1,8,0:0:0:0:
256,192,208503,1,0,0:0:0:0:
256,192,208555,1,0,0:0:0:0:
256,192,208606,1,8,0:0:0:0:
256,192,208813,1,4,0:0:0:0:
256,192,208951,1,8,0:0:0:0:
256,192,209089,1,8,0:0:0:0:
256,192,209227,1,4,0:0:0:0:
256,192,209365,1,8,0:0:0:0:
256,192,209503,1,8,0:0:0:0:
256,192,209641,1,4,0:0:0:0:
256,192,209848,1,0,0:0:0:0:
256,192,209951,1,8,0:0:0:0:
256,192,210055,1,0,0:0:0:0:
256,192,210106,1,0,0:0:0:0:
256,192,210158,1,8,0:0:0:0:
256,192,210210,1,8,0:0:0:0:
256,192,210262,1,0,0:0:0:0:
256,192,210313,1,0,0:0:0:0:
256,192,210365,1,8,0:0:0:0:
256,192,210417,1,8,0:0:0:0:
256,192,210469,1,4,0:0:0:0:
256,192,210779,1,0,0:0:0:0:
256,192,211089,1,4,0:0:0:0:
256,192,211503,1,0,0:0:0:0:
256,192,211710,1,12,0:0:0:0:
256,192,212124,1,4,0:0:0:0:
256,192,212434,1,0,0:0:0:0:
256,192,212744,1,4,0:0:0:0:
256,192,213158,1,0,0:0:0:0:
256,192,213365,1,12,0:0:0:0:
256,192,213779,5,0,0:0:0:0:
256,192,214193,1,0,0:0:0:0:
256,192,214606,1,0,0:0:0:0:
256,192,215020,1,0,0:0:0:0:
256,192,215434,1,0,0:0:0:0:
256,192,215641,1,8,0:0:0:0:
256,192,215848,1,0,0:0:0:0:
256,192,215900,1,0,0:0:0:0:
256,192,215951,1,8,0:0:0:0:
256,192,216158,1,8,0:0:0:0:
256,192,216365,1,0,0:0:0:0:
256,192,216469,1,0,0:0:0:0:
256,192,216675,1,8,0:0:0:0:
256,192,217089,5,4,0:0:0:0:
256,192,217296,1,8,0:0:0:0:
256,192,217503,1,0,0:0:0:0:
256,192,217572,1,0,0:0:0:0:
256,192,217641,1,0,0:0:0:0:
256,192,217710,1,0,0:0:0:0:
256,192,217813,1,8,0:0:0:0:
256,192,218020,1,0,0:0:0:0:
256,192,218227,1,8,0:0:0:0:
256,192,218331,1,0,0:0:0:0:
256,192,218434,1,0,0:0:0:0:
256,192,218538,1,8,0:0:0:0:
256,192,218641,1,8,0:0:0:0:
256,192,218744,1,0,0:0:0:0:
256,192,218951,1,8,0:0:0:0:
256,192,219055,1,0,0:0:0:0:
256,192,219158,1,0,0:0:0:0:
256,192,219262,1,8,0:0:0:0:
256,192,219469,1,0,0:0:0:0:
256,192,219675,1,8,0:0:0:0:
256,192,219882,1,8,0:0:0:0:
256,192,219986,1,0,0:0:0:0:
256,192,220089,1,8,0:0:0:0:
256,192,220193,1,8,0:0:0:0:
256,192,220296,1,8,0:0:0:0:
256,192,220400,1,4,0:0:0:0:
256,192,220606,5,8,0:0:0:0:
256,192,220813,1,0,0:0:0:0:
256,192,220882,1,0,0:0:0:0:
256,192,220951,1,0,0:0:0:0:
256,192,221020,1,0,0:0:0:0:
256,192,221124,1,8,0:0:0:0:
256,192,221331,1,0,0:0:0:0:
256,192,221538,1,8,0:0:0:0:
256,192,221641,1,0,0:0:0:0:
256,192,221744,1,0,0:0:0:0:
256,192,221848,1,8,0:0:0:0:
256,192,222055,1,0,0:0:0:0:
256,192,222158,1,0,0:0:0:0:
256,192,222262,1,8,0:0:0:0:
256,192,222365,1,0,0:0:0:0:
256,192,222469,1,0,0:0:0:0:
256,192,222572,1,8,0:0:0:0:
256,192,222779,1,0,0:0:0:0:
256,192,222882,1,8,0:0:0:0:
256,192,222986,1,0,0:0:0:0:
256,192,223089,1,8,0:0:0:0:
256,192,223193,1,0,0:0:0:0:
256,192,223296,1,8,0:0:0:0:
256,192,223400,1,8,0:0:0:0:
256,192,223503,1,8,0:0:0:0:
256,192,223710,5,8,0:0:0:0:
256,192,223813,1,0,0:0:0:0:
256,192,223917,1,8,0:0:0:0:
256,192,224020,1,0,0:0:0:0:
256,192,224124,1,8,0:0:0:0:
256,192,224331,5,8,0:0:0:0:
256,192,224434,1,0,0:0:0:0:
256,192,224538,1,8,0:0:0:0:
256,192,224641,1,0,0:0:0:0:
256,192,224744,1,8,0:0:0:0:
256,192,224951,5,8,0:0:0:0:
256,192,225055,1,0,0:0:0:0:
256,192,225158,1,8,0:0:0:0:
256,192,225262,1,0,0:0:0:0:
256,192,225365,1,8,0:0:0:0:
256,192,225572,5,8,0:0:0:0:
256,192,225675,1,0,0:0:0:0:
256,192,225779,1,8,0:0:0:0:
256,192,225882,1,0,0:0:0:0:
256,192,225986,1,8,0:0:0:0:
256,192,226193,5,8,0:0:0:0:
256,192,226296,1,0,0:0:0:0:
256,192,226400,1,8,0:0:0:0:
256,192,226503,1,0,0:0:0:0:
256,192,226606,1,8,0:0:0:0:
256,192,226675,1,8,0:0:0:0:
256,192,226744,1,8,0:0:0:0:
256,192,226813,1,8,0:0:0:0:
256,192,227020,5,8,0:0:0:0:
256,192,227124,1,0,0:0:0:0:
256,192,227227,1,8,0:0:0:0:
256,192,227331,1,0,0:0:0:0:
256,192,227434,1,8,0:0:0:0:
256,192,227641,5,8,0:0:0:0:
256,192,227744,1,0,0:0:0:0:
256,192,227848,1,8,0:0:0:0:
256,192,227951,1,0,0:0:0:0:
256,192,228055,1,8,0:0:0:0:
256,192,228262,5,8,0:0:0:0:
256,192,228365,1,0,0:0:0:0:
256,192,228469,1,8,0:0:0:0:
256,192,228572,1,0,0:0:0:0:
256,192,228675,1,12,0:0:0:0:
256,192,229089,1,4,0:0:0:0:
256,192,229503,5,12,0:0:0:0:
256,192,229917,1,4,0:0:0:0:
256,192,230331,5,12,0:0:0:0:
256,192,230744,1,4,0:0:0:0:
256,192,231158,12,0,231296,0:0:0:0:
256,192,231365,8,0,231503,0:0:0:0:
256,192,231572,8,0,231710,0:0:0:0:
256,192,231779,8,0,231917,0:0:0:0:
