osu file format v14

[General]
AudioFilename: Sickly.mp3
AudioLeadIn: 0
PreviewTime: 6413
Countdown: 0
SampleSet: Normal
StackLeniency: 0.2
Mode: 2
LetterboxInBreaks: 0
WidescreenStoryboard: 1

[Editor]
Bookmarks: 87589,89707,91030,95354,109118,117236,136295,138942,151118,159942,184295,188530,192236,202560,205295,210942,213589,215354,221883,224707
DistanceSpacing: 2
BeatDivisor: 4
GridSize: 16
TimelineZoom: 1.6

[Metadata]
Title:Sick Sick Sick
TitleUnicode:シックシックシック
Artist:PinocchioP
ArtistUnicode:ピノキオピー
Creator:Umi Sonoda-
Version:Sickly Rain
Source:
Tags:FeaRHuMaN Hatsune Miku Vocaloid PinocchioP ZERO-GO 2019 Pop Zero Go ピノキオピP
BeatmapID:1966742
BeatmapSetID:941866

[Difficulty]
HPDrainRate:5
CircleSize:4
OverallDifficulty:9
ApproachRate:9
SliderMultiplier:1.4
SliderTickRate:1

[Events]
//Background and Video events
0,0,"Sickly ctb.jpg",0,0
//Break Periods
2,170201,178048
//Storyboard Layer 0 (Background)
//Storyboard Layer 1 (Fail)
//Storyboard Layer 2 (Pass)
//Storyboard Layer 3 (Foreground)
//Storyboard Layer 4 (Overlay)
//Storyboard Sound Samples

[TimingPoints]
766,352.941176470588,4,1,0,70,1,0
21942,-97.0873786407767,4,1,0,70,0,0
27942,-100,4,1,0,70,0,0
62883,-100,4,1,0,70,0,1
65001,-50,4,1,0,70,0,1
65354,-100,4,1,0,70,0,1
67119,-66.6666666666667,4,1,0,70,0,1
67471,-55.5555555555556,4,1,0,70,0,1
67824,-50,4,1,0,70,0,1
68177,-100,4,1,0,70,0,1
69942,-97.0873786407767,4,1,0,70,0,1
70295,-100,4,1,0,70,0,1
76295,-50,4,1,0,70,0,1
76648,-100,4,1,0,70,0,1
79119,-50,4,1,0,70,0,1
79471,-100,4,1,0,70,0,1
84060,-100,4,1,0,70,0,0
97648,-40,4,1,0,70,0,0
97824,-100,4,1,0,70,0,0
99060,-40,4,1,0,70,0,0
99236,-100,4,1,0,70,0,0
125001,-100,4,1,0,70,0,1
127119,-50,4,1,0,70,0,1
127471,-100,4,1,0,70,0,1
127824,-106.382978723404,4,1,0,70,0,1
128530,-100,4,1,0,70,0,1
129942,-50,4,1,0,70,0,1
130295,-100,4,1,0,70,0,1
130648,-97.0873786407767,4,1,0,70,0,1
132413,-100,4,1,0,70,0,1
138413,-50,4,1,0,70,0,1
138766,-100,4,1,0,70,0,1
141236,-50,4,1,0,70,0,1
141589,-100,4,1,0,70,0,1
146177,-100,4,1,0,70,0,0
183589,-50,4,1,0,70,0,0
183942,-100,4,1,0,70,0,0
184295,-100,4,1,0,70,0,1
185707,-66.6666666666667,4,1,0,70,0,1
186060,-55.5555555555556,4,1,0,70,0,1
186413,-50,4,1,0,70,0,1
186766,-100,4,1,0,70,0,1
188530,-97.0873786407767,4,1,0,70,0,1
188883,-100,4,1,0,70,0,1
194883,-50,4,1,0,70,0,1
195236,-100,4,1,0,70,0,1
197001,-66.6666666666667,4,1,0,70,0,1
197707,-33.3333333333333,4,1,0,70,0,1
198060,-66.6666666666667,4,1,0,70,0,1
204060,-66.6666666666667,4,1,0,70,0,0
210413,-66.6666666666667,4,1,0,70,0,0
210766,-66.6666666666667,4,1,0,70,0,0

[HitObjects]
256,192,766,12,0,4824,0:0:0:0:
171,282,5001,6,0,L|67:165,2,140
382,237,5883,1,0,0:0:0:0:
204,243,6060,2,0,L|352:198,1,140
114,98,6501,5,0,0:0:0:0:
72,152,6589,1,0,0:0:0:0:
83,219,6677,1,0,0:0:0:0:
139,257,6765,1,0,0:0:0:0:
462,285,6854,5,0,0:0:0:0:
416,272,6942,1,0,0:0:0:0:
371,260,7030,1,0,0:0:0:0:
326,248,7118,1,0,0:0:0:0:
115,286,7207,5,0,0:0:0:0:
108,229,7295,1,0,0:0:0:0:
138,180,7383,1,0,0:0:0:0:
192,159,7471,1,0,0:0:0:0:
402,125,7560,5,0,0:0:0:0:
444,177,7648,1,0,0:0:0:0:
428,242,7736,1,0,0:0:0:0:
366,269,7824,1,0,0:0:0:0:
123,86,7913,5,0,0:0:0:0:
74,133,8001,1,0,0:0:0:0:
75,201,8089,1,0,0:0:0:0:
125,247,8177,1,0,0:0:0:0:
443,293,8265,5,0,0:0:0:0:
474,246,8353,1,0,0:0:0:0:
457,193,8441,1,0,0:0:0:0:
404,173,8529,1,0,0:0:0:0:
55,264,8618,5,0,0:0:0:0:
55,199,8707,1,0,0:0:0:0:
117,200,8795,1,0,0:0:0:0:
117,137,8883,1,0,0:0:0:0:
341,106,8971,5,0,0:0:0:0:
391,150,9059,1,0,0:0:0:0:
382,216,9147,1,0,0:0:0:0:
321,244,9235,1,0,0:0:0:0:
43,322,9324,5,0,0:0:0:0:
98,302,9412,1,0,0:0:0:0:
153,283,9500,1,0,0:0:0:0:
208,264,9588,1,0,0:0:0:0:
432,284,9677,5,0,0:0:0:0:
477,250,9765,1,0,0:0:0:0:
476,194,9853,1,0,0:0:0:0:
431,160,9941,1,0,0:0:0:0:
130,128,10030,5,0,0:0:0:0:
89,181,10118,1,0,0:0:0:0:
115,242,10206,1,0,0:0:0:0:
181,250,10294,1,0,0:0:0:0:
423,100,10383,5,0,0:0:0:0:
455,147,10471,1,0,0:0:0:0:
452,204,10559,1,0,0:0:0:0:
415,247,10647,1,0,0:0:0:0:
64,326,10736,5,0,0:0:0:0:
64,267,10824,1,0,0:0:0:0:
118,260,10913,1,0,0:0:0:0:
123,197,11001,1,0,0:0:0:0:
416,137,11089,5,0,0:0:0:0:
372,154,11177,1,0,0:0:0:0:
329,171,11265,1,0,0:0:0:0:
286,189,11353,1,0,0:0:0:0:
62,58,11442,5,0,0:0:0:0:
65,103,11530,1,0,0:0:0:0:
96,136,11618,1,0,0:0:0:0:
142,141,11706,1,0,0:0:0:0:
345,193,11795,5,0,0:0:0:0:
400,204,11883,1,0,0:0:0:0:
431,251,11971,1,0,0:0:0:0:
420,307,12059,1,0,0:0:0:0:
45,306,12148,5,0,0:0:0:0:
89,291,12236,1,0,0:0:0:0:
133,277,12324,1,0,0:0:0:0:
178,263,12412,1,0,0:0:0:0:
351,77,12501,5,0,0:0:0:0:
411,106,12589,1,0,0:0:0:0:
421,173,12677,1,0,0:0:0:0:
371,218,12765,1,0,0:0:0:0:
96,91,12854,5,0,0:0:0:0:
59,133,12942,1,0,0:0:0:0:
73,188,13030,1,0,0:0:0:0:
125,208,13118,1,0,0:0:0:0:
394,254,13207,5,0,0:0:0:0:
449,253,13295,1,0,0:0:0:0:
473,302,13383,1,0,0:0:0:0:
439,346,13471,1,0,0:0:0:0:
78,320,13560,5,0,0:0:0:0:
122,304,13648,1,0,0:0:0:0:
166,288,13736,1,0,0:0:0:0:
210,273,13824,1,0,0:0:0:0:
395,75,13913,5,0,0:0:0:0:
447,117,14001,1,0,0:0:0:0:
450,185,14089,1,0,0:0:0:0:
400,231,14177,1,0,0:0:0:0:
50,224,14265,5,0,0:0:0:0:
64,161,14354,1,0,0:0:0:0:
141,186,14442,1,0,0:0:0:0:
155,126,14530,1,0,0:0:0:0:
345,149,14618,5,0,0:0:0:0:
375,196,14706,1,0,0:0:0:0:
362,251,14794,1,0,0:0:0:0:
312,279,14882,1,0,0:0:0:0:
106,300,14971,5,0,0:0:0:0:
89,245,15059,1,0,0:0:0:0:
117,196,15147,1,0,0:0:0:0:
172,184,15235,1,0,0:0:0:0:
454,60,15324,5,0,0:0:0:0:
413,82,15412,1,0,0:0:0:0:
372,105,15500,1,0,0:0:0:0:
331,127,15588,1,0,0:0:0:0:
88,62,15677,5,0,0:0:0:0:
86,108,15765,1,0,0:0:0:0:
107,149,15853,1,0,0:0:0:0:
145,174,15941,1,0,0:0:0:0:
434,189,16030,5,0,0:0:0:0:
442,245,16118,1,0,0:0:0:0:
411,293,16206,1,0,0:0:0:0:
355,307,16294,1,0,0:0:0:0:
77,301,16383,5,0,0:0:0:0:
91,235,16471,1,0,0:0:0:0:
162,244,16560,1,0,0:0:0:0:
176,178,16648,1,0,0:0:0:0:
246,178,16736,1,0,0:0:0:0:
260,112,16824,1,0,0:0:0:0:
331,118,16913,1,0,0:0:0:0:
345,52,17001,1,0,0:0:0:0:
69,82,17089,5,0,0:0:0:0:
50,127,17177,1,0,0:0:0:0:
50,175,17265,1,0,0:0:0:0:
68,221,17353,1,0,0:0:0:0:
101,256,17441,1,0,0:0:0:0:
146,276,17530,1,0,0:0:0:0:
406,249,17707,5,0,0:0:0:0:
497,180,17883,1,0,0:0:0:0:
279,204,18060,1,0,0:0:0:0:
391,175,18236,1,0,0:0:0:0:
131,160,18413,2,0,L|47:148,2,70
276,177,18942,5,0,0:0:0:0:
146,232,19118,1,0,0:0:0:0:
38,275,19295,1,0,0:0:0:0:
146,232,19471,1,0,0:0:0:0:
77,177,19648,1,0,0:0:0:0:
346,207,19824,6,0,L|471:119,1,140
99,137,20354,1,0,0:0:0:0:
230,129,20530,1,0,0:0:0:0:
99,137,20707,1,0,0:0:0:0:
430,120,20883,1,0,0:0:0:0:
311,127,21060,1,0,0:0:0:0:
437,120,21236,1,0,0:0:0:0:
299,184,21413,2,0,L|221:205,2,70
103,278,21942,6,0,L|41:204,1,72.0999993949127
232,244,22295,2,0,L|307:217,1,72.0999993949127
32,157,22648,2,0,L|121:130,2,72.0999993949127
379,174,23177,5,0,0:0:0:0:
475,193,23354,1,0,0:0:0:0:
285,224,23530,1,0,0:0:0:0:
404,225,23707,1,0,0:0:0:0:
285,224,23883,1,0,0:0:0:0:
146,191,24060,1,0,0:0:0:0:
252,173,24236,1,0,0:0:0:0:
429,124,24413,6,0,L|326:117,2,72.0999993949127
260,117,24942,1,0,0:0:0:0:
137,119,25118,1,0,0:0:0:0:
249,117,25295,1,0,0:0:0:0:
432,178,25471,2,0,L|293:247,1,144.199998789825
85,283,26001,5,0,0:0:0:0:
212,271,26177,1,0,0:0:0:0:
99,269,26354,1,0,0:0:0:0:
236,256,26530,1,0,0:0:0:0:
56,224,26707,1,0,0:0:0:0:
189,223,26883,1,0,0:0:0:0:
88,197,27060,1,0,0:0:0:0:
220,197,27236,1,0,0:0:0:0:
364,203,27413,1,0,0:0:0:0:
220,197,27589,2,0,L|317:169,1,72.0999993949127
8,184,27942,6,0,L|95:147,1,70
375,111,28295,2,0,L|289:140,1,70
114,250,28648,1,0,0:0:0:0:
280,294,29001,6,0,L|336:166,1,140
147,131,29707,2,0,L|230:254,1,140
366,266,30413,6,0,L|452:135,1,140
287,156,30942,1,0,0:0:0:0:
132,261,31118,2,0,L|206:214,1,70
475,154,31471,1,0,0:0:0:0:
249,138,32001,5,0,0:0:0:0:
394,115,32177,1,0,0:0:0:0:
309,89,32354,1,0,0:0:0:0:
474,78,32530,1,0,0:0:0:0:
365,151,32707,1,0,0:0:0:0:
235,192,32883,2,0,B|405:237|392:233,1,140
75,222,33589,5,0,0:0:0:0:
241,222,33765,1,0,0:0:0:0:
69,220,33942,1,0,0:0:0:0:
252,222,34118,1,0,0:0:0:0:
43,161,34295,2,0,L|199:137,1,140
467,149,34824,5,0,0:0:0:0:
323,148,35001,2,0,L|453:227,1,140
154,228,35530,2,0,L|68:203,1,70
343,221,36060,5,0,0:0:0:0:
250,206,36236,1,0,0:0:0:0:
444,173,36413,2,0,L|299:153,1,140
399,120,36942,1,0,0:0:0:0:
79,158,37118,2,0,P|95:84|161:69,1,140
303,144,37648,5,0,0:0:0:0:
203,167,37824,1,0,0:0:0:0:
284,149,38001,1,0,0:0:0:0:
173,174,38177,1,0,0:0:0:0:
303,144,38354,2,0,L|405:145,2,70
22,156,38883,5,0,0:0:0:0:
171,131,39060,5,0,0:0:0:0:
157,200,39148,1,0,0:0:0:0:
124,255,39237,1,0,0:0:0:0:
245,266,39413,5,0,0:0:0:0:
268,210,39501,1,0,0:0:0:0:
304,170,39589,1,0,0:0:0:0:
426,209,39766,5,0,0:0:0:0:
448,167,39854,1,0,0:0:0:0:
433,122,39942,1,0,0:0:0:0:
403,89,40031,1,0,0:0:0:0:
356,75,40119,1,0,0:0:0:0:
309,75,40207,1,0,0:0:0:0:
79,124,40295,6,0,B|33:283|33:283|157:283,1,280
368,209,41354,5,0,0:0:0:0:
233,210,41530,1,0,0:0:0:0:
368,209,41707,1,0,0:0:0:0:
233,210,41883,1,0,0:0:0:0:
368,209,42060,1,0,0:0:0:0:
439,161,42236,1,0,0:0:0:0:
52,169,42413,1,0,0:0:0:0:
159,144,42589,1,0,0:0:0:0:
52,169,42765,1,0,0:0:0:0:
159,194,42942,1,0,0:0:0:0:
290,185,43118,6,0,B|430:268|430:268|295:268,1,280
70,216,44354,5,0,0:0:0:0:
203,217,44530,1,0,0:0:0:0:
94,189,44707,1,0,0:0:0:0:
234,191,44883,1,0,0:0:0:0:
124,161,45060,1,0,0:0:0:0:
264,163,45236,1,0,0:0:0:0:
154,138,45413,1,0,0:0:0:0:
294,140,45589,2,0,L|179:207,1,105
423,198,45942,6,0,P|463:267|234:337,1,420
63,281,47177,5,0,0:0:0:0:
195,278,47354,1,0,0:0:0:0:
370,227,47530,1,0,0:0:0:0:
240,228,47707,1,0,0:0:0:0:
370,227,47883,1,0,0:0:0:0:
48,218,48060,2,0,L|139:202,1,70
260,184,48413,1,0,0:0:0:0:
148,166,48589,1,0,0:0:0:0:
437,173,48765,2,0,L|268:147,2,140
46,274,49648,5,0,0:0:0:0:
195,269,49824,1,0,0:0:0:0:
46,274,50001,1,0,0:0:0:0:
439,264,50177,2,0,L|268:265,3,140
130,71,51589,6,0,P|90:186|314:338,1,420
132,273,52824,5,0,0:0:0:0:
257,260,53001,1,0,0:0:0:0:
182,209,53177,1,0,0:0:0:0:
341,205,53354,1,0,0:0:0:0:
414,162,53530,1,0,0:0:0:0:
235,157,53707,1,0,0:0:0:0:
162,116,53883,1,0,0:0:0:0:
335,110,54060,1,0,0:0:0:0:
408,74,54236,1,0,0:0:0:0:
123,58,54413,2,0,P|77:141|268:272,1,350
231,206,55648,5,0,0:0:0:0:
109,202,55824,2,0,L|28:195,2,70
236,213,56354,1,0,0:0:0:0:
366,220,56530,1,0,0:0:0:0:
236,213,56707,1,0,0:0:0:0:
381,179,56883,2,0,L|450:155,1,70
115,69,57236,6,0,P|69:160|280:331,1,420
392,280,58471,5,0,0:0:0:0:
293,255,58648,1,0,0:0:0:0:
354,199,58824,1,0,0:0:0:0:
69,200,59001,1,0,0:0:0:0:
125,172,59177,1,0,0:0:0:0:
343,148,59354,1,0,0:0:0:0:
293,112,59442,1,0,0:0:0:0:
257,104,59530,1,0,0:0:0:0:
57,245,59707,5,0,0:0:0:0:
89,258,59795,1,0,0:0:0:0:
133,257,59883,1,0,0:0:0:0:
395,218,60060,5,0,0:0:0:0:
234,184,60236,1,0,0:0:0:0:
49,209,60589,5,0,0:0:0:0:
329,168,60765,1,0,0:0:0:0:
147,110,61118,5,0,0:0:0:0:
440,194,61294,1,0,0:0:0:0:
317,256,61471,5,0,0:0:0:0:
375,258,61648,1,0,0:0:0:0:
317,256,61824,1,0,0:0:0:0:
375,258,62001,1,0,0:0:0:0:
66,246,62177,2,0,L|146:218,1,70
413,164,62530,1,0,0:0:0:0:
378,118,62618,1,0,0:0:0:0:
335,89,62707,1,0,0:0:0:0:
286,81,62795,1,0,0:0:0:0:
59,161,62883,6,0,L|150:135,1,70
272,164,63236,1,0,0:0:0:0:
161,133,63413,1,0,0:0:0:0:
318,115,63589,1,0,0:0:0:0:
434,108,63765,1,0,0:0:0:0:
279,162,63942,2,0,L|381:182,1,70
94,162,64295,6,0,L|210:197,1,105
410,211,64648,2,0,L|318:283,1,105
127,296,65001,2,0,L|350:184,1,210
132,168,65354,5,0,0:0:0:0:
282,162,65530,1,0,0:0:0:0:
125,126,65707,2,0,L|275:115,1,140
432,117,66236,2,0,L|348:116,1,70
212,120,66589,1,0,0:0:0:0:
354,119,66765,1,0,0:0:0:0:
212,120,66942,1,0,0:0:0:0:
375,168,67118,6,0,L|314:283,1,105
84,292,67471,2,0,L|203:124,1,188.999994232178
425,109,67824,2,0,L|248:287,1,210
63,205,68177,5,0,0:0:0:0:
184,184,68354,1,0,0:0:0:0:
463,206,68530,1,0,0:0:0:0:
349,174,68707,1,0,0:0:0:0:
232,128,68883,2,0,L|376:78,1,140
244,68,69413,1,0,0:0:0:0:
75,110,69589,6,0,L|160:135,1,70
294,150,69942,2,0,L|149:230,2,144.199998789825
315,110,70736,1,0,0:0:0:0:
279,78,70824,1,0,0:0:0:0:
92,103,71001,1,0,0:0:0:0:
212,87,71177,1,0,0:0:0:0:
46,109,71354,6,0,L|115:246,1,140
139,257,71795,1,0,0:0:0:0:
195,234,71883,1,0,0:0:0:0:
352,220,72060,2,0,L|258:187,1,70
415,166,72413,5,0,0:0:0:0:
447,123,72501,1,0,0:0:0:0:
412,82,72589,1,0,0:0:0:0:
77,95,72765,2,0,L|145:132,1,70
177,158,73030,1,0,0:0:0:0:
206,190,73118,1,0,0:0:0:0:
390,265,73207,1,0,0:0:0:0:
432,224,73295,1,0,0:0:0:0:
433,172,73383,1,0,0:0:0:0:
394,133,73471,1,0,0:0:0:0:
97,269,73648,5,0,0:0:0:0:
70,215,73736,1,0,0:0:0:0:
98,162,73824,1,0,0:0:0:0:
147,130,73913,1,0,0:0:0:0:
338,230,74001,6,0,L|404:159,1,70
271,145,74354,2,0,L|189:127,1,70
350,95,74707,2,0,L|436:88,1,70
457,117,74971,1,0,0:0:0:0:
432,164,75060,1,0,0:0:0:0:
58,183,75236,5,0,0:0:0:0:
200,180,75413,1,0,0:0:0:0:
88,139,75589,2,0,L|194:102,1,105
381,88,75942,2,0,L|481:170,1,105
271,268,76295,2,0,L|75:111,1,210
336,101,76648,6,0,P|394:158|340:197,1,140
228,207,77177,1,0,0:0:0:0:
361,233,77354,1,0,0:0:0:0:
39,246,77530,5,0,0:0:0:0:
147,205,77707,1,0,0:0:0:0:
57,158,77883,1,0,0:0:0:0:
196,138,78060,2,0,L|259:102,1,70
384,94,78413,6,0,P|430:126|412:187,1,105
169,255,78765,2,0,P|131:222|139:167,1,105
331,137,79118,2,0,P|380:184|384:273,1,140
105,289,79560,5,0,0:0:0:0:
50,247,79648,1,0,0:0:0:0:
85,196,79736,1,0,0:0:0:0:
408,154,79824,2,0,L|435:223,1,70
124,177,80177,1,0,0:0:0:0:
264,163,80354,2,0,L|339:109,1,70
39,106,80707,5,0,0:0:0:0:
161,104,80883,1,0,0:0:0:0:
39,106,81060,1,0,0:0:0:0:
192,102,81236,2,0,P|241:184|203:218,1,140
94,240,81765,1,0,0:0:0:0:
185,271,81942,1,0,0:0:0:0:
325,258,82118,5,0,0:0:0:0:
243,218,82295,1,0,0:0:0:0:
321,184,82471,1,0,0:0:0:0:
423,153,82648,1,0,0:0:0:0:
447,102,82736,1,0,0:0:0:0:
417,62,82824,1,0,0:0:0:0:
377,46,82913,1,0,0:0:0:0:
92,73,83001,1,0,0:0:0:0:
208,71,83177,5,0,0:0:0:0:
230,107,83265,1,0,0:0:0:0:
248,143,83354,1,0,0:0:0:0:
243,179,83442,1,0,0:0:0:0:
217,200,83530,1,0,0:0:0:0:
174,211,83618,1,0,0:0:0:0:
32,194,83707,2,0,L|123:160,1,70
394,158,84060,2,0,L|466:102,1,70
79,84,84413,6,0,L|85:175,1,70
366,137,84765,2,0,L|374:251,1,105
367,279,85118,1,0,0:0:0:0:
344,308,85207,1,0,0:0:0:0:
315,322,85295,1,0,0:0:0:0:
121,253,85471,5,0,0:0:0:0:
80,198,85559,1,0,0:0:0:0:
94,132,85647,1,0,0:0:0:0:
152,98,85735,1,0,0:0:0:0:
402,115,85824,5,0,0:0:0:0:
412,159,85912,1,0,0:0:0:0:
395,202,86000,1,0,0:0:0:0:
356,226,86088,1,0,0:0:0:0:
91,318,86177,5,0,0:0:0:0:
88,271,86265,1,0,0:0:0:0:
101,226,86353,1,0,0:0:0:0:
127,188,86441,1,0,0:0:0:0:
421,307,86530,5,0,0:0:0:0:
470,273,86618,1,0,0:0:0:0:
481,225,86706,1,0,0:0:0:0:
437,187,86794,1,0,0:0:0:0:
74,94,86883,5,0,0:0:0:0:
116,113,86971,1,0,0:0:0:0:
159,132,87059,1,0,0:0:0:0:
201,151,87147,1,0,0:0:0:0:
365,106,87236,5,0,0:0:0:0:
404,146,87324,1,0,0:0:0:0:
406,203,87412,1,0,0:0:0:0:
368,246,87500,1,0,0:0:0:0:
42,298,87589,5,0,0:0:0:0:
60,227,87677,1,0,0:0:0:0:
130,241,87765,1,0,0:0:0:0:
149,182,87854,1,0,0:0:0:0:
414,73,87942,5,0,0:0:0:0:
435,125,88030,1,0,0:0:0:0:
420,181,88118,1,0,0:0:0:0:
375,215,88206,1,0,0:0:0:0:
128,328,88295,5,0,0:0:0:0:
79,299,88383,1,0,0:0:0:0:
76,243,88471,1,0,0:0:0:0:
120,208,88559,1,0,0:0:0:0:
395,295,88648,5,0,0:0:0:0:
423,245,88736,1,0,0:0:0:0:
410,190,88824,1,0,0:0:0:0:
362,160,88912,1,0,0:0:0:0:
30,156,89001,5,0,0:0:0:0:
75,143,89089,1,0,0:0:0:0:
120,131,89177,1,0,0:0:0:0:
165,119,89265,1,0,0:0:0:0:
414,69,89354,5,0,0:0:0:0:
453,93,89442,1,0,0:0:0:0:
476,132,89530,1,0,0:0:0:0:
477,179,89618,1,0,0:0:0:0:
82,344,89707,5,0,0:0:0:0:
47,300,89795,1,0,0:0:0:0:
70,246,89883,1,0,0:0:0:0:
114,216,89971,1,0,0:0:0:0:
435,322,90060,5,0,0:0:0:0:
454,272,90148,1,0,0:0:0:0:
456,218,90236,1,0,0:0:0:0:
427,186,90324,1,0,0:0:0:0:
235,268,90413,5,0,0:0:0:0:
248,215,90501,1,0,0:0:0:0:
276,173,90589,1,0,0:0:0:0:
327,155,90677,1,0,0:0:0:0:
81,55,90765,5,0,0:0:0:0:
45,81,90853,1,0,0:0:0:0:
45,126,90941,1,0,0:0:0:0:
82,152,91029,1,0,0:0:0:0:
387,112,91118,5,0,0:0:0:0:
214,151,91471,1,0,0:0:0:0:
410,157,91824,1,0,0:0:0:0:
274,171,92177,1,0,0:0:0:0:
133,171,92354,1,0,0:0:0:0:
274,171,92530,1,0,0:0:0:0:
430,177,92707,5,0,0:0:0:0:
71,257,92883,1,0,0:0:0:0:
182,243,93060,1,0,0:0:0:0:
23,258,93236,2,0,L|190:211,1,140
411,166,93942,5,0,0:0:0:0:
241,159,94295,1,0,0:0:0:0:
79,157,94648,1,0,0:0:0:0:
177,157,94824,1,0,0:0:0:0:
79,157,95001,1,0,0:0:0:0:
167,100,95177,5,0,0:0:0:0:
469,155,95354,1,0,0:0:0:0:
362,153,95530,1,0,0:0:0:0:
237,230,95707,2,0,L|382:217,1,140
278,179,96413,5,0,0:0:0:0:
70,177,96765,6,0,L|188:101,2,140
461,236,97648,6,0,L|454:42,1,175
30,255,98177,6,0,L|172:227,2,140
450,239,99060,6,0,L|432:44,1,175
163,190,99589,6,0,L|242:158,1,70
345,158,99942,1,0,0:0:0:0:
243,104,100118,2,0,L|158:93,1,70
60,135,100471,1,0,0:0:0:0:
175,175,100648,2,0,L|254:182,2,70
458,153,101177,5,0,0:0:0:0:
469,204,101265,1,0,0:0:0:0:
453,259,101354,1,0,0:0:0:0:
312,258,101442,1,0,0:0:0:0:
272,210,101530,1,0,0:0:0:0:
278,151,101618,1,0,0:0:0:0:
450,93,101707,2,0,L|348:88,1,70
41,175,102060,1,0,0:0:0:0:
178,162,102236,6,0,B|250:260|163:308|163:308|346:304|330:89,1,490
194,86,103648,5,0,0:0:0:0:
324,85,103824,1,0,0:0:0:0:
174,87,104001,1,0,0:0:0:0:
324,85,104177,1,0,0:0:0:0:
157,86,104354,1,0,0:0:0:0:
324,85,104530,1,0,0:0:0:0:
137,86,104707,1,0,0:0:0:0:
324,85,104883,1,0,0:0:0:0:
121,86,105060,1,0,0:0:0:0:
441,86,105236,6,0,B|451:236|366:280|353:320|353:320|471:320|471:229,1,420
323,248,106471,5,0,0:0:0:0:
198,250,106648,1,0,0:0:0:0:
323,248,106824,1,0,0:0:0:0:
188,249,107001,1,0,0:0:0:0:
323,248,107177,1,0,0:0:0:0:
178,249,107354,1,0,0:0:0:0:
323,248,107530,1,0,0:0:0:0:
166,248,107707,1,0,0:0:0:0:
323,248,107883,1,0,0:0:0:0:
36,242,108060,6,0,B|36:121|50:89|50:89|68:-15|83:91|83:91|95:120|95:251,1,420
181,252,109295,5,0,0:0:0:0:
315,244,109471,1,0,0:0:0:0:
235,193,109648,1,0,0:0:0:0:
405,183,109824,1,0,0:0:0:0:
316,144,110001,1,0,0:0:0:0:
169,140,110177,1,0,0:0:0:0:
316,144,110354,2,0,L|232:195,2,70
443,108,110883,2,0,P|457:239|421:320,1,210
271,255,111765,5,0,0:0:0:0:
395,232,111942,1,0,0:0:0:0:
271,255,112118,1,0,0:0:0:0:
182,235,112295,1,0,0:0:0:0:
345,190,112471,2,0,L|414:124,1,70
156,104,112824,2,0,L|310:159,2,140
438,132,113707,6,0,P|434:212|205:298,1,350
98,245,114942,5,0,0:0:0:0:
176,206,115118,1,0,0:0:0:0:
327,211,115295,1,0,0:0:0:0:
234,175,115471,1,0,0:0:0:0:
383,157,115648,1,0,0:0:0:0:
449,120,115824,1,0,0:0:0:0:
292,109,116001,1,0,0:0:0:0:
361,151,116177,1,0,0:0:0:0:
297,207,116354,1,0,0:0:0:0:
157,213,116530,6,0,P|163:284|400:323,1,350
97,250,117765,5,0,0:0:0:0:
173,211,117942,1,0,0:0:0:0:
301,213,118118,1,0,0:0:0:0:
429,212,118295,1,0,0:0:0:0:
301,213,118471,1,0,0:0:0:0:
146,162,118648,2,0,L|240:149,2,70
58,139,119177,1,0,0:0:0:0:
409,67,119354,6,0,P|419:164|223:280,1,350
134,270,120589,5,0,0:0:0:0:
218,216,120765,1,0,0:0:0:0:
72,195,120942,1,0,0:0:0:0:
145,142,121118,1,0,0:0:0:0:
294,148,121295,1,0,0:0:0:0:
185,143,121471,1,0,0:0:0:0:
330,146,121648,1,0,0:0:0:0:
405,113,121824,1,0,0:0:0:0:
326,79,122001,1,0,0:0:0:0:
176,96,122177,5,0,0:0:0:0:
467,153,122354,1,0,0:0:0:0:
330,201,122707,5,0,0:0:0:0:
51,231,122883,1,0,0:0:0:0:
165,190,123236,5,0,0:0:0:0:
306,164,123413,1,0,0:0:0:0:
214,137,123589,5,0,0:0:0:0:
309,116,123765,1,0,0:0:0:0:
214,137,123942,1,0,0:0:0:0:
309,116,124118,1,0,0:0:0:0:
214,137,124295,2,0,L|210:297,1,140
443,255,124736,1,0,0:0:0:0:
431,291,124824,1,0,0:0:0:0:
397,317,124913,1,0,0:0:0:0:
59,259,125001,5,0,0:0:0:0:
214,213,125177,1,0,0:0:0:0:
101,188,125354,1,0,0:0:0:0:
286,163,125530,1,0,0:0:0:0:
165,149,125707,1,0,0:0:0:0:
357,117,125883,2,0,L|257:115,2,70
37,155,126413,6,0,L|70:278,1,105
351,261,126765,2,0,L|432:149,1,105
77,138,127118,2,0,L|163:229,1,105
374,104,127471,2,0,L|460:104,1,70
112,187,127824,6,0,L|110:280,1,65.7999989959717
257,204,128177,1,0,0:0:0:0:
57,152,128354,2,0,L|152:136,1,65.7999989959717
467,149,128707,6,0,L|387:142,2,70
126,166,129236,6,0,L|58:275,1,105
370,266,129589,2,0,L|439:164,1,105
135,175,129942,2,0,L|1:351,1,210
346,84,130295,6,0,P|388:133|358:222,1,140
77,249,131001,1,0,0:0:0:0:
310,251,131354,1,0,0:0:0:0:
121,219,131530,1,0,0:0:0:0:
163,183,131618,1,0,0:0:0:0:
388,158,131707,6,0,P|452:203|400:262,1,144.199998789825
184,276,132413,1,0,0:0:0:0:
352,233,132765,1,0,0:0:0:0:
145,191,132942,1,0,0:0:0:0:
162,129,133030,1,0,0:0:0:0:
205,112,133118,1,0,0:0:0:0:
486,161,133295,6,0,L|388:145,1,70
254,210,133648,1,0,0:0:0:0:
244,169,133736,1,0,0:0:0:0:
267,121,133824,1,0,0:0:0:0:
312,98,133913,1,0,0:0:0:0:
354,81,134001,1,0,0:0:0:0:
38,124,134177,5,0,0:0:0:0:
161,119,134354,1,0,0:0:0:0:
341,169,134530,1,0,0:0:0:0:
355,196,134618,1,0,0:0:0:0:
364,233,134707,1,0,0:0:0:0:
349,267,134795,1,0,0:0:0:0:
304,298,134883,1,0,0:0:0:0:
23,260,135060,5,0,0:0:0:0:
165,251,135236,1,0,0:0:0:0:
50,198,135413,1,0,0:0:0:0:
194,198,135589,2,0,L|108:196,1,70
392,109,135854,1,0,0:0:0:0:
439,129,135942,1,0,0:0:0:0:
463,178,136030,1,0,0:0:0:0:
459,217,136118,1,0,0:0:0:0:
51,240,136295,6,0,L|126:184,1,70
254,213,136648,1,0,0:0:0:0:
117,146,136824,2,0,L|36:124,1,70
190,106,137177,1,0,0:0:0:0:
366,107,137354,5,0,0:0:0:0:
406,141,137442,1,0,0:0:0:0:
425,195,137530,1,0,0:0:0:0:
313,239,137707,6,0,L|191:270,1,105
27,244,138060,2,0,P|41:168|68:129,1,105
356,124,138413,2,0,P|448:221|446:361,1,280
366,335,138942,1,0,0:0:0:0:
57,249,139118,5,0,0:0:0:0:
163,242,139295,1,0,0:0:0:0:
277,188,139471,1,0,0:0:0:0:
165,183,139648,1,0,0:0:0:0:
40,128,139824,6,0,L|125:128,2,70
230,129,140354,1,0,0:0:0:0:
413,125,140530,6,0,P|414:189|385:224,1,105
71,248,140883,2,0,P|114:161|141:150,1,105
396,154,141236,2,0,L|210:370,1,280
159,355,141677,5,0,0:0:0:0:
123,304,141765,1,0,0:0:0:0:
372,298,141854,1,0,0:0:0:0:
416,246,141942,6,0,P|374:188|293:184,1,140
74,222,142471,2,0,P|93:150|174:138,1,140
313,137,143001,5,0,0:0:0:0:
215,175,143177,1,0,0:0:0:0:
312,178,143354,2,0,L|420:280,1,140
212,264,144060,1,0,0:0:0:0:
301,234,144236,1,0,0:0:0:0:
143,196,144413,2,0,L|285:153,1,140
333,164,144854,5,0,0:0:0:0:
395,195,144942,1,0,0:0:0:0:
134,293,145030,1,0,0:0:0:0:
77,247,145118,1,0,0:0:0:0:
434,233,145295,1,0,0:0:0:0:
88,185,145471,5,0,0:0:0:0:
123,154,145560,1,0,0:0:0:0:
157,138,145648,1,0,0:0:0:0:
189,128,145736,1,0,0:0:0:0:
233,122,145824,1,0,0:0:0:0:
408,175,146001,1,0,0:0:0:0:
55,209,146177,5,0,0:0:0:0:
255,212,146530,1,0,0:0:0:0:
139,215,146707,1,0,0:0:0:0:
255,212,146883,2,0,P|358:222|376:273,1,140
94,282,147324,5,0,0:0:0:0:
57,239,147412,1,0,0:0:0:0:
73,185,147500,1,0,0:0:0:0:
452,204,147589,5,0,0:0:0:0:
296,211,147765,1,0,0:0:0:0:
403,201,147942,1,0,0:0:0:0:
214,203,148118,1,0,0:0:0:0:
403,201,148295,1,0,0:0:0:0:
61,163,148648,5,0,0:0:0:0:
195,164,148824,1,0,0:0:0:0:
334,161,149001,1,0,0:0:0:0:
195,164,149177,1,0,0:0:0:0:
334,161,149354,1,0,0:0:0:0:
79,166,149707,5,0,0:0:0:0:
305,171,150060,1,0,0:0:0:0:
215,171,150236,5,0,0:0:0:0:
305,171,150413,1,0,0:0:0:0:
215,171,150589,1,0,0:0:0:0:
372,173,150765,1,0,0:0:0:0:
215,171,150942,1,0,0:0:0:0:
372,173,151118,1,0,0:0:0:0:
92,174,151471,1,0,0:0:0:0:
271,177,151648,5,0,0:0:0:0:
173,180,151824,1,0,0:0:0:0:
271,177,152001,1,0,0:0:0:0:
173,180,152177,1,0,0:0:0:0:
425,182,152530,1,0,0:0:0:0:
61,181,152883,1,0,0:0:0:0:
159,187,153060,1,0,0:0:0:0:
276,189,153236,5,0,0:0:0:0:
159,187,153413,1,0,0:0:0:0:
276,189,153589,1,0,0:0:0:0:
159,187,153765,1,0,0:0:0:0:
57,187,153942,1,0,0:0:0:0:
407,191,154295,1,0,0:0:0:0:
295,196,154471,5,0,0:0:0:0:
435,187,154648,1,0,0:0:0:0:
338,187,154824,1,0,0:0:0:0:
232,189,155001,1,0,0:0:0:0:
338,187,155177,1,0,0:0:0:0:
49,188,155354,1,0,0:0:0:0:
287,197,155707,1,0,0:0:0:0:
97,204,156060,5,0,0:0:0:0:
193,205,156236,1,0,0:0:0:0:
97,204,156413,1,0,0:0:0:0:
193,205,156589,1,0,0:0:0:0:
302,208,156765,1,0,0:0:0:0:
41,204,157118,1,0,0:0:0:0:
277,173,157471,5,0,0:0:0:0:
163,173,157648,1,0,0:0:0:0:
319,146,157824,1,0,0:0:0:0:
194,148,158001,1,0,0:0:0:0:
345,121,158177,1,0,0:0:0:0:
221,124,158354,1,0,0:0:0:0:
399,125,158530,6,0,P|419:178|387:255,1,140
237,262,159060,1,0,0:0:0:0:
314,228,159236,1,0,0:0:0:0:
50,240,159413,1,0,0:0:0:0:
136,199,159589,1,0,0:0:0:0:
376,154,159942,6,0,L|293:190,2,70
314,256,160471,1,0,0:0:0:0:
189,299,160648,1,0,0:0:0:0:
426,202,161001,5,0,0:0:0:0:
212,204,161354,1,0,0:0:0:0:
304,186,161530,1,0,0:0:0:0:
212,204,161707,1,0,0:0:0:0:
362,169,161883,1,0,0:0:0:0:
206,157,162060,1,0,0:0:0:0:
469,108,162236,1,0,0:0:0:0:
377,88,162413,1,0,0:0:0:0:
167,107,162765,5,0,0:0:0:0:
293,133,162942,1,0,0:0:0:0:
212,195,163118,1,0,0:0:0:0:
372,211,163295,1,0,0:0:0:0:
289,284,163471,1,0,0:0:0:0:
127,275,163824,5,0,0:0:0:0:
51,238,164001,1,0,0:0:0:0:
206,223,164177,1,0,0:0:0:0:
125,193,164354,1,0,0:0:0:0:
473,146,164530,1,0,0:0:0:0:
52,176,165060,5,0,0:0:0:0:
172,174,165236,1,0,0:0:0:0:
299,244,165413,1,0,0:0:0:0:
172,251,165589,1,0,0:0:0:0:
320,166,165765,1,0,0:0:0:0:
367,197,165854,1,0,0:0:0:0:
398,251,165942,1,0,0:0:0:0:
80,296,166295,5,0,0:0:0:0:
272,241,166648,1,0,0:0:0:0:
78,188,167001,1,0,0:0:0:0:
235,140,167354,6,0,L|183:228,1,70
359,202,167707,2,0,L|315:281,1,70
175,307,168060,2,0,L|234:233,1,70
63,243,168413,2,0,L|121:181,1,70
258,131,168765,2,0,L|195:194,1,70
457,88,169118,6,0,P|485:131|485:163,1,70
39,322,169471,1,0,0:0:0:0:
44,263,169559,1,0,0:0:0:0:
106,262,169647,1,0,0:0:0:0:
107,204,169735,1,0,0:0:0:0:
168,201,169823,1,0,0:0:0:0:
441,155,170001,1,0,0:0:0:0:
256,192,178648,12,0,181118,0:0:0:0:
256,192,181471,5,0,0:0:0:0:
119,227,182354,5,0,0:0:0:0:
154,174,182442,1,0,0:0:0:0:
213,157,182530,1,0,0:0:0:0:
386,169,182707,1,0,0:0:0:0:
246,200,182883,6,0,L|135:262,1,105
405,281,183236,2,0,L|462:164,1,105
189,180,183589,2,0,P|60:116|25:-23,1,280
167,36,184118,1,0,0:0:0:0:
291,86,184295,6,0,L|192:104,1,70
97,149,184648,1,0,0:0:0:0:
194,188,184824,2,0,L|297:200,1,70
376,209,185177,1,0,0:0:0:0:
479,248,185354,1,0,0:0:0:0:
450,291,185442,1,0,0:0:0:0:
400,306,185530,1,0,0:0:0:0:
237,314,185707,6,0,P|96:290|70:249,1,157.500006008148
379,218,186060,2,0,P|419:162|441:2,1,188.999994232178
157,46,186413,2,0,P|90:148|105:303,1,280
254,237,186942,5,0,0:0:0:0:
99,284,187118,2,0,L|240:242,1,140
61,209,187648,1,0,0:0:0:0:
474,137,187824,1,0,0:0:0:0:
366,143,188001,1,0,0:0:0:0:
474,137,188354,5,0,0:0:0:0:
352,208,188530,2,0,L|194:275,1,144.199998789825
165,233,189060,1,0,0:0:0:0:
486,147,189236,2,0,L|459:225,1,70
315,233,189589,6,0,L|240:197,1,70
143,182,189942,1,0,0:0:0:0:
150,223,190030,1,0,0:0:0:0:
168,255,190118,1,0,0:0:0:0:
296,245,190295,1,0,0:0:0:0:
403,209,190471,1,0,0:0:0:0:
428,157,190560,1,0,0:0:0:0:
427,119,190648,1,0,0:0:0:0:
297,109,190824,1,0,0:0:0:0:
270,156,190913,1,0,0:0:0:0:
254,208,191001,1,0,0:0:0:0:
371,276,191177,5,0,0:0:0:0:
210,295,191354,1,0,0:0:0:0:
173,258,191442,1,0,0:0:0:0:
163,195,191530,1,0,0:0:0:0:
230,186,191618,1,0,0:0:0:0:
228,131,191707,1,0,0:0:0:0:
470,126,191883,2,0,L|415:78,1,70
286,126,192236,1,0,0:0:0:0:
397,191,192413,5,0,0:0:0:0:
425,237,192501,1,0,0:0:0:0:
425,296,192589,1,0,0:0:0:0:
59,258,192765,5,0,0:0:0:0:
188,235,192942,1,0,0:0:0:0:
466,180,193118,2,0,L|394:182,1,70
306,218,193471,1,0,0:0:0:0:
390,243,193648,1,0,0:0:0:0:
458,186,193824,1,0,0:0:0:0:
372,164,194001,1,0,0:0:0:0:
243,151,194177,6,0,L|121:151,1,105
378,313,194530,2,0,L|485:257,1,105
50,308,194883,2,0,P|122:198|247:97,1,280
352,109,195413,1,0,0:0:0:0:
231,173,195589,6,0,L|313:173,1,70
442,179,195942,1,0,0:0:0:0:
364,227,196118,1,0,0:0:0:0:
450,254,196295,1,0,0:0:0:0:
368,293,196471,1,0,0:0:0:0:
228,293,196648,1,0,0:0:0:0:
307,238,196824,1,0,0:0:0:0:
183,227,197001,6,0,L|35:144,1,157.500006008148
409,133,197354,2,0,P|456:192|402:257,1,157.500006008148
15,352,197707,2,0,L|341:83,1,420.000016021729
367,128,198148,1,0,0:0:0:0:
339,184,198236,1,0,0:0:0:0:
94,174,198324,1,0,0:0:0:0:
29,149,198413,6,0,L|253:114,1,210.000008010865
67,137,198942,2,0,P|28:230|140:304,1,210.000008010865
268,277,199471,1,0,0:0:0:0:
153,274,199648,1,0,0:0:0:0:
425,133,199824,6,0,P|443:209|326:268,1,210.000008010865
128,273,200530,1,0,0:0:0:0:
230,240,200707,1,0,0:0:0:0:
152,199,200883,1,0,0:0:0:0:
71,166,201060,1,0,0:0:0:0:
410,95,201236,2,0,P|435:168|356:277,1,210.000008010865
61,291,201677,5,0,0:0:0:0:
61,291,201765,1,0,0:0:0:0:
126,246,201854,1,0,0:0:0:0:
126,246,201942,1,0,0:0:0:0:
440,175,202118,1,0,0:0:0:0:
319,249,202295,6,0,P|276:220|255:173,2,105.000004005432
102,102,202736,1,0,0:0:0:0:
61,125,202824,1,0,0:0:0:0:
65,178,202913,1,0,0:0:0:0:
114,205,203001,1,0,0:0:0:0:
164,191,203089,1,0,0:0:0:0:
190,138,203177,1,0,0:0:0:0:
175,86,203265,1,0,0:0:0:0:
133,58,203354,1,0,0:0:0:0:
58,302,203442,5,0,0:0:0:0:
58,302,203530,1,0,0:0:0:0:
127,260,203618,1,0,0:0:0:0:
127,260,203707,1,0,0:0:0:0:
191,223,203795,1,0,0:0:0:0:
434,107,203883,1,0,0:0:0:0:
310,171,204060,6,0,L|451:171,1,105.000004005432
74,287,204413,2,0,L|201:287,1,105.000004005432
388,239,204765,2,0,L|277:239,1,105.000004005432
83,243,205118,5,0,0:0:0:0:
241,242,205295,1,0,0:0:0:0:
105,183,205471,1,0,0:0:0:0:
242,179,205648,1,0,0:0:0:0:
85,125,205824,1,0,0:0:0:0:
211,124,206001,1,0,0:0:0:0:
96,69,206177,1,0,0:0:0:0:
243,66,206354,1,0,0:0:0:0:
65,178,206530,6,0,L|176:178,1,105.000004005432
286,237,206883,2,0,L|142:237,1,105.000004005432
44,304,207236,2,0,L|168:304,1,105.000004005432
308,174,207589,2,0,L|73:174,1,210.000008010865
282,126,208118,1,0,0:0:0:0:
466,137,208295,5,0,0:0:0:0:
324,153,208471,1,0,0:0:0:0:
445,204,208648,1,0,0:0:0:0:
303,209,208824,1,0,0:0:0:0:
409,262,209001,1,0,0:0:0:0:
275,271,209177,1,0,0:0:0:0:
138,305,209354,6,0,L|260:305,1,105.000004005432
27,243,209707,2,0,L|155:244,1,105.000004005432
242,184,210060,2,0,L|118:184,1,105.000004005432
473,189,210413,2,0,L|252:189,1,210.000008010865
368,128,210942,1,0,0:0:0:0:
45,177,211118,5,0,0:0:0:0:
192,173,211295,1,0,0:0:0:0:
63,244,211471,1,0,0:0:0:0:
211,238,211648,1,0,0:0:0:0:
80,302,211824,1,0,0:0:0:0:
224,304,212001,1,0,0:0:0:0:
28,322,212177,6,0,L|134:322,1,105.000004005432
463,269,212530,2,0,L|331:269,1,105.000004005432
55,222,212883,2,0,L|179:222,1,105.000004005432
414,138,213236,2,0,P|462:228|397:316,1,210.000008010865
267,258,213765,5,0,0:0:0:0:
414,262,213942,1,0,0:0:0:0:
236,320,214118,5,0,0:0:0:0:
383,325,214295,1,0,0:0:0:0:
205,262,214471,5,0,0:0:0:0:
363,262,214648,1,0,0:0:0:0:
216,204,214824,1,0,0:0:0:0:
48,186,215001,6,0,L|167:186,1,105.000004005432
332,272,215354,2,0,L|223:272,1,105.000004005432
406,204,215707,2,0,L|261:203,1,105.000004005432
59,290,216060,2,0,L|306:291,1,210.000008010865
79,207,216589,5,0,0:0:0:0:
226,214,216765,1,0,0:0:0:0:
85,248,216942,5,0,0:0:0:0:
248,244,217118,1,0,0:0:0:0:
64,295,217295,5,0,0:0:0:0:
214,294,217471,1,0,0:0:0:0:
20,333,217648,5,0,0:0:0:0:
185,278,217824,6,0,L|339:277,1,105.000004005432
69,211,218177,2,0,L|199:211,1,105.000004005432
447,136,218530,2,0,L|302:136,1,105.000004005432
38,223,218883,2,0,L|281:223,1,210.000008010865
432,258,219413,5,0,0:0:0:0:
282,220,219589,1,0,0:0:0:0:
411,204,219765,5,0,0:0:0:0:
256,163,219942,1,0,0:0:0:0:
390,151,220118,5,0,0:0:0:0:
225,110,220295,1,0,0:0:0:0:
353,99,220471,5,0,0:0:0:0:
168,179,220648,6,0,L|21:180,1,105.000004005432
175,244,221001,2,0,L|304:244,1,105.000004005432
469,300,221354,2,0,L|352:300,1,105.000004005432
30,191,221707,2,0,L|267:191,1,210.000008010865
414,178,222236,5,0,0:0:0:0:
256,179,222413,5,0,0:0:0:0:
392,245,222589,5,0,0:0:0:0:
224,252,222765,5,0,0:0:0:0:
361,305,222942,5,0,0:0:0:0:
183,310,223118,5,0,0:0:0:0:
320,353,223295,5,0,0:0:0:0:
142,357,223471,5,0,0:0:0:0:
274,296,223648,5,0,0:0:0:0:
411,248,223824,6,0,P|392:312|267:362,1,210.000008010865
259,306,224265,1,0,0:0:0:0:
264,240,224354,1,0,0:0:0:0:
299,190,224442,1,0,0:0:0:0:
347,170,224530,5,0,0:0:0:0:
468,176,224707,1,0,0:0:0:0:
86,182,224883,5,0,0:0:0:0:
97,233,224971,1,0,0:0:0:0:
123,274,225060,1,0,0:0:0:0:
161,309,225148,1,0,0:0:0:0:
217,319,225236,5,0,0:0:0:0:
360,307,225413,1,0,0:0:0:0:
69,299,225589,5,0,0:0:0:0:
79,246,225677,1,0,0:0:0:0:
107,193,225765,1,0,0:0:0:0:
142,167,225854,1,0,0:0:0:0:
182,160,225942,5,0,0:0:0:0:
297,163,226118,1,0,0:0:0:0:
46,188,226295,5,0,0:0:0:0:
55,242,226383,1,0,0:0:0:0:
74,289,226471,1,0,0:0:0:0:
121,311,226560,1,0,0:0:0:0:
163,314,226648,5,0,0:0:0:0:
301,315,226824,1,0,0:0:0:0:
466,270,227001,5,0,0:0:0:0:
461,214,227089,1,0,0:0:0:0:
426,169,227177,1,0,0:0:0:0:
377,144,227265,1,0,0:0:0:0:
325,143,227354,5,0,0:0:0:0:
173,148,227530,1,0,0:0:0:0:
432,80,227707,5,0,0:0:0:0:
432,118,227795,1,0,0:0:0:0:
415,166,227883,1,0,0:0:0:0:
383,196,227971,1,0,0:0:0:0:
210,327,228060,5,0,0:0:0:0:
180,241,228148,1,0,0:0:0:0:
223,161,228236,1,0,0:0:0:0:
311,137,228324,1,0,0:0:0:0:
69,123,228413,5,0,0:0:0:0:
82,188,228501,1,0,0:0:0:0:
128,229,228589,1,0,0:0:0:0:
181,247,228677,1,0,0:0:0:0:
457,186,228765,5,0,0:0:0:0:
460,233,228854,1,0,0:0:0:0:
425,286,228942,1,0,0:0:0:0:
378,306,229030,1,0,0:0:0:0:
66,320,229118,6,0,L|35:284,6,35
256,192,230354,12,0,231942,0:0:0:0:
