osu file format v14

[General]
AudioFilename: Sickly.mp3
AudioLeadIn: 0
PreviewTime: 6413
Countdown: 0
SampleSet: None
StackLeniency: 0.2
Mode: 2
LetterboxInBreaks: 0
WidescreenStoryboard: 1

[Editor]
Bookmarks: 87589,89707,91030,95354,109118,117236,136295,138942,151118,159942,184295,188530,192236,202560,205295,210942,213589,215354,221883,224707
DistanceSpacing: 2
BeatDivisor: 4
GridSize: 16
TimelineZoom: 1.6

[Metadata]
Title:Sick Sick Sick
TitleUnicode:シックシックシック
Artist:PinocchioP
ArtistUnicode:ピノキオピー
Creator:Umi Sonoda-
Version:Sickly Platter
Source:
Tags:FeaRHuMaN Hatsune Miku Vocaloid PinocchioP ZERO-GO 2019 Pop Zero Go ピノキオピP
BeatmapID:2158575
BeatmapSetID:941866

[Difficulty]
HPDrainRate:4
CircleSize:3.2
OverallDifficulty:8
ApproachRate:8
SliderMultiplier:1.4
SliderTickRate:1

[Events]
//Background and Video events
0,0,"Sickly ctb.jpg",0,0
//Break Periods
//Storyboard Layer 0 (Background)
//Storyboard Layer 1 (Fail)
//Storyboard Layer 2 (Pass)
//Storyboard Layer 3 (Foreground)
//Storyboard Layer 4 (Overlay)
//Storyboard Sound Samples

[TimingPoints]
766,352.941176470588,4,1,0,70,1,0
21942,-100,4,1,0,70,0,0
27942,-100,4,1,0,70,0,0
62883,-100,4,1,0,70,0,1
65001,-100,4,1,0,70,0,1
65354,-100,4,1,0,70,0,1
67119,-100,4,1,0,70,0,1
67471,-100,4,1,0,70,0,1
67824,-100,4,1,0,70,0,1
68177,-100,4,1,0,70,0,1
69942,-100,4,1,0,70,0,1
70295,-100,4,1,0,70,0,1
76295,-100,4,1,0,70,0,1
76648,-100,4,1,0,70,0,1
79119,-100,4,1,0,70,0,1
79471,-100,4,1,0,70,0,1
84060,-100,4,1,0,70,0,0
97648,-100,4,1,0,70,0,0
97824,-100,4,1,0,70,0,0
99060,-100,4,1,0,70,0,0
99236,-100,4,1,0,70,0,0
125001,-100,4,1,0,70,0,1
127119,-100,4,1,0,70,0,1
127471,-100,4,1,0,70,0,1
127824,-100,4,1,0,70,0,1
128530,-100,4,1,0,70,0,1
129942,-100,4,1,0,70,0,1
130295,-100,4,1,0,70,0,1
130648,-100,4,1,0,70,0,1
132413,-100,4,1,0,70,0,1
138413,-100,4,1,0,70,0,1
138766,-100,4,1,0,70,0,1
141236,-50,4,1,0,70,0,1
141589,-100,4,1,0,70,0,1
146177,-100,4,1,0,70,0,0
183589,-100,4,1,0,70,0,0
183942,-100,4,1,0,70,0,0
184295,-100,4,1,0,70,0,1
185707,-100,4,1,0,70,0,1
186060,-100,4,1,0,70,0,1
186413,-100,4,1,0,70,0,1
186766,-100,4,1,0,70,0,1
188530,-100,4,1,0,70,0,1
188883,-100,4,1,0,70,0,1
194883,-100,4,1,0,70,0,1
195236,-100,4,1,0,70,0,1
197001,-100,4,1,0,70,0,1
197707,-100,4,1,0,70,0,1
198060,-100,4,1,0,70,0,1
204060,-100,4,1,0,70,0,0
210413,-100,4,1,0,70,0,0
210766,-100,4,1,0,70,0,0

[HitObjects]
256,192,766,12,0,4824,0:0:0:0:
107,229,5001,6,0,L|209:229,2,70
235,173,5530,2,0,L|405:175,1,140
235,173,6060,1,0,0:0:0:0:
124,99,6413,5,0,0:0:0:0:
115,132,6501,1,0,0:0:0:0:
118,167,6589,1,0,0:0:0:0:
129,200,6677,1,0,0:0:0:0:
139,234,6765,5,0,0:0:0:0:
140,268,6854,1,0,0:0:0:0:
128,301,6942,1,0,0:0:0:0:
109,330,7030,1,0,0:0:0:0:
83,345,7118,5,0,0:0:0:0:
59,325,7207,1,0,0:0:0:0:
70,300,7295,1,0,0:0:0:0:
99,282,7383,1,0,0:0:0:0:
129,264,7471,5,0,0:0:0:0:
159,246,7559,1,0,0:0:0:0:
188,226,7648,1,0,0:0:0:0:
213,201,7736,1,0,0:0:0:0:
243,171,7824,5,0,0:0:0:0:
271,151,7912,1,0,0:0:0:0:
299,131,8000,1,0,0:0:0:0:
294,100,8088,1,0,0:0:0:0:
263,84,8176,5,0,0:0:0:0:
229,77,8265,1,0,0:0:0:0:
194,74,8353,1,0,0:0:0:0:
159,74,8441,1,0,0:0:0:0:
124,76,8529,5,0,0:0:0:0:
122,77,8618,1,0,0:0:0:0:
154,89,8706,1,0,0:0:0:0:
187,102,8794,1,0,0:0:0:0:
219,115,8882,5,0,0:0:0:0:
248,129,8970,1,0,0:0:0:0:
218,147,9059,1,0,0:0:0:0:
188,165,9147,1,0,0:0:0:0:
144,179,9236,5,0,0:0:0:0:
155,209,9324,1,0,0:0:0:0:
187,222,9412,1,0,0:0:0:0:
222,226,9500,1,0,0:0:0:0:
257,225,9588,5,0,0:0:0:0:
291,220,9677,1,0,0:0:0:0:
325,211,9765,1,0,0:0:0:0:
363,195,9854,1,0,0:0:0:0:
369,161,9942,5,0,0:0:0:0:
349,133,10030,1,0,0:0:0:0:
320,113,10118,1,0,0:0:0:0:
293,91,10206,1,0,0:0:0:0:
298,61,10295,5,0,0:0:0:0:
329,46,10383,1,0,0:0:0:0:
364,38,10471,1,0,0:0:0:0:
398,34,10559,1,0,0:0:0:0:
434,33,10648,5,0,0:0:0:0:
419,64,10736,1,0,0:0:0:0:
394,88,10824,1,0,0:0:0:0:
366,109,10912,1,0,0:0:0:0:
338,130,11000,5,0,0:0:0:0:
312,153,11089,1,0,0:0:0:0:
293,182,11177,1,0,0:0:0:0:
286,217,11265,1,0,0:0:0:0:
257,246,11354,5,0,0:0:0:0:
222,246,11442,1,0,0:0:0:0:
187,246,11530,1,0,0:0:0:0:
152,246,11618,1,0,0:0:0:0:
117,246,11706,5,0,0:0:0:0:
78,241,11795,1,0,0:0:0:0:
76,206,11883,1,0,0:0:0:0:
90,174,11971,1,0,0:0:0:0:
119,149,12060,5,0,0:0:0:0:
121,114,12148,1,0,0:0:0:0:
103,85,12236,1,0,0:0:0:0:
79,59,12324,1,0,0:0:0:0:
87,29,12413,5,0,0:0:0:0:
121,33,12501,1,0,0:0:0:0:
156,40,12589,1,0,0:0:0:0:
188,52,12677,1,0,0:0:0:0:
212,77,12765,5,0,0:0:0:0:
228,107,12854,1,0,0:0:0:0:
260,119,12942,1,0,0:0:0:0:
295,124,13030,1,0,0:0:0:0:
330,127,13118,5,0,0:0:0:0:
357,138,13207,1,0,0:0:0:0:
340,168,13295,1,0,0:0:0:0:
312,190,13383,1,0,0:0:0:0:
281,211,13471,5,0,0:0:0:0:
254,227,13559,1,0,0:0:0:0:
281,249,13647,1,0,0:0:0:0:
314,259,13735,1,0,0:0:0:0:
348,267,13823,5,0,0:0:0:0:
382,275,13912,1,0,0:0:0:0:
416,286,14000,1,0,0:0:0:0:
440,309,14088,1,0,0:0:0:0:
418,333,14177,5,0,0:0:0:0:
383,333,14265,1,0,0:0:0:0:
348,333,14353,1,0,0:0:0:0:
313,333,14441,1,0,0:0:0:0:
278,333,14530,5,0,0:0:0:0:
249,314,14618,1,0,0:0:0:0:
232,284,14706,1,0,0:0:0:0:
245,252,14794,1,0,0:0:0:0:
269,227,14882,5,0,0:0:0:0:
297,206,14971,1,0,0:0:0:0:
325,185,15059,1,0,0:0:0:0:
353,164,15147,1,0,0:0:0:0:
377,140,15236,5,0,0:0:0:0:
349,118,15324,1,0,0:0:0:0:
317,104,15412,1,0,0:0:0:0:
283,95,15500,1,0,0:0:0:0:
239,92,15589,5,0,0:0:0:0:
210,112,15677,1,0,0:0:0:0:
192,141,15765,1,0,0:0:0:0:
186,175,15853,1,0,0:0:0:0:
193,209,15941,5,0,0:0:0:0:
213,238,16030,1,0,0:0:0:0:
242,257,16118,1,0,0:0:0:0:
276,263,16206,1,0,0:0:0:0:
321,269,16295,5,0,0:0:0:0:
302,266,16383,1,0,0:0:0:0:
267,261,16471,1,0,0:0:0:0:
233,256,16559,1,0,0:0:0:0:
198,250,16647,1,0,0:0:0:0:
164,242,16736,1,0,0:0:0:0:
130,233,16824,1,0,0:0:0:0:
98,219,16912,1,0,0:0:0:0:
73,196,17000,5,0,0:0:0:0:
67,162,17089,1,0,0:0:0:0:
81,130,17177,1,0,0:0:0:0:
103,104,17265,1,0,0:0:0:0:
131,82,17353,1,0,0:0:0:0:
161,65,17442,1,0,0:0:0:0:
194,51,17530,1,0,0:0:0:0:
334,50,17707,6,0,L|430:49,1,70
270,93,18060,2,0,L|368:93,1,70
480,89,18413,2,0,L|393:89,2,70
129,87,18942,5,0,0:0:0:0:
239,88,19118,1,0,0:0:0:0:
129,87,19295,1,0,0:0:0:0:
239,88,19471,1,0,0:0:0:0:
129,87,19648,1,0,0:0:0:0:
421,95,19824,2,0,P|430:173|387:237,1,140
137,229,20530,5,0,0:0:0:0:
235,231,20707,1,0,0:0:0:0:
137,229,20883,2,0,L|307:230,1,140
187,228,21413,1,0,0:0:0:0:
374,232,21589,2,0,L|277:233,1,70
85,229,21942,6,0,B|29:229|29:229|144:229,2,140
253,226,23001,1,0,0:0:0:0:
372,228,23177,5,0,0:0:0:0:
253,226,23354,1,0,0:0:0:0:
372,228,23530,1,0,0:0:0:0:
201,226,23707,2,0,L|57:226,1,140
150,227,24236,1,0,0:0:0:0:
288,184,24413,6,0,L|188:183,2,70
401,184,24942,1,0,0:0:0:0:
257,240,25118,2,0,L|403:240,2,140
90,246,26177,5,0,0:0:0:0:
190,248,26354,1,0,0:0:0:0:
315,205,26530,2,0,L|152:205,1,140
252,203,27060,1,0,0:0:0:0:
111,148,27236,2,0,L|253:148,1,140
357,155,27765,1,0,0:0:0:0:
172,144,27942,2,0,P|141:211|175:279,1,140
466,283,28648,5,0,0:0:0:0:
239,292,29001,2,0,L|412:291,1,140
128,238,29707,2,0,L|294:238,1,140
459,188,30413,6,0,L|306:188,1,140
115,146,31118,2,0,L|263:146,1,140
96,156,31824,6,0,L|94:253,1,70
186,228,32177,1,0,0:0:0:0:
95,228,32354,1,0,0:0:0:0:
214,282,32530,2,0,L|297:280,2,70
98,281,33060,1,0,0:0:0:0:
401,212,33236,6,0,L|481:215,1,70
310,160,33589,2,0,L|226:161,2,70
427,156,34118,1,0,0:0:0:0:
68,168,34295,1,0,0:0:0:0:
301,222,34648,6,0,L|461:223,3,140
81,226,36060,6,0,L|240:226,1,140
484,157,36765,2,0,L|333:157,1,140
260,167,37648,5,0,0:0:0:0:
154,226,37824,2,0,L|66:226,2,70
266,228,38354,1,0,0:0:0:0:
368,227,38530,2,0,L|452:227,1,70
307,289,38883,6,0,L|384:291,1,70
203,291,39236,2,0,L|105:291,1,70
317,294,39589,2,0,P|381:248|246:177,1,280
89,144,40648,5,0,0:0:0:0:
236,148,41001,1,0,0:0:0:0:
138,224,41354,2,0,L|221:224,2,70
276,226,41883,1,0,0:0:0:0:
172,169,42060,2,0,L|92:169,2,70
282,169,42589,1,0,0:0:0:0:
174,171,42765,1,0,0:0:0:0:
282,169,42942,1,0,0:0:0:0:
389,171,43118,6,0,L|235:177,3,140
125,202,44354,6,0,L|83:128,1,70
216,143,44707,1,0,0:0:0:0:
303,192,44883,1,0,0:0:0:0:
304,289,45060,1,0,0:0:0:0:
251,317,45236,2,0,L|340:318,2,70
116,342,45765,1,0,0:0:0:0:
424,292,45942,6,0,P|467:215|234:131,1,420
130,140,47177,5,0,0:0:0:0:
241,138,47354,2,0,L|80:138,1,140
239,195,47883,1,0,0:0:0:0:
100,198,48060,1,0,0:0:0:0:
286,258,48236,6,0,L|289:187,1,70
154,180,48589,1,0,0:0:0:0:
346,188,48765,1,0,0:0:0:0:
186,182,48942,2,0,P|190:249|328:311,1,210
190,303,49648,6,0,L|106:297,1,70
275,256,50001,2,0,L|346:255,1,70
176,252,50354,1,0,0:0:0:0:
316,256,50530,2,0,L|479:256,2,140
136,100,51589,6,0,B|161:182|292:185|292:185|155:190|150:339,1,420
282,331,52824,5,0,0:0:0:0:
177,330,53001,1,0,0:0:0:0:
338,280,53177,2,0,L|435:280,2,70
206,275,53707,1,0,0:0:0:0:
340,277,53883,1,0,0:0:0:0:
201,207,54060,2,0,L|119:208,1,70
201,207,54413,1,0,0:0:0:0:
492,185,54589,6,0,P|479:272|238:296,1,350
343,272,55648,5,0,0:0:0:0:
421,208,55824,1,0,0:0:0:0:
423,117,56001,1,0,0:0:0:0:
326,80,56177,2,0,L|418:78,1,70
230,134,56530,1,0,0:0:0:0:
317,136,56707,1,0,0:0:0:0:
205,200,56883,2,0,L|107:202,2,70
483,204,57413,6,0,P|466:272|209:296,1,350
356,285,58471,5,0,0:0:0:0:
210,278,58648,1,0,0:0:0:0:
429,248,59001,2,0,L|458:173,1,70
287,169,59354,2,0,L|370:164,1,70
211,121,59707,2,0,L|116:119,1,70
304,120,60060,5,0,0:0:0:0:
38,122,60236,1,0,0:0:0:0:
61,213,60589,5,0,0:0:0:0:
407,213,60765,1,0,0:0:0:0:
402,127,61118,5,0,0:0:0:0:
86,119,61295,1,0,0:0:0:0:
325,203,61824,5,0,0:0:0:0:
135,202,62177,1,0,0:0:0:0:
259,202,62354,5,0,0:0:0:0:
176,201,62530,1,0,0:0:0:0:
135,167,62618,1,0,0:0:0:0:
237,135,62707,1,0,0:0:0:0:
277,107,62795,1,0,0:0:0:0:
47,113,62883,6,0,L|46:199,1,70
161,188,63236,2,0,L|311:188,1,140
219,230,63765,1,0,0:0:0:0:
346,233,63942,1,0,0:0:0:0:
219,230,64118,1,0,0:0:0:0:
86,234,64295,6,0,L|86:137,1,70
289,133,64648,2,0,L|381:133,1,70
237,74,65001,2,0,L|158:74,1,70
311,235,65354,5,0,0:0:0:0:
204,231,65530,1,0,0:0:0:0:
311,235,65707,2,0,L|149:239,1,140
457,231,66236,1,0,0:0:0:0:
439,152,66413,1,0,0:0:0:0:
372,106,66589,1,0,0:0:0:0:
268,101,66765,5,0,0:0:0:0:
372,106,66942,1,0,0:0:0:0:
119,101,67118,6,0,L|119:233,1,105
318,211,67471,2,0,L|448:211,1,105
322,156,67824,2,0,L|253:225,1,70
156,235,68177,6,0,L|157:73,1,140
42,203,68883,1,0,0:0:0:0:
476,202,69236,1,0,0:0:0:0:
261,198,69589,6,0,L|410:180,1,140
471,126,70295,1,0,0:0:0:0:
51,135,70648,1,0,0:0:0:0:
181,154,71001,6,0,L|274:152,2,70
303,157,71530,1,0,0:0:0:0:
203,211,71707,5,0,0:0:0:0:
215,259,71795,1,0,0:0:0:0:
263,277,71883,1,0,0:0:0:0:
306,249,71971,1,0,0:0:0:0:
310,198,72060,1,0,0:0:0:0:
187,157,72236,5,0,0:0:0:0:
301,77,72413,1,0,0:0:0:0:
376,191,72501,1,0,0:0:0:0:
361,248,72589,1,0,0:0:0:0:
306,249,72677,1,0,0:0:0:0:
267,205,72765,1,0,0:0:0:0:
97,188,72854,5,0,0:0:0:0:
93,137,72942,1,0,0:0:0:0:
121,88,73030,1,0,0:0:0:0:
174,77,73118,1,0,0:0:0:0:
233,76,73207,1,0,0:0:0:0:
301,77,73295,1,0,0:0:0:0:
430,82,73471,2,0,P|466:140|439:229,1,140
349,240,73913,5,0,0:0:0:0:
287,247,74001,1,0,0:0:0:0:
229,246,74089,1,0,0:0:0:0:
186,237,74177,2,0,L|26:208,1,140
135,159,74707,5,0,0:0:0:0:
206,224,74883,1,0,0:0:0:0:
209,313,75060,1,0,0:0:0:0:
123,344,75236,1,0,0:0:0:0:
46,283,75413,1,0,0:0:0:0:
166,255,75589,6,0,L|294:235,1,105
199,197,75942,2,0,L|81:179,1,105
265,130,76295,2,0,L|420:124,1,140
