osu file format v14

[General]
AudioFilename: audio.mp3
AudioLeadIn: 0
PreviewTime: 48900
Countdown: 1
SampleSet: Normal
StackLeniency: 0.3
Mode: 0
LetterboxInBreaks: 0
EpilepsyWarning: 1
WidescreenStoryboard: 1

[Editor]
DistanceSpacing: 0.9
BeatDivisor: 4
GridSize: 4
TimelineZoom: 1.7

[Metadata]
Title:Mune Ippai no Dame o
TitleUnicode:胸いっぱいのダメを
Artist:PinocchioP
ArtistUnicode:ピノキオピー
Creator:AruOtta
Version:Ultra
Source:
Tags:whole lotta no's hatsune miku hatsune_miku 初音ミク vocaloid japanese pop j-pop jpop minamo 水面 naryuga bara-
BeatmapID:3815415
BeatmapSetID:502545

[Difficulty]
HPDrainRate:6
CircleSize:4.2
OverallDifficulty:8.5
ApproachRate:9.7
SliderMultiplier:1.5
SliderTickRate:1

[Events]
//Background and Video events
0,0,"bg.jpg",0,0
Video,-390,"video.avi"
//Break Periods
2,141900,150775
//Storyboard Layer 0 (Background)
//Storyboard Layer 1 (Fail)
//Storyboard Layer 2 (Pass)
//Storyboard Layer 3 (Foreground)
//Storyboard Layer 4 (Overlay)
//Storyboard Sound Samples

[TimingPoints]
900,200,4,1,1,70,1,0
2500,-133.333333333333,4,1,1,50,0,0
3200,-100,4,1,1,70,0,0
3500,-100,4,1,1,40,0,0
3600,-100,4,1,1,70,0,0
16900,-133.333333333333,4,1,1,50,0,0
17200,-133.333333333333,4,1,1,5,0,0
17300,-133.333333333333,4,1,1,50,0,0
17600,-133.333333333333,4,1,1,5,0,0
17700,-133.333333333333,4,1,1,50,0,0
17900,-133.333333333333,4,1,1,5,0,0
18000,-133.333333333333,4,1,1,50,0,0
18500,-100,4,1,1,70,0,0
20100,-133.333333333333,4,1,1,70,0,0
31500,-133.333333333333,4,1,1,50,0,0
32100,-133.333333333333,4,1,1,70,0,0
32900,-100,4,1,1,70,0,0
43100,-50,4,1,1,70,0,0
43300,-100,4,1,1,60,0,0
44100,-100,4,1,1,70,0,0
44700,-50,4,1,1,70,0,0
44900,-100,4,1,1,60,0,0
45700,-100,4,1,1,70,0,0
47300,-200,4,1,1,70,0,0
48900,-133.333333333333,4,1,1,50,0,0
60100,-100,4,1,1,70,0,0
61700,-100,4,1,1,70,0,1
72900,-100,4,1,1,70,0,0
74500,-133.333333333333,4,1,1,70,0,0
74512,-133.333333333333,4,2,1,5,0,0
74900,-100,4,1,1,70,0,0
76100,-133.333333333333,4,1,1,70,0,0
78100,-100,4,1,1,70,0,0
103100,-50,4,1,1,70,0,0
103400,-100,4,1,1,60,0,0
104700,-50,4,1,1,70,0,0
105000,-100,4,1,1,60,0,0
105700,-100,4,1,1,70,0,0
107300,-133.333333333333,4,1,1,70,0,0
109033,-133.333333333333,4,1,1,40,0,0
109300,-133.333333333333,4,1,1,70,0,0
109433,-133.333333333333,4,1,1,40,0,0
109700,-133.333333333333,4,1,1,70,0,0
109833,-133.333333333333,4,1,1,50,0,0
110100,-133.333333333333,4,1,1,70,0,0
110233,-133.333333333333,4,1,1,50,0,0
110500,-133.333333333333,4,1,1,80,0,0
110766,-133.333333333333,4,1,1,60,0,0
110900,-133.333333333333,4,1,1,80,0,0
111033,-133.333333333333,4,1,1,70,0,0
111300,-133.333333333333,4,1,1,80,0,0
111500,-133.333333333333,4,1,1,50,0,0
111600,-133.333333333333,4,1,1,70,0,0
112100,-133.333333333333,4,1,1,50,0,0
113300,-100,4,1,1,70,0,0
113700,-100,4,1,1,70,0,1
136100,-100,4,1,1,70,0,0
167300,-133.333333333333,4,1,1,60,0,0
167312,-133.333333333333,4,1,1,5,0,0
167700,-133.333333333333,4,1,1,50,0,0
167712,-133.333333333333,4,1,1,5,0,0
168100,-133.333333333333,4,1,1,50,0,0
168112,-133.333333333333,4,1,1,5,0,0
168400,-133.333333333333,4,1,1,50,0,0
168412,-133.333333333333,4,1,1,5,0,0
168900,-66.6666666666667,4,1,1,70,0,0
169700,-100,4,1,1,70,0,0
170500,-133.333333333333,4,1,1,70,0,0
176900,-100,4,1,1,70,0,0
183300,-100,4,1,1,50,0,0
184100,-100,4,1,1,70,0,1
208000,-100,4,1,1,70,0,0
208100,-100,4,1,1,100,0,1
214500,-83.3333333333333,4,1,1,80,0,1
219100,-83.3333333333333,4,1,1,70,0,0
219300,-100,4,1,1,70,0,1
232100,-133.333333333333,4,1,1,70,0,0
232450,-133.333333333333,4,1,1,5,0,0
232500,-133.333333333333,4,1,1,70,0,0
232850,-133.333333333333,4,1,1,5,0,0
232900,-133.333333333333,4,1,1,70,0,0
233100,-133.333333333333,4,1,1,5,0,0
233200,-133.333333333333,4,1,1,70,0,0
233700,-83.3333333333333,4,1,1,70,0,0

[Colours]
Combo1 : 165,193,228
Combo2 : 255,0,128
Combo3 : 82,207,207
Combo4 : 130,23,145
Combo5 : 0,0,255
Combo6 : 227,172,207

[HitObjects]
152,128,900,6,0,L|240:136,1,75,14|0,0:0|3:0,0:0:0:0:
96,212,1100,2,0,B|80:176|100:140|100:140|76:36,1,150,10|0,0:0|3:0,0:0:0:0:
40,272,1400,2,0,B|88:304|132:284|132:284|144:324|184:336,1,150,10|0,0:0|3:0,0:0:0:0:
280,220,1700,6,0,P|216:202|213:267,1,150,10|0,0:0|3:0,0:0:0:0:
300,300,2000,2,0,L|336:136,1,150,10|0,0:0|3:0,0:0:0:0:
402,126,2300,2,0,L|332:153,1,75,10|0,0:0|3:0,0:0:0:0:
248,132,2500,38,0,L|228:68,1,56.2500021457673,2|0,3:0|3:0,3:0:0:0:
152,240,2700,2,0,L|212:220,1,56.2500021457673,0|0,3:0|3:0,0:0:0:0:
80,196,2900,6,0,L|20:176,1,56.2500021457673,2|0,3:0|3:0,3:0:0:0:
80,272,3100,1,0,3:0:0:0:
152,160,3200,38,0,B|168:120|152:64|152:64|184:100|228:96,1,150,10|10,0:0|0:0,0:0:0:0:
276,104,3500,1,0,3:0:0:0:
334,38,3600,6,0,L|194:92,1,150,10|0,0:0|0:0,0:0:0:0:
260,184,3900,2,0,L|304:192,2,37.5,8|0|8,0:0|3:0|0:0,0:0:0:0:
417,267,4100,38,0,B|352:248|352:248|316:276|274:264,1,150,6|8,0:0|0:0,0:0:0:0:
188,232,4400,1,0,3:0:0:0:
284,116,4500,2,0,L|355:137,1,75,2|0,0:0|3:0,0:0:0:0:
173,305,4700,2,0,L|188:232,1,75,8|0,0:0|3:0,0:0:0:0:
177,89,4900,6,0,B|176:92|176:92|184:112|184:112|176:132|176:132|188:156|188:156|180:196|180:196|188:232,1,150,2|8,0:0|0:0,0:0:0:0:
276,296,5200,1,2,3:0:0:0:
296,312,5500,2,0,L|200:300,1,75,10|0,0:0|3:0,0:0:0:0:
360,360,5700,70,0,P|376:320|356:260,1,75,2|0,0:0|3:0,0:0:0:0:
324,168,5900,1,8,0:0:0:0:
296,312,6000,1,0,3:0:0:0:
444,268,6100,2,0,B|464:168|464:168|488:152|496:120,1,150,2|8,0:0|0:0,0:0:0:0:
444,16,6400,1,0,3:0:0:0:
297,64,6500,6,0,B|336:68|360:44|360:44|376:84|420:96,1,150,2|8,0:0|0:0,0:0:0:0:
492,130,6800,1,2,3:0:0:0:
504,144,7100,2,0,L|416:152,1,75,10|0,0:0|3:0,0:0:0:0:
340,208,7300,70,0,B|352:216|352:216|332:220|332:220|344:228|344:228|368:344,1,150,6|8,0:0|0:0,0:0:0:0:
440,368,7600,1,0,3:0:0:0:
268,280,7700,2,0,L|176:256,1,75,2|0,0:0|3:0,0:0:0:0:
32,320,7900,2,0,P|68:316|108:276,1,75,8|0,0:0|3:0,0:0:0:0:
56,120,8100,6,0,B|40:240|40:240|76:204,1,150,2|8,0:0|0:0,0:0:0:0:
124,164,8400,1,2,3:0:0:0:
136,180,8700,2,0,P|160:144|148:84,1,75,10|0,0:0|3:0,0:0:0:0:
300,48,8900,70,0,B|242:98|242:98|250:130|238:170,1,150,2|8,0:0|0:0,0:0:0:0:
192,244,9200,1,0,3:0:0:0:
244,320,9300,2,0,L|352:304,1,75,2|0,0:0|3:0,0:0:0:0:
424,256,9500,2,0,P|448:220|440:164,1,75,8|0,0:0|3:0,0:0:0:0:
328,76,9700,6,0,B|308:148|308:148|380:204,1,150,2|8,0:0|0:0,0:0:0:0:
208,184,10000,2,0,B|232:108|232:108|212:72|232:24,1,150,0|0,3:0|0:0,0:0:0:0:
402,66,10300,2,0,L|328:76,1,75,8|0,0:0|3:0,0:0:0:0:
136,84,10500,6,0,P|76:92|120:168,1,150,10|0,0:0|3:0,0:0:0:0:
228,236,10800,2,0,B|204:216|168:212|168:212|148:244|112:256|84:252,1,150,8|8,0:0|0:0,0:0:0:0:
32,332,11100,2,0,L|136:348,1,75,0|8,0:0|0:0,0:0:0:0:
296,304,11300,6,0,P|328:252|284:148,1,150,10|0,0:0|3:0,0:0:0:0:
216,120,11600,2,0,L|68:168,1,150,10|8,0:0|0:0,0:0:0:0:
40,264,11900,2,0,P|40:308|84:344,1,75,2|8,0:0|0:0,0:0:0:0:
240,272,12100,70,0,B|200:268|176:288|176:288|120:276|120:276|148:272,1,150,10|0,0:0|3:0,0:0:0:0:
312,208,12400,2,0,B|340:248|328:284|328:284|368:288|408:340,1,150,8|8,0:0|0:0,0:0:0:0:
308,376,12700,2,0,L|235:356,1,75,0|8,0:0|0:0,0:0:0:0:
120,276,12900,6,0,B|144:156|144:156|150:166|162:177,1,150,10|0,0:0|0:0,0:0:0:0:
340,134,13200,2,0,P|267:139|205:85,1,150,10|8,0:0|0:0,0:0:0:0:
132,32,13500,2,0,P|168:4|224:8,1,75,10|0,0:0|0:0,0:0:0:0:
316,48,13700,70,0,B|344:72|384:72|384:72|332:148,1,150,10|0,0:0|3:0,0:0:0:0:
392,228,14000,2,0,B|424:180|424:180|472:280,1,150,8|0,0:0|3:0,0:0:0:0:
512,156,14300,2,0,P|476:104|444:96,2,75,8|0|0,0:0|3:0|3:0,0:0:0:0:
275,162,14600,6,0,L|424:180,1,150,8|0,0:0|3:0,0:0:0:0:
316,288,14900,2,0,L|236:328,1,75,10|0,0:0|3:0,0:0:0:0:
72,252,15100,2,0,P|112:248|160:284,1,75,10|0,0:0|3:0,0:0:0:0:
164,280,15500,70,0,B|140:244|156:204|156:204|96:160,1,150,10|0,0:0|3:0,0:0:0:0:
128,48,15800,2,0,B|192:88|192:88|284:56,1,150,10|0,0:0|3:0,0:0:0:0:
335,128,16100,6,0,L|264:152,2,75,10|0|0,0:0|0:0|3:0,0:0:0:0:
410,103,16400,1,8,0:0:0:0:
452,233,16500,1,8,0:0:0:0:
319,205,16600,1,8,0:0:0:0:
469,156,16700,1,8,0:0:0:0:
378,258,16800,1,8,0:0:0:0:
335,128,16900,6,0,B|280:122|280:122|268:110|268:110|239:127|239:127|227:116|227:116|181:110,1,168.750006437302,0|0,0:0|2:0,0:0:0:0:
327,39,17300,2,0,B|272:33|272:33|260:21|260:21|231:38|231:38|219:27|219:27|173:21,1,168.750006437302,0|0,0:0|2:0,0:0:0:0:
68,120,17700,6,0,L|180:109,1,112.500004291535,0|0,0:0|2:0,0:0:0:0:
276,195,18000,2,0,P|308:235|300:299,1,112.500004291535,0|0,0:0|3:0,0:0:0:0:
248,384,18300,1,8,0:0:0:0:
232,368,18500,38,0,L|144:384,1,75,14|0,0:0|3:0,0:0:0:0:
272,224,18700,2,0,L|352:248,1,75,10|0,0:0|3:0,0:0:0:0:
192,264,18900,2,0,P|180:220|200:168,1,75,10|0,0:0|3:0,0:0:0:0:
304,112,19100,2,0,P|280:72|236:56,1,75,10|0,0:0|3:0,0:0:0:0:
128,112,19300,6,0,L|96:196,1,75,10|8,0:0|0:0,0:0:0:0:
92,204,19450,1,0,3:0:0:0:
84,224,19500,2,0,P|120:244|172:228,1,75,8|10,0:0|0:0,0:0:0:0:
232,140,19700,2,0,P|268:120|308:124,1,75
396,196,19900,1,0,0:0:0:0:
396,196,19950,1,0,3:0:0:0:
396,196,20000,1,0,0:0:0:0:
396,196,20050,1,0,3:0:0:0:
396,196,20100,38,0,L|280:216,1,112.500004291535,0|8,0:0|0:0,0:0:0:0:
208,240,20400,1,0,3:0:0:0:
148,352,20500,2,0,B|160:324|156:304|156:304|124:280|128:232,1,112.500004291535,2|10,0:0|0:0,0:0:0:0:
160,176,20800,1,0,3:0:0:0:
56,288,20900,6,0,L|0:276,1,56.2500021457673,0|0,0:0|3:0,0:0:0:0:
104,66,21100,2,0,L|111:127,1,56.2500021457673,10|0,0:0|3:0,0:0:0:0:
127,249,21300,1,2,0:0:0:0:
192,110,21400,2,0,L|185:54,1,56.2500021457673,2|8,0:0|3:0,0:0:0:0:
208,240,21600,1,2,3:0:0:0:
273,136,21700,70,0,P|321:104|393:128,1,112.500004291535,0|8,0:0|0:0,0:0:0:0:
422,178,22000,1,0,3:0:0:0:
328,234,22100,2,0,L|337:179,1,56.2500021457673,2|0,0:0|3:0,0:0:0:0:
437,66,22300,2,0,B|421:182,1,112.500004291535,10|0,0:0|0:0,0:0:0:0:
409,286,22600,5,0,3:0:0:0:
505,130,22700,1,10,0:0:0:0:
495,204,22800,1,0,3:0:0:0:
505,130,22900,2,0,L|516:53,1,56.2500021457673,10|2,0:0|3:0,0:0:0:0:
317,109,23100,2,0,L|324:164,1,56.2500021457673,0|2,0:0|3:0,0:0:0:0:
213,144,23300,70,0,L|324:164,1,112.500004291535,0|8,0:0|0:0,0:0:0:0:
396,136,23600,1,0,3:0:0:0:
399,211,23700,2,0,P|400:266|390:286,1,56.2500021457673,2|0,0:0|3:0,0:0:0:0:
323,163,23900,2,0,P|322:107|332:88,1,56.2500021457673,10|0,0:0|3:0,0:0:0:0:
400,266,24100,5,2,0:0:0:0:
311,311,24200,1,0,0:0:0:0:
247,186,24300,2,0,L|181:174,1,56.2500021457673,8|2,0:0|3:0,0:0:0:0:
303,238,24500,1,2,0:0:0:0:
196,306,24600,2,0,L|130:318,1,56.2500021457673,2|8,0:0|0:0,0:0:0:0:
55,336,24800,1,2,3:0:0:0:
80,176,24900,70,0,B|68:148|76:120|76:120|84:88|68:56,1,112.500004291535,0|8,0:0|0:0,0:0:0:0:
4,100,25200,1,0,3:0:0:0:
148,141,25300,1,2,0:0:0:0:
145,227,25400,1,0,0:0:0:0:
62,249,25500,2,0,L|-6:256,1,56.2500021457673,10|0,0:0|3:0,0:0:0:0:
72,65,25700,6,0,L|140:72,1,56.2500021457673,2|2,0:0|0:0,0:0:0:0:
276,154,25900,2,0,L|220:160,1,56.2500021457673,8|2,0:0|3:0,0:0:0:0:
200,76,26100,1,2,3:0:0:0:
144,164,26200,1,2,3:0:0:0:
220,159,26300,1,0,3:0:0:0:
127,70,26400,1,2,3:0:0:0:
308,68,26500,70,0,P|315:122|288:170,1,112.500004291535,0|8,0:0|0:0,0:0:0:0:
202,242,26800,1,0,3:0:0:0:
288,170,26900,2,0,P|316:150|360:154,1,56.2500021457673,2|0,0:0|0:0,0:0:0:0:
456,284,27100,2,0,P|428:278|406:261,1,56.2500021457673,10|0,0:0|3:0,0:0:0:0:
392,100,27300,5,2,0:0:0:0:
456,208,27400,1,0,3:0:0:0:
328,268,27500,2,0,L|247:251,1,56.2500021457673,10|0,0:0|3:0,0:0:0:0:
373,190,27700,1,2,0:0:0:0:
245,130,27800,2,0,L|164:147,1,56.2500021457673,2|8,0:0|0:0,0:0:0:0:
109,202,28000,1,2,0:0:0:0:
217,291,28100,70,0,L|327:267,1,112.500004291535,0|8,3:0|0:0,0:0:0:0:
425,226,28400,1,0,3:0:0:0:
387,328,28500,1,2,0:0:0:0:
387,328,28600,1,0,0:0:0:0:
312,186,28700,2,0,P|296:158|300:118,1,56.2500021457673,10|0,0:0|3:0,0:0:0:0:
441,174,28900,6,0,P|438:201|424:225,1,56.2500021457673,2|0,0:0|3:0,0:0:0:0:
234,91,29100,2,0,P|278:59|332:69,1,112.500004291535,10|2,0:0|0:0,0:0:0:0:
424,225,29400,2,0,P|398:236|370:236,1,56.2500021457673,2|8,0:0|0:0,0:0:0:0:
294,134,29600,1,2,3:0:0:0:
187,253,29700,70,0,L|211:381,1,112.500004291535,0|8,0:0|0:0,0:0:0:0:
263,234,30000,1,0,3:0:0:0:
287,361,30100,2,0,L|276:305,1,56.2500021457673,2|0,0:0|0:0,0:0:0:0:
362,331,30300,2,0,B|310:351|310:351|275:305,1,112.500004291535,10|2,0:0|0:0,0:0:0:0:
320,185,30600,5,0,3:0:0:0:
416,257,30700,2,0,P|440:281|448:325,1,56.2500021457673,10|0,0:0|3:0,0:0:0:0:
392,189,30900,2,0,P|396:161|424:129,1,56.2500021457673,2|2,0:0|0:0,0:0:0:0:
484,197,31100,1,8,0:3:0:0:
440,319,31200,1,2,3:0:0:0:
328,270,31300,38,0,P|301:206|317:171,1,84.3750032186509,0|0,3:0|2:0,2:0:0:0:
316,169,31500,2,0,L|252:181,1,56.2500021457673
144,121,31700,2,0,L|208:133,1,56.2500021457673,2|2,0:0|0:0,0:0:0:0:
347,122,31900,2,0,L|316:169,1,56.2500021457673,0|2,0:0|0:0,0:0:0:0:
264,276,32100,5,8,0:0:0:0:
312,328,32200,1,2,0:0:0:0:
240,344,32300,1,8,0:0:0:0:
264,276,32400,2,0,P|266:243|297:220,1,56.2500021457673,2|8,0:0|0:0,0:0:0:0:
240,344,32600,1,2,0:0:0:0:
312,328,32700,1,8,0:0:0:0:
264,276,32800,1,2,3:0:0:0:
120,248,32900,38,0,L|88:96,1,150,4|8,0:0|0:0,0:0:0:0:
136,40,33200,1,0,3:0:0:0:
176,152,33300,2,0,P|216:176|268:160,1,75,2|8,0:0|0:0,0:0:0:0:
219,30,33500,2,0,P|212:66|228:100,1,75,2|8,0:0|0:0,0:0:0:0:
352,19,33700,6,0,P|316:28|292:56,1,75,2|0,0:0|3:0,0:0:0:0:
424,112,33900,1,10,0:0:0:0:
308,128,34000,1,10,0:0:0:0:
452,184,34100,2,0,L|368:176,1,75,2|2,3:0|3:0,0:0:0:0:
228,216,34300,2,0,L|302:208,1,75,10|0,0:0|3:0,0:0:0:0:
496,244,34500,69,2,0:0:0:0:
400,300,34600,1,0,3:0:0:0:
428,376,34700,2,0,P|388:380|340:352,1,75,10|2,0:0|0:0,0:0:0:0:
472,316,34900,1,2,0:0:0:0:
384,228,35000,1,8,0:0:0:0:
328,280,35100,2,0,P|308:244|320:192,1,75,2|8,0:0|0:0,0:0:0:0:
496,244,35300,5,2,0:0:0:0:
356,156,35400,1,2,3:0:0:0:
460,104,35500,1,8,0:0:0:0:
384,228,35600,1,8,0:0:0:0:
495,164,35700,2,0,P|461:175|425:165,1,75,2|0,3:0|2:0,2:0:0:0:
304,24,35900,2,0,P|320:56|304:116,1,75,8|0,0:0|0:0,0:0:0:0:
280,236,36100,70,0,P|232:216|212:104,1,150,4|8,0:0|0:0,0:0:0:0:
162,62,36400,1,0,0:0:0:0:
132,180,36500,2,0,P|140:216|176:256,1,75,2|8,0:0|0:0,0:0:0:0:
300,340,36700,2,0,P|252:324|212:332,1,75,2|8,0:0|0:0,0:0:0:0:
152,324,36900,5,2,0:0:0:0:
236,248,37000,1,2,3:0:0:0:
88,272,37100,2,0,P|72:312|88:364,1,75,10|10,0:0|0:0,0:0:0:0:
208,180,37300,2,0,B|196:156|196:156|208:60|208:60|196:28,1,150,2|10,3:0|0:0,2:0:0:0:
127,76,37600,1,0,3:0:0:0:
276,136,37700,70,0,L|352:116,1,75,2|0,0:0|3:0,0:0:0:0:
484,80,37900,1,10,0:0:0:0:
356,44,38000,1,0,0:0:0:0:
436,208,38100,2,0,L|360:188,1,75,0|10,0:0|0:0,0:0:0:0:
496,160,38300,1,0,0:0:0:0:
424,280,38400,1,10,0:0:0:0:
430,130,38500,6,0,P|466:137|496:160,1,75,2|0,0:0|3:0,0:0:0:0:
428,360,38700,2,0,P|391:353|362:330,1,75,10|10,0:0|0:0,0:0:0:0:
437,207,38900,2,0,L|424:281,1,75,2|0,3:0|2:0,2:0:0:0:
288,232,39100,1,8,0:0:0:0:
312,232,39150,1,0,0:0:0:0:
332,228,39200,1,0,0:0:0:0:
348,216,39250,1,0,3:0:0:0:
360,200,39300,70,0,L|204:236,1,150,4|10,0:0|0:0,0:0:0:0:
84,84,39700,1,2,0:0:0:0:
112,156,39800,2,0,P|72:160|36:140,1,75,2|8,0:0|0:0,0:0:0:0:
140,32,40000,6,0,B|208:64|208:64|176:160,1,150,2|0,3:0|3:0,0:0:0:0:
140,228,40300,2,0,L|232:208,1,75,10|2,0:0|3:0,0:0:0:0:
358,222,40500,1,2,0:0:0:0:
419,139,40600,1,2,0:0:0:0:
419,139,40700,2,0,L|315:114,1,75,8|0,0:0|3:0,0:0:0:0:
483,55,40900,70,0,P|512:123|499:196,1,150,0|10,0:0|0:0,0:0:0:0:
384,285,41200,2,0,L|456:264,1,75,2|0,3:0|0:0,0:0:0:0:
320,248,41400,1,2,3:0:0:0:
384,360,41500,1,10,0:0:0:0:
384,360,41600,1,0,3:0:0:0:
320,324,41700,6,0,P|280:312|248:272,1,75,2|2,0:0|3:0,0:0:0:0:
240,145,41900,2,0,P|255:179|251:216,1,75,8|2,0:0|3:0,0:0:0:0:
161,333,42100,1,2,0:0:0:0:
118,226,42200,1,2,0:0:0:0:
118,226,42300,2,0,P|148:197|199:189,1,75,8|2,0:0|3:0,0:0:0:0:
256,32,42500,38,0,B|248:52|248:52|264:68|264:68|256:92|256:92|272:132|252:184,1,150,12|2,0:0|3:0,0:0:0:0:
257,310,42800,2,0,B|265:290|265:290|249:274|249:274|257:250|257:250|241:210|261:158,1,150,10|2,0:0|3:0,0:0:0:0:
256,32,43100,22,0,B|280:64|280:64|232:276|232:276|257:311,1,300,10|2,0:0|3:0,0:0:0:0:
332,328,43400,21,0,3:0:0:0:
381,269,43500,2,0,P|348:252|311:256,1,75,10|2,0:0|3:0,0:0:0:0:
206,368,43700,2,0,P|238:385|276:384,1,75,2|0,0:0|0:0,0:0:0:0:
382,270,43900,2,0,L|420:192,1,75,8|0,0:0|3:0,0:0:0:0:
488,192,44100,38,0,B|412:184|412:184|388:144|328:136,1,150,12|2,0:0|3:0,0:0:0:0:
104,192,44400,2,0,B|180:200|180:200|204:240|264:248,1,150,8|2,0:0|3:0,0:0:0:0:
329,68,44700,22,0,B|291:78|267:113|262:156|294:188|294:188|326:218|330:261|306:305|260:317,1,300,10|0,0:0|3:0,0:0:0:0:
188,300,45000,21,0,3:0:0:0:
168,226,45100,2,0,P|206:225|239:243,1,75,10|2,0:0|3:0,0:0:0:0:
397,195,45300,2,0,P|366:175|354:141,1,75,2|0,0:0|0:0,0:0:0:0:
364,68,45500,1,0,0:0:0:0:
428,128,45600,1,0,3:0:0:0:
288,100,45700,38,0,B|219:126|219:126|256:192,1,150,8|2,0:0|3:0,0:0:0:0:
224,284,46000,2,0,B|293:258|293:258|256:192,1,150,10|2,0:0|3:0,0:0:0:0:
164,76,46300,2,0,P|144:116|164:168,1,75,10|0,0:0|3:0,0:0:0:0:
312,328,46500,6,0,P|352:300|336:200,1,150,10|10,0:0|3:0,0:0:0:0:
256,120,46800,1,0,3:0:0:0:
292,256,46900,1,10,3:3:0:0:
392,152,47000,1,0,3:0:0:0:
240,196,47100,1,10,3:0:0:0:
332,100,47200,1,2,3:3:0:0:
464,203,47300,38,0,L|317:178,1,150,2|8,0:0|0:0,0:0:0:0:
204,103,47900,1,2,3:0:0:0:
176,211,48000,1,10,0:0:0:0:
112,159,48100,6,0,P|108:221|176:212,1,150,0|0,0:0|2:0,0:0:0:0:
112,160,48900,37,6,0:0:0:0:
176,211,49000,1,2,3:0:0:0:
191,128,49100,2,0,P|177:104|155:88,1,56.2500021457673,8|0,0:0|0:0,0:0:0:0:
35,35,49300,2,0,B|83:59|83:59|99:23|143:11,1,112.500004291535,2|8,0:0|0:0,0:0:0:0:
241,32,49600,1,2,0:0:0:0:
272,108,49700,2,0,L|292:168,1,56.2500021457673,2|0,0:0|3:0,0:0:0:0:
267,271,49900,2,0,L|289:161,1,112.500004291535,10|0,0:0|0:0,0:0:0:0:
356,120,50200,1,0,3:0:0:0:
432,100,50300,2,0,P|460:112|484:144,1,56.2500021457673,8|0,0:3|0:0,0:0:0:0:
412,176,50500,5,6,0:0:0:0:
356,120,50600,1,2,3:0:0:0:
374,47,50700,2,0,P|400:26|428:22,1,56.2500021457673,8|0,0:0|0:0,0:0:0:0:
412,176,50900,2,0,B|384:196|356:196|356:196|316:252,1,112.500004291535,2|8,0:0|0:0,0:0:0:0:
206,271,51200,1,2,0:0:0:0:
252,208,51300,2,0,L|284:160,1,56.2500021457673,2|0,0:0|3:0,0:0:0:0:
292,59,51500,2,0,P|267:108|283:161,1,112.500004291535,10|0,0:0|0:0,0:0:0:0:
352,200,51800,1,0,3:0:0:0:
184,164,51900,2,0,P|148:152|112:160,1,56.2500021457673,8|0,0:0|0:0,0:0:0:0:
64,208,52100,69,6,0:0:0:0:
141,230,52200,1,0,0:0:0:0:
184,164,52300,2,0,L|239:149,1,56.2500021457673,8|0,0:0|0:0,0:0:0:0:
307,48,52500,2,0,B|287:92|287:92|315:116|319:160,1,112.500004291535,2|8,0:0|0:0,0:0:0:0:
231,229,52800,1,2,0:0:0:0:
184,164,52900,2,0,L|212:104,1,56.2500021457673,2|0,0:0|3:0,0:0:0:0:
232,304,53100,2,0,L|204:364,1,56.2500021457673,10|0,0:0|0:0,0:0:0:0:
207,113,53300,1,2,0:0:0:0:
308,272,53500,1,10,0:0:0:0:
300,352,53600,1,0,0:0:0:0:
232,304,53700,6,0,P|228:252|268:200,1,112.500004291535,2|8,0:0|0:0,0:0:0:0:
340,200,54000,1,0,0:0:0:0:
394,321,54100,2,0,B|364:276|364:276|336:288|308:272,1,112.500004291535,0|10,0:0|0:0,0:0:0:0:
300,132,54400,1,2,0:0:0:0:
376,132,54500,2,0,P|400:148|416:188,1,56.2500021457673
224,124,54700,2,0,P|232:92|264:64,1,56.2500021457673,8|0,0:0|0:0,0:0:0:0:
340,200,54900,2,0,L|216:240,1,112.500004291535,2|8,0:0|0:0,0:0:0:0:
164,264,55200,1,2,0:0:0:0:
68,180,55300,70,0,P|122:168|173:190,1,112.500004291535,6|10,0:0|0:0,0:0:0:0:
261,281,55600,1,0,0:0:0:0:
261,281,55700,2,0,B|232:236|232:236|252:208|244:172,1,112.500004291535,2|8,0:0|0:0,0:0:0:0:
200,120,56000,1,0,0:0:0:0:
326,122,56100,2,0,L|272:108,1,56.2500021457673,0|0,0:0|3:0,0:0:0:0:
396,88,56300,2,0,L|450:73,1,56.2500021457673,8|0,0:0|0:0,0:0:0:0:
464,173,56500,2,0,P|436:126|450:73,1,112.500004291535,2|8,0:0|0:0,0:0:0:0:
512,36,56800,1,2,0:0:0:0:
508,160,56900,6,0,L|476:284,1,112.500004291535,6|10,0:0|0:0,0:0:0:0:
456,340,57200,1,0,0:0:0:0:
408,280,57300,2,0,P|364:260|292:264,1,112.500004291535,2|8,0:0|0:0,0:0:0:0:
236,300,57600,1,0,0:0:0:0:
355,336,57700,2,0,P|327:331|300:336,1,56.2500021457673
185,363,57900,2,0,L|240:376,1,56.2500021457673,8|0,0:0|0:0,0:0:0:0:
300,261,58100,2,0,P|324:216|304:144,1,112.500004291535,2|10,0:0|0:0,0:0:0:0:
144,184,58500,69,4,0:0:0:0:
148,192,59300,1,0,0:0:0:0:
152,200,59700,5,8,3:0:0:0:
48,64,59900,1,10,0:0:0:0:
216,40,60100,37,6,0:0:0:0:
216,40,60200,2,0,B|216:80|248:104|248:104|252:148|212:180,1,150,8|10,0:0|0:0,0:0:0:0:
401,94,60500,2,0,B|360:84|328:108|328:108|328:72|296:40,1,150,8|10,0:0|0:0,0:0:0:0:
144,180,60800,6,0,P|184:240|256:236,1,150,8|8,0:0|0:0,0:0:0:0:
380,168,61100,2,0,B|332:220|332:220|336:268|300:300,1,150,8|8,0:0|0:0,0:0:0:0:
192,280,61400,1,0,0:0:0:0:
192,280,61500,2,0,P|180:244|196:192,1,75,8|0,0:0|0:0,0:0:0:0:
287,116,61700,38,0,B|290:133|290:133|274:125|274:125|279:140|279:140|255:236,1,150,6|10,0:0|0:0,0:0:0:0:
168,372,62000,1,0,3:0:0:0:
256,316,62100,2,0,B|220:320|192:288|192:288|116:300,1,150,2|8,0:0|0:0,0:0:0:0:
36,268,62400,1,2,3:0:0:0:
180,208,62500,6,0,L|200:120,1,75,2|0,0:0|3:0,0:0:0:0:
32,64,62700,2,0,B|128:88|128:88|152:56|196:52,1,150,10|0,0:0|0:0,0:0:0:0:
288,144,63000,1,0,0:0:0:0:
288,144,63100,2,0,L|265:72,1,75,8|0,0:0|3:0,0:0:0:0:
196,134,63300,6,0,B|232:248|232:248|216:236|176:232,1,150,2|10,0:0|0:0,0:0:0:0:
128,260,63600,1,0,3:0:0:0:
324,304,63700,2,0,B|281:311|249:279|249:279|189:311,1,150,2|8,0:0|0:0,0:0:0:0:
312,224,64000,1,2,3:0:0:0:
392,252,64100,6,0,L|412:336,1,75,2|0,0:0|3:0,0:0:0:0:
312,224,64300,2,0,B|320:196|348:172|380:168|380:168|360:136|368:96,1,150,10|0,0:0|0:0,0:0:0:0:
448,120,64600,1,0,0:0:0:0:
448,120,64700,2,0,L|520:145,1,75,8|0,0:0|3:0,0:0:0:0:
412,40,64900,37,2,0:0:0:0:
454,217,65000,2,0,P|428:243|391:251,1,75,2|10,3:0|0:0,0:0:0:0:
236,192,65200,1,0,3:0:0:0:
328,88,65300,2,0,B|404:108|404:108|392:184,1,150,2|8,0:0|0:0,0:0:0:0:
392,252,65600,1,2,3:0:0:0:
255,315,65700,6,0,B|332:300|332:300|356:328|396:328,1,150,2|10,0:0|0:0,0:0:0:0:
464,288,66000,1,0,3:0:0:0:
324,212,66100,2,0,L|224:196,1,75,2|0,0:0|0:0,0:0:0:0:
328,88,66300,2,0,L|374:146,1,75,10|0,0:0|3:0,0:0:0:0:
336,232,66500,6,0,B|332:232|320:240|320:240|328:220|328:220|313:227|313:227|201:207,1,150,2|8,0:0|0:0,0:0:0:0:
148,192,66800,1,0,3:0:0:0:
105,379,66900,2,0,P|166:340|168:268,1,150,0|10,0:0|0:0,0:0:0:0:
76,173,67200,1,2,3:0:0:0:
24,262,67300,6,0,B|51:268|51:268|95:252,1,75,2|0,0:0|3:0,0:0:0:0:
191,94,67500,2,0,B|163:87|163:87|119:103,1,75,8|0,0:0|3:0,0:0:0:0:
95,251,67700,2,0,L|120:101,1,150,2|10,0:0|0:0,0:0:0:0:
336,184,68100,38,0,B|288:152|288:152|256:192|200:180,1,150,6|10,0:0|0:0,0:0:0:0:
300,80,68400,1,0,3:0:0:0:
412,184,68500,2,0,P|404:224|352:256,1,75,2|0,0:0|0:0,0:0:0:0:
168,272,68700,2,0,P|180:228|220:200,1,75,8|0,0:0|3:0,0:0:0:0:
336,184,68900,6,0,B|244:272|244:272|288:280,1,150,2|8,0:0|0:0,0:0:0:0:
332,308,69200,1,2,3:0:0:0:
248,127,69300,2,0,L|266:276,1,150,2|10,0:0|0:0,0:0:0:0:
152,176,69700,6,0,B|136:168|136:168|140:188|140:188|124:180|124:180|16:200,1,150,2|8,0:0|0:0,0:0:0:0:
4,272,70000,1,0,3:0:0:0:
88,112,70100,2,0,P|104:68|88:28,1,75
96,264,70300,2,0,P|92:308|132:352,1,75,8|0,0:0|3:0,0:0:0:0:
295,333,70500,6,0,P|241:284|168:288,1,150,0|10,0:0|0:0,0:0:0:0:
176,204,70800,1,0,3:0:0:0:
252,208,70900,2,0,P|292:220|336:264,1,75
432,352,71100,2,0,P|400:308|404:256,1,75,10|0,0:0|3:0,0:0:0:0:
508,140,71300,38,0,L|472:296,1,150,14|10,0:0|0:0,0:0:0:0:
397,288,71600,1,0,0:0:0:0:
416,168,71700,2,0,L|328:140,1,75,10|0,0:0|0:0,0:0:0:0:
432,16,71900,2,0,L|404:108,1,75,10|0,0:0|0:0,0:0:0:0:
352,232,72100,6,0,L|184:280,1,150,14|8,0:0|0:0,0:0:0:0:
134,300,72400,1,2,0:0:0:0:
192,196,72500,2,0,P|216:156|204:96,1,75,10|0,0:0|0:0,0:0:0:0:
40,164,72700,2,0,P|80:180|128:164,1,75,10|0,0:0|0:0,0:0:0:0:
164,64,72900,5,0,0:0:0:0:
217,128,73000,1,8,0:0:0:0:
289,85,73100,1,8,0:0:0:0:
342,149,73200,2,0,L|422:169,1,75,0|0,0:0|3:0,0:0:0:0:
255,207,73400,1,8,0:0:0:0:
202,271,73500,6,0,L|122:291,1,75,10|0,0:0|3:0,0:0:0:0:
270,351,73700,2,0,L|292:271,1,75,0|0,0:0|3:0,0:0:0:0:
46,326,73900,2,0,L|103:385,1,75,10|0,0:0|3:0,0:0:0:0:
88,212,74100,2,0,L|72:152,3,37.5,10|0|0|0,0:0|0:0|0:0|0:0,0:0:0:0:
144,136,74300,2,0,L|160:76,3,37.5,8|0|0|0,0:0|0:0|0:0|0:0,0:0:0:0:
108,40,74500,6,0,P|148:24|228:108,1,168.750006437302,0|0,0:0|2:0,0:0:0:0:
392,112,74900,54,0,L|296:140,1,75,14|0,0:0|3:0,0:0:0:0:
192,232,75200,1,8,0:0:0:0:
192,232,75250,1,0,0:0:0:0:
192,232,75300,6,0,L|272:252,1,75,10|0,0:0|2:0,2:0:0:0:
452,268,75600,2,0,L|300:316,1,150,10|8,0:0|0:0,2:0:0:0:
126,269,75900,1,8,0:0:0:0:
70,165,76000,1,8,0:0:0:0:
204,156,76100,70,0,L|272:176,1,56.2500021457673,2|0,3:0|2:0,0:0:0:0:
388,88,76300,2,0,L|363:166,1,56.2500021457673,10|0,0:0|3:0,0:0:0:0:
192,92,76500,2,0,L|252:145,1,56.2500021457673,2|0,3:0|0:0,0:0:0:0:
432,88,76700,2,0,L|385:151,1,56.2500021457673,10|0,0:0|3:0,0:0:0:0:
320,284,76900,6,0,P|376:232|448:267,1,140.625005364418,10|0,0:0|3:0,0:0:0:0:
345,355,77200,2,0,B|280:328|280:328|268:332|268:332|262:320|262:320|207:297,1,140.625005364418,10|0,0:0|2:0,0:0:0:0:
128,256,77500,1,0,0:0:0:0:
108,256,77550,1,0,3:0:0:0:
92,264,77600,1,0,0:0:0:0:
84,280,77650,1,0,3:0:0:0:
88,296,77700,5,0,0:0:0:0:
88,296,78100,54,0,P|120:240|88:144,1,150,14|0,0:0|0:0,0:0:0:0:
16,68,78400,1,8,0:0:0:0:
32,72,78450,1,0,0:0:0:0:
48,76,78500,6,0,P|88:56|132:68,1,75,10|0,0:0|3:0,0:0:0:0:
335,142,78800,2,0,B|272:136|272:136|256:128|256:128|240:132|240:132|188:128,1,150,10|8,0:0|0:0,0:0:0:0:
300,68,79100,1,0,0:0:0:0:
248,201,79200,1,0,0:0:0:0:
392,196,79300,70,0,P|412:156|400:108,1,75,10|2,0:0|0:0,0:0:0:0:
243,18,79500,2,0,P|223:58|235:106,1,75,0|10,0:0|0:0,0:0:0:0:
336,144,79900,1,8,0:0:0:0:
336,144,80100,22,0,P|288:192|112:88,1,300,0|10,0:0|0:0,0:0:0:0:
160,40,80600,1,0,3:0:0:0:
113,102,80700,2,0,L|24:112,1,75,2|0,3:0|3:0,0:0:0:0:
176,152,80900,2,0,L|250:143,1,75,0|0,3:0|3:0,0:0:0:0:
85,243,81100,2,0,P|96:314|163:340,1,150,14|2,0:0|3:3,0:0:0:0:
208,280,81400,1,2,3:0:0:0:
240,352,81500,1,0,0:0:0:0:
163,339,81600,6,0,B|311:326|311:326|355:231|355:231|480:220,1,375,2|10,3:0|0:0,0:0:0:0:
484,144,82200,1,0,3:0:0:0:
453,296,82300,2,0,P|402:245|413:174,1,150,2|0,3:0|3:0,0:0:0:0:
484,144,82600,1,0,3:0:0:0:
336,99,82700,2,0,P|326:135|335:172,1,75,14|0,0:0|3:0,0:0:0:0:
272,280,82900,2,0,P|281:243|273:207,1,75,2|2,3:0|3:0,0:0:0:0:
212,168,83100,1,0,0:0:0:0:
208,244,83200,70,0,P|312:208|220:20,1,375,2|10,3:0|0:0,0:0:0:0:
227,19,83900,2,0,L|320:8,1,75,2|0,3:0|3:0,0:0:0:0:
188,88,84100,1,2,3:0:0:0:
120,56,84200,1,0,3:0:0:0:
237,153,84300,2,0,L|164:168,1,75,14|0,0:0|3:0,0:0:0:0:
43,42,84500,2,0,P|45:80|64:112,1,75,2|2,3:0|3:0,0:0:0:0:
88,180,84700,1,0,0:0:0:0:
164,168,84800,6,0,B|210:179|223:227|200:262|200:262|241:199|324:192|384:255|370:326,1,375,2|10,3:0|0:0,0:0:0:0:
315,384,85400,1,0,3:0:0:0:
259,319,85500,2,0,P|276:288|297:322,1,75,2|0,3:0|3:0,0:0:0:0:
442,357,85700,2,0,L|459:263,1,75,2|0,3:0|2:0,0:0:0:0:
464,106,85900,1,14,0:0:0:0:
344,56,86000,2,0,P|312:120|350:182,1,150,2|2,3:0|3:0,0:0:0:0:
464,106,86300,2,0,L|390:116,1,75,2|2,3:0|0:0,0:0:0:0:
244,76,86500,6,0,B|188:60|188:60|160:72|160:72|88:52,1,150,0|8,0:0|0:0,0:0:0:0:
164,168,86800,1,0,0:0:0:0:
96,208,86900,2,0,B|84:172|84:172|92:128,1,75,2|10,3:0|0:0,0:0:0:0:
16,224,87100,2,0,L|44:308,1,75,0|10,0:0|0:0,0:0:0:0:
108,328,87300,5,0,3:0:0:0:
108,328,87400,1,0,0:0:0:0:
172,280,87500,2,0,P|220:256|260:264,1,75,10|0,0:0|3:0,0:0:0:0:
364,336,87700,2,0,P|326:333|296:313,1,75,2|10,3:0|0:0,0:0:0:0:
404,208,87900,1,8,0:0:0:0:
472,323,88000,1,2,0:0:0:0:
352,260,88100,70,0,B|336:248|336:248|360:240|360:240|344:228|344:228|312:112,1,150,0|8,0:0|0:0,0:0:0:0:
300,72,88400,1,0,0:0:0:0:
169,117,88500,2,0,L|244:128,1,75,2|10,3:0|0:0,0:0:0:0:
92,113,88700,2,0,B|96:76|96:76|125:51,1,75,0|10,3:0|0:0,0:0:0:0:
244,128,88900,5,0,0:0:0:0:
244,128,89000,1,0,3:0:0:0:
142,257,89100,2,0,L|127:183,1,75,10|0,0:0|3:0,0:0:0:0:
321,146,89300,2,0,L|306:220,1,75,2|10,0:0|0:0,0:0:0:0:
281,354,89500,1,8,0:0:0:0:
229,201,89600,1,2,0:0:0:0:
197,329,89700,70,0,P|242:272|229:201,1,150,0|8,0:0|0:0,0:0:0:0:
160,256,90000,1,0,0:0:0:0:
320,220,90100,2,0,L|412:204,1,75,2|10,3:0|0:0,0:0:0:0:
446,303,90300,2,0,B|411:311|411:311|370:274,1,75,2|8,3:0|0:0,0:0:0:0:
478,154,90500,6,0,B|487:174|487:174|472:241,1,75,2|0,3:0|3:0,0:0:0:0:
309,304,90700,2,0,B|300:284|300:284|315:217,1,75,10|0,0:0|3:0,0:0:0:0:
446,303,90900,2,0,P|427:337|364:356,1,75,2|10,0:0|0:0,0:0:0:0:
304,384,91100,1,8,0:0:0:0:
200,268,91200,1,2,0:0:0:0:
154,327,91300,70,0,P|225:335|272:279,1,150,0|8,0:0|0:0,0:0:0:0:
331,224,91600,1,0,0:0:0:0:
282,75,91700,1,0,3:0:0:0:
223,129,91800,2,0,L|234:203,1,75,2|8,0:0|0:0,0:0:0:0:
354,114,92000,1,0,3:0:0:0:
354,114,92100,1,2,0:0:0:0:
246,9,92200,5,0,3:0:0:0:
246,9,92300,1,0,0:0:0:0:
120,112,92400,2,0,L|92:288,1,150,2|2,0:0|3:0,0:0:0:0:
14,204,92700,2,0,L|25:129,1,75,10|2,3:0|3:0,0:0:0:0:
96,260,92900,6,0,B|112:264|128:260|128:260|144:276|144:276|184:268|256:300,1,150,4|8,0:0|0:0,0:0:0:0:
304,344,93200,1,0,0:0:0:0:
440,284,93300,2,0,P|396:284|348:316,1,75,2|8,0:0|0:0,0:0:0:0:
376,144,93500,2,0,P|347:177|341:235,1,75,2|10,0:0|0:3,0:0:0:0:
216,124,93700,6,0,P|223:167|263:209,1,75,2|0,0:0|3:0,0:0:0:0:
416,212,93900,1,10,0:0:0:0:
292,132,94000,2,0,L|384:116,1,75,2|0,0:0|3:0,0:0:0:0:
456,144,94200,1,2,3:0:0:0:
240,192,94300,2,0,L|136:208,1,75,10|0,0:0|3:0,0:0:0:0:
72,168,94500,70,0,P|52:112|64:76,1,75,2|0,0:0|3:0,0:0:0:0:
166,203,94700,2,0,P|186:259|174:295,1,75,10|0,0:0|0:0,0:0:0:0:
132,112,94900,1,0,0:0:0:0:
108,256,95000,1,10,0:0:0:0:
72,168,95100,1,0,0:0:0:0:
183,272,95200,1,10,0:0:0:0:
208,136,95300,6,0,L|216:36,1,75,2|2,0:0|3:0,0:0:0:0:
336,24,95500,2,0,L|341:98,1,75,8|2,0:0|0:0,0:0:0:0:
260,192,95700,2,0,P|224:212|172:200,1,75,2|0,3:0|2:0,0:0:0:0:
328,228,95900,1,8,0:0:0:0:
355,222,95950,1,0,3:0:0:0:
382,227,96000,1,0,0:0:0:0:
407,241,96050,1,0,3:0:0:0:
424,264,96100,70,0,L|268:304,1,150,4|8,0:0|0:0,0:0:0:0:
204,256,96400,1,0,0:0:0:0:
130,321,96500,2,0,L|204:336,1,75,0|10,0:0|0:0,0:0:0:0:
92,244,96700,2,0,L|18:258,1,75,0|8,0:0|0:0,0:0:0:0:
48,340,96900,5,2,0:0:0:0:
130,321,97000,1,0,3:0:0:0:
55,163,97100,2,0,P|74:130|104:108,1,75,8|2,0:0|0:0,0:0:0:0:
255,183,97300,2,0,P|217:183|183:168,1,75,2|2,3:0|3:0,0:0:0:0:
173,0,97500,2,0,P|192:32|197:69,1,75,10|0,0:0|3:0,0:0:0:0:
119,238,97700,69,2,0:0:0:0:
104,108,97800,1,0,3:0:0:0:
183,168,97900,1,10,0:0:0:0:
55,163,98000,1,2,0:0:0:0:
119,238,98100,2,0,L|199:250,1,75,0|8,0:0|0:0,0:0:0:0:
378,282,98300,2,0,L|298:294,1,75,10|2,0:0|0:0,0:0:0:0:
170,365,98500,6,0,L|96:356,1,75,10|0,0:0|3:0,0:0:0:0:
312,172,98700,2,0,L|386:162,1,75,10|2,0:0|0:0,0:0:0:0:
492,148,98900,1,2,3:0:0:0:
376,36,99100,1,8,0:0:0:0:
348,40,99150,1,0,0:0:0:0:
320,44,99200,1,0,0:0:0:0:
292,49,99250,1,0,3:0:0:0:
264,52,99300,70,0,L|104:32,1,150,4|10,0:0|0:0,0:0:0:0:
48,76,99600,1,0,3:0:0:0:
63,153,99700,2,0,P|98:142|119:112,1,75,0|2,0:0|0:0,0:0:0:0:
120,224,99900,2,0,P|96:260|108:320,1,75,8|2,0:0|3:0,0:0:0:0:
172,284,100100,5,2,0:3:0:0:
24,232,100200,1,0,3:3:0:0:
172,284,100300,2,0,L|260:268,1,75,10|2,0:3|3:3,0:0:0:0:
408,208,100500,1,2,0:0:0:0:
460,274,100600,2,0,B|431:299|391:295|391:295|323:259,1,150,2|0,0:0|3:0,0:0:0:0:
415,68,100900,70,0,B|420:124|388:160|388:160|407:206,1,150,0|10,0:0|0:0,0:0:0:0:
484,164,101200,1,0,3:0:0:0:
320,92,101300,2,0,L|308:16,1,75,2|0,0:0|0:0,0:0:0:0:
200,64,101500,2,0,L|188:138,1,75,10|0,0:0|3:0,0:0:0:0:
144,212,101700,5,2,0:0:0:0:
108,88,101800,1,0,3:0:0:0:
108,88,101900,2,0,P|72:112|20:108,1,75,10|2,0:0|3:0,0:0:0:0:
64,224,102100,2,0,L|48:300,1,75,2|2,0:0|0:0,0:0:0:0:
216,344,102300,2,0,L|200:270,1,75,8|0,0:0|3:0,0:0:0:0:
299,115,102500,38,0,P|370:133|416:192,1,150,0|2,0:0|3:0,0:0:0:0:
299,268,102800,2,0,P|370:250|416:192,1,150,2|2,0:0|3:0,0:0:0:0:
299,115,103100,22,0,B|384:112|416:192|416:192|384:272|300:268,1,300,2|10,0:0|0:0,0:0:0:0:
264,192,103400,21,0,3:0:0:0:
336,348,103500,2,0,P|372:340|424:312,2,75,2|2|2,0:0|0:0|0:0,0:0:0:0:
264,192,103900,1,0,0:0:0:0:
149,106,104100,38,0,B|168:92|184:40|184:40|256:60,1,150,0|2,0:0|3:0,0:0:0:0:
362,106,104400,2,0,B|344:92|328:40|328:40|256:60,1,150,2|0,0:0|3:0,0:0:0:0:
149,106,104700,22,0,B|168:92|184:40|184:40|256:60|256:60|328:40|328:40|344:92|376:120,1,300,2|10,0:0|0:0,0:0:0:0:
440,136,105000,21,0,3:0:0:0:
284,136,105100,2,0,L|208:156,2,75,2|2|2,0:0|0:0|0:0,0:0:0:0:
440,136,105500,1,0,0:0:0:0:
331,323,105700,38,8,P|318:252|368:200,1,150,0|10,0:0|0:0,0:0:0:0:
400,276,106000,2,0,L|480:256,1,75,0|2,3:0|0:0,0:0:0:0:
252,356,106200,1,2,3:0:0:0:
252,200,106300,2,0,L|172:184,1,75,10|0,0:0|3:0,0:0:0:0:
24,248,106500,6,0,L|97:262,1,75,10|0,0:0|3:0,0:0:0:0:
176,296,106700,1,2,3:0:0:0:
104,152,106800,1,2,3:0:0:0:
220,48,106900,2,0,P|260:52|308:80,1,75,2|0,0:0|3:0,0:0:0:0:
492,128,107100,2,0,P|457:143|420:146,1,75,2|0,3:0|3:0,0:0:0:0:
272,344,107300,70,0,P|328:300|316:192,1,168.750006437302,2|0,0:0|2:0,0:0:0:0:
206,160,107700,1,10,0:0:0:0:
206,160,107900,2,0,L|132:186,1,56.2500021457673,0|10,3:0|0:0,0:0:0:0:
80,144,108100,5,10,0:0:0:0:
240,88,108300,1,10,3:0:0:0:
296,248,108500,1,10,0:0:0:0:
136,304,108700,1,10,3:3:0:0:
142,116,108900,5,0,0:0:0:0:
150,36,109033,1,0,0:0:0:0:
214,84,109166,1,0,0:0:0:0:
206,160,109300,5,0,0:0:0:0:
134,192,109433,1,0,0:0:0:0:
198,240,109566,1,0,0:0:0:0:
206,160,109700,69,0,0:0:0:0:
270,116,109833,1,0,0:0:0:0:
342,144,109966,1,0,0:0:0:0:
352,226,110100,5,0,0:0:0:0:
281,192,110233,1,0,0:0:0:0:
270,116,110366,1,0,0:0:0:0:
340,60,110500,69,0,0:0:0:0:
470,120,110633,1,10,0:0:0:0:
412,74,110766,1,2,0:0:0:0:
501,188,110900,5,10,0:0:0:0:
457,325,111033,1,10,0:0:0:0:
496,262,111166,1,10,0:0:0:0:
393,364,111300,1,10,0:0:0:0:
256,156,111500,1,0,0:0:0:0:
352,228,111600,1,8,0:0:0:0:
244,276,111700,1,10,0:0:0:0:
84,164,112100,69,6,0:0:0:0:
77,87,112200,1,2,3:0:0:0:
145,113,112300,2,0,P|160:137|161:165,1,56.2500021457673,0|0,3:0|2:0,0:0:0:0:
124,232,112500,2,0,B|152:248|180:240|180:240|240:284,1,112.500004291535,2|0,3:0|3:0,0:0:0:0:
325,361,112800,1,2,3:0:0:0:
325,361,112900,6,0,L|273:318,1,56.2500021457673,2|0,3:0|2:0,3:0:0:0:
313,248,113100,2,0,L|259:203,1,56.2500021457673,2|0,3:0|2:0,3:0:0:0:
263,105,113300,5,8,0:0:0:0:
376,56,113400,1,0,0:0:0:0:
440,168,113500,2,0,L|365:159,1,75,8|0,0:0|0:0,0:0:0:0:
263,105,113700,22,0,P|220:80|172:84,1,75,6|2,0:0|3:0,0:0:0:0:
24,244,113900,2,0,P|84:244|116:212,1,75,8|0,0:0|3:0,0:0:0:0:
200,152,114100,2,0,L|51:170,1,150,2|8,0:0|0:0,0:0:0:0:
116,84,114400,1,2,3:0:0:0:
176,240,114500,6,0,L|160:320,1,75,2|0,0:0|3:0,0:0:0:0:
320,352,114700,2,0,L|305:278,1,75,10|0,0:3|3:3,0:3:0:0:
349,151,114900,2,0,B|352:192|328:220|328:220|344:296,1,150,0|8,0:0|0:0,0:0:0:0:
428,352,115200,1,0,3:0:0:0:
436,144,115300,38,0,P|428:108|380:68,1,75,2|2,0:0|3:0,0:0:0:0:
224,100,115500,2,0,L|261:165,1,75,8|0,0:0|3:0,0:0:0:0:
324,298,115700,2,0,L|349:150,1,150,2|8,0:0|0:0,0:0:0:0:
376,8,116000,1,2,3:0:0:0:
348,150,116100,6,0,L|368:260,1,75,2|0,0:0|3:0,0:0:0:0:
224,100,116300,2,0,L|261:165,1,75,10|0,0:0|3:0,0:0:0:0:
89,90,116500,2,0,L|144:140,1,75,2|0,0:0|0:0,0:0:0:0:
229,260,116700,2,0,L|144:241,1,75,10|0,0:0|3:0,0:0:0:0:
52,284,116900,6,0,P|64:328|176:340,1,150,2|8,0:0|0:0,0:0:0:0:
255,378,117200,1,0,3:0:0:0:
316,312,117300,2,0,B|332:264|312:208|312:208|364:236,1,150,0|10,0:0|0:0,0:0:0:0:
488,300,117600,1,2,3:0:0:0:
416,352,117700,6,0,P|448:300|472:208,1,150,0|8,0:0|0:0,0:0:0:0:
472,32,118000,1,0,3:0:0:0:
376,88,118100,2,0,L|224:108,1,150,2|8,0:0|0:0,0:0:0:0:
156,61,118400,1,2,3:0:0:0:
123,193,118500,38,0,P|171:185|227:89,1,150,6|10,0:0|0:0,0:0:0:0:
81,92,118800,1,0,3:0:0:0:
46,167,118900,2,0,P|48:231|71:263,1,75,2|0,0:0|0:0,0:0:0:0:
263,318,119100,2,0,P|273:282|269:245,1,75,8|0,0:0|3:0,0:0:0:0:
122,192,119300,6,0,B|102:262|102:262|178:274,1,150,0|8,0:0|0:0,0:0:0:0:
281,166,119600,1,0,3:0:0:0:
152,126,119700,2,0,L|178:274,1,150,2|8,0:0|0:0,0:0:0:0:
111,350,120000,1,2,3:0:0:0:
41,183,120100,6,0,P|26:149|63:48,1,150,2|10,0:0|3:0,0:0:0:0:
177,41,120400,1,0,3:0:0:0:
274,94,120500,2,0,P|324:80|370:59,1,75,2|0,0:0|0:0,0:0:0:0:
189,167,120700,2,0,P|153:153|117:144,1,75,8|0,0:0|3:0,0:0:0:0:
240,256,120900,6,0,L|328:236,1,75,0|0,0:0|3:0,0:0:0:0:
480,256,121100,1,8,0:0:0:0:
340,316,121200,1,0,3:0:0:0:
504,332,121300,2,0,L|420:344,1,75,2|0,0:0|0:0,0:0:0:0:
240,256,121500,2,0,L|313:239,1,75,10|0,0:0|3:0,0:0:0:0:
512,148,121700,38,0,L|359:181,1,150,6|8,0:0|0:0,0:0:0:0:
208,180,122000,1,2,3:0:0:0:
240,256,122100,2,0,P|272:292|312:312,1,75,2|0,0:0|0:0,0:0:0:0:
365,179,122300,2,0,P|390:137|397:93,1,75,8|0,0:0|3:0,0:0:0:0:
204,100,122500,6,0,L|296:116,1,75,0|0,0:0|3:0,0:0:0:0:
136,156,122700,2,0,L|44:172,1,75,8|0,0:0|3:0,0:0:0:0:
128,80,122900,1,2,0:0:0:0:
208,180,123000,1,0,0:0:0:0:
142,268,123100,1,10,0:0:0:0:
62,168,123200,1,0,3:0:0:0:
128,80,123300,5,2,0:0:0:0:
128,80,123400,2,0,B|200:56|200:56|288:112,1,150,8|10,0:0|0:0,0:0:0:0:
368,216,123700,2,0,P|416:188|392:92,1,150,8|10,0:0|0:0,0:0:0:0:
288,284,124000,6,0,L|464:324,1,150,8|8,0:0|0:0,0:0:0:0:
220,336,124300,2,0,B|164:344|116:364|116:364|136:344|144:300,1,150,8|8,0:0|0:0,0:0:0:0:
64,208,124600,1,0,0:0:0:0:
64,208,124700,2,0,L|48:300,1,75,8|0,0:0|3:0,0:0:0:0:
120,96,124900,38,0,P|64:84|12:88,1,75,6|0,0:0|3:0,0:0:0:0:
184,144,125100,2,0,P|221:141|257:131,1,75,10|0,0:0|3:0,0:0:0:0:
204,32,125300,1,2,0:0:0:0:
204,32,125400,1,2,0:0:0:0:
257,131,125500,1,8,0:0:0:0:
257,131,125600,1,2,3:0:0:0:
373,170,125700,6,0,L|469:174,1,75,2|0,0:0|3:0,0:0:0:0:
487,77,125900,2,0,L|331:86,1,150,10|0,0:0|0:0,0:0:0:0:
252,172,126200,1,0,0:0:0:0:
334,263,126300,2,0,L|408:259,1,75,8|0,0:0|3:0,0:0:0:0:
252,172,126500,6,0,P|220:220|232:332,1,150,2|10,0:0|0:0,0:0:0:0:
296,344,126800,1,0,3:0:0:0:
136,288,126900,2,0,P|100:304|56:344,1,75,2|2,0:0|0:0,0:0:0:0:
16,167,127100,2,0,P|52:183|96:223,1,75,8|2,0:0|3:0,0:0:0:0:
136,46,127300,6,0,P|100:62|56:102,1,75,2|2,0:0|3:0,0:0:0:0:
79,204,127500,2,0,P|153:181|215:117,1,150,10|0,0:0|0:0,0:0:0:0:
220,17,127800,1,0,0:0:0:0:
320,55,127900,2,0,L|401:37,1,75,8|0,3:0|3:0,3:0:0:0:
205,132,128100,38,0,P|273:136|369:180,1,150,2|10,0:0|0:0,0:0:0:0:
434,309,128400,1,0,3:0:0:0:
443,215,128500,2,0,L|451:131,1,75,2|2,0:0|0:0,0:0:0:0:
273,235,128700,2,0,L|280:309,1,75,8|2,0:0|3:0,0:0:0:0:
194,369,128900,6,0,B|154:357|126:333|126:333|34:345,1,150,2|10,0:0|0:0,0:0:0:0:
16,184,129200,1,0,3:0:0:0:
16,184,129300,2,0,P|48:224|88:244,1,75,2|0,0:0|0:0,0:0:0:0:
168,252,129500,2,0,P|212:248|256:220,1,75,10|0,0:0|3:0,0:0:0:0:
208,116,129700,6,0,P|168:144|96:76,1,150,2|8,0:0|0:0,0:0:0:0:
197,0,130000,1,0,3:0:0:0:
275,71,130100,2,0,B|303:127|296:178|296:178|305:159|323:147,1,150,0|10,0:0|0:0,0:0:0:0:
428,88,130400,1,0,3:0:0:0:
364,212,130500,6,0,P|380:248|376:372,1,150,2|8,0:0|0:0,0:0:0:0:
260,296,130800,1,0,3:0:0:0:
260,296,130900,2,0,B|240:316|240:316|220:312|220:312|180:352|124:352,1,150,2|10,0:0|0:0,0:0:0:0:
40,292,131200,1,0,3:0:0:0:
140,240,131300,38,0,P|160:184|160:148,1,75,6|0,0:0|3:0,0:0:0:0:
64,20,131500,2,0,P|69:56|85:91,1,75,10|0,0:0|3:0,0:0:0:0:
264,168,131700,2,0,P|312:168|386:76,1,150,2|8,0:0|0:0,0:0:0:0:
470,34,132000,1,2,3:0:0:0:
411,196,132100,6,0,L|264:168,1,150,2|10,0:0|0:0,0:0:0:0:
140,140,132400,1,0,3:0:0:0:
260,45,132500,2,0,B|272:57|272:57|254:63|254:63|266:74|266:74|288:133|264:168,1,150,2|10,0:0|0:0,0:0:0:0:
286,324,132900,6,0,B|219:288|219:288|172:352,1,150,2|8,0:0|0:0,0:0:0:0:
44,371,133200,1,0,3:0:0:0:
38,276,133300,2,0,B|112:261,1,75
74,170,133500,2,0,L|44:100,1,75,8|0,0:0|3:0,0:0:0:0:
190,116,133700,6,0,B|222:100|254:112|254:112|270:96|270:96|310:100|350:64,1,150,0|10,0:0|0:0,0:0:0:0:
282,3,134000,1,0,3:0:0:0:
393,154,134100,2,0,P|352:175|305:185,1,75
121,87,134300,2,0,P|156:97|189:115,1,75,10|0,0:0|0:0,0:0:0:0:
254,250,134500,38,0,L|430:270,1,150,14|10,0:0|0:0,0:0:0:0:
451,359,134800,1,0,0:0:0:0:
271,321,134900,2,0,P|254:272|258:214,1,75,10|0,0:0|0:0,0:0:0:0:
341,133,135100,2,0,P|352:97|376:61,1,75,10|0,0:0|0:0,0:0:0:0:
501,161,135300,6,0,P|455:235|387:271,1,150,14|8,0:0|0:0,0:0:0:0:
271,321,135600,1,2,0:0:0:0:
249,179,135700,2,0,L|337:183,1,75,10|0,0:0|0:0,0:0:0:0:
144,112,135900,2,0,L|56:116,1,75,10|0,0:0|0:0,0:0:0:0:
33,260,136100,38,0,P|56:188|68:114,1,150,2|0,0:0|3:0,0:0:0:0:
72,12,136400,1,2,3:0:0:0:
208,176,136600,1,0,3:0:0:0:
205,279,136700,1,0,3:0:0:0:
512,320,136950,6,0,L|340:300,1,150,2|0,3:0|3:0,0:0:0:0:
296,232,137250,1,0,3:0:0:0:
384,52,137500,2,0,L|212:72,1,150,2|0,3:0|3:0,0:0:0:0:
168,140,137800,1,0,3:0:0:0:
168,140,138100,38,0,P|128:120|72:112,1,75,10|0,0:0|3:0,0:0:0:0:
344,140,138300,2,0,P|384:120|440:112,1,75,10|0,0:0|3:0,0:0:0:0:
256,76,138500,2,0,L|256:-4,1,75,10|0,0:0|3:0,0:0:0:0:
92,208,138700,54,0,P|68:256|124:344,1,150,10|0,0:0|3:0,0:0:0:0:
160,264,139000,1,2,3:0:0:0:
352,264,139200,1,2,3:0:0:0:
404,336,139300,6,0,P|444:276|420:208,1,150,10|0,0:0|3:0,0:0:0:0:
328,104,139600,2,0,P|256:124|184:104,1,150,2|2,3:0|3:0,0:0:0:0:
120,32,139900,69,10,0:0:0:0:
392,32,140100,1,0,3:0:0:0:
328,104,140200,2,0,L|316:196,1,75,2|0,3:0|2:0,0:0:0:0:
256,288,140400,1,2,3:0:0:0:
194,178,140500,6,0,L|184:103,1,75,10|0,0:0|2:0,0:0:0:0:
256,32,140700,1,0,3:0:0:0:
104,168,140800,5,10,0:0:0:0:
256,376,141000,1,10,0:0:0:0:
408,168,141200,1,10,0:0:0:0:
292,236,141600,5,0,0:0:0:0:
256,260,141650,1,0,3:0:0:0:
220,236,141700,1,10,0:0:0:0:
256,192,151300,12,0,154400,0:0:0:0:
192,112,154500,38,0,L|96:128,1,75,6|0,0:0|3:0,0:0:0:0:
208,24,154700,1,10,0:0:0:0:
272,144,154800,1,0,3:0:0:0:
56,220,154900,2,0,L|212:196,1,150,2|10,0:0|0:0,0:0:0:0:
340,96,155200,1,2,3:0:0:0:
360,264,155300,2,0,L|352:356,1,75,0|0,0:0|3:0,0:0:0:0:
432,208,155500,2,0,L|425:133,1,75,8|2,0:0|3:0,0:0:0:0:
444,296,155700,2,0,L|496:304,1,37.5,2|0,0:0|2:0,0:0:0:0:
348,176,155900,2,0,L|264:188,1,75,10|0,0:0|3:0,0:0:0:0:
136,192,156100,6,0,P|104:152|96:104,1,75,2|0,0:0|3:0,0:0:0:0:
184,120,156300,1,10,0:0:0:0:
56,216,156400,1,0,3:0:0:0:
136,192,156500,1,2,0:0:0:0:
120,328,156600,1,0,3:0:0:0:
200,308,156700,2,0,P|212:264|200:220,1,75,10|2,0:0|3:0,0:0:0:0:
266,41,156900,2,0,P|259:116|280:188,1,150,2|8,0:0|0:0,0:0:0:0:
404,256,157200,2,0,P|380:253|360:248,1,37.5,0|0,3:0|2:0,0:0:0:0:
488,216,157500,2,0,P|496:260|480:312,1,75,8|0,0:0|3:0,0:0:0:0:
416,344,157700,69,6,0:0:0:0:
408,172,157800,1,0,3:0:0:0:
416,344,157900,1,10,0:0:0:0:
408,172,158000,2,0,B|400:96|400:96|320:120,1,150,0|0,3:0|2:0,0:0:0:0:
172,104,158300,2,0,B|208:96|208:96|240:60,1,75,10|0,0:0|3:0,0:0:0:0:
72,80,158500,2,0,B|68:120|68:120|84:168,1,75,2|0,0:0|3:0,0:0:0:0:
160,272,158700,2,0,B|171:238|171:238|167:198,1,75,10|2,0:0|3:0,0:0:0:0:
72,80,158900,2,0,L|27:91,1,37.5,2|0,0:0|3:0,0:0:0:0:
86,302,159100,1,8,0:0:0:0:
167,198,159200,1,2,3:0:0:0:
228,316,159300,6,0,B|244:316|244:316|260:324|260:324|286:324|312:340,1,75,2|0,0:0|3:0,0:0:0:0:
448,260,159500,2,0,B|432:260|432:260|416:268|416:268|389:268|364:284,1,75,10|0,0:0|3:0,0:0:0:0:
296,252,159700,1,2,0:0:0:0:
380,364,159800,1,0,3:0:0:0:
364,192,159900,1,10,0:0:0:0:
299,333,160000,1,2,3:0:0:0:
448,172,160100,2,0,B|428:160|428:160|420:136|420:136|372:96|312:132,1,150,2|8,0:0|0:0,0:0:0:0:
196,220,160400,2,0,P|212:204|224:168,1,37.5,0|0,3:0|2:0,0:0:0:0:
218,191,160700,2,0,P|211:150|173:104,1,75,8|0,0:0|3:0,0:0:0:0:
56,280,160900,5,14,0:0:0:0:
56,280,161000,1,2,3:0:0:0:
56,280,161100,1,10,0:0:0:0:
56,280,161200,1,2,3:0:0:0:
124,336,161300,2,0,L|200:352,1,75,2|0,0:0|3:0,0:0:0:0:
324,264,161500,2,0,L|250:279,1,75,10|2,0:0|3:0,0:0:0:0:
388,324,161700,1,2,0:0:0:0:
388,324,161800,1,0,3:0:0:0:
440,200,161900,2,0,L|464:296,1,75,10|2,0:0|3:0,0:0:0:0:
469,284,162300,5,10,0:0:0:0:
469,284,162400,1,2,3:0:0:0:
469,284,162500,1,2,0:0:0:0:
469,284,162600,1,0,3:0:0:0:
509,174,162700,2,0,P|508:131|464:85,1,75,8|0,0:0|0:0,0:0:0:0:
358,109,162900,2,0,P|308:54|235:40,1,150,2|10,0:0|0:0,0:0:0:0:
164,149,163200,2,0,B|180:205|168:265|168:265|148:245|136:217,1,150,2|0,3:0|3:0,0:0:0:0:
56,136,163500,1,10,0:0:0:0:
56,136,163600,1,2,3:0:0:0:
56,136,163900,2,0,L|36:256,1,112.5,8|0,0:0|2:0,0:0:0:0:
28,292,164100,38,0,L|128:304,1,75,2|0,0:0|3:0,0:0:0:0:
256,260,164300,2,0,L|356:272,1,75,10|2,0:0|3:0,0:0:0:0:
484,228,164500,1,2,0:0:0:0:
256,260,164700,1,10,0:0:0:0:
484,92,164900,2,0,P|444:92|384:80,1,75,2|0,0:0|3:0,0:0:0:0:
256,124,165100,2,0,P|218:113|156:112,1,75,10|2,0:0|3:0,0:0:0:0:
28,156,165300,1,2,3:0:0:0:
256,124,165500,1,10,0:0:0:0:
428,332,165700,6,0,L|408:260,1,75,2|0,0:0|3:0,0:0:0:0:
314,309,165900,2,0,L|324:384,1,75,10|0,0:0|3:0,0:0:0:0:
188,384,166100,2,0,L|197:309,1,75,2|2,0:0|3:0,0:0:0:0:
104,259,166300,1,8,0:0:0:0:
84,332,166400,2,0,L|128:176,1,150,2|2,3:0|3:0,0:0:0:0:
168,48,166700,1,10,0:0:0:0:
208,168,166800,1,0,3:0:0:0:
96,80,166900,2,0,P|136:76|268:28,1,150,2|2,3:0|3:0,0:0:0:0:
67,6,167200,1,2,3:0:0:0:
124,188,167300,38,0,B|88:208|88:208|136:216|136:216|164:212|208:232|208:232|264:224,1,196.875007510186,0|0,3:0|2:0,2:0:0:0:
340,200,167700,2,0,B|357:188|384:188|384:188|360:160|360:160|376:128|376:128|344:68|360:28,1,196.875007510186,0|0,3:0|2:0,2:0:0:0:
492,104,168100,6,0,B|464:152|464:152|488:216,1,112.500004291535,0|0,3:0|2:0,2:0:0:0:
392,336,168400,2,0,B|372:280|372:280|340:308|304:308,1,112.500004291535,0|0,3:0|2:0,2:0:0:0:
325,305,168900,38,0,L|193:293,1,112.500004291535,10|0,0:0|3:0,0:0:0:0:
325,79,169100,2,0,L|193:91,1,112.500004291535,10|0,0:0|3:0,0:0:0:0:
140,248,169300,2,0,P|80:260|16:284,1,112.500004291535,10|0,0:0|3:0,0:0:0:0:
140,136,169500,2,0,P|80:124|16:100,1,112.500004291535,10|0,0:0|3:0,0:0:0:0:
180,22,169700,6,0,P|201:52|212:88,1,75,8|0,0:0|0:0,0:0:0:0:
256,220,169900,2,0,P|267:184|288:153,1,75,8|0,0:0|0:0,0:0:0:0:
425,57,170100,2,0,L|352:72,1,75,8|0,0:0|0:0,0:0:0:0:
384,232,170300,1,8,0:0:0:0:
402,235,170350,1,0,3:0:0:0:
420,239,170400,1,0,0:0:0:0:
439,243,170450,1,0,3:0:0:0:
456,248,170500,6,0,P|456:284|444:312,1,56.2500021457673,6|2,0:0|3:0,0:0:0:0:
336,352,170700,2,0,P|327:325|329:297,1,56.2500021457673,0|2,3:0|3:0,0:0:0:0:
276,184,170900,2,0,P|284:144|280:80,1,84.3750032186509,0|0,3:0|2:0,0:0:0:0:
188,152,171100,2,0,P|187:194|195:235,1,84.3750032186509,2|0,3:0|2:0,0:0:0:0:
264,168,171300,2,0,P|272:128|268:64,1,84.3750032186509,2|0,3:0|2:0,0:0:0:0:
176,136,171500,2,0,P|175:178|177:189,1,28.1250010728836,2|0,3:0|2:0,0:0:0:0:
64,264,172100,6,0,L|132:280,1,56.2500021457673,2|0,3:0|3:0,0:0:0:0:
232,336,172300,2,0,L|340:316,1,84.3750032186509,2|0,3:0|2:0,0:0:0:0:
356,232,172500,2,0,L|248:212,1,84.3750032186509,2|0,3:0|2:0,0:0:0:0:
216,320,172700,2,0,L|284:308,1,56.2500021457673,0|2,3:0|3:0,0:0:0:0:
476,332,172900,2,0,L|393:347,1,84.3750032186509,2|0,3:0|2:0,0:0:0:0:
367,215,173100,2,0,L|323:207,1,28.1250010728836,2|0,3:0|2:0,0:0:0:0:
208,156,173700,70,0,B|192:136|192:136|192:92,1,56.2500021457673,2|0,3:0|3:0,0:0:0:0:
300,104,173900,2,0,B|328:72|328:72|369:76,1,84.3750032186509,2|0,3:0|2:0,0:0:0:0:
448,136,174100,2,0,B|420:168|420:168|378:163,1,84.3750032186509,2|0,3:0|2:0,0:0:0:0:
288,96,174300,2,0,L|328:40,1,56.2500021457673,0|2,3:0|3:0,0:0:0:0:
468,136,174500,2,0,L|435:181,1,56.2500021457673,2|0,3:0|2:0,0:0:0:0:
456,280,174700,2,0,L|401:294,1,56.2500021457673,2|0,3:0|2:0,0:0:0:0:
237,193,174900,2,0,L|292:208,1,56.2500021457673,2|0,3:0|2:0,0:0:0:0:
304,352,175100,2,0,L|271:306,1,56.2500021457673,2|0,3:0|2:0,0:0:0:0:
228,200,175300,6,0,P|204:164|304:32,1,225.000008583069,2|0,0:0|2:0,0:0:0:0:
208,224,175900,2,0,P|184:196|172:160,1,56.2500021457673,2|2,3:0|3:0,0:0:0:0:
288,32,176100,2,0,P|356:72|344:200,1,196.875007510186,0|0,0:0|2:0,0:0:0:0:
300,236,176500,2,0,L|468:204,1,168.750006437302,2|0,3:0|3:0,0:0:0:0:
392,308,176900,6,0,L|244:332,1,150,6|0,0:0|3:0,0:0:0:0:
20,280,177200,1,0,3:0:0:0:
20,280,177300,2,0,L|150:353,1,150,2|0,0:0|3:0,0:0:0:0:
280,136,177600,1,0,3:0:0:0:
280,136,177700,2,0,L|182:249,1,150,2|0,0:0|3:0,0:0:0:0:
48,48,178000,1,0,3:0:0:0:
48,48,178100,2,0,L|101:188,1,150,2|0,0:0|3:0,0:0:0:0:
243,332,178400,5,2,3:0:0:0:
243,332,178500,2,0,P|283:316|347:208,1,150,6|0,0:0|3:0,0:0:0:0:
200,72,178800,1,0,3:0:0:0:
200,72,178900,2,0,P|234:138|228:212,1,150,2|0,0:0|3:0,0:0:0:0:
132,314,179200,1,0,3:0:0:0:
132,314,179300,2,0,P|80:314|-1:254,1,150,2|0,0:0|3:0,0:0:0:0:
122,158,179600,1,0,3:0:0:0:
228,212,179700,1,2,0:0:0:0:
228,212,179800,1,0,3:0:0:0:
318,135,179900,1,2,3:0:0:0:
318,135,180000,1,0,3:0:0:0:
401,286,180100,38,0,L|413:342,1,37.5,4|0,0:0|2:0,0:0:0:0:
408,322,180900,1,0,0:0:0:0:
408,322,181300,5,10,0:0:0:0:
438,120,181500,1,10,0:0:0:0:
232,192,181700,37,6,0:0:0:0:
232,192,181800,2,0,B|208:196|168:228|168:228|112:216|92:180,1,150,8|10,0:0|0:0,0:0:0:0:
188,36,182100,2,0,B|216:40|236:56|236:56|204:108|152:124,1,150,0|10,0:0|0:0,0:0:0:0:
16,248,182400,2,0,P|84:296|172:324,1,150,8|8,0:0|0:0,0:0:0:0:
284,292,182700,2,0,L|452:264,1,150,8|8,0:0|0:0,0:0:0:0:
412,116,183000,1,0,0:0:0:0:
496,220,183100,1,8,0:0:0:0:
348,164,183200,1,0,0:0:0:0:
488,140,183300,6,0,L|500:64,1,75,8|0,0:0|0:0,0:0:0:0:
356,244,183500,2,0,L|367:318,1,75,8|8,0:0|0:0,0:0:0:0:
168,288,183700,2,0,L|268:300,1,75,8|0,0:0|0:0,0:0:0:0:
160,144,183900,1,8,0:0:0:0:
141,146,183950,1,0,3:0:0:0:
122,148,184000,1,0,0:0:0:0:
104,150,184050,1,0,3:0:0:0:
88,152,184100,38,0,P|68:112|72:64,1,75,6|2,0:0|3:0,0:0:0:0:
248,32,184300,2,0,P|245:69|227:101,1,75,8|0,0:0|3:0,0:0:0:0:
0,184,184500,2,0,P|52:180|124:256,1,150,2|8,0:0|0:0,0:0:0:0:
192,320,184800,1,2,3:0:0:0:
344,256,184900,6,0,B|236:220|236:220|272:200,1,150,2|10,0:0|0:0,0:0:0:0:
372,144,185200,1,0,3:0:0:0:
456,236,185300,2,0,L|472:328,1,75
372,144,185500,2,0,L|384:70,1,75,8|0,0:0|3:0,0:0:0:0:
495,173,185700,6,0,P|481:208|456:236,1,75,2|2,0:0|3:0,0:0:0:0:
344,256,185900,2,0,P|300:240|256:240,1,75,8|0,0:0|3:0,0:0:0:0:
84,144,186100,2,0,B|181:165|181:165|200:152|252:136,1,150,2|8,0:0|0:0,0:0:0:0:
176,256,186400,1,2,3:0:0:0:
176,256,186500,6,0,P|128:272|76:268,1,75,2|0,0:0|3:0,0:0:0:0:
72,56,186700,2,0,P|109:59|144:72,1,75,10|0,0:0|3:0,0:0:0:0:
226,144,186900,2,0,B|292:184|292:184|316:92,1,150,0|8,0:0|0:0,0:0:0:0:
420,48,187200,1,0,3:0:0:0:
384,172,187300,38,0,L|360:252,1,75,2|2,0:0|3:0,0:0:0:0:
468,296,187500,2,0,L|444:376,1,75,8|0,0:0|3:0,0:0:0:0:
316,360,187700,2,0,P|272:360|168:304,1,150,2|8,0:0|0:0,0:0:0:0:
0,288,188000,1,2,3:0:0:0:
64,220,188100,6,0,B|80:220|108:236|108:236|152:196|216:212,1,150,2|10,0:0|0:0,0:0:0:0:
178,314,188400,1,0,3:0:0:0:
100,136,188500,2,0,P|80:100|80:48,1,75,2|0,0:0|0:0,0:0:0:0:
260,16,188700,2,0,P|255:52|236:85,1,75,10|0,0:0|3:0,0:0:0:0:
203,209,188900,6,0,P|256:140|332:104,1,150,2|8,0:0|0:0,0:0:0:0:
452,136,189200,1,0,3:0:0:0:
496,220,189300,2,0,L|344:196,1,150,0|10,0:0|0:0,0:0:0:0:
380,280,189600,1,2,3:0:0:0:
420,356,189700,6,0,L|260:384,1,150,0|8,0:0|0:0,0:0:0:0:
203,209,190000,1,0,3:0:0:0:
64,260,190100,2,0,B|88:276|88:276|108:272|108:272|152:312|200:316,1,150,2|8,0:0|0:0,0:0:0:0:
284,268,190400,1,2,3:0:0:0:
192,59,190500,38,0,L|203:209,1,150,6|10,0:0|0:0,0:0:0:0:
325,97,190800,1,0,3:0:0:0:
325,97,190900,2,0,L|311:170,1,75,2|0,0:0|0:0,0:0:0:0:
203,209,191100,2,0,L|108:200,1,75,8|0,0:0|3:0,0:0:0:0:
32,312,191300,6,0,B|68:332|68:332|200:316,1,150,0|8,0:0|0:0,0:0:0:0:
264,284,191600,1,0,3:0:0:0:
368,360,191700,2,0,P|420:356|480:272,1,150,2|8,0:0|0:0,0:0:0:0:
399,122,192000,1,2,3:0:0:0:
338,218,192100,6,0,P|334:283|369:362,1,150,2|10,0:0|0:0,0:0:0:0:
478,284,192400,1,0,3:0:0:0:
489,187,192500,2,0,P|483:150|469:114,1,75,2|0,0:0|3:0,0:0:0:0:
359,7,192700,2,0,P|345:42|339:79,1,75,10|0,0:0|3:0,0:0:0:0:
410,200,192900,6,0,L|331:219,1,75,0|0,0:0|3:0,0:0:0:0:
267,60,193100,2,0,L|346:80,1,75,8|0,0:0|3:0,0:0:0:0:
220,231,193300,2,0,P|196:187|196:139,1,75,2|0,0:0|0:0,0:0:0:0:
339,78,193500,2,0,P|332:114|312:146,1,75,10|0,0:0|3:0,0:0:0:0:
91,275,193700,38,0,P|146:227|220:231,1,150,6|8,0:0|0:0,0:0:0:0:
328,269,194000,1,2,3:0:0:0:
250,336,194100,2,0,L|179:315,1,75,2|0,0:0|0:0,0:0:0:0:
328,269,194300,2,0,L|399:248,1,75,8|0,0:0|0:0,0:0:0:0:
491,306,194500,6,0,B|499:341|499:341|487:377,1,75,0|0,0:0|3:0,0:0:0:0:
328,269,194700,2,0,B|316:233|316:233|325:198,1,75,8|0,0:0|3:0,0:0:0:0:
377,65,194900,1,2,0:0:0:0:
325,197,195000,1,0,0:0:0:0:
239,122,195100,1,10,0:0:0:0:
187,254,195200,1,0,0:0:0:0:
110,155,195300,5,2,0:0:0:0:
110,155,195400,2,0,L|278:211,1,150,8|10,0:0|0:0,0:0:0:0:
349,335,195700,2,0,P|425:347|429:271,1,150,0|10,0:0|0:0,0:0:0:0:
408,172,196000,2,0,B|396:140|372:120|372:120|402:93|417:45,1,150,8|8,0:0|0:0,0:0:0:0:
289,38,196300,6,0,B|258:66|219:72|219:72|137:42,1,150,8|8,0:0|0:0,0:0:0:0:
32,39,196600,1,0,0:0:0:0:
32,39,196700,2,0,P|39:76|55:119,1,75,8|0,0:0|0:0,0:0:0:0:
96,240,196900,38,0,B|108:316|108:316|208:304,1,150,6|10,0:0|0:0,0:0:0:0:
284,216,197200,1,0,3:0:0:0:
372,332,197300,2,0,B|386:370|386:370|278:354,1,150,2|8,0:0|0:0,0:0:0:0:
198,226,197600,1,2,3:0:0:0:
198,226,197700,2,0,L|188:142,1,75,2|0,0:0|3:0,0:0:0:0:
266,66,197900,2,0,L|283:214,1,150,10|0,0:0|0:0,0:0:0:0:
358,131,198200,1,0,0:0:0:0:
358,131,198300,2,0,L|348:56,1,75,8|0,0:0|0:0,0:0:0:0:
164,3,198500,6,0,P|112:52|118:146,1,150,2|10,0:0|0:0,0:0:0:0:
237,202,198800,1,0,3:0:0:0:
237,99,198900,2,0,P|166:83|107:126,1,150,2|8,0:0|0:0,0:0:0:0:
35,196,199200,1,2,3:0:0:0:
8,83,199300,2,0,B|37:89|73:57|73:57|108:127,1,150,2|10,0:0|0:0,0:0:0:0:
170,244,199600,1,0,3:0:0:0:
170,244,199700,2,0,L|184:170,1,75
35,196,199900,2,0,L|55:296,1,75,8|0,0:0|3:0,0:0:0:0:
158,345,200100,6,0,P|195:345|227:327,1,75,2|0,0:0|3:0,0:0:0:0:
308,208,200300,2,0,P|352:188|404:200,1,75,10|2,0:0|3:0,0:0:0:0:
472,352,200500,2,0,B|432:360|400:348|400:348|384:304|360:272,1,150,2|8,0:0|0:0,0:0:0:0:
308,208,200800,1,2,3:0:0:0:
184,170,200900,2,0,P|109:173|39:200,1,150,2|10,0:0|0:0,0:0:0:0:
136,355,201200,1,0,3:0:0:0:
225,304,201300,2,0,L|239:218,1,75
336,120,201500,2,0,L|350:34,1,75,8|0,0:0|3:0,0:0:0:0:
477,160,201700,6,0,B|439:181|439:181|397:170,1,75,2|0,0:0|3:0,0:0:0:0:
190,85,201900,2,0,B|228:64|228:64|270:75,1,75,10|0,0:0|3:0,0:0:0:0:
371,248,202100,2,0,B|324:206|324:206|335:119,1,150,2|8,0:0|0:0,0:0:0:0:
352,23,202400,1,2,0:0:0:0:
243,149,202500,2,0,B|195:200|133:174|133:174|124:139,1,150,2|10,0:0|0:0,0:0:0:0:
19,124,202800,1,0,3:0:0:0:
35,216,202900,2,0,L|52:294,1,75
199,360,203100,2,0,L|214:286,1,75,8|0,0:0|3:0,0:0:0:0:
364,348,203300,38,0,P|412:328|424:216,1,150,6|10,0:0|0:0,0:0:0:0:
437,140,203600,1,0,3:0:0:0:
320,44,203700,2,0,L|356:208,1,150,2|8,0:0|0:0,0:0:0:0:
248,236,204000,1,2,3:0:0:0:
186,126,204100,2,0,P|194:82|218:34,1,75,2|0,0:0|3:0,0:0:0:0:
248,236,204300,2,0,P|240:280|216:328,1,75,10|0,0:0|3:0,0:0:0:0:
88,128,204500,2,0,P|74:93|68:56,1,75,0|0,0:3|0:3,0:0:0:0:
116,248,204700,2,0,P|72:272|24:280,1,75,8|0,0:0|3:3,0:0:0:0:
88,128,204900,6,0,P|164:136|256:176,1,150,2|10,0:0|0:0,0:0:0:0:
228,307,205200,1,0,3:0:0:0:
99,277,205300,2,0,L|88:128,1,150,0|8,0:0|0:0,0:0:0:0:
192,43,205600,1,0,0:0:0:0:
192,43,205700,2,0,P|232:54|289:83,1,75,2|0,0:0|3:0,0:0:0:0:
370,30,205900,2,0,P|380:70|383:134,1,75,10|0,0:0|3:0,0:0:0:0:
470,177,206100,2,0,P|440:206|386:241,1,75
392,337,206300,2,0,P|352:325|295:297,1,75,8|0,0:0|3:0,0:0:0:0:
211,217,206500,5,14,0:0:0:0:
105,301,206600,1,2,0:0:0:0:
66,175,206700,2,0,L|144:165,1,75,10|0,0:0|0:0,0:0:0:0:
344,72,206900,2,0,L|268:85,1,75,10|0,0:0|0:0,0:0:0:0:
211,217,207100,1,8,0:0:0:0:
211,217,207200,1,2,0:0:0:0:
311,303,207300,6,0,P|323:347|327:407,1,75,14|0,0:0|0:0,0:0:0:0:
372,205,207500,2,0,P|377:167|388:132,1,75,10|0,0:0|0:0,0:0:0:0:
480,16,207700,2,0,L|392:40,1,75,8|0,0:0|0:0,0:0:0:0:
276,60,207900,2,0,L|203:40,1,75,8|0,0:0|0:0,0:0:0:0:
136,148,208100,37,14,0:0:0:0:
156,272,208200,1,2,3:0:0:0:
208,176,208300,1,8,0:0:0:0:
84,244,208400,1,0,3:0:0:0:
232,252,208500,2,0,L|240:328,1,75,10|0,0:0|3:0,0:0:0:0:
60,172,208700,2,0,L|67:97,1,75,10|0,0:0|3:0,0:0:0:0:
120,0,208900,5,10,0:0:0:0:
120,0,209000,1,0,3:0:0:0:
139,109,209100,2,0,P|102:110|67:97,1,75,10|0,0:0|3:0,0:0:0:0:
200,156,209300,1,8,0:0:0:0:
200,156,209400,1,0,3:3:0:0:
296,92,209500,2,0,P|336:92|396:120,1,75,8|0,0:0|3:3,0:3:0:0:
440,232,209700,5,14,0:0:0:0:
320,168,209800,1,2,3:0:0:0:
436,148,209900,1,8,0:0:0:0:
324,248,210000,1,0,3:0:0:0:
369,102,210100,2,0,P|405:78|453:74,1,75,10|0,0:0|3:0,0:0:0:0:
388,296,210300,2,0,P|352:320|304:324,1,75,10|0,0:0|3:0,0:0:0:0:
204,344,210500,5,10,0:0:0:0:
204,344,210600,1,0,3:0:0:0:
128,260,210700,2,0,L|36:244,1,75,10|0,0:0|3:0,0:0:0:0:
92,116,210900,1,8,0:0:0:0:
92,116,211000,1,0,3:0:0:0:
216,144,211100,2,0,L|308:128,1,75,8|0,0:0|3:0,0:0:0:0:
424,84,211300,37,14,0:0:0:0:
380,200,211400,1,2,3:0:0:0:
348,80,211500,1,8,0:0:0:0:
456,208,211600,1,0,3:0:0:0:
289,131,211700,2,0,B|293:227,1,75,10|0,0:0|3:0,0:0:0:0:
512,156,211900,2,0,B|508:60,1,75,10|0,0:0|3:0,0:0:0:0:
392,16,212100,5,10,0:0:0:0:
392,16,212200,1,0,3:0:0:0:
276,56,212300,2,0,P|224:52|180:72,1,75,10|0,0:0|3:0,0:0:0:0:
80,136,212500,1,8,0:0:0:0:
80,136,212600,1,0,3:0:0:0:
180,84,212700,2,0,P|216:92|253:86,1,75,8|0,0:0|3:0,0:0:0:0:
392,16,212900,5,14,0:0:0:0:
440,160,213000,1,2,3:0:0:0:
336,76,213100,1,8,0:0:0:0:
496,100,213200,1,0,3:0:0:0:
365,148,213300,2,0,P|352:200|356:252,1,75,10|0,0:0|3:0,0:0:0:0:
472,348,213500,2,0,P|469:310|458:274,1,75,10|0,0:0|3:0,0:0:0:0:
352,220,213700,6,0,L|260:224,1,75,2|0,0:0|3:0,0:0:0:0:
140,140,213900,2,0,L|232:144,1,75,10|0,0:0|3:0,0:0:0:0:
228,320,214100,2,0,L|136:324,1,75,0|0,0:0|3:0,0:0:0:0:
16,240,214300,2,0,L|108:244,1,75,8|0,0:0|3:0,0:0:0:0:
214,143,214500,38,0,P|242:91|246:47,1,89.9999972534181,6|2,0:0|3:0,0:0:0:0:
360,128,214700,2,0,P|384:168|432:200,1,89.9999972534181,8|0,0:0|3:0,0:0:0:0:
480,340,214900,2,0,P|404:288|280:276,1,179.999994506836,2|8,0:0|0:0,0:0:0:0:
220,348,215200,1,2,3:0:0:0:
40,228,215300,2,0,L|252:204,1,179.999994506836,2|10,0:0|0:0,0:0:0:0:
296,96,215600,1,0,3:0:0:0:
156,128,215700,2,0,L|52:140,1,89.9999972534181
296,176,215900,2,0,L|400:188,1,89.9999972534181,8|0,0:0|3:0,0:0:0:0:
479,110,216100,6,0,P|500:59|494:8,1,89.9999972534181,2|0,0:0|3:0,0:0:0:0:
385,186,216300,2,0,P|385:230|404:271,1,89.9999972534181,8|0,0:0|3:0,0:0:0:0:
512,367,216500,2,0,B|468:335|388:363|388:363|368:339|316:327,1,179.999994506836,2|8,0:0|0:0,0:0:0:0:
176,207,216800,1,2,3:0:0:0:
58,248,216900,2,0,P|110:296|230:328,1,179.999994506836,2|10,0:0|0:0,0:0:0:0:
280,185,217200,1,0,0:0:0:0:
280,185,217300,2,0,L|291:73,1,89.9999972534181,0|0,0:0|3:0,0:0:0:0:
148,31,217500,2,0,L|156:120,1,89.9999972534181,10|0,0:0|3:0,0:0:0:0:
171,249,217700,5,14,0:0:0:0:
327,289,217800,1,0,0:0:0:0:
195,321,217900,1,10,0:0:0:0:
307,213,218000,1,0,0:0:0:0:
267,333,218100,2,0,L|354:314,1,89.9999972534181,8|0,0:0|0:0,0:0:0:0:
225,202,218300,2,0,L|137:183,1,89.9999972534181,10|0,0:0|0:0,0:0:0:0:
49,164,218500,6,0,L|137:183,1,89.9999972534181,14|0,0:0|0:0,0:0:0:0:
168,268,218700,2,0,L|137:183,1,89.9999972534181,10|0,0:0|0:0,0:0:0:0:
106,98,218900,2,0,L|137:183,1,89.9999972534181,10|0,0:0|0:0,0:0:0:0:
10,231,219100,2,0,L|137:183,1,134.999995880127,10|0,0:0|2:0,0:0:0:0:
155,192,219300,38,0,B|218:167|218:167|245:200|290:201,1,150,6|8,0:0|0:0,0:0:0:0:
371,149,219600,1,0,3:0:0:0:
288,30,219700,2,0,L|298:104,1,75,2|0,0:0|3:0,0:0:0:0:
438,275,219900,2,0,L|448:200,1,75,8|0,0:0|3:0,0:0:0:0:
289,200,220100,2,0,L|313:352,1,150,2|8,0:0|0:0,0:0:0:0:
172,252,220400,1,2,3:0:0:0:
172,252,220700,2,0,P|124:248|68:272,1,75,10|0,0:0|3:0,0:0:0:0:
0,124,220900,6,0,B|20:136|20:136|44:116|44:116|96:148|160:140,1,150,2|8,0:0|0:0,0:0:0:0:
256,76,221200,1,0,3:0:0:0:
190,22,221300,2,0,P|154:33|120:48,1,75,2|0,0:0|3:0,0:0:0:0:
232,188,221500,2,0,P|266:202|302:213,1,75,8|0,0:0|3:0,0:0:0:0:
472,176,221700,2,0,P|400:200|316:204,1,150,2|8,0:0|0:0,0:0:0:0:
368,72,222000,1,2,3:0:0:0:
368,72,222300,2,0,L|448:88,1,75,10|0,0:0|3:0,0:0:0:0:
492,208,222500,70,0,P|500:256|436:342,1,150,6|8,0:0|3:0,0:0:0:0:
366,198,222800,1,0,3:0:0:0:
446,336,222900,2,0,L|351:322,1,75,2|0,0:0|3:0,0:0:0:0:
280,212,223100,2,0,L|205:222,1,75,8|0,0:0|3:0,0:0:0:0:
146,346,223300,2,0,B|170:338|182:330|182:330|202:346|202:346|234:326|234:326|298:338,1,150,2|8,0:0|0:0,0:0:0:0:
416,248,223600,1,2,3:0:0:0:
416,248,223900,2,0,P|404:200|408:152,1,75,10|0,0:0|3:0,0:0:0:0:
256,68,224100,6,0,B|312:120|312:120|302:168|308:212,1,150,2|8,0:0|0:0,0:0:0:0:
328,292,224400,1,0,3:0:0:0:
424,344,224500,2,0,L|512:328,1,75,2|0,0:0|3:0,0:0:0:0:
256,252,224700,2,0,L|168:236,1,75,8|0,0:0|3:0,0:0:0:0:
68,288,224900,2,0,B|52:244|72:188|72:188|40:124,1,150,2|8,0:0|0:0,0:0:0:0:
120,40,225200,2,0,B|160:124|160:124|196:108|216:76,1,150,0|0,3:0|0:0,0:0:0:0:
356,72,225500,2,0,P|320:44|272:40,1,75,8|0,0:0|3:0,0:0:0:0:
280,184,225700,6,0,L|452:152,1,150,10|0,0:0|0:0,0:0:0:0:
500,328,226000,2,0,L|352:296,1,150,8|0,0:0|0:0,0:0:0:0:
200,252,226300,2,0,P|176:212|172:164,1,75,8|0,0:0|0:0,0:0:0:0:
132,312,226500,6,0,P|96:248|80:168,1,150,10|0,0:0|0:0,0:0:0:0:
52,8,226800,2,0,B|40:41|56:81|56:81|92:73|128:97,1,150,10|0,0:0|0:0,0:0:0:0:
241,205,227100,2,0,P|204:201|171:184,1,75,10|0,0:0|0:0,0:0:0:0:
204,44,227300,70,0,P|288:16|356:32,1,150,10|0,0:0|0:0,0:0:0:0:
400,220,227600,2,0,L|420:64,1,150,8|0,0:0|0:0,0:0:0:0:
496,192,227900,2,0,L|504:280,1,75,8|0,0:0|0:0,0:0:0:0:
419,356,228100,6,0,B|375:324|319:340|319:340|299:312|319:272,1,150,8|0,0:0|0:3,0:0:0:0:
387,134,228400,2,0,B|427:165|422:241|422:241|397:234|397:200,1,150,10|0,0:0|0:0,0:0:0:0:
296,184,228700,2,0,P|260:148|204:144,1,75,10|0,0:0|0:0,0:0:0:0:
144,172,228900,70,0,B|80:208|80:208|36:128,1,150,10|0,0:0|3:0,0:0:0:0:
128,60,229200,2,0,B|196:28|196:28|269:45,1,150,8|0,0:0|3:0,0:0:0:0:
380,224,229500,2,0,B|344:176|348:120|348:120|364:100|372:64,1,150,8|0,0:0|3:0,0:0:0:0:
475,200,229800,2,0,P|479:248|403:320,1,150,8|0,0:0|0:0,0:0:0:0:
291,96,230100,2,0,L|374:84,1,75,10|0,0:0|3:0,0:0:0:0:
380,224,230300,2,0,L|297:212,1,75,10|0,0:0|3:0,0:0:0:0:
305,213,230700,6,0,B|301:269|281:293|281:293|309:381,1,150,10|0,0:0|3:0,0:0:0:0:
182,340,231000,2,0,B|158:260|158:260|66:236,1,150,10|0,0:0|3:0,0:0:0:0:
106,137,231300,2,0,L|18:153,2,75,10|0|0,0:0|0:0|3:0,0:0:0:0:
182,95,231600,1,8,0:0:0:0:
259,216,231700,1,8,0:0:0:0:
115,221,231800,1,8,0:0:0:0:
256,133,231900,1,8,0:0:0:0:
189,260,232000,1,8,0:0:0:0:
106,137,232100,6,0,B|150:145|198:113|198:113|230:129|230:129|262:97|310:105,1,196.875007510186,0|0,0:0|2:0,0:0:0:0:
385,156,232500,2,0,B|376:145|404:181|404:181|396:221|360:237|360:237|328:189|288:185,1,196.875007510186,0|0,0:0|2:0,0:0:0:0:
162,162,232900,6,0,P|102:166|48:214,1,112.500004291535,0|0,0:0|2:0,0:0:0:0:
93,302,233200,2,0,L|209:319,1,112.500004291535,0|0,0:0|3:0,0:0:0:0:
344,336,233500,1,8,0:0:0:0:
344,336,233700,38,0,L|460:280,1,89.9999972534181,14|0,0:0|3:0,0:0:0:0:
344,48,233900,2,0,L|460:104,1,89.9999972534181,10|0,0:0|3:0,0:0:0:0:
264,264,234100,2,0,L|380:232,1,89.9999972534181,10|0,0:0|3:0,0:0:0:0:
264,120,234300,2,0,L|380:152,1,89.9999972534181,10|0,0:0|3:0,0:0:0:0:
428,188,234500,5,10,0:0:0:0:
240,192,234600,2,0,L|188:192,2,44.999998626709,8|0|8,0:0|3:0|0:0,0:0:0:0:
172,88,234800,2,0,P|112:104|60:100,1,89.9999972534181,10|0,0:0|0:0,0:0:0:0:
84,281,235000,2,0,P|129:283|172:296,1,89.9999972534181,0|10,0:0|0:0,0:0:0:0:
256,192,235150,12,0,235700,2:0:0:0:
