osu file format v14

[General]
AudioFilename: audio.mp3
AudioLeadIn: 0
PreviewTime: 48900
Countdown: 1
SampleSet: Normal
StackLeniency: 0.7
Mode: 1
LetterboxInBreaks: 0
WidescreenStoryboard: 1

[Editor]
DistanceSpacing: 0.1
BeatDivisor: 4
GridSize: 32
TimelineZoom: 2

[Metadata]
Title:Mune Ippai no Dame o
TitleUnicode:胸いっぱいのダメを
Artist:PinocchioP
ArtistUnicode:ピノキオピー
Creator:AruOtta
Version:Naryuga's Oni
Source:
Tags:whole lotta no's hatsune miku hatsune_miku 初音ミク vocaloid japanese pop j-pop jpop minamo 水面 naryuga bara-
BeatmapID:1242030
BeatmapSetID:502545

[Difficulty]
HPDrainRate:5
CircleSize:5
OverallDifficulty:6
ApproachRate:5
SliderMultiplier:0.8
SliderTickRate:1

[Events]
//Background and Video events
0,0,"bg.jpg",0,80
//Break Periods
//Storyboard Layer 0 (Background)
//Storyboard Layer 1 (Fail)
//Storyboard Layer 2 (Pass)
//Storyboard Layer 3 (Foreground)
//Storyboard Layer 4 (Overlay)
//Storyboard Sound Samples

[TimingPoints]
900,200,4,1,0,80,1,0
48900,-86.9565217391303,4,1,0,80,0,1
72900,-86.9565217391303,4,1,0,80,0,0
74700,-100,4,1,0,80,0,0
113300,-86.9565217391303,4,1,0,80,0,0
113700,-86.9565217391303,4,1,0,80,0,1
136100,-86.9565217391303,4,1,0,80,0,0
137700,-100,4,1,0,80,0,0
184100,-86.9565217391303,4,1,0,80,0,1
208100,-80,4,1,0,80,0,1
218500,-81.9672131147541,4,1,0,80,0,1
218700,-83.3333333333333,4,1,0,80,0,1
218900,-84.7457627118644,4,1,0,80,0,1
219300,-86.9565217391304,4,1,0,80,0,0

[Colours]
Combo1 : 165,193,228
Combo2 : 255,0,128
Combo3 : 82,207,207
Combo4 : 130,23,145
Combo5 : 0,0,255
Combo6 : 227,172,207

[HitObjects]
256,192,900,5,8,0:0:0:0:
256,192,1100,1,8,0:0:0:0:
256,192,1200,1,0,0:0:0:0:
256,192,1400,1,8,0:0:0:0:
256,192,1500,1,0,0:0:0:0:
256,192,1700,1,8,0:0:0:0:
256,192,1900,1,8,0:0:0:0:
256,192,2000,1,0,0:0:0:0:
256,192,2200,1,0,0:0:0:0:
256,192,2300,1,8,0:0:0:0:
256,192,3200,1,4,0:0:0:0:
256,192,3400,1,4,0:0:0:0:
256,192,3600,1,4,0:0:0:0:
256,192,3800,1,8,0:0:0:0:
256,192,3900,1,8,0:0:0:0:
256,192,4000,1,8,0:0:0:0:
256,192,4100,1,0,0:0:0:0:
256,192,4300,1,8,0:0:0:0:
256,192,4400,1,0,0:0:0:0:
256,192,4600,1,0,0:0:0:0:
256,192,4700,1,8,0:0:0:0:
256,192,4900,1,0,0:0:0:0:
256,192,5100,1,0,0:0:0:0:
256,192,5200,1,8,0:0:0:0:
256,192,5500,1,8,0:0:0:0:
256,192,5700,1,0,0:0:0:0:
256,192,5900,1,8,0:0:0:0:
256,192,6000,1,0,0:0:0:0:
256,192,6200,1,0,0:0:0:0:
256,192,6300,1,8,0:0:0:0:
256,192,6500,1,8,0:0:0:0:
256,192,6700,1,0,0:0:0:0:
256,192,6800,1,8,0:0:0:0:
256,192,7100,1,8,0:0:0:0:
256,192,7300,1,0,0:0:0:0:
256,192,7500,1,8,0:0:0:0:
256,192,7600,1,0,0:0:0:0:
256,192,7800,1,0,0:0:0:0:
256,192,7900,1,8,0:0:0:0:
256,192,8100,1,0,0:0:0:0:
256,192,8300,1,0,0:0:0:0:
256,192,8400,1,8,0:0:0:0:
256,192,8700,1,8,0:0:0:0:
256,192,8900,1,0,0:0:0:0:
256,192,9100,1,8,0:0:0:0:
256,192,9200,1,0,0:0:0:0:
256,192,9400,1,0,0:0:0:0:
256,192,9500,1,8,0:0:0:0:
256,192,9700,1,8,0:0:0:0:
256,192,9900,1,0,0:0:0:0:
256,192,10000,1,8,0:0:0:0:
256,192,10200,1,0,0:0:0:0:
256,192,10300,1,8,0:0:0:0:
256,192,10500,1,4,0:0:0:0:
256,192,10800,1,8,0:0:0:0:
256,192,11000,1,8,0:0:0:0:
256,192,11100,1,0,0:0:0:0:
256,192,11300,1,8,0:0:0:0:
256,192,11500,1,0,0:0:0:0:
256,192,11600,1,8,0:0:0:0:
256,192,11800,1,8,0:0:0:0:
256,192,11900,1,0,0:0:0:0:
256,192,12100,1,4,0:0:0:0:
256,192,12400,1,8,0:0:0:0:
256,192,12600,1,8,0:0:0:0:
256,192,12700,1,0,0:0:0:0:
256,192,12900,1,8,0:0:0:0:
256,192,13000,1,0,0:0:0:0:
256,192,13200,1,8,0:0:0:0:
256,192,13400,1,0,0:0:0:0:
256,192,13500,1,8,0:0:0:0:
256,192,13700,1,4,0:0:0:0:
256,192,14000,1,8,0:0:0:0:
256,192,14200,1,0,0:0:0:0:
256,192,14300,1,8,0:0:0:0:
256,192,14500,1,0,0:0:0:0:
256,192,14600,1,8,0:0:0:0:
256,192,14800,1,0,0:0:0:0:
256,192,14900,1,8,0:0:0:0:
256,192,15000,1,0,0:0:0:0:
256,192,15100,1,8,0:0:0:0:
256,192,15500,1,4,0:0:0:0:
256,192,15800,1,14,0:0:0:0:
256,192,16100,1,4,0:0:0:0:
256,192,16400,1,8,0:0:0:0:
256,192,16500,1,0,0:0:0:0:
256,192,16700,1,0,0:0:0:0:
256,192,16800,1,0,0:0:0:0:
256,192,16900,1,0,0:0:0:0:
256,192,17300,1,0,0:0:0:0:
256,192,17700,1,0,0:0:0:0:
256,192,18000,1,0,0:0:0:0:
256,192,18200,1,0,0:0:0:0:
256,192,18300,1,8,0:0:0:0:
256,192,18500,1,8,0:0:0:0:
256,192,18700,1,8,0:0:0:0:
256,192,18900,1,0,0:0:0:0:
256,192,19000,1,0,0:0:0:0:
256,192,19100,1,0,0:0:0:0:
256,192,19300,1,8,0:0:0:0:
256,192,19400,1,8,0:0:0:0:
256,192,19600,1,0,0:0:0:0:
256,192,19700,1,0,0:0:0:0:
256,192,19800,1,0,0:0:0:0:
256,192,19900,1,8,0:0:0:0:
256,192,20100,1,0,0:0:0:0:
256,192,20300,1,0,0:0:0:0:
256,192,20700,1,8,0:0:0:0:
256,192,20900,1,0,0:0:0:0:
256,192,21000,1,0,0:0:0:0:
256,192,21100,1,8,0:0:0:0:
256,192,21300,1,0,0:0:0:0:
256,192,21400,1,8,0:0:0:0:
256,192,21500,1,0,0:0:0:0:
256,192,21700,1,0,0:0:0:0:
256,192,21900,1,0,0:0:0:0:
256,192,22300,1,8,0:0:0:0:
256,192,22500,1,0,0:0:0:0:
256,192,22600,1,0,0:0:0:0:
256,192,22700,1,8,0:0:0:0:
256,192,22900,1,8,0:0:0:0:
256,192,23000,1,8,0:0:0:0:
256,192,23100,1,8,0:0:0:0:
256,192,23200,1,8,0:0:0:0:
256,192,23300,1,0,0:0:0:0:
256,192,23500,1,0,0:0:0:0:
256,192,23900,1,8,0:0:0:0:
256,192,24100,1,0,0:0:0:0:
256,192,24200,1,0,0:0:0:0:
256,192,24300,1,8,0:0:0:0:
256,192,24500,1,0,0:0:0:0:
256,192,24600,1,8,0:0:0:0:
256,192,24700,1,0,0:0:0:0:
256,192,24900,1,0,0:0:0:0:
256,192,25100,1,0,0:0:0:0:
256,192,25500,1,8,0:0:0:0:
256,192,25700,1,0,0:0:0:0:
256,192,25800,1,0,0:0:0:0:
256,192,26000,1,8,0:0:0:0:
256,192,26300,1,8,0:0:0:0:
256,192,26400,1,8,0:0:0:0:
256,192,26500,1,0,0:0:0:0:
256,192,26700,1,0,0:0:0:0:
256,192,27100,1,8,0:0:0:0:
256,192,27300,1,0,0:0:0:0:
256,192,27400,1,0,0:0:0:0:
256,192,27500,1,8,0:0:0:0:
256,192,27700,1,8,0:0:0:0:
256,192,27800,1,0,0:0:0:0:
256,192,27900,1,0,0:0:0:0:
256,192,28000,1,8,0:0:0:0:
256,192,28100,1,0,0:0:0:0:
256,192,28300,1,0,0:0:0:0:
256,192,28700,1,8,0:0:0:0:
256,192,28900,1,0,0:0:0:0:
256,192,29000,1,0,0:0:0:0:
256,192,29100,1,8,0:0:0:0:
256,192,29300,1,0,0:0:0:0:
256,192,29400,1,8,0:0:0:0:
256,192,29500,1,8,0:0:0:0:
256,192,29600,1,8,0:0:0:0:
256,192,29700,1,0,0:0:0:0:
256,192,29900,1,0,0:0:0:0:
256,192,30300,1,8,0:0:0:0:
256,192,30500,1,0,0:0:0:0:
256,192,30600,1,0,0:0:0:0:
256,192,30700,1,8,0:0:0:0:
256,192,30900,1,8,0:0:0:0:
256,192,31000,1,8,0:0:0:0:
256,192,31100,1,0,0:0:0:0:
256,192,31200,1,8,0:0:0:0:
256,192,31300,12,0,32500,0:0:0:0:
256,192,32900,5,4,0:0:0:0:
256,192,33300,1,8,0:0:0:0:
256,192,33400,1,8,0:0:0:0:
256,192,33500,1,8,0:0:0:0:
256,192,33600,1,8,0:0:0:0:
256,192,33700,1,0,0:0:0:0:
256,192,33900,1,0,0:0:0:0:
256,192,34000,1,8,0:0:0:0:
256,192,34300,1,0,0:0:0:0:
256,192,34500,1,8,0:0:0:0:
256,192,34600,1,8,0:0:0:0:
256,192,34700,1,8,0:0:0:0:
256,192,34800,1,8,0:0:0:0:
256,192,34900,1,0,0:0:0:0:
256,192,35100,1,8,0:0:0:0:
256,192,35300,1,8,0:0:0:0:
256,192,35500,1,0,0:0:0:0:
256,192,35600,1,0,0:0:0:0:
256,192,35700,1,8,0:0:0:0:
256,192,35900,1,0,0:0:0:0:
256,192,36100,1,0,0:0:0:0:
256,192,36500,1,8,0:0:0:0:
256,192,36700,1,8,0:0:0:0:
256,192,36800,1,8,0:0:0:0:
256,192,36900,1,0,0:0:0:0:
256,192,37000,1,0,0:0:0:0:
256,192,37100,1,8,0:0:0:0:
256,192,37300,1,0,0:0:0:0:
256,192,37500,1,8,0:0:0:0:
256,192,37700,1,0,0:0:0:0:
256,192,37800,1,0,0:0:0:0:
256,192,37900,1,0,0:0:0:0:
256,192,38100,1,8,0:0:0:0:
256,192,38200,1,8,0:0:0:0:
256,192,38300,1,0,0:0:0:0:
256,192,38500,1,8,0:0:0:0:
256,192,38600,1,8,0:0:0:0:
256,192,38700,1,0,0:0:0:0:
256,192,38800,1,8,0:0:0:0:
256,192,38900,1,8,0:0:0:0:
256,192,39300,1,0,0:0:0:0:
256,192,39500,1,8,0:0:0:0:
256,192,39700,1,0,0:0:0:0:
256,192,39800,1,0,0:0:0:0:
256,192,39900,1,0,0:0:0:0:
256,192,40100,1,8,0:0:0:0:
256,192,40200,1,0,0:0:0:0:
256,192,40400,1,0,0:0:0:0:
256,192,40500,1,8,0:0:0:0:
256,192,40700,1,0,0:0:0:0:
256,192,40900,1,0,0:0:0:0:
256,192,41100,1,8,0:0:0:0:
256,192,41200,1,8,0:0:0:0:
256,192,41300,1,0,0:0:0:0:
256,192,41400,1,0,0:0:0:0:
256,192,41500,1,0,0:0:0:0:
256,192,41700,1,8,0:0:0:0:
256,192,41800,1,0,0:0:0:0:
256,192,42000,1,0,0:0:0:0:
256,192,42100,1,8,0:0:0:0:
256,192,42300,1,8,0:0:0:0:
256,192,42500,1,4,0:0:0:0:
256,192,42800,1,14,0:0:0:0:
256,192,43100,1,4,0:0:0:0:
256,192,43500,1,8,0:0:0:0:
256,192,43700,1,0,0:0:0:0:
256,192,43800,1,0,0:0:0:0:
256,192,43900,1,8,0:0:0:0:
256,192,44100,1,4,0:0:0:0:
256,192,44400,1,14,0:0:0:0:
256,192,44700,1,4,0:0:0:0:
256,192,45100,1,8,0:0:0:0:
256,192,45300,1,8,0:0:0:0:
256,192,45400,1,0,0:0:0:0:
256,192,45500,1,0,0:0:0:0:
256,192,45700,1,4,0:0:0:0:
256,192,46000,1,14,0:0:0:0:
256,192,46300,1,4,0:0:0:0:
256,192,46500,1,8,0:0:0:0:
256,192,46600,1,0,0:0:0:0:
256,192,46700,1,0,0:0:0:0:
256,192,46800,1,8,0:0:0:0:
256,192,46900,1,8,0:0:0:0:
256,192,47100,1,0,0:0:0:0:
256,192,47200,1,0,0:0:0:0:
256,192,47300,1,8,0:0:0:0:
256,192,47700,1,0,0:0:0:0:
256,192,47900,1,8,0:0:0:0:
256,192,48000,1,8,0:0:0:0:
256,192,48100,1,8,0:0:0:0:
256,192,48300,1,0,0:0:0:0:
256,192,48400,1,0,0:0:0:0:
256,192,48500,1,0,0:0:0:0:
256,192,48900,1,4,0:0:0:0:
256,192,49300,1,8,0:0:0:0:
256,192,49500,1,0,0:0:0:0:
256,192,49600,1,0,0:0:0:0:
256,192,49700,1,0,0:0:0:0:
256,192,49900,1,0,0:0:0:0:
256,192,50000,1,0,0:0:0:0:
256,192,50100,1,8,0:0:0:0:
256,192,50300,1,8,0:0:0:0:
256,192,50500,1,0,0:0:0:0:
256,192,50800,1,0,0:0:0:0:
256,192,50900,1,8,0:0:0:0:
256,192,51100,1,0,0:0:0:0:
256,192,51200,1,0,0:0:0:0:
256,192,51300,1,0,0:0:0:0:
256,192,51500,1,8,0:0:0:0:
256,192,51600,1,8,0:0:0:0:
256,192,51700,1,0,0:0:0:0:
256,192,51800,1,0,0:0:0:0:
256,192,51900,1,8,0:0:0:0:
256,192,52100,1,0,0:0:0:0:
256,192,52500,1,8,0:0:0:0:
256,192,52700,1,0,0:0:0:0:
256,192,52800,1,0,0:0:0:0:
256,192,52900,1,0,0:0:0:0:
256,192,53100,1,0,0:0:0:0:
256,192,53200,1,0,0:0:0:0:
256,192,53300,1,8,0:0:0:0:
256,192,53500,1,8,0:0:0:0:
256,192,53700,1,0,0:0:0:0:
256,192,53900,1,0,0:0:0:0:
256,192,54000,1,0,0:0:0:0:
256,192,54100,1,8,0:0:0:0:
256,192,54300,1,8,0:0:0:0:
256,192,54400,1,8,0:0:0:0:
256,192,54500,1,0,0:0:0:0:
256,192,54700,1,0,0:0:0:0:
256,192,54900,1,8,0:0:0:0:
256,192,55300,1,0,0:0:0:0:
256,192,55500,1,0,0:0:0:0:
256,192,55600,1,0,0:0:0:0:
256,192,55700,1,8,0:0:0:0:
256,192,55900,1,8,0:0:0:0:
256,192,56000,1,8,0:0:0:0:
256,192,56100,1,0,0:0:0:0:
256,192,56300,1,8,0:0:0:0:
256,192,56500,1,0,0:0:0:0:
256,192,56600,1,0,0:0:0:0:
256,192,56700,1,8,0:0:0:0:
256,192,56900,1,0,0:0:0:0:
256,192,57100,1,0,0:0:0:0:
256,192,57200,1,0,0:0:0:0:
256,192,57300,1,8,0:0:0:0:
256,192,57500,1,8,0:0:0:0:
256,192,57600,1,0,0:0:0:0:
256,192,57700,1,8,0:0:0:0:
256,192,57900,1,8,0:0:0:0:
256,192,58000,1,0,0:0:0:0:
256,192,58100,1,8,0:0:0:0:
256,192,58200,1,8,0:0:0:0:
256,192,58300,1,8,0:0:0:0:
256,192,58500,1,4,0:0:0:0:
256,192,59300,1,0,0:0:0:0:
256,192,59700,1,8,0:0:0:0:
256,192,59900,1,8,0:0:0:0:
256,192,60000,1,8,0:0:0:0:
256,192,60100,1,0,0:0:0:0:
256,192,60200,1,8,0:0:0:0:
256,192,60400,1,8,0:0:0:0:
256,192,60500,1,0,0:0:0:0:
256,192,60700,1,8,0:0:0:0:
256,192,60800,1,0,0:0:0:0:
256,192,61000,1,8,0:0:0:0:
256,192,61100,1,0,0:0:0:0:
256,192,61300,1,8,0:0:0:0:
256,192,61400,1,8,0:0:0:0:
256,192,61500,1,8,0:0:0:0:
256,192,61700,1,4,0:0:0:0:
256,192,62100,1,8,0:0:0:0:
256,192,62300,1,0,0:0:0:0:
256,192,62400,1,0,0:0:0:0:
256,192,62500,1,0,0:0:0:0:
256,192,62700,1,0,0:0:0:0:
256,192,62800,1,0,0:0:0:0:
256,192,62900,1,8,0:0:0:0:
256,192,63000,1,0,0:0:0:0:
256,192,63100,1,8,0:0:0:0:
256,192,63300,1,0,0:0:0:0:
256,192,63500,1,0,0:0:0:0:
256,192,63700,1,8,0:0:0:0:
256,192,63900,1,0,0:0:0:0:
256,192,64000,1,0,0:0:0:0:
256,192,64100,1,8,0:0:0:0:
256,192,64200,1,0,0:0:0:0:
256,192,64300,1,8,0:0:0:0:
256,192,64500,1,0,0:0:0:0:
256,192,64700,1,8,0:0:0:0:
256,192,64900,1,0,0:0:0:0:
256,192,65300,1,8,0:0:0:0:
256,192,65500,1,0,0:0:0:0:
256,192,65600,1,0,0:0:0:0:
256,192,65700,1,0,0:0:0:0:
256,192,65900,1,0,0:0:0:0:
256,192,66000,1,0,0:0:0:0:
256,192,66100,1,8,0:0:0:0:
256,192,66200,1,0,0:0:0:0:
256,192,66300,1,8,0:0:0:0:
256,192,66500,1,0,0:0:0:0:
256,192,66700,1,0,0:0:0:0:
256,192,66800,1,0,0:0:0:0:
256,192,66900,1,8,0:0:0:0:
256,192,67100,1,8,0:0:0:0:
256,192,67200,1,8,0:0:0:0:
256,192,67300,1,0,0:0:0:0:
256,192,67400,1,0,0:0:0:0:
256,192,67500,1,0,0:0:0:0:
256,192,67700,1,8,0:0:0:0:
256,192,67900,1,8,0:0:0:0:
256,192,68100,1,0,0:0:0:0:
256,192,68300,1,0,0:0:0:0:
256,192,68400,1,0,0:0:0:0:
256,192,68500,1,8,0:0:0:0:
256,192,68700,1,0,0:0:0:0:
256,192,68900,1,8,0:0:0:0:
256,192,69000,1,8,0:0:0:0:
256,192,69200,1,0,0:0:0:0:
256,192,69300,1,0,0:0:0:0:
256,192,69500,1,0,0:0:0:0:
256,192,69600,1,8,0:0:0:0:
256,192,69700,1,8,0:0:0:0:
256,192,69900,1,0,0:0:0:0:
256,192,70000,1,0,0:0:0:0:
256,192,70100,1,8,0:0:0:0:
256,192,70300,1,0,0:0:0:0:
256,192,70500,1,0,0:0:0:0:
256,192,70600,1,0,0:0:0:0:
256,192,70800,1,8,0:0:0:0:
256,192,70900,1,8,0:0:0:0:
256,192,71100,1,8,0:0:0:0:
256,192,71300,1,0,0:0:0:0:
256,192,71500,1,8,0:0:0:0:
256,192,71600,1,8,0:0:0:0:
256,192,71700,1,0,0:0:0:0:
256,192,71800,1,0,0:0:0:0:
256,192,71900,1,8,0:0:0:0:
256,192,72100,1,8,0:0:0:0:
256,192,72400,1,0,0:0:0:0:
256,192,72500,1,0,0:0:0:0:
256,192,72700,1,8,0:0:0:0:
256,192,72900,1,0,0:0:0:0:
256,192,73000,1,0,0:0:0:0:
256,192,73100,1,0,0:0:0:0:
256,192,73200,1,0,0:0:0:0:
256,192,73400,1,0,0:0:0:0:
256,192,73500,1,0,0:0:0:0:
256,192,73700,1,0,0:0:0:0:
256,192,73900,1,0,0:0:0:0:
256,192,74100,1,8,0:0:0:0:
256,192,74200,1,8,0:0:0:0:
256,192,74300,1,8,0:0:0:0:
256,192,74400,1,8,0:0:0:0:
256,192,74500,1,0,0:0:0:0:
256,192,74900,1,4,0:0:0:0:
256,192,75100,1,0,0:0:0:0:
256,192,75200,1,0,0:0:0:0:
256,192,75300,1,8,0:0:0:0:
256,192,75600,1,8,0:0:0:0:
256,192,75800,1,0,0:0:0:0:
256,192,75900,1,8,0:0:0:0:
256,192,76100,1,0,0:0:0:0:
256,192,76300,1,8,0:0:0:0:
256,192,76500,1,0,0:0:0:0:
256,192,76600,1,0,0:0:0:0:
256,192,76700,1,8,0:0:0:0:
256,192,76900,1,8,0:0:0:0:
256,192,77100,1,0,0:0:0:0:
256,192,77200,1,8,0:0:0:0:
256,192,77500,1,0,0:0:0:0:
256,192,77600,1,0,0:0:0:0:
256,192,77700,1,0,0:0:0:0:
256,192,78100,1,4,0:0:0:0:
256,192,78300,1,0,0:0:0:0:
256,192,78400,1,0,0:0:0:0:
256,192,78500,1,8,0:0:0:0:
256,192,78800,1,8,0:0:0:0:
256,192,79000,1,0,0:0:0:0:
256,192,79100,1,8,0:0:0:0:
256,192,79300,1,0,0:0:0:0:
256,192,79400,1,0,0:0:0:0:
256,192,79500,1,0,0:0:0:0:
256,192,79600,1,0,0:0:0:0:
256,192,79900,1,8,0:0:0:0:
256,192,80100,1,4,0:0:0:0:
256,192,80500,1,8,0:0:0:0:
256,192,80600,1,8,0:0:0:0:
256,192,80700,1,8,0:0:0:0:
256,192,80900,1,0,0:0:0:0:
256,192,81100,1,14,0:0:0:0:
256,192,81500,1,8,0:0:0:0:
256,192,81700,1,4,0:0:0:0:
256,192,82100,1,8,0:0:0:0:
256,192,82200,1,8,0:0:0:0:
256,192,82300,1,0,0:0:0:0:
256,192,82500,1,0,0:0:0:0:
256,192,82700,1,14,0:0:0:0:
256,192,83100,1,0,0:0:0:0:
256,192,83300,1,4,0:0:0:0:
256,192,83700,1,8,0:0:0:0:
256,192,83800,1,0,0:0:0:0:
256,192,83900,1,0,0:0:0:0:
256,192,84100,1,0,0:0:0:0:
256,192,84300,1,14,0:0:0:0:
256,192,84700,1,0,0:0:0:0:
256,192,84900,1,4,0:0:0:0:
256,192,85100,1,0,0:0:0:0:
256,192,85200,1,8,0:0:0:0:
256,192,85300,1,8,0:0:0:0:
256,192,85500,1,0,0:0:0:0:
256,192,85900,1,14,0:0:0:0:
256,192,86300,1,0,0:0:0:0:
256,192,86500,1,4,0:0:0:0:
256,192,86900,1,0,0:0:0:0:
256,192,87000,1,8,0:0:0:0:
256,192,87100,1,0,0:0:0:0:
256,192,87300,1,0,0:0:0:0:
256,192,87500,1,0,0:0:0:0:
256,192,87600,1,0,0:0:0:0:
256,192,87700,1,8,0:0:0:0:
256,192,87900,1,8,0:0:0:0:
256,192,88100,1,4,0:0:0:0:
256,192,88500,1,0,0:0:0:0:
256,192,88600,1,8,0:0:0:0:
256,192,88700,1,0,0:0:0:0:
256,192,88900,1,8,0:0:0:0:
256,192,89100,1,0,0:0:0:0:
256,192,89200,1,8,0:0:0:0:
256,192,89300,1,8,0:0:0:0:
256,192,89500,1,8,0:0:0:0:
256,192,89700,1,4,0:0:0:0:
256,192,90100,1,0,0:0:0:0:
256,192,90200,1,8,0:0:0:0:
256,192,90300,1,0,0:0:0:0:
256,192,90500,1,0,0:0:0:0:
256,192,90700,1,0,0:0:0:0:
256,192,90800,1,0,0:0:0:0:
256,192,90900,1,8,0:0:0:0:
256,192,91100,1,8,0:0:0:0:
256,192,91300,1,4,0:0:0:0:
256,192,91700,1,8,0:0:0:0:
256,192,91800,1,8,0:0:0:0:
256,192,91900,1,0,0:0:0:0:
256,192,92000,1,8,0:0:0:0:
256,192,92100,1,8,0:0:0:0:
256,192,92300,1,0,0:0:0:0:
256,192,92400,1,8,0:0:0:0:
256,192,92700,1,8,0:0:0:0:
256,192,92900,1,4,0:0:0:0:
256,192,93300,1,8,0:0:0:0:
256,192,93400,1,8,0:0:0:0:
256,192,93500,1,8,0:0:0:0:
256,192,93700,1,0,0:0:0:0:
256,192,93900,1,0,0:0:0:0:
256,192,94000,1,8,0:0:0:0:
256,192,94300,1,0,0:0:0:0:
256,192,94500,1,8,0:0:0:0:
256,192,94600,1,8,0:0:0:0:
256,192,94700,1,8,0:0:0:0:
256,192,94800,1,8,0:0:0:0:
256,192,94900,1,0,0:0:0:0:
256,192,95100,1,8,0:0:0:0:
256,192,95300,1,0,0:0:0:0:
256,192,95500,1,0,0:0:0:0:
256,192,95600,1,0,0:0:0:0:
256,192,95700,1,8,0:0:0:0:
256,192,95900,1,0,0:0:0:0:
256,192,96100,1,0,0:0:0:0:
256,192,96500,1,8,0:0:0:0:
256,192,96700,1,8,0:0:0:0:
256,192,96800,1,8,0:0:0:0:
256,192,96900,1,0,0:0:0:0:
256,192,97000,1,0,0:0:0:0:
256,192,97100,1,8,0:0:0:0:
256,192,97300,1,0,0:0:0:0:
256,192,97500,1,8,0:0:0:0:
256,192,97700,1,0,0:0:0:0:
256,192,97800,1,0,0:0:0:0:
256,192,97900,1,0,0:0:0:0:
256,192,98100,1,8,0:0:0:0:
256,192,98200,1,8,0:0:0:0:
256,192,98300,1,0,0:0:0:0:
256,192,98500,1,8,0:0:0:0:
256,192,98600,1,8,0:0:0:0:
256,192,98700,1,0,0:0:0:0:
256,192,98800,1,8,0:0:0:0:
256,192,98900,1,8,0:0:0:0:
256,192,99100,1,0,0:0:0:0:
256,192,99300,1,0,0:0:0:0:
256,192,99500,1,8,0:0:0:0:
256,192,99700,1,0,0:0:0:0:
256,192,99800,1,0,0:0:0:0:
256,192,99900,1,0,0:0:0:0:
256,192,100100,1,8,0:0:0:0:
256,192,100200,1,8,0:0:0:0:
256,192,100400,1,8,0:0:0:0:
256,192,100500,1,0,0:0:0:0:
256,192,100600,1,0,0:0:0:0:
256,192,100700,1,8,0:0:0:0:
256,192,100900,1,0,0:0:0:0:
256,192,101100,1,8,0:0:0:0:
256,192,101300,1,0,0:0:0:0:
256,192,101400,1,0,0:0:0:0:
256,192,101500,1,0,0:0:0:0:
256,192,101700,1,8,0:0:0:0:
256,192,101800,1,0,0:0:0:0:
256,192,102000,1,0,0:0:0:0:
256,192,102100,1,8,0:0:0:0:
256,192,102200,1,8,0:0:0:0:
256,192,102300,1,0,0:0:0:0:
256,192,102500,1,4,0:0:0:0:
256,192,102800,1,14,0:0:0:0:
256,192,103100,1,4,0:0:0:0:
256,192,103300,1,0,0:0:0:0:
256,192,103500,1,8,0:0:0:0:
256,192,103700,1,0,0:0:0:0:
256,192,103800,1,0,0:0:0:0:
256,192,103900,1,8,0:0:0:0:
256,192,104100,1,4,0:0:0:0:
256,192,104400,1,14,0:0:0:0:
256,192,104700,1,4,0:0:0:0:
256,192,104900,1,0,0:0:0:0:
256,192,105100,1,8,0:0:0:0:
256,192,105300,1,8,0:0:0:0:
256,192,105400,1,0,0:0:0:0:
256,192,105500,1,0,0:0:0:0:
256,192,105700,1,0,0:0:0:0:
256,192,105900,1,8,0:0:0:0:
256,192,106100,1,0,0:0:0:0:
256,192,106200,1,0,0:0:0:0:
256,192,106300,1,8,0:0:0:0:
256,192,106500,1,8,0:0:0:0:
256,192,106600,1,0,0:0:0:0:
256,192,106800,1,8,0:0:0:0:
256,192,106900,1,0,0:0:0:0:
256,192,107100,1,0,0:0:0:0:
256,192,107200,1,0,0:0:0:0:
256,192,107300,1,8,0:0:0:0:
256,192,107700,1,0,0:0:0:0:
256,192,107966,1,0,0:0:0:0:
256,192,108100,1,8,0:0:0:0:
256,192,108233,1,8,0:0:0:0:
256,192,108366,1,8,0:0:0:0:
256,192,108500,1,0,0:0:0:0:
256,192,108700,1,8,0:0:0:0:
256,192,108900,1,0,0:0:0:0:
256,192,109300,1,8,0:0:0:0:
256,192,109700,1,0,0:0:0:0:
256,192,109833,1,0,0:0:0:0:
256,192,109966,1,0,0:0:0:0:
256,192,110100,1,8,0:0:0:0:
256,192,110366,1,8,0:0:0:0:
256,192,110500,1,0,0:0:0:0:
256,192,110766,1,0,0:0:0:0:
256,192,110900,1,8,0:0:0:0:
256,192,111166,1,8,0:0:0:0:
256,192,111300,1,0,0:0:0:0:
256,192,111500,1,0,0:0:0:0:
256,192,111600,1,0,0:0:0:0:
256,192,111700,1,8,0:0:0:0:
256,192,112100,1,4,0:0:0:0:
288,224,113300,1,8,0:0:0:0:
288,224,113400,1,8,0:0:0:0:
288,224,113500,1,8,0:0:0:0:
288,224,113700,1,4,0:0:0:0:
256,192,114100,1,8,0:0:0:0:
256,192,114300,1,0,0:0:0:0:
256,192,114400,1,0,0:0:0:0:
256,192,114500,1,8,0:0:0:0:
256,192,114700,1,8,0:0:0:0:
256,192,114900,1,0,0:0:0:0:
256,192,115000,1,0,0:0:0:0:
256,192,115100,1,8,0:0:0:0:
256,192,115300,1,0,0:0:0:0:
256,192,115500,1,0,0:0:0:0:
256,192,115600,1,0,0:0:0:0:
256,192,115700,1,8,0:0:0:0:
256,192,115900,1,0,0:0:0:0:
256,192,116000,1,0,0:0:0:0:
256,192,116100,1,0,0:0:0:0:
256,192,116300,1,0,0:0:0:0:
256,192,116400,1,0,0:0:0:0:
256,192,116500,1,8,0:0:0:0:
256,192,116700,1,8,0:0:0:0:
256,192,116900,1,0,0:0:0:0:
256,192,117100,1,0,0:0:0:0:
256,192,117200,1,0,0:0:0:0:
256,192,117300,1,8,0:0:0:0:
256,192,117500,1,8,0:0:0:0:
256,192,117600,1,8,0:0:0:0:
256,192,117700,1,0,0:0:0:0:
256,192,118000,1,0,0:0:0:0:
256,192,118100,1,8,0:0:0:0:
256,192,118300,1,8,0:0:0:0:
256,192,118500,1,0,0:0:0:0:
256,192,118900,1,8,0:0:0:0:
256,192,119100,1,8,0:0:0:0:
256,192,119200,1,8,0:0:0:0:
256,192,119300,1,0,0:0:0:0:
256,192,119500,1,8,0:0:0:0:
256,192,119600,1,0,0:0:0:0:
256,192,119700,1,8,0:0:0:0:
256,192,119900,1,8,0:0:0:0:
256,192,120100,1,0,0:0:0:0:
256,192,120500,1,8,0:0:0:0:
256,192,120700,1,0,0:0:0:0:
256,192,120800,1,0,0:0:0:0:
256,192,120900,1,8,0:0:0:0:
256,192,121100,1,8,0:0:0:0:
256,192,121200,1,0,0:0:0:0:
256,192,121300,1,8,0:0:0:0:
256,192,121500,1,8,0:0:0:0:
256,192,121700,1,0,0:0:0:0:
256,192,122100,1,8,0:0:0:0:
256,192,122300,1,8,0:0:0:0:
256,192,122400,1,8,0:0:0:0:
256,192,122500,1,0,0:0:0:0:
256,192,122700,1,0,0:0:0:0:
256,192,122900,1,8,0:0:0:0:
256,192,123100,1,8,0:0:0:0:
256,192,123200,1,0,0:0:0:0:
256,192,123300,1,8,0:0:0:0:
256,192,123500,1,0,0:0:0:0:
256,192,123600,1,8,0:0:0:0:
256,192,123800,1,0,0:0:0:0:
256,192,123900,1,8,0:0:0:0:
256,192,124100,1,0,0:0:0:0:
256,192,124200,1,8,0:0:0:0:
256,192,124400,1,0,0:0:0:0:
256,192,124500,1,8,0:0:0:0:
256,192,124600,1,0,0:0:0:0:
256,192,124700,1,8,0:0:0:0:
256,192,124900,1,4,0:0:0:0:
256,192,125300,1,8,0:0:0:0:
256,192,125500,1,0,0:0:0:0:
256,192,125600,1,0,0:0:0:0:
256,192,125700,1,0,0:0:0:0:
256,192,125900,1,0,0:0:0:0:
256,192,126100,1,8,0:0:0:0:
256,192,126200,1,0,0:0:0:0:
256,192,126300,1,8,0:0:0:0:
256,192,126500,1,0,0:0:0:0:
256,192,126700,1,0,0:0:0:0:
256,192,126800,1,0,0:0:0:0:
256,192,126900,1,8,0:0:0:0:
256,192,127000,1,8,0:0:0:0:
256,192,127100,1,0,0:0:0:0:
256,192,127300,1,8,0:0:0:0:
256,192,127400,1,8,0:0:0:0:
256,192,127500,1,8,0:0:0:0:
256,192,127700,1,0,0:0:0:0:
256,192,127900,1,8,0:0:0:0:
256,192,128100,1,0,0:0:0:0:
256,192,128500,1,8,0:0:0:0:
256,192,128700,1,0,0:0:0:0:
256,192,128800,1,0,0:0:0:0:
256,192,128900,1,0,0:0:0:0:
256,192,129100,1,0,0:0:0:0:
256,192,129200,1,0,0:0:0:0:
256,192,129300,1,8,0:0:0:0:
256,192,129500,1,8,0:0:0:0:
256,192,129700,1,0,0:0:0:0:
256,192,129900,1,0,0:0:0:0:
256,192,130000,1,0,0:0:0:0:
256,192,130100,1,8,0:0:0:0:
256,192,130200,1,8,0:0:0:0:
256,192,130300,1,8,0:0:0:0:
256,192,130500,1,0,0:0:0:0:
256,192,130700,1,0,0:0:0:0:
256,192,130900,1,8,0:0:0:0:
256,192,131100,1,8,0:0:0:0:
256,192,131300,1,0,0:0:0:0:
256,192,131500,1,0,0:0:0:0:
256,192,131600,1,0,0:0:0:0:
256,192,131700,1,8,0:0:0:0:
256,192,131900,1,0,0:0:0:0:
256,192,132000,1,8,0:0:0:0:
256,192,132100,1,0,0:0:0:0:
256,192,132300,1,0,0:0:0:0:
256,192,132400,1,8,0:0:0:0:
256,192,132500,1,0,0:0:0:0:
256,192,132600,1,0,0:0:0:0:
256,192,132700,1,8,0:0:0:0:
256,192,132900,1,0,0:0:0:0:
256,192,133100,1,0,0:0:0:0:
256,192,133300,1,8,0:0:0:0:
256,192,133500,1,0,0:0:0:0:
256,192,133600,1,8,0:0:0:0:
256,192,133700,1,0,0:0:0:0:
256,192,133900,1,8,0:0:0:0:
256,192,134000,1,8,0:0:0:0:
256,192,134100,1,0,0:0:0:0:
256,192,134300,1,8,0:0:0:0:
256,192,134500,1,0,0:0:0:0:
256,192,134700,1,8,0:0:0:0:
256,192,134800,1,8,0:0:0:0:
256,192,134900,1,0,0:0:0:0:
256,192,135000,1,0,0:0:0:0:
256,192,135100,1,8,0:0:0:0:
256,192,135200,1,8,0:0:0:0:
256,192,135300,1,8,0:0:0:0:
256,192,135600,1,0,0:0:0:0:
256,192,135700,1,0,0:0:0:0:
256,192,135900,1,8,0:0:0:0:
256,192,136100,1,4,0:0:0:0:
256,192,138100,1,0,0:0:0:0:
256,192,138300,1,0,0:0:0:0:
256,192,138500,1,0,0:0:0:0:
256,192,138700,1,4,0:0:0:0:
256,192,139100,1,8,0:0:0:0:
256,192,139300,1,4,0:0:0:0:
256,192,139700,1,8,0:0:0:0:
256,192,139900,1,4,0:0:0:0:
256,192,140300,1,8,0:0:0:0:
256,192,140500,1,4,0:0:0:0:
256,192,140700,1,0,0:0:0:0:
256,192,140800,1,0,0:0:0:0:
256,192,141000,1,0,0:0:0:0:
256,192,141200,1,0,0:0:0:0:
256,192,141700,1,4,0:0:0:0:
256,192,142000,1,8,0:0:0:0:
256,192,142100,1,0,0:0:0:0:
256,192,142300,1,0,0:0:0:0:
256,192,142500,1,0,0:0:0:0:
256,192,142900,1,8,0:0:0:0:
256,192,143000,1,8,0:0:0:0:
256,192,143100,1,8,0:0:0:0:
256,192,143300,1,0,0:0:0:0:
256,192,143500,1,0,0:0:0:0:
256,192,143600,1,8,0:0:0:0:
256,192,143700,1,0,0:0:0:0:
256,192,143900,1,8,0:0:0:0:
256,192,144100,1,0,0:0:0:0:
256,192,144200,1,8,0:0:0:0:
256,192,144300,1,0,0:0:0:0:
256,192,144400,1,8,0:0:0:0:
256,192,144500,1,0,0:0:0:0:
256,192,144900,1,4,0:0:0:0:
256,192,145200,1,8,0:0:0:0:
256,192,145300,1,0,0:0:0:0:
256,192,145500,1,8,0:0:0:0:
256,192,145700,1,0,0:0:0:0:
256,192,145800,1,8,0:0:0:0:
256,192,145900,1,0,0:0:0:0:
256,192,146000,1,8,0:0:0:0:
256,192,146100,1,0,0:0:0:0:
256,192,146500,1,8,0:0:0:0:
256,192,146700,1,0,0:0:0:0:
256,192,146800,1,0,0:0:0:0:
256,192,146900,1,0,0:0:0:0:
256,192,147100,1,8,0:0:0:0:
256,192,147300,1,8,0:0:0:0:
256,192,147400,1,8,0:0:0:0:
256,192,147600,1,0,0:0:0:0:
256,192,147700,1,8,0:0:0:0:
256,192,148100,1,4,0:0:0:0:
256,192,148400,1,8,0:0:0:0:
256,192,148500,1,0,0:0:0:0:
256,192,148700,1,8,0:0:0:0:
256,192,149000,1,8,0:0:0:0:
256,192,149100,1,0,0:0:0:0:
256,192,149300,1,8,0:0:0:0:
256,192,149700,1,8,0:0:0:0:
256,192,150000,1,8,0:0:0:0:
256,192,150100,1,8,0:0:0:0:
256,192,150300,1,0,0:0:0:0:
256,192,150500,1,0,0:0:0:0:
256,192,150600,1,8,0:0:0:0:
256,192,150700,1,0,0:0:0:0:
256,192,150900,1,0,0:0:0:0:
256,192,151100,1,8,0:0:0:0:
256,192,151300,1,4,0:0:0:0:
256,192,151600,1,8,0:0:0:0:
256,192,151700,1,0,0:0:0:0:
256,192,151900,1,4,0:0:0:0:
256,192,152200,1,8,0:0:0:0:
256,192,152300,1,0,0:0:0:0:
256,192,152500,1,0,0:0:0:0:
256,192,152900,1,0,0:0:0:0:
256,192,153100,1,8,0:0:0:0:
256,192,153200,1,0,0:0:0:0:
256,192,153300,1,0,0:0:0:0:
256,192,153500,1,0,0:0:0:0:
256,192,153700,1,8,0:0:0:0:
256,192,153800,1,8,0:0:0:0:
256,192,153900,1,8,0:0:0:0:
256,192,154000,1,8,0:0:0:0:
256,192,154100,1,0,0:0:0:0:
256,192,154300,1,8,0:0:0:0:
256,192,154500,1,4,0:0:0:0:
256,192,154900,1,8,0:0:0:0:
256,192,155100,1,0,0:0:0:0:
256,192,155200,1,0,0:0:0:0:
256,192,155300,1,8,0:0:0:0:
256,192,155600,1,8,0:0:0:0:
256,192,155700,1,0,0:0:0:0:
256,192,155900,1,8,0:0:0:0:
256,192,156100,1,0,0:0:0:0:
256,192,156300,1,0,0:0:0:0:
256,192,156400,1,0,0:0:0:0:
256,192,156500,1,8,0:0:0:0:
256,192,156700,1,8,0:0:0:0:
256,192,156900,1,0,0:0:0:0:
256,192,157100,1,8,0:0:0:0:
256,192,157200,1,0,0:0:0:0:
256,192,157500,1,8,0:0:0:0:
256,192,157700,1,0,0:0:0:0:
256,192,157800,1,0,0:0:0:0:
256,192,157900,1,0,0:0:0:0:
256,192,158000,1,8,0:0:0:0:
256,192,158100,1,0,0:0:0:0:
256,192,158300,1,8,0:0:0:0:
256,192,158500,1,8,0:0:0:0:
256,192,158600,1,8,0:0:0:0:
256,192,158700,1,0,0:0:0:0:
256,192,158800,1,0,0:0:0:0:
256,192,158900,1,0,0:0:0:0:
256,192,159100,1,8,0:0:0:0:
256,192,159300,1,0,0:0:0:0:
256,192,159500,1,8,0:0:0:0:
256,192,159700,1,8,0:0:0:0:
256,192,159800,1,8,0:0:0:0:
256,192,159900,1,0,0:0:0:0:
256,192,160000,1,8,0:0:0:0:
256,192,160100,1,0,0:0:0:0:
256,192,160300,1,8,0:0:0:0:
256,192,160700,1,0,0:0:0:0:
256,192,160900,1,4,0:0:0:0:
256,192,161300,1,8,0:0:0:0:
256,192,161400,1,8,0:0:0:0:
256,192,161500,1,8,0:0:0:0:
256,192,161700,1,0,0:0:0:0:
256,192,161900,1,0,0:0:0:0:
256,192,162000,1,8,0:0:0:0:
256,192,162300,1,0,0:0:0:0:
256,192,162500,1,8,0:0:0:0:
256,192,162600,1,8,0:0:0:0:
256,192,162700,1,8,0:0:0:0:
256,192,162800,1,0,0:0:0:0:
256,192,162900,1,0,0:0:0:0:
256,192,163100,1,0,0:0:0:0:
256,192,163200,1,8,0:0:0:0:
256,192,163400,1,8,0:0:0:0:
256,192,163500,1,0,0:0:0:0:
256,192,163600,1,8,0:0:0:0:
256,192,163900,1,0,0:0:0:0:
256,192,164100,1,8,0:0:0:0:
256,192,164300,1,8,0:0:0:0:
256,192,164400,1,0,0:0:0:0:
256,192,164500,1,8,0:0:0:0:
256,192,164700,1,0,0:0:0:0:
256,192,164900,1,8,0:0:0:0:
256,192,165100,1,8,0:0:0:0:
256,192,165200,1,0,0:0:0:0:
256,192,165300,1,8,0:0:0:0:
256,192,165500,1,0,0:0:0:0:
256,192,165700,1,8,0:0:0:0:
256,192,165900,1,8,0:0:0:0:
256,192,166000,1,0,0:0:0:0:
256,192,166100,1,8,0:0:0:0:
256,192,166300,1,0,0:0:0:0:
256,192,166400,1,8,0:0:0:0:
256,192,166600,1,0,0:0:0:0:
256,192,166700,1,8,0:0:0:0:
256,192,166800,1,0,0:0:0:0:
256,192,166900,1,8,0:0:0:0:
256,192,167100,1,8,0:0:0:0:
256,192,167300,1,4,0:0:0:0:
256,192,168900,1,4,0:0:0:0:
256,192,169100,1,4,0:0:0:0:
256,192,169300,1,4,0:0:0:0:
256,192,169500,1,4,0:0:0:0:
256,192,169700,1,8,0:0:0:0:
256,192,169800,1,8,0:0:0:0:
256,192,169900,1,8,0:0:0:0:
256,192,170000,1,8,0:0:0:0:
256,192,170100,1,0,0:0:0:0:
256,192,170200,1,0,0:0:0:0:
256,192,170300,1,0,0:0:0:0:
256,192,170500,1,4,0:0:0:0:
256,192,172100,1,4,0:0:0:0:
256,192,173700,1,4,0:0:0:0:
256,192,175300,1,4,0:0:0:0:
256,192,176100,1,0,0:0:0:0:
256,192,176500,1,8,0:0:0:0:
256,192,176900,1,4,0:0:0:0:
256,192,177300,1,0,0:0:0:0:
256,192,177500,1,0,0:0:0:0:
256,192,177600,1,0,0:0:0:0:
256,192,177700,1,0,0:0:0:0:
256,192,177900,1,0,0:0:0:0:
256,192,178000,1,0,0:0:0:0:
256,192,178100,1,8,0:0:0:0:
256,192,178300,1,8,0:0:0:0:
256,192,178500,1,0,0:0:0:0:
256,192,178700,1,0,0:0:0:0:
256,192,178800,1,0,0:0:0:0:
256,192,178900,1,0,0:0:0:0:
256,192,179100,1,0,0:0:0:0:
256,192,179200,1,0,0:0:0:0:
256,192,179300,1,0,0:0:0:0:
256,192,179500,1,0,0:0:0:0:
256,192,179600,1,0,0:0:0:0:
256,192,179700,1,8,0:0:0:0:
256,192,179900,1,8,0:0:0:0:
256,192,180100,1,4,0:0:0:0:
256,192,180900,1,0,0:0:0:0:
256,192,181300,1,8,0:0:0:0:
256,192,181500,1,8,0:0:0:0:
256,192,181700,1,0,0:0:0:0:
256,192,181800,1,8,0:0:0:0:
256,192,181900,1,8,0:0:0:0:
256,192,182000,1,8,0:0:0:0:
256,192,182100,1,0,0:0:0:0:
256,192,182200,1,8,0:0:0:0:
256,192,182300,1,8,0:0:0:0:
256,192,182400,1,8,0:0:0:0:
256,192,182500,1,0,0:0:0:0:
256,192,182600,1,8,0:0:0:0:
256,192,182700,1,8,0:0:0:0:
256,192,182900,1,8,0:0:0:0:
256,192,183000,1,8,0:0:0:0:
256,192,183100,1,8,0:0:0:0:
256,192,183200,1,8,0:0:0:0:
256,192,183300,12,0,184000,0:0:0:0:
256,192,184100,5,4,0:0:0:0:
256,192,184500,1,8,0:0:0:0:
256,192,184700,1,8,0:0:0:0:
256,192,184800,1,8,0:0:0:0:
256,192,184900,1,0,0:0:0:0:
256,192,185100,1,0,0:0:0:0:
256,192,185200,1,0,0:0:0:0:
256,192,185300,1,8,0:0:0:0:
256,192,185500,1,8,0:0:0:0:
256,192,185700,1,0,0:0:0:0:
256,192,185800,1,0,0:0:0:0:
256,192,185900,1,0,0:0:0:0:
256,192,186100,1,8,0:0:0:0:
256,192,186300,1,8,0:0:0:0:
256,192,186400,1,8,0:0:0:0:
256,192,186500,1,0,0:0:0:0:
256,192,186700,1,0,0:0:0:0:
256,192,186800,1,0,0:0:0:0:
256,192,186900,1,8,0:0:0:0:
256,192,187100,1,8,0:0:0:0:
256,192,187300,1,0,0:0:0:0:
256,192,187700,1,8,0:0:0:0:
256,192,187900,1,8,0:0:0:0:
256,192,188000,1,8,0:0:0:0:
256,192,188100,1,0,0:0:0:0:
256,192,188300,1,0,0:0:0:0:
256,192,188400,1,0,0:0:0:0:
256,192,188500,1,8,0:0:0:0:
256,192,188700,1,8,0:0:0:0:
256,192,188900,1,0,0:0:0:0:
256,192,189100,1,8,0:0:0:0:
256,192,189200,1,0,0:0:0:0:
256,192,189300,1,0,0:0:0:0:
256,192,189500,1,8,0:0:0:0:
256,192,189700,1,0,0:0:0:0:
256,192,189800,1,0,0:0:0:0:
256,192,189900,1,0,0:0:0:0:
256,192,190000,1,0,0:0:0:0:
256,192,190100,1,8,0:0:0:0:
256,192,190500,1,0,0:0:0:0:
256,192,190700,1,8,0:0:0:0:
256,192,190900,1,0,0:0:0:0:
256,192,191000,1,0,0:0:0:0:
256,192,191100,1,8,0:0:0:0:
256,192,191300,1,0,0:0:0:0:
256,192,191400,1,0,0:0:0:0:
256,192,191500,1,8,0:0:0:0:
256,192,191600,1,0,0:0:0:0:
256,192,191700,1,8,0:0:0:0:
256,192,192000,1,8,0:0:0:0:
256,192,192100,1,0,0:0:0:0:
256,192,192300,1,8,0:0:0:0:
256,192,192500,1,0,0:0:0:0:
256,192,192600,1,0,0:0:0:0:
256,192,192700,1,8,0:0:0:0:
256,192,192900,1,8,0:0:0:0:
256,192,193000,1,8,0:0:0:0:
256,192,193100,1,0,0:0:0:0:
256,192,193200,1,8,0:0:0:0:
256,192,193300,1,0,0:0:0:0:
256,192,193500,1,8,0:0:0:0:
256,192,193700,1,0,0:0:0:0:
256,192,194000,1,8,0:0:0:0:
256,192,194100,1,8,0:0:0:0:
256,192,194300,1,8,0:0:0:0:
256,192,194500,1,0,0:0:0:0:
256,192,194600,1,0,0:0:0:0:
256,192,194700,1,8,0:0:0:0:
256,192,194800,1,0,0:0:0:0:
256,192,194900,1,8,0:0:0:0:
256,192,195100,1,8,0:0:0:0:
256,192,195300,1,0,0:0:0:0:
256,192,195400,1,8,0:0:0:0:
256,192,195600,1,8,0:0:0:0:
256,192,195700,1,0,0:0:0:0:
256,192,195900,1,8,0:0:0:0:
256,192,196000,1,0,0:0:0:0:
256,192,196200,1,8,0:0:0:0:
256,192,196300,1,0,0:0:0:0:
256,192,196400,1,0,0:0:0:0:
256,192,196500,1,8,0:0:0:0:
256,192,196900,1,4,0:0:0:0:
256,192,197300,1,8,0:0:0:0:
256,192,197500,1,0,0:0:0:0:
256,192,197600,1,0,0:0:0:0:
256,192,197700,1,0,0:0:0:0:
256,192,197900,1,0,0:0:0:0:
256,192,198000,1,0,0:0:0:0:
256,192,198100,1,8,0:0:0:0:
256,192,198200,1,0,0:0:0:0:
256,192,198300,1,8,0:0:0:0:
256,192,198500,1,0,0:0:0:0:
256,192,198700,1,0,0:0:0:0:
256,192,198800,1,0,0:0:0:0:
256,192,198900,1,8,0:0:0:0:
256,192,199000,1,8,0:0:0:0:
256,192,199100,1,0,0:0:0:0:
256,192,199300,1,8,0:0:0:0:
256,192,199500,1,8,0:0:0:0:
256,192,199700,1,0,0:0:0:0:
256,192,199900,1,8,0:0:0:0:
256,192,200100,1,0,0:0:0:0:
256,192,200300,1,0,0:0:0:0:
256,192,200400,1,0,0:0:0:0:
256,192,200500,1,8,0:0:0:0:
256,192,200600,1,8,0:0:0:0:
256,192,200700,1,0,0:0:0:0:
256,192,200900,1,0,0:0:0:0:
256,192,201100,1,0,0:0:0:0:
256,192,201200,1,0,0:0:0:0:
256,192,201300,1,8,0:0:0:0:
256,192,201500,1,8,0:0:0:0:
256,192,201700,1,0,0:0:0:0:
256,192,201900,1,8,0:0:0:0:
256,192,202000,1,0,0:0:0:0:
256,192,202100,1,8,0:0:0:0:
256,192,202300,1,8,0:0:0:0:
256,192,202400,1,0,0:0:0:0:
256,192,202500,1,8,0:0:0:0:
256,192,202600,1,0,0:0:0:0:
256,192,202700,1,0,0:0:0:0:
256,192,202900,1,8,0:0:0:0:
256,192,203100,1,0,0:0:0:0:
256,192,203300,1,0,0:0:0:0:
256,192,203500,1,0,0:0:0:0:
256,192,203600,1,0,0:0:0:0:
256,192,203700,1,8,0:0:0:0:
256,192,203900,1,8,0:0:0:0:
256,192,204000,1,0,0:0:0:0:
256,192,204100,1,0,0:0:0:0:
256,192,204300,1,0,0:0:0:0:
256,192,204400,1,0,0:0:0:0:
256,192,204500,1,8,0:0:0:0:
256,192,204700,1,0,0:0:0:0:
256,192,204900,1,8,0:0:0:0:
256,192,205100,1,8,0:0:0:0:
256,192,205200,1,0,0:0:0:0:
256,192,205300,1,0,0:0:0:0:
256,192,205500,1,0,0:0:0:0:
256,192,205600,1,0,0:0:0:0:
256,192,205700,1,8,0:0:0:0:
256,192,205900,1,0,0:0:0:0:
256,192,206100,1,8,0:0:0:0:
256,192,206200,1,8,0:0:0:0:
256,192,206300,1,0,0:0:0:0:
256,192,206500,1,8,0:0:0:0:
256,192,206600,1,8,0:0:0:0:
256,192,206700,1,8,0:0:0:0:
256,192,206900,1,0,0:0:0:0:
256,192,207000,1,0,0:0:0:0:
256,192,207100,1,0,0:0:0:0:
256,192,207300,1,8,0:0:0:0:
256,192,207400,1,8,0:0:0:0:
256,192,207500,1,8,0:0:0:0:
256,192,207600,1,8,0:0:0:0:
256,192,207700,1,0,0:0:0:0:
256,192,207800,1,0,0:0:0:0:
256,192,207900,1,8,0:0:0:0:
256,192,208100,1,4,0:0:0:0:
256,192,208500,1,8,0:0:0:0:
256,192,208700,1,0,0:0:0:0:
256,192,208800,1,0,0:0:0:0:
256,192,208900,1,8,0:0:0:0:
256,192,209100,1,0,0:0:0:0:
256,192,209200,1,8,0:0:0:0:
256,192,209300,1,0,0:0:0:0:
256,192,209400,1,0,0:0:0:0:
256,192,209500,1,8,0:0:0:0:
256,192,209700,1,0,0:0:0:0:
256,192,210100,1,8,0:0:0:0:
256,192,210300,1,0,0:0:0:0:
256,192,210400,1,0,0:0:0:0:
256,192,210500,1,8,0:0:0:0:
256,192,210700,1,0,0:0:0:0:
256,192,210800,1,8,0:0:0:0:
256,192,210900,1,0,0:0:0:0:
256,192,211000,1,0,0:0:0:0:
256,192,211100,1,8,0:0:0:0:
256,192,211300,1,0,0:0:0:0:
256,192,211700,1,8,0:0:0:0:
256,192,211900,1,0,0:0:0:0:
256,192,212000,1,0,0:0:0:0:
256,192,212100,1,8,0:0:0:0:
256,192,212300,1,0,0:0:0:0:
256,192,212400,1,8,0:0:0:0:
256,192,212500,1,0,0:0:0:0:
256,192,212600,1,0,0:0:0:0:
256,192,212700,1,8,0:0:0:0:
256,192,212900,1,0,0:0:0:0:
256,192,213200,1,0,0:0:0:0:
256,192,213300,1,8,0:0:0:0:
256,192,213500,1,0,0:0:0:0:
256,192,213600,1,0,0:0:0:0:
256,192,213700,1,8,0:0:0:0:
256,192,213800,1,8,0:0:0:0:
256,192,213900,1,0,0:0:0:0:
256,192,214100,1,8,0:0:0:0:
256,192,214200,1,8,0:0:0:0:
256,192,214300,1,0,0:0:0:0:
256,192,214500,1,0,0:0:0:0:
256,192,214900,1,8,0:0:0:0:
256,192,215100,1,0,0:0:0:0:
256,192,215200,1,0,0:0:0:0:
256,192,215300,1,8,0:0:0:0:
256,192,215500,1,0,0:0:0:0:
256,192,215600,1,8,0:0:0:0:
256,192,215700,1,0,0:0:0:0:
256,192,215800,1,0,0:0:0:0:
256,192,215900,1,8,0:0:0:0:
256,192,216100,1,0,0:0:0:0:
256,192,216500,1,8,0:0:0:0:
256,192,216700,1,0,0:0:0:0:
256,192,216800,1,0,0:0:0:0:
256,192,216900,1,8,0:0:0:0:
256,192,217100,1,0,0:0:0:0:
256,192,217200,1,8,0:0:0:0:
256,192,217300,1,0,0:0:0:0:
256,192,217400,1,0,0:0:0:0:
256,192,217500,1,8,0:0:0:0:
256,192,217700,1,8,0:0:0:0:
256,192,217900,1,8,0:0:0:0:
256,192,218100,1,0,0:0:0:0:
256,192,218200,1,0,0:0:0:0:
256,192,218300,1,0,0:0:0:0:
256,192,218500,1,8,0:0:0:0:
256,192,218600,1,8,0:0:0:0:
256,192,218700,1,0,0:0:0:0:
256,192,218800,1,0,0:0:0:0:
256,192,218900,1,8,0:0:0:0:
256,192,219000,1,8,0:0:0:0:
256,192,219100,1,8,0:0:0:0:
256,192,219300,1,4,0:0:0:0:
256,192,219500,1,8,0:0:0:0:
256,192,219600,1,0,0:0:0:0:
256,192,219800,1,8,0:0:0:0:
256,192,219900,1,0,0:0:0:0:
256,192,220100,1,8,0:0:0:0:
256,192,220300,1,0,0:0:0:0:
256,192,220400,1,8,0:0:0:0:
256,192,220700,1,0,0:0:0:0:
256,192,220900,1,8,0:0:0:0:
256,192,221100,1,8,0:0:0:0:
256,192,221200,1,0,0:0:0:0:
256,192,221400,1,0,0:0:0:0:
256,192,221500,1,8,0:0:0:0:
256,192,221700,1,8,0:0:0:0:
256,192,221900,1,0,0:0:0:0:
256,192,222000,1,8,0:0:0:0:
256,192,222300,1,0,0:0:0:0:
256,192,222500,1,8,0:0:0:0:
256,192,222700,1,8,0:0:0:0:
256,192,222800,1,8,0:0:0:0:
256,192,223000,1,0,0:0:0:0:
256,192,223100,1,0,0:0:0:0:
256,192,223300,1,8,0:0:0:0:
256,192,223500,1,0,0:0:0:0:
256,192,223600,1,8,0:0:0:0:
256,192,223900,1,0,0:0:0:0:
256,192,224100,1,8,0:0:0:0:
256,192,224300,1,0,0:0:0:0:
256,192,224400,1,0,0:0:0:0:
256,192,224600,1,8,0:0:0:0:
256,192,224700,1,8,0:0:0:0:
256,192,224900,1,0,0:0:0:0:
256,192,225100,1,8,0:0:0:0:
256,192,225200,1,0,0:0:0:0:
256,192,225400,1,0,0:0:0:0:
256,192,225500,1,8,0:0:0:0:
256,192,225700,1,4,0:0:0:0:
256,192,226000,1,8,0:0:0:0:
256,192,226200,1,8,0:0:0:0:
256,192,226300,1,0,0:0:0:0:
256,192,226500,1,8,0:0:0:0:
256,192,226700,1,0,0:0:0:0:
256,192,226800,1,8,0:0:0:0:
256,192,227000,1,8,0:0:0:0:
256,192,227100,1,0,0:0:0:0:
256,192,227300,1,4,0:0:0:0:
256,192,227600,1,8,0:0:0:0:
256,192,227800,1,8,0:0:0:0:
256,192,227900,1,0,0:0:0:0:
256,192,228100,1,8,0:0:0:0:
256,192,228200,1,0,0:0:0:0:
256,192,228400,1,8,0:0:0:0:
256,192,228600,1,0,0:0:0:0:
256,192,228700,1,8,0:0:0:0:
256,192,228900,1,4,0:0:0:0:
256,192,229200,1,8,0:0:0:0:
256,192,229400,1,0,0:0:0:0:
256,192,229500,1,8,0:0:0:0:
256,192,229700,1,0,0:0:0:0:
256,192,229800,1,8,0:0:0:0:
256,192,230000,1,0,0:0:0:0:
256,192,230100,1,8,0:0:0:0:
256,192,230200,1,0,0:0:0:0:
256,192,230300,1,8,0:0:0:0:
256,192,230700,1,4,0:0:0:0:
256,192,231000,1,14,0:0:0:0:
256,192,231300,1,4,0:0:0:0:
256,192,231600,1,8,0:0:0:0:
256,192,231700,1,0,0:0:0:0:
256,192,231900,1,8,0:0:0:0:
256,192,232000,1,8,0:0:0:0:
256,192,232100,1,0,0:0:0:0:
256,192,232500,1,0,0:0:0:0:
256,192,232900,1,0,0:0:0:0:
256,192,233200,1,0,0:0:0:0:
256,192,233400,1,0,0:0:0:0:
256,192,233500,1,8,0:0:0:0:
256,192,233700,1,8,0:0:0:0:
256,192,233800,1,0,0:0:0:0:
256,192,233900,1,8,0:0:0:0:
256,192,234100,1,8,0:0:0:0:
256,192,234200,1,0,0:0:0:0:
256,192,234300,1,8,0:0:0:0:
256,192,234400,1,0,0:0:0:0:
256,192,234500,1,8,0:0:0:0:
256,192,234600,1,8,0:0:0:0:
256,192,234700,1,8,0:0:0:0:
256,192,234800,1,8,0:0:0:0:
256,192,235000,1,0,0:0:0:0:
256,192,235050,1,0,0:0:0:0:
256,192,235100,1,0,0:0:0:0:
