osu file format v14

[General]
AudioFilename: audio.mp3
AudioLeadIn: 0
PreviewTime: 48900
Countdown: 1
SampleSet: Normal
StackLeniency: 0.3
Mode: 0
LetterboxInBreaks: 0
EpilepsyWarning: 1
WidescreenStoryboard: 1

[Editor]
DistanceSpacing: 1.2
BeatDivisor: 4
GridSize: 4
TimelineZoom: 2.2

[Metadata]
Title:Mune Ippai no Dame o
TitleUnicode:胸いっぱいのダメを
Artist:PinocchioP
ArtistUnicode:ピノキオピー
Creator:AruOtta
Version:Master
Source:
Tags:whole lotta no's hatsune miku hatsune_miku 初音ミク vocaloid japanese pop j-pop jpop minamo 水面 naryuga bara-
BeatmapID:1069529
BeatmapSetID:502545

[Difficulty]
HPDrainRate:6
CircleSize:4.5
OverallDifficulty:9
ApproachRate:9.8
SliderMultiplier:1.9
SliderTickRate:1

[Events]
//Background and Video events
Video,-390,"video.avi"
0,0,"bg.jpg",0,0
//Break Periods
2,141900,150821
//Storyboard Layer 0 (Background)
//Storyboard Layer 1 (Fail)
//Storyboard Layer 2 (Pass)
//Storyboard Layer 3 (Foreground)
//Storyboard Layer 4 (Overlay)
//Storyboard Sound Samples

[TimingPoints]
900,200,4,1,1,70,1,0
2500,-133.333333333333,4,1,1,50,0,0
3200,-100,4,1,1,70,0,0
3500,-100,4,1,1,40,0,0
3600,-100,4,1,1,70,0,0
16900,-133.333333333333,4,1,1,50,0,0
17200,-133.333333333333,4,1,1,5,0,0
17300,-133.333333333333,4,1,1,50,0,0
17600,-133.333333333333,4,1,1,5,0,0
17700,-133.333333333333,4,1,1,50,0,0
17900,-133.333333333333,4,1,1,5,0,0
18000,-133.333333333333,4,1,1,50,0,0
18500,-100,4,1,1,70,0,0
20100,-133.333333333333,4,1,1,70,0,0
31500,-133.333333333333,4,1,1,50,0,0
32100,-133.333333333333,4,1,1,70,0,0
32900,-100,4,1,1,70,0,0
43100,-50,4,1,1,70,0,0
43300,-100,4,1,1,60,0,0
44100,-100,4,1,1,70,0,0
44700,-50,4,1,1,70,0,0
44900,-100,4,1,1,60,0,0
45700,-100,4,1,1,70,0,0
48900,-133.333333333333,4,1,1,50,0,0
60100,-100,4,1,1,70,0,0
61700,-100,4,1,1,70,0,1
72900,-100,4,1,1,70,0,0
103100,-50,4,1,1,70,0,0
103400,-100,4,1,1,60,0,0
104100,-100,4,1,1,70,0,0
104700,-50,4,1,1,70,0,0
105000,-100,4,1,1,60,0,0
105700,-100,4,1,1,70,0,0
109033,-100,4,1,1,40,0,0
109300,-100,4,1,1,70,0,0
109433,-100,4,1,1,40,0,0
109700,-100,4,1,1,70,0,0
109833,-100,4,1,1,50,0,0
110100,-100,4,1,1,70,0,0
110233,-100,4,1,1,50,0,0
110500,-100,4,1,1,80,0,0
110766,-100,4,1,1,60,0,0
110900,-100,4,1,1,80,0,0
111033,-100,4,1,1,70,0,0
111300,-100,4,1,1,80,0,0
111500,-100,4,1,1,50,0,0
111600,-100,4,1,1,70,0,0
112100,-133.333333333333,4,1,1,50,0,0
113300,-133.333333333333,4,1,1,70,0,0
113700,-100,4,1,1,70,0,1
136100,-100,4,1,1,70,0,0
167300,-133.333333333333,4,1,1,60,0,0
167312,-133.333333333333,4,1,1,5,0,0
167700,-133.333333333333,4,1,1,50,0,0
167712,-133.333333333333,4,1,1,5,0,0
168100,-133.333333333333,4,1,1,50,0,0
168112,-133.333333333333,4,1,1,5,0,0
168400,-133.333333333333,4,1,1,50,0,0
168412,-133.333333333333,4,1,1,5,0,0
168900,-83.3333333333333,4,1,1,70,0,0
169700,-100,4,1,1,70,0,0
170500,-133.333333333333,4,1,1,70,0,0
181700,-100,4,1,1,70,0,0
183300,-100,4,1,1,50,0,0
184100,-100,4,1,1,70,0,1
208000,-100,4,1,1,70,0,0
208100,-100,4,1,1,100,0,1
214500,-83.3333333333333,4,1,1,80,0,1
219100,-100,4,1,1,70,0,0
219300,-100,4,1,1,70,0,1
232100,-133.333333333333,4,1,1,70,0,0
232450,-133.333333333333,4,1,1,5,0,0
232500,-133.333333333333,4,1,1,70,0,0
232850,-133.333333333333,4,1,1,5,0,0
232900,-133.333333333333,4,1,1,70,0,0
233500,-100,4,1,1,70,0,0
233700,-83.3333333333333,4,1,1,70,0,0

[Colours]
Combo1 : 165,193,228
Combo2 : 255,0,128
Combo3 : 82,207,207
Combo4 : 130,23,145
Combo5 : 0,0,255
Combo6 : 227,172,207

[HitObjects]
323,87,900,6,0,P|278:79|236:100,1,95,14|0,0:0|3:0,0:0:0:0:
140,256,1100,2,0,B|152:192|152:192|144:168|144:168|164:140|164:140|144:100|164:56,1,190,10|0,0:0|3:0,0:0:0:0:
304,332,1400,2,0,B|292:268|292:268|300:244|300:244|280:216|280:216|300:176|280:132,1,190,10|0,0:0|3:0,0:0:0:0:
216,252,1700,6,0,B|364:280|364:280|388:264|432:264,1,190,10|0,0:0|3:0,0:0:0:0:
366,97,2000,2,0,B|380:160|380:160|376:172|376:172|388:168|388:168|384:180|384:180|400:266,1,190,10|0,0:0|3:0,0:0:0:0:
424,352,2300,1,10,0:0:0:0:
488,288,2400,1,0,3:0:0:0:
308,224,2500,38,0,L|224:208,1,71.2500027179719,2|0,3:0|3:0,3:0:0:0:
100,336,2700,2,0,L|184:320,1,71.2500027179719,0|0,3:0|3:0,0:0:0:0:
152,100,2900,6,0,L|172:188,1,71.2500027179719,2|0,3:0|3:0,3:0:0:0:
244,292,3100,1,0,3:0:0:0:
108,248,3200,38,0,L|60:56,1,190,10|10,0:0|0:0,0:0:0:0:
144,4,3500,1,0,3:0:0:0:
312,128,3600,6,0,P|239:73|152:100,1,190,10|0,0:0|0:0,0:0:0:0:
212,152,3900,1,8,0:0:0:0:
224,152,3950,1,0,3:0:0:0:
236,156,4000,1,8,0:0:0:0:
244,164,4050,1,0,3:0:0:0:
248,176,4100,38,0,B|236:184|236:184|256:188|256:188|244:196|244:196|208:336,1,190,6|8,0:0|0:0,0:0:0:0:
308,244,4400,1,0,3:0:0:0:
52,249,4500,2,0,L|144:276,1,95,2|0,0:0|3:0,0:0:0:0:
396,280,4700,2,0,L|384:184,1,95,8|0,0:0|3:0,0:0:0:0:
240,92,4900,2,0,B|300:168|300:168|312:112|380:100,1,190,2|8,0:0|0:0,0:0:0:0:
448,128,5200,2,0,P|448:76|412:32,1,95,2|0,3:0|2:0,0:0:0:0:
424,41,5500,6,0,L|440:176,1,95,10|0,0:0|3:0,0:0:0:0:
452,272,5700,1,2,0:0:0:0:
352,128,5800,1,0,3:0:0:0:
292,224,5900,2,0,P|340:244|396:220,1,95,8|0,0:0|3:0,0:0:0:0:
244,128,6100,2,0,B|196:148|184:200|184:200|88:168,1,190,2|8,0:0|0:0,0:0:0:0:
8,136,6400,1,0,3:0:0:0:
160,284,6500,2,0,P|200:288|252:252,1,95,2|0,0:0|3:0,0:0:0:0:
243,38,6700,1,8,0:0:0:0:
146,112,6800,2,0,L|184:200,1,95,2|0,3:0|2:0,0:0:0:0:
184,200,7100,70,0,P|140:172|80:192,1,95,10|0,0:0|3:0,0:0:0:0:
66,303,7300,2,0,L|160:284,1,95,6|0,0:0|3:0,0:0:0:0:
272,272,7500,1,8,0:0:0:0:
184,200,7600,1,0,3:0:0:0:
244,344,7700,2,0,B|292:360|332:324|332:324|384:312|420:352,1,190,2|8,0:0|0:0,0:0:0:0:
348,240,8000,1,0,3:0:0:0:
304,156,8100,2,0,P|300:112|336:56,1,95,2|0,0:0|3:0,0:0:0:0:
424,36,8300,1,8,0:0:0:0:
487,109,8400,2,0,P|446:132|400:132,1,95,2|0,3:0|2:0,0:0:0:0:
399,131,8700,2,0,L|520:160,1,95,10|0,0:0|3:0,0:0:0:0:
304,156,8900,6,0,B|176:184|176:184|148:164|104:168,1,190,2|8,0:0|0:0,0:0:0:0:
120,260,9200,1,0,3:0:0:0:
192,92,9300,2,0,P|140:76|68:88,1,95,2|0,0:0|3:0,0:0:0:0:
36,216,9500,2,0,L|60:340,1,95,8|0,0:0|3:0,0:0:0:0:
287,331,9700,2,0,B|236:324|216:280|216:280|120:260,1,190,2|8,0:0|0:0,0:0:0:0:
192,92,10000,2,0,B|180:148|224:204|224:204|120:184,1,190,0|0,3:0|0:0,0:0:0:0:
296,248,10300,2,0,P|312:200|288:144,1,95,8|0,0:0|3:0,0:0:0:0:
192,92,10500,6,0,B|152:64|104:96|104:96|76:156|20:160,1,190,10|0,0:0|3:0,0:0:0:0:
105,6,10800,2,0,L|155:190,1,190,8|8,0:0|0:0,0:0:0:0:
76,248,11100,1,0,0:0:0:0:
8,64,11200,1,8,0:0:0:0:
76,248,11300,6,0,P|136:288|252:216,1,190,10|0,0:0|3:0,0:0:0:0:
412,116,11600,2,0,P|340:176|380:292,1,190,10|8,0:0|0:0,0:0:0:0:
432,216,11900,1,2,0:0:0:0:
392,16,12000,1,8,0:0:0:0:
260,120,12100,70,0,B|228:96|228:96|204:144|204:144|136:120|88:148,1,190,10|0,0:0|3:0,0:0:0:0:
112,309,12400,2,0,P|143:274|152:228,1,95,8|0,0:0|3:0,0:0:0:0:
140,48,12600,1,8,0:0:0:0:
7,155,12700,2,0,P|20:200|56:232,1,95,0|8,0:0|0:0,0:0:0:0:
256,304,12900,6,0,B|348:272|348:272|384:328|448:324,1,190,10|0,0:0|3:0,0:0:0:0:
500,128,13200,2,0,B|484:116|468:92|468:92|432:264,1,190,10|0,0:0|0:0,0:0:0:0:
314,63,13500,1,8,0:0:0:0:
251,202,13600,1,0,0:0:0:0:
28,108,13700,70,0,L|252:68,1,190,10|0,0:0|3:0,0:0:0:0:
64,236,14000,2,0,L|288:196,1,190,8|0,0:0|3:0,0:0:0:0:
114,361,14300,2,0,B|140:366|140:366|156:346|156:346|229:354|293:332,1,190,8|0,0:0|3:0,0:0:0:0:
430,227,14600,5,8,0:0:0:0:
251,202,14700,1,0,0:0:0:0:
398,93,14800,1,0,0:0:0:0:
294,333,14900,2,0,L|316:221,1,95,10|0,0:0|3:0,0:0:0:0:
191,114,15100,2,0,L|173:21,1,95,10|0,0:0|3:0,0:0:0:0:
279,147,15500,70,0,P|328:172|284:64,2,285,10|10|10,0:0|0:0|0:0,0:0:0:0:
464,56,16200,6,0,P|476:104|460:160,1,95,0|0,0:0|3:0,0:0:0:0:
338,255,16400,1,8,0:0:0:0:
338,255,16500,2,0,P|384:246|424:220,1,95,8|8,0:0|0:0,0:0:0:0:
383,13,16700,2,0,P|429:23|464:56,1,95,8|0,0:0|0:0,0:0:0:0:
496,252,16900,6,0,P|424:316|280:320,1,213.750008153916,0|0,0:0|2:0,0:0:0:0:
224,60,17300,2,0,L|256:272,1,213.750008153916,0|0,0:0|2:0,0:0:0:0:
167,146,17700,6,0,P|242:136|335:162,1,142.500005435944,0|0,0:0|2:0,2:0:0:0:
140,224,18000,2,0,P|64:233|-28:208,1,142.500005435944,0|0,0:0|3:0,2:0:0:0:
72,32,18300,2,0,L|84:112,1,71.2500027179719,8|0,0:0|2:0,0:0:0:0:
216,292,18500,38,0,P|244:260|236:188,1,95,14|0,0:0|3:0,0:0:0:0:
160,64,18700,2,0,P|212:96|272:76,1,95,10|0,0:0|3:0,0:0:0:0:
392,20,18900,1,10,0:0:0:0:
340,160,19000,1,0,3:0:0:0:
472,128,19100,2,0,L|368:92,1,95,10|0,0:0|3:0,0:0:0:0:
223,0,19300,6,0,L|247:108,1,95,10|8,0:0|0:0,0:0:0:0:
236,120,19450,1,0,3:0:0:0:
224,144,19500,2,0,L|156:136,2,47.5,8|0|10,0:0|0:0|0:0,0:0:0:0:
388,196,19700,2,0,L|284:216,1,95
172,260,19900,1,0,0:0:0:0:
172,260,19950,1,0,3:0:0:0:
172,260,20000,1,0,0:0:0:0:
172,260,20050,1,0,3:0:0:0:
172,260,20100,38,0,P|212:312|312:328,1,142.500005435944,0|8,0:0|0:0,0:0:0:0:
364,304,20400,1,0,3:0:0:0:
297,117,20500,2,0,B|312:156|296:192|296:192|280:228|296:256,1,142.500005435944,2|10,0:0|0:0,0:0:0:0:
364,224,20800,1,0,3:0:0:0:
228,152,20900,6,0,L|140:164,1,71.2500027179719,0|0,0:0|3:0,0:0:0:0:
368,88,21100,2,0,L|456:100,1,71.2500027179719,10|0,0:0|3:0,0:0:0:0:
236,80,21300,1,2,0:0:0:0:
364,224,21400,2,0,L|452:236,1,71.2500027179719,2|8,3:0|0:0,0:0:0:0:
228,152,21600,1,2,3:0:0:0:
147,208,21700,70,0,P|112:202|99:165,1,71.2500027179719,0|0,0:0|3:0,3:0:0:0:
187,43,21900,2,0,P|222:49|235:86,1,71.2500027179719,8|0,0:0|3:0,3:0:0:0:
147,208,22100,1,2,0:0:0:0:
35,142,22200,1,0,3:0:0:0:
165,127,22300,2,0,P|204:144|227:191,1,71.2500027179719,10|0,0:0|3:0,0:0:0:0:
263,248,22500,5,0,0:0:0:0:
263,248,22600,1,0,3:0:0:0:
109,273,22700,2,0,L|128:188,1,71.2500027179719,10|0,0:0|3:0,0:0:0:0:
165,127,22900,2,0,L|229:185,1,71.2500027179719,10|0,0:0|3:0,0:0:0:0:
263,248,23100,2,0,L|179:274,1,71.2500027179719,8|2,0:0|3:0,0:0:0:0:
299,145,23300,70,0,L|439:173,1,142.500005435944,0|8,0:0|0:0,0:0:0:0:
512,236,23600,1,0,3:0:0:0:
370,296,23700,2,0,P|350:248|364:208,1,71.2500027179719,2|0,0:0|3:0,0:0:0:0:
445,37,23900,2,0,P|445:72|427:102,1,71.2500027179719,10|0,0:0|3:0,0:0:0:0:
299,145,24100,5,2,0:0:0:0:
438,172,24200,1,2,3:0:0:0:
445,37,24300,2,0,P|409:37|379:55,1,71.2500027179719,8|2,0:0|3:0,0:0:0:0:
352,230,24500,1,2,0:0:0:0:
493,222,24600,2,0,P|510:191|510:156,1,71.2500027179719,0|10,0:0|0:0,0:0:0:0:
379,55,24800,1,2,3:0:0:0:
352,230,24900,70,0,B|338:263|338:263|298:250,1,71.2500027179719,0|0,0:0|3:0,0:0:0:0:
246,130,25100,2,0,B|260:97|260:97|300:110,1,71.2500027179719,8|0,0:0|3:0,0:0:0:0:
388,137,25300,1,2,0:0:0:0:
388,137,25400,1,0,3:0:0:0:
304,252,25500,2,0,P|268:249|240:228,1,71.2500027179719,10|0,0:0|3:0,0:0:0:0:
162,117,25700,5,2,0:0:0:0:
162,117,25800,2,0,L|153:43,1,71.2500027179719,2|0,3:0|3:0,0:0:0:0:
113,186,26000,1,2,3:0:0:0:
113,186,26100,1,2,3:0:0:0:
113,186,26200,1,2,3:0:0:0:
113,186,26300,1,0,3:0:0:0:
113,186,26400,1,2,3:0:0:0:
162,323,26500,70,0,P|225:295|239:227,1,142.500005435944,0|8,0:0|0:0,0:0:0:0:
198,136,26800,1,0,3:0:0:0:
47,233,26900,2,0,L|67:329,1,71.2500027179719,2|0,0:0|0:0,0:0:0:0:
162,246,27100,1,10,0:0:0:0:
162,246,27200,1,0,3:0:0:0:
234,337,27300,6,0,L|272:277,1,71.2500027179719,2|0,0:0|0:0,0:0:0:0:
104,196,27500,2,0,P|70:206|46:232,1,71.2500027179719,10|0,3:0|3:0,3:0:0:0:
135,358,27700,1,2,0:0:0:0:
271,276,27800,2,0,P|258:243|230:223,1,71.2500027179719,2|8,3:0|0:0,3:0:0:0:
135,358,28000,1,2,3:0:0:0:
46,232,28100,70,0,B|35:200|35:200|38:194|38:194|28:157,1,71.2500027179719,0|0,0:0|3:0,0:0:0:0:
179,80,28300,2,0,B|170:109|170:109|173:115|173:115|162:147,1,71.2500027179719,8|0,0:0|3:0,0:0:0:0:
64,91,28500,1,2,0:0:0:0:
64,91,28600,1,0,3:0:0:0:
121,207,28700,2,0,P|157:223|201:211,1,71.2500027179719,10|0,0:0|3:0,0:0:0:0:
282,118,28900,5,2,0:0:0:0:
282,118,29000,1,0,3:0:0:0:
303,356,29100,2,0,L|286:214,1,142.500005435944,10|2,0:0|0:0,0:0:0:0:
455,234,29400,2,0,L|398:277,1,71.2500027179719,2|8,3:0|0:0,0:0:0:0:
286,214,29600,1,2,3:0:0:0:
194,301,29700,70,0,P|222:349|318:345,1,142.500005435944,0|8,0:0|0:0,0:0:0:0:
398,277,30000,1,0,3:0:0:0:
460,163,30100,2,0,L|454:234,1,71.2500027179719,2|0,0:0|3:0,0:0:0:0:
346,157,30300,2,0,L|338:73,1,71.2500027179719,10|0,0:0|3:0,0:0:0:0:
249,34,30500,5,2,0:0:0:0:
339,86,30600,1,0,3:0:0:0:
223,122,30700,2,0,P|190:129|128:154,1,71.2500027179719,10|0,0:0|3:0,0:0:0:0:
346,157,30900,1,2,0:0:0:0:
256,209,31000,1,2,3:0:0:0:
372,245,31100,2,0,P|405:252|467:277,1,71.2500027179719,8|2,0:0|3:0,0:0:0:0:
270,331,31300,38,0,P|214:347|150:267,1,142.500005435944,0|0,3:0|3:0,0:0:0:0:
160,217,31600,1,2,3:0:0:0:
228,175,31700,1,2,3:0:0:0:
302,205,31800,1,0,3:0:0:0:
371,194,31900,1,2,3:0:0:0:
412,139,32000,1,0,3:0:0:0:
403,70,32100,5,8,0:0:0:0:
288,8,32200,1,2,0:0:0:0:
291,130,32300,1,8,0:0:0:0:
403,70,32400,2,0,P|397:34|379:5,1,71.2500027179719,2|8,0:0|0:0,0:0:0:0:
234,74,32600,1,2,0:0:0:0:
385,145,32700,2,0,P|420:143|451:127,1,71.2500027179719,8|2,0:0|3:0,0:0:0:0:
452,128,32900,38,0,B|423:115|403:87|403:87|360:139|291:130,1,190,4|8,0:0|0:0,0:0:0:0:
100,84,33200,1,0,3:0:0:0:
208,212,33300,2,0,L|324:204,1,95,2|8,0:0|0:0,0:0:0:0:
116,172,33500,1,2,0:0:0:0:
136,324,33600,1,8,0:0:0:0:
344,288,33700,6,0,L|249:294,1,95,2|0,0:0|3:0,0:0:0:0:
108,248,33900,1,10,0:0:0:0:
208,360,34000,1,10,0:0:0:0:
116,172,34100,1,2,3:0:0:0:
136,324,34200,1,2,3:0:0:0:
164,112,34300,2,0,L|272:104,1,95,10|0,0:0|3:0,0:0:0:0:
196,188,34500,69,2,0:0:0:0:
140,36,34600,1,0,3:0:0:0:
258,104,34700,1,10,0:0:0:0:
80,124,34800,1,2,0:0:0:0:
316,160,34900,2,0,P|336:112|308:44,1,95,2|8,0:0|0:0,0:0:0:0:
24,72,35100,2,0,P|4:120|32:188,1,95,2|8,0:0|0:0,0:0:0:0:
328,71,35300,5,2,0:0:0:0:
164,112,35400,1,2,3:0:0:0:
276,228,35500,2,0,P|320:240|380:208,1,95,8|8,0:0|0:0,0:0:0:0:
204,44,35700,2,0,P|160:32|100:64,1,95,2|0,3:0|2:0,2:0:0:0:
11,160,35900,2,0,L|132:168,1,95,8|0,0:0|0:0,0:0:0:0:
265,179,36100,70,0,B|232:196|232:196|216:168|216:168|188:196|144:196|106:166,1,190,4|8,0:0|0:0,0:0:0:0:
240,96,36400,1,0,0:0:0:0:
192,264,36500,2,0,L|212:372,1,95,2|8,0:0|0:0,0:0:0:0:
164,112,36700,1,2,0:0:0:0:
116,280,36800,1,8,0:0:0:0:
264,244,36900,6,0,L|380:264,1,95,2|2,0:0|3:0,0:0:0:0:
136,196,37100,1,10,0:0:0:0:
248,328,37200,1,10,0:0:0:0:
208,144,37300,2,0,P|204:84|284:32,1,142.5,2|0,3:0|2:0,2:0:0:0:
372,92,37500,2,0,L|278:108,1,95,10|0,0:0|3:0,0:0:0:0:
76,88,37700,69,2,0:0:0:0:
208,144,37800,1,0,3:0:0:0:
56,164,37900,1,10,0:0:0:0:
208,144,38000,1,0,0:0:0:0:
92,236,38100,2,0,P|44:244|-8:212,1,95,0|10,0:0|0:0,0:0:0:0:
156,84,38300,2,0,P|198:64|244:72,1,95,0|10,0:0|0:0,0:0:0:0:
260,212,38500,5,2,0:0:0:0:
132,156,38600,1,0,3:0:0:0:
284,136,38700,1,10,0:0:0:0:
180,220,38800,1,10,0:0:0:0:
156,84,38900,2,0,L|352:96,1,190,2|8,3:0|0:0,2:0:0:0:
357,94,39150,1,0,0:0:0:0:
368,91,39200,1,0,0:0:0:0:
379,85,39250,1,0,3:0:0:0:
388,78,39300,70,0,B|368:122|392:166|392:166|420:218|392:274,1,190,4|10,0:0|0:0,0:0:0:0:
460,120,39600,1,0,3:0:0:0:
328,220,39700,2,0,P|316:276|352:328,1,95,2|2,0:0|0:0,0:0:0:0:
472,280,39900,1,8,0:0:0:0:
248,177,40000,6,0,P|250:267|330:308,1,190,2|0,3:0|3:0,0:0:0:0:
472,280,40300,1,10,0:0:0:0:
329,219,40400,1,2,3:0:0:0:
474,368,40500,1,2,0:0:0:0:
331,307,40600,1,2,0:0:0:0:
239,357,40700,2,0,L|144:332,1,95,8|0,0:0|3:0,0:0:0:0:
107,161,40900,70,0,P|156:241|148:334,1,190,0|10,0:0|0:0,0:0:0:0:
0,148,41200,2,0,P|64:140|156:48,1,190,2|2,3:0|3:0,0:0:0:0:
216,144,41500,2,0,L|184:260,1,95,10|0,0:0|3:0,0:0:0:0:
96,240,41700,1,2,0:0:0:0:
264,48,41800,5,2,3:0:0:0:
348,108,41900,2,0,P|368:56|360:8,1,95,8|2,0:0|3:0,0:0:0:0:
216,144,42100,1,2,0:0:0:0:
340,228,42200,1,2,0:0:0:0:
410,156,42300,2,0,P|466:132|522:146,1,95,8|0,0:0|3:0,0:0:0:0:
440,298,42500,38,0,L|256:252,1,190,12|2,0:0|3:0,0:0:0:0:
71,298,42800,2,0,L|256:252,1,190,10|2,0:0|3:0,0:0:0:0:
440,298,43100,22,0,B|256:252|256:252|64:300,1,380,10|2,0:0|3:0,0:0:0:0:
0,208,43400,21,0,3:0:0:0:
52,136,43500,2,0,L|180:160,1,95,10|2,0:0|3:0,0:0:0:0:
200,84,43700,1,2,0:0:0:0:
80,224,43800,1,0,0:0:0:0:
28,56,43900,1,8,0:0:0:0:
308,28,44100,38,0,P|376:56|364:184,1,190,12|2,0:0|3:0,0:0:0:0:
460,294,44400,2,0,P|381:251|384:161,1,190,8|2,0:0|3:0,0:0:0:0:
308,28,44700,22,0,B|388:28|420:108|384:162|384:162|348:216|384:296|464:296,1,380,10|0,0:0|3:0,0:0:0:0:
460,208,45000,21,0,3:0:0:0:
300,272,45100,2,0,P|328:320|380:360,1,95,10|2,0:0|3:0,0:0:0:0:
316,112,45300,1,2,0:0:0:0:
476,48,45400,1,0,0:0:0:0:
316,112,45500,2,0,P|264:104|200:64,1,95,0|0,0:0|3:0,0:0:0:0:
40,16,45700,6,0,B|92:16|132:48|132:48|116:112|156:168,1,190,8|2,0:0|3:0,0:0:0:0:
172,336,46000,2,0,B|146:290|153:240|153:240|217:222|245:159,1,190,10|2,0:0|3:0,0:0:0:0:
381,62,46300,2,0,B|355:105|308:124|308:124|272:88|218:84,1,190,10|10,0:0|0:0,0:0:0:0:
138,136,46600,5,0,3:0:0:0:
227,190,46700,1,10,3:0:0:0:
226,85,46800,1,0,3:0:0:0:
140,240,46900,1,10,3:3:0:0:
308,136,47000,1,0,0:0:0:0:
136,40,47100,2,0,P|120:92|136:144,1,95,10|2,0:0|3:0,0:0:0:0:
220,276,47300,38,0,P|320:248|488:328,1,285,2|0,0:0|0:0,0:0:0:0:
469,196,47700,2,0,L|376:215,1,95,8|0,0:0|0:0,0:0:0:0:
284,340,47900,1,2,3:0:0:0:
308,136,48000,1,10,0:0:0:0:
284,340,48100,6,0,B|272:328|272:328|244:348|244:348|208:251|62:192|-42:344|114:403|149:332|106:288,1,380,2|0,0:0|3:0,0:0:0:0:
340,104,48900,69,6,0:0:0:0:
287,168,49000,1,2,3:0:0:0:
361,185,49100,2,0,P|393:171|412:141,1,71.2500027179719,8|0,0:0|0:0,0:0:0:0:
264,100,49300,2,0,L|252:260,1,142.500005435944,2|8,0:0|0:0,0:0:0:0:
188,140,49600,1,2,0:0:0:0:
253,242,49700,6,0,P|292:252|340:236,1,71.2500027179719,2|0,0:0|3:0,0:0:0:0:
184,288,49900,2,0,P|136:280|52:344,1,142.500005435944,10|0,0:0|0:0,0:0:0:0:
140,364,50200,1,0,3:0:0:0:
24,252,50300,2,0,P|16:212|16:176,1,71.2500027179719,8|0,0:3|0:0,0:0:0:0:
120,56,50500,69,6,0:0:0:0:
168,132,50600,1,2,3:0:0:0:
211,73,50700,2,0,P|214:41|199:5,1,71.2500027179719,10|0,3:0|0:0,0:0:0:0:
108,176,50900,2,0,L|264:128,1,142.500005435944,2|8,0:0|0:0,0:0:0:0:
120,56,51200,1,2,0:0:0:0:
244,134,51300,6,0,P|240:176|208:220,1,71.2500027179719,2|0,0:0|3:0,0:0:0:0:
332,24,51500,2,0,P|336:60|428:132,1,142.500005435944,10|0,0:0|0:0,0:0:0:0:
436,32,51800,1,0,3:0:0:0:
388,232,51900,2,0,L|408:312,1,71.2500027179719,8|0,0:0|0:0,0:0:0:0:
483,337,52100,69,6,0:0:0:0:
405,301,52200,1,2,3:0:0:0:
323,266,52300,2,0,L|262:304,1,71.2500027179719,8|0,0:0|0:0,0:0:0:0:
158,168,52500,2,0,B|174:224|174:224|266:168,1,142.500005435944,2|8,0:0|0:0,0:0:0:0:
294,88,52800,1,2,0:0:0:0:
102,98,52900,2,0,P|70:140|72:185,1,71.2500027179719,2|0,0:0|3:0,0:0:0:0:
61,267,53100,2,0,L|200:301,1,142.500005435944,10|2,0:0|0:0,0:0:0:0:
408,256,53400,1,0,3:0:0:0:
268,344,53500,1,10,0:0:0:0:
340,216,53600,1,0,0:0:0:0:
344,344,53700,6,0,P|404:368|488:320,1,142.500005435944,2|8,0:0|0:0,0:0:0:0:
468,124,54000,1,0,0:0:0:0:
358,147,54100,2,0,L|340:216,1,71.2500027179719
214,242,54300,1,10,0:0:0:0:
247,124,54400,1,2,0:0:0:0:
214,242,54500,2,0,L|54:210,1,142.500005435944,0|8,0:0|0:0,0:0:0:0:
26,125,54800,1,0,0:0:0:0:
179,77,54900,2,0,B|203:69|203:69|235:85|235:85|303:65|351:93|351:93|391:77,1,213.750008153916,2|2,0:0|0:0,0:0:0:0:
512,48,55300,70,0,L|380:112,1,142.500005435944,6|10,0:0|0:0,0:0:0:0:
268,168,55600,1,0,0:0:0:0:
370,244,55700,2,0,P|394:192|370:88,1,142.500005435944,2|8,0:0|0:0,0:0:0:0:
276,36,56000,1,0,0:0:0:0:
268,168,56100,2,0,P|236:180|196:176,1,71.2500027179719
383,109,56300,2,0,P|418:106|451:118,1,71.2500027179719,8|0,0:0|0:0,0:0:0:0:
424,292,56500,2,0,P|388:256|288:244,1,142.500005435944,2|8,0:0|0:0,0:0:0:0:
216,312,56800,1,2,0:0:0:0:
124,272,56900,6,0,B|52:256|52:256|80:176,1,142.500005435944,6|10,0:0|0:0,0:0:0:0:
123,52,57200,1,0,0:0:0:0:
171,137,57300,2,0,L|118:288,1,142.500005435944,0|10,0:0|0:0,0:0:0:0:
176,356,57600,1,0,0:0:0:0:
266,271,57700,2,0,P|302:271|354:295,1,71.2500027179719
464,199,57900,2,0,P|430:210|394:210,1,71.2500027179719,8|0,0:0|0:0,0:0:0:0:
255,157,58100,1,8,0:0:0:0:
335,282,58200,1,0,0:0:0:0:
343,133,58300,1,8,0:0:0:0:
249,249,58400,1,0,0:0:0:0:
394,210,58500,69,4,0:0:0:0:
424,312,59300,1,0,0:0:0:0:
424,312,59700,6,0,L|340:304,1,71.2500027179719,8|0,3:0|3:0,0:0:0:0:
392,172,59900,2,0,L|476:164,1,71.2500027179719,10|0,0:0|3:0,0:0:0:0:
408,48,60100,37,6,0:0:0:0:
304,108,60200,2,0,P|240:128|168:36,1,190,8|10,0:0|0:0,0:0:0:0:
64,124,60500,2,0,B|84:172|136:220|136:220|100:232|76:280,1,190,8|10,0:0|0:0,0:0:0:0:
373,309,60800,6,0,L|183:327,1,190,8|8,0:0|0:0,0:0:0:0:
356,124,61100,2,0,B|252:220|252:220|264:144,1,190,8|8,0:0|0:0,0:0:0:0:
384,40,61400,2,0,P|424:68|444:132,1,95,0|8,0:0|0:0,0:0:0:0:
373,309,61600,1,0,0:0:0:0:
184,328,61700,38,0,P|120:232|168:156,1,190,6|10,0:0|0:0,0:0:0:0:
216,240,62000,1,0,3:0:0:0:
112,96,62100,2,0,B|156:72|200:100|200:100|248:128|304:100,1,190,2|8,0:0|0:0,0:0:0:0:
252,28,62400,1,2,3:0:0:0:
146,172,62500,6,0,P|143:231|183:279,1,95,2|0,0:0|3:0,0:0:0:0:
344,285,62700,2,0,B|360:240|328:200|328:200|228:208,1,190,10|0,0:0|0:0,0:0:0:0:
60,224,63000,1,0,0:0:0:0:
200,284,63100,1,8,0:0:0:0:
24,300,63200,1,0,3:0:0:0:
179,358,63300,6,0,L|146:172,1,190,2|10,0:0|0:0,0:0:0:0:
152,8,63600,1,0,3:0:0:0:
282,109,63700,2,0,P|238:186|149:174,1,190,2|8,0:0|0:0,0:0:0:0:
282,109,64000,1,2,3:0:0:0:
124,88,64100,6,0,L|16:72,1,95,2|0,0:0|3:0,0:0:0:0:
80,296,64300,2,0,L|288:260,1,190,10|0,0:0|0:0,0:0:0:0:
428,236,64600,1,0,0:0:0:0:
320,324,64700,1,8,0:0:0:0:
372,180,64800,1,0,3:0:0:0:
396,340,64900,38,0,P|432:336|480:284,1,95,2|2,0:0|3:0,0:0:0:0:
305,133,65100,2,0,P|291:178|304:224,1,95,10|0,0:0|3:0,0:0:0:0:
376,104,65300,2,0,B|356:60|300:56|300:56|252:80|204:52,1,190,2|8,0:0|0:0,0:0:0:0:
208,54,65600,1,2,3:0:0:0:
305,133,65700,6,0,P|297:181|225:229,1,95,2|0,0:0|3:0,0:0:0:0:
48,156,65900,2,0,P|112:128|172:140,1,95,10|0,0:0|3:0,0:0:0:0:
221,291,66100,2,0,B|132:312|132:312|112:216,1,190,2|10,0:0|0:0,0:0:0:0:
84,55,66400,1,0,3:0:0:0:
200,208,66500,6,0,B|220:200|220:200|236:220|236:220|260:208|260:208|388:224,1,190,2|8,0:0|0:0,0:0:0:0:
430,65,66800,2,0,B|442:91|442:91|423:103|423:103|440:184|375:222,1,190,0|0,3:0|0:0,0:0:0:0:
344,140,67100,1,10,0:0:0:0:
408,304,67200,1,2,3:0:0:0:
344,140,67300,6,0,P|256:76|160:80,1,190,2|8,0:0|0:0,0:0:0:0:
20,128,67600,1,0,3:0:0:0:
84,55,67700,2,0,L|177:74,1,95,2|0,0:0|0:0,0:0:0:0:
250,159,67900,2,0,L|344:140,1,95,10|0,0:0|3:0,0:0:0:0:
440,128,68100,38,0,B|444:176|404:216|404:216|452:336,1,190,6|10,0:0|0:0,0:0:0:0:
504,232,68400,1,0,3:0:0:0:
332,296,68500,2,0,L|208:264,1,95,2|0,0:0|0:0,0:0:0:0:
92,368,68700,2,0,L|204:348,1,95,8|0,0:0|3:0,0:0:0:0:
112,124,68900,6,0,B|136:196|96:268|96:268|156:256,1,190,2|8,0:0|0:0,0:0:0:0:
52,60,69200,1,2,3:0:0:0:
61,298,69300,2,0,P|106:215|102:122,1,190,2|10,0:0|0:0,0:0:0:0:
16,236,69600,1,0,3:0:0:0:
156,324,69700,6,0,P|208:352|272:336,1,95,2|0,0:0|3:0,0:0:0:0:
368,232,69900,2,0,P|326:253|302:294,1,95,8|0,0:0|3:0,0:0:0:0:
382,314,70100,1,0,0:0:0:0:
271,199,70200,1,0,0:0:0:0:
444,264,70300,2,0,L|460:160,1,95,8|0,0:0|3:0,0:0:0:0:
324,56,70500,6,0,L|348:160,1,95,0|0,0:0|3:0,0:0:0:0:
166,148,70700,2,0,L|188:56,1,95,10|0,0:0|3:0,0:0:0:0:
53,170,70900,2,0,L|68:264,1,95
16,332,71100,1,10,0:0:0:0:
53,170,71200,1,0,3:0:0:0:
176,280,71300,38,0,P|224:288|276:344,1,95,14|0,0:0|0:0,0:0:0:0:
400,256,71500,2,0,P|410:210|440:173,1,95,10|0,0:0|0:0,0:0:0:0:
124,216,71700,2,0,P|160:260|164:316,1,95,10|0,0:0|0:0,0:0:0:0:
458,177,71900,2,0,P|429:140|421:94,1,95,10|0,0:0|0:0,0:0:0:0:
134,138,72100,6,0,P|150:186|78:298,1,190,14|8,0:0|0:0,0:0:0:0:
53,170,72400,1,2,0:0:0:0:
240,200,72500,2,0,L|356:180,1,95,10|0,0:0|0:0,0:0:0:0:
216,72,72700,2,0,L|96:60,1,95,10|0,0:0|0:0,0:0:0:0:
53,170,72900,5,0,0:0:0:0:
240,200,73000,1,8,0:0:0:0:
121,62,73100,1,8,0:0:0:0:
121,247,73200,1,0,0:0:0:0:
121,247,73400,1,0,0:0:0:0:
240,200,73500,1,10,0:0:0:0:
52,169,73700,5,0,0:0:0:0:
260,348,73900,2,0,P|332:360|420:268,1,190,10|10,0:0|0:0,0:0:0:0:
408,32,74200,1,0,0:0:0:0:
403,55,74250,1,0,3:0:0:0:
399,78,74300,1,0,0:0:0:0:
395,102,74350,1,0,3:0:0:0:
390,125,74400,1,0,0:0:0:0:
386,148,74450,1,0,3:0:0:0:
382,172,74500,5,0,0:0:0:0:
382,172,74900,54,0,L|352:80,1,95,14|0,0:0|3:0,0:0:0:0:
120,136,75200,1,8,0:0:0:0:
104,172,75250,1,0,0:0:0:0:
84,204,75300,2,0,L|192:224,1,95,10|0,0:0|2:0,2:0:0:0:
452,264,75600,2,0,L|252:308,1,190,10|8,0:0|0:0,2:0:0:0:
144,320,75900,1,8,0:0:0:0:
292,184,76000,1,8,0:0:0:0:
200,104,76100,6,0,P|248:72|304:68,1,95,2|0,3:0|2:0,0:0:0:0:
477,142,76300,2,0,L|384:124,1,95,10|0,0:0|3:0,0:0:0:0:
444,40,76500,1,2,3:0:0:0:
412,224,76600,1,0,0:0:0:0:
420,264,76650,1,0,0:0:0:0:
428,300,76700,1,10,0:0:0:0:
336,376,76800,1,0,3:0:0:0:
220,248,76900,2,0,B|156:224|92:272|92:272|72:236|40:220,1,190,10|0,0:0|3:0,0:0:0:0:
105,47,77200,2,0,L|57:230,1,190,10|0,0:0|2:0,0:0:0:0:
136,344,77500,1,0,0:0:0:0:
152,326,77550,1,0,3:0:0:0:
174,319,77600,1,0,0:0:0:0:
197,324,77650,1,0,3:0:0:0:
215,339,77700,5,0,0:0:0:0:
216,340,78100,54,0,P|216:288|248:236,1,95,14|0,0:0|3:0,0:0:0:0:
496,224,78400,1,8,0:0:0:0:
496,272,78450,1,0,0:0:0:0:
472,312,78500,2,0,P|427:328|381:320,1,95,10|0,0:0|3:0,0:0:0:0:
396,32,78800,2,0,L|414:221,1,190,10|8,0:0|0:0,0:0:0:0:
204,108,79100,2,0,L|297:123,1,95
224,248,79300,5,10,0:0:0:0:
96,176,79400,1,2,0:0:0:0:
156,44,79500,1,0,0:0:0:0:
297,123,79600,1,10,0:0:0:0:
297,123,79900,2,0,L|424:108,1,95,8|0,0:0|2:0,0:0:0:0:
476,184,80100,6,0,P|480:248|240:264,1,380,0|10,0:0|0:0,0:0:0:0:
176,132,80600,1,0,3:0:0:0:
336,144,80700,1,2,3:0:0:0:
176,220,80800,1,0,3:0:0:0:
256,104,80900,1,0,3:0:0:0:
328,232,81000,1,0,3:0:0:0:
176,220,81100,2,0,P|120:204|64:156,1,95,14|0,0:0|3:0,0:0:0:0:
68,44,81300,1,2,3:3:0:0:
176,132,81400,1,2,3:0:0:0:
68,44,81500,1,0,0:3:0:0:
212,56,81600,6,0,B|248:48|248:48|276:76|276:76|308:68|336:48|336:48|440:56|472:144|456:208|396:260|328:232,1,475,2|10,3:0|0:0,0:0:0:0:
352,148,82200,1,0,3:0:0:0:
472,280,82300,2,0,P|432:308|360:320,1,95,2|0,3:0|3:0,0:0:0:0:
264,172,82500,1,0,3:0:0:0:
387,319,82600,1,0,3:0:0:0:
352,148,82700,1,14,0:0:0:0:
304,308,82800,1,0,3:0:0:0:
180,256,82900,2,0,L|80:236,1,95,2|2,3:0|3:0,0:0:0:0:
152,156,83100,1,0,0:0:0:0:
200,296,83200,70,0,B|128:264|56:264|56:264|-8:160|92:16|228:104,1,475,2|10,3:0|0:0,0:0:0:0:
288,220,83800,1,0,3:0:0:0:
306,80,83900,2,0,P|259:77|216:96,1,95,2|0,3:0|3:0,0:0:0:0:
352,156,84100,1,2,3:0:0:0:
380,32,84200,1,0,3:0:0:0:
472,192,84300,1,14,0:0:0:0:
448,80,84400,1,0,3:0:0:0:
396,228,84500,2,0,L|287:245,1,95,2|2,3:0|3:0,0:0:0:0:
209,199,84700,1,0,0:0:0:0:
299,54,84800,6,0,B|256:68|256:68|237:62|223:46|223:46|204:112|204:112|118:16|-29:94|4:221,1,475,2|10,3:0|0:0,0:0:0:0:
141,156,85400,2,0,P|101:145|75:190,1,95,0|2,3:0|3:0,0:0:0:0:
24,296,85600,1,0,3:0:0:0:
152,364,85700,2,0,P|216:336|164:224,1,190,2|14,3:0|0:0,0:0:0:0:
296,56,86000,2,0,B|276:156|276:156|304:188|324:232,1,190,2|2,3:0|3:0,0:0:0:0:
469,113,86300,2,0,L|376:132,1,95,2|2,3:0|0:0,0:0:0:0:
200,88,86500,6,0,B|188:120|188:120|156:104|156:104|92:144|20:120,1,190,0|8,0:0|0:0,0:0:0:0:
84,36,86800,1,0,0:0:0:0:
164,196,86900,2,0,P|108:216|56:216,1,95,2|10,3:0|0:0,0:0:0:0:
41,125,87100,1,0,0:0:0:0:
140,296,87200,1,10,0:0:0:0:
248,240,87300,2,0,L|344:228,1,95,0|0,3:0|0:0,0:0:0:0:
476,148,87500,1,10,0:0:0:0:
392,280,87600,1,0,3:0:0:0:
408,104,87700,1,2,3:0:0:0:
464,264,87800,1,10,0:0:0:0:
336,120,87900,2,0,L|220:112,1,95,8|2,0:0|0:0,0:0:0:0:
32,152,88100,6,0,B|128:164|128:164|188:224|228:228,1,190,0|8,0:0|0:0,0:0:0:0:
301,274,88400,1,0,3:0:0:0:
128,344,88500,2,0,P|96:300|80:228,1,95,2|10,3:0|0:0,0:0:0:0:
241,97,88700,2,0,L|345:81,1,95,0|10,0:0|0:0,0:0:0:0:
464,32,88900,1,0,3:0:0:0:
388,144,89000,1,0,0:0:0:0:
512,149,89100,1,10,0:0:0:0:
405,76,89200,1,0,3:0:0:0:
340,200,89300,2,0,P|288:192|244:164,1,95,2|10,3:0|0:0,0:0:0:0:
83,261,89500,2,0,P|124:238|171:232,1,95,8|2,0:0|0:0,0:0:0:0:
317,324,89700,70,0,P|248:263|252:172,1,190,0|8,0:0|0:0,0:0:0:0:
360,56,90000,1,0,0:0:0:0:
452,191,90100,2,0,B|411:212|411:212|363:216,1,95,2|10,3:0|0:0,0:0:0:0:
280,90,90300,1,2,0:0:0:0:
280,90,90400,1,8,0:0:0:0:
362,216,90500,2,0,B|382:259|382:259|385:305,1,95,2|0,3:0|3:0,0:0:0:0:
138,237,90700,2,0,B|141:190|141:190|161:146,1,95,8|0,0:0|3:0,0:0:0:0:
242,25,90900,1,2,0:0:0:0:
325,154,91000,1,10,0:0:0:0:
324,12,91100,1,8,0:0:0:0:
242,169,91200,1,2,3:0:0:0:
411,129,91300,6,0,B|341:167|274:134|274:134|242:167,1,190,0|8,0:0|0:0,0:0:0:0:
178,241,91600,1,0,3:0:0:0:
139,100,91700,1,0,0:0:0:0:
73,224,91800,2,0,L|88:319,1,95,2|8,0:0|3:0,0:0:0:0:
241,371,92000,1,0,3:0:0:0:
178,241,92100,1,2,0:0:0:0:
314,342,92200,1,0,3:0:0:0:
248,216,92300,1,0,0:0:0:0:
380,307,92400,2,0,P|436:303|496:275,1,95,2|0,0:0|3:0,0:0:0:0:
245,293,92600,1,0,0:0:0:0:
313,183,92700,2,0,P|268:167|220:165,1,95,10|2,0:0|3:0,0:0:0:0:
271,16,92900,6,0,P|362:41|428:107,1,190,4|8,0:0|0:0,0:0:0:0:
432,264,93200,1,0,0:0:0:0:
364,148,93300,1,2,0:0:0:0:
504,228,93400,1,8,0:0:0:0:
364,224,93500,1,2,0:0:0:0:
496,148,93600,1,10,0:3:0:0:
432,264,93700,6,0,L|336:288,1,95,2|0,0:0|3:0,0:0:0:0:
88,220,93900,1,10,0:0:0:0:
155,99,94000,2,0,L|247:75,1,95,2|0,0:0|3:0,0:0:0:0:
247,75,94200,1,2,3:0:0:0:
84,43,94300,2,0,P|69:88|67:136,1,95,10|0,0:0|3:0,0:0:0:0:
124,296,94500,69,2,0:0:0:0:
66,135,94601,1,0,3:0:0:0:
200,340,94700,1,10,0:0:0:0:
88,220,94800,1,0,0:0:0:0:
252,140,94900,2,0,L|158:154,1,95,0|10,0:0|0:0,0:0:0:0:
30,281,95100,2,0,L|123:295,1,95,0|10,0:0|0:0,0:0:0:0:
296,324,95300,5,2,0:0:0:0:
184,212,95400,1,2,3:0:0:0:
208,368,95500,1,8,0:0:0:0:
284,224,95600,1,2,0:0:0:0:
392,336,95700,2,0,L|492:320,1,95,2|0,3:0|2:0,0:0:0:0:
388,136,95900,1,8,0:0:0:0:
395,158,95950,1,0,3:0:0:0:
402,181,96000,1,0,0:0:0:0:
409,203,96050,1,0,3:0:0:0:
416,228,96100,70,0,B|460:168|460:96|460:96|436:48,1,190,4|8,0:0|0:0,0:0:0:0:
328,128,96400,1,0,0:0:0:0:
320,8,96500,2,0,P|264:16|216:56,1,95,0|10,0:0|0:0,0:0:0:0:
444,146,96700,2,0,P|444:99|426:56,1,95,0|8,0:0|0:0,0:0:0:0:
320,8,96900,5,2,0:0:0:0:
328,128,97000,1,0,3:0:0:0:
232,36,97100,1,8,0:0:0:0:
248,172,97200,1,2,0:0:0:0:
93,105,97300,2,0,L|188:112,1,95,2|2,3:0|3:0,0:0:0:0:
216,244,97500,2,0,L|121:237,1,95,10|0,0:0|3:0,0:0:0:0:
24,136,97700,69,2,0:0:0:0:
121,237,97800,1,0,3:0:0:0:
24,136,97900,1,10,0:0:0:0:
121,237,98000,1,2,0:0:0:0:
93,105,98100,1,0,0:0:0:0:
48,272,98200,1,8,0:0:0:0:
93,105,98300,1,10,0:0:0:0:
48,272,98400,1,2,0:0:0:0:
216,244,98500,6,0,P|220:192|180:128,1,95,10|0,0:0|3:0,0:0:0:0:
48,272,98700,2,0,P|44:324|84:388,1,95,10|2,0:0|0:0,0:0:0:0:
196,376,98900,1,2,3:0:0:0:
420,296,99100,1,8,0:0:0:0:
384,295,99150,1,0,0:0:0:0:
355,275,99200,1,0,0:0:0:0:
342,243,99250,1,0,3:0:0:0:
349,208,99300,70,0,P|404:200|476:80,1,190,4|10,0:0|0:0,0:0:0:0:
348,80,99600,2,0,L|244:100,1,95,0|0,3:0|0:0,0:0:0:0:
280,8,99800,1,2,0:0:0:0:
236,184,99900,2,0,L|136:168,1,95,8|2,0:0|3:0,0:0:0:0:
168,256,100100,1,2,0:3:0:0:
72,124,100200,1,0,3:3:0:0:
254,97,100300,2,0,L|348:80,1,95,10|2,0:3|3:3,0:0:0:0:
424,0,100500,1,2,0:0:0:0:
476,95,100600,1,2,0:0:0:0:
434,180,100700,2,0,P|394:205|347:206,1,95,8|0,0:0|3:0,0:0:0:0:
72,124,100900,6,0,B|116:148|164:132|164:132|212:116|256:132,1,190,0|10,0:0|0:0,0:0:0:0:
124,48,101200,1,0,3:0:0:0:
208,211,101300,2,0,P|162:226|115:228,1,95,2|0,0:0|0:0,0:0:0:0:
256,132,101500,2,0,P|284:168|304:224,1,95,10|0,0:0|3:0,0:0:0:0:
264,292,101700,1,2,0:0:0:0:
344,96,101800,1,0,3:0:0:0:
208,212,101900,1,10,0:0:0:0:
392,228,102000,1,2,3:0:0:0:
264,292,102100,1,2,0:0:0:0:
161,316,102200,1,2,0:0:0:0:
122,219,102300,2,0,L|95:100,1,95,8|0,0:0|3:0,0:0:0:0:
132,52,102500,38,0,P|136:116|44:192,1,190,0|2,0:0|3:0,0:0:0:0:
46,192,102800,2,0,P|124:240|131:332,1,190,2|2,0:0|3:0,0:0:0:0:
132,52,103100,22,0,B|156:112|123:181|46:192|46:192|123:204|153:268|133:331,1,380,2|10,0:0|0:0,0:0:0:0:
36,296,103400,21,0,3:0:0:0:
200,193,103500,2,0,P|248:173|312:177,2,95,2|2|2,0:0|0:0|0:0,0:0:0:0:
36,88,103900,1,0,0:0:0:0:
420,40,104100,38,0,B|400:52|400:52|384:72|384:72|344:68|344:68|300:112|256:112,1,190,0|2,0:0|3:0,0:0:0:0:
92,40,104400,2,0,B|112:52|112:52|128:72|128:72|168:68|168:68|212:112|256:112,1,190,2|0,0:0|3:0,0:0:0:0:
420,40,104700,22,0,B|400:52|400:52|384:72|384:72|344:68|344:68|300:112|256:112|256:112|208:112|168:68|168:68|128:72|128:72|112:52|112:52|92:40,1,380,2|10,0:0|0:0,0:0:0:0:
252,28,105000,21,0,3:0:0:0:
140,156,105100,2,0,P|184:184|244:200,2,95,2|2|2,0:0|0:0|0:0,0:0:0:0:
372,156,105500,1,0,0:0:0:0:
464,360,105700,6,8,P|400:316|280:320,1,190,0|10,0:0|0:0,0:0:0:0:
192,264,106000,1,0,3:0:0:0:
280,200,106100,1,2,0:0:0:0:
290,315,106200,1,2,3:0:0:0:
204,184,106300,1,10,0:0:0:0:
340,252,106400,1,0,3:0:0:0:
216,336,106500,2,0,L|112:348,1,95,10|0,0:0|3:0,0:0:0:0:
280,200,106700,2,0,L|374:189,1,95,2|2,3:0|3:0,0:0:0:0:
472,104,106900,1,2,0:0:0:0:
412,252,107000,1,0,3:0:0:0:
408,124,107100,1,2,3:0:0:0:
488,260,107200,1,0,3:0:0:0:
472,104,107300,6,0,P|364:108|212:-8,1,285,2|0,0:0|2:0,0:0:0:0:
29,158,107700,2,0,L|241:182,1,190,10|0,0:0|3:0,0:0:0:0:
280,276,108000,1,10,0:0:0:0:
152,94,108100,2,0,P|159:47|175:2,1,95,10|0,0:0|3:0,0:0:0:0:
136,254,108300,2,0,P|128:300|112:345,1,95,10|0,3:0|3:0,0:0:0:0:
169,95,108500,2,0,P|199:59|247:22,1,95,10|0,0:0|3:0,0:0:0:0:
118,253,108700,2,0,P|87:288|39:325,1,95,10|0,3:3|3:3,0:3:0:0:
12,328,108900,37,0,0:0:0:0:
184,280,109033,1,0,0:0:0:0:
56,160,109166,1,0,0:0:0:0:
207,376,109300,5,0,0:0:0:0:
248,200,109433,1,0,0:0:0:0:
80,252,109566,1,0,0:0:0:0:
280,304,109700,69,0,0:0:0:0:
152,180,109833,1,0,0:0:0:0:
356,232,109966,1,0,0:0:0:0:
216,100,110100,5,0,0:0:0:0:
184,280,110233,1,0,0:0:0:0:
328,120,110366,1,0,0:0:0:0:
104,88,110500,69,0,0:0:0:0:
432,120,110633,1,10,0:0:0:0:
104,184,110766,1,2,0:0:0:0:
432,216,110900,5,10,0:0:0:0:
104,280,111033,1,10,0:0:0:0:
432,312,111166,1,10,0:0:0:0:
256,24,111300,5,10,0:0:0:0:
256,248,111500,5,0,0:0:0:0:
200,340,111600,1,8,0:0:0:0:
312,340,111700,1,10,0:0:0:0:
132,128,112100,37,6,0:0:0:0:
102,207,112200,1,2,3:0:0:0:
45,147,112300,2,0,P|43:111|59:80,1,71.2500027179719,0|0,3:0|2:0,0:0:0:0:
184,192,112500,2,0,L|56:288,1,142.500005435944,2|0,3:0|3:0,0:0:0:0:
200,276,112800,1,2,3:0:0:0:
70,277,112900,6,0,P|24:264|-8:232,1,71.2500027179719,2|0,3:0|2:0,3:0:0:0:
152,344,113100,2,0,P|248:292|312:300,1,142.500005435944,2|8,3:0|0:0,3:0:0:0:
480,268,113400,21,0,0:0:0:0:
304,372,113500,1,8,0:0:0:0:
468,188,113600,1,0,0:0:0:0:
280,56,113700,6,0,P|224:80|156:80,1,95,6|2,0:0|3:0,0:0:0:0:
56,36,113900,1,8,0:0:0:0:
40,256,114000,1,0,3:0:0:0:
40,256,114100,2,0,P|80:216|220:184,1,190,2|8,0:0|0:0,0:0:0:0:
340,196,114400,1,2,3:0:0:0:
205,182,114500,6,0,P|144:160|108:108,1,95,2|0,0:0|3:0,0:0:0:0:
198,13,114700,2,0,P|244:25|280:56,1,95,10|0,0:3|3:3,0:3:0:0:
340,196,114900,1,0,0:0:0:0:
372,64,115000,1,0,0:0:0:0:
264,140,115100,1,8,0:0:0:0:
412,140,115200,1,0,3:0:0:0:
344,268,115300,38,0,B|296:264|296:264|244:296,1,95,2|2,0:0|3:0,0:0:0:0:
72,328,115500,2,0,B|111:352|111:352|159:348,1,95,8|0,0:0|3:0,0:0:0:0:
128,60,115700,2,0,B|113:137|113:137|137:245,1,190,2|8,0:0|0:0,0:0:0:0:
24,32,116000,1,2,3:0:0:0:
24,132,116100,6,0,L|48:240,1,95,2|0,0:0|3:0,0:0:0:0:
248,172,116300,2,0,L|268:264,1,95,10|0,0:0|3:0,0:0:0:0:
296,372,116500,1,2,0:0:0:0:
204,304,116600,1,0,0:0:0:0:
360,332,116700,1,10,0:0:0:0:
188,376,116800,1,0,3:0:0:0:
376,260,116900,6,0,B|384:240|384:240|372:216|372:216|416:160|396:72,1,190,2|8,0:0|0:0,0:0:0:0:
152,48,117200,2,0,B|176:88|176:88|220:72|220:72|256:124|320:136,1,190,0|0,3:0|0:0,0:0:0:0:
496,124,117500,1,10,0:0:0:0:
316,32,117600,1,2,3:0:0:0:
288,220,117700,6,0,L|76:188,1,190,0|8,0:0|0:0,0:0:0:0:
244,312,118000,1,0,3:0:0:0:
244,312,118100,2,0,B|321:366|321:366|364:281,1,190,2|8,0:0|0:0,0:0:0:0:
432,188,118400,1,2,3:0:0:0:
432,188,118500,38,0,P|444:140|440:84,1,95,6|0,0:0|3:0,0:0:0:0:
284,36,118700,2,0,P|282:83|294:129,1,95,10|0,0:0|3:0,0:0:0:0:
364,280,118900,2,0,L|496:296,1,95,2|0,0:0|0:0,0:0:0:0:
344,200,119100,1,8,0:0:0:0:
300,348,119200,1,0,3:0:0:0:
458,291,119300,6,0,L|269:265,1,190,0|8,0:0|0:0,0:0:0:0:
120,232,119600,1,0,3:0:0:0:
59,347,119700,2,0,P|135:355|103:211,1,285,2|2,0:0|3:0,0:0:0:0:
84,24,120100,6,0,B|55:73|79:117|79:117|135:109|168:131,1,190,2|10,0:0|0:0,0:0:0:0:
304,216,120400,1,0,3:0:0:0:
342,58,120500,2,0,P|302:83|256:88,1,95,2|0,0:0|0:0,0:0:0:0:
304,216,120700,2,0,P|350:220|390:245,1,95,8|0,0:0|3:0,0:0:0:0:
448,384,120900,5,0,0:0:0:0:
320,304,121000,1,0,3:0:0:0:
480,232,121100,2,0,L|488:128,1,95,8|0,0:0|3:0,0:0:0:0:
255,87,121300,2,0,P|291:103|335:179,1,95,2|0,0:0|0:0,0:0:0:0:
148,200,121500,2,0,P|195:196|238:177,1,95,10|0,0:0|3:0,0:0:0:0:
437,122,121700,38,0,P|349:88|255:87,1,190,6|8,0:0|0:0,0:0:0:0:
148,200,122000,1,2,3:0:0:0:
88,124,122100,2,0,L|64:12,1,95,2|0,0:0|0:0,0:0:0:0:
304,228,122300,1,8,0:0:0:0:
227,368,122400,1,0,3:0:0:0:
167,292,122500,6,0,L|143:180,1,95,0|0,0:0|3:0,0:0:0:0:
323,135,122700,2,0,L|303:227,1,95,8|0,0:0|3:0,0:0:0:0:
248,128,122900,1,2,0:0:0:0:
376,236,123000,1,0,0:0:0:0:
232,196,123100,1,10,0:0:0:0:
392,168,123200,1,0,3:0:0:0:
280,36,123300,5,2,0:0:0:0:
280,36,123400,2,0,P|220:28|152:132,1,190,8|10,0:0|0:0,0:0:0:0:
72,232,123700,2,0,B|100:232|100:232|116:200|116:200|160:216|204:204|228:140,1,190,8|10,0:0|0:0,0:0:0:0:
12,152,124000,2,0,L|52:348,1,190,8|8,0:0|0:0,0:0:0:0:
264,316,124300,6,0,L|148:288,1,95,8|0,0:0|3:0,0:0:0:0:
300,192,124500,1,8,0:0:0:0:
264,316,124600,1,0,0:0:0:0:
228,180,124700,1,8,0:0:0:0:
340,336,124800,1,0,3:0:0:0:
456,212,124900,38,0,B|408:192|388:152|388:152|368:108|312:92,2,190,6|10|2,0:0|0:0|0:0,0:0:0:0:
300,192,125400,1,2,0:0:0:0:
480,112,125500,1,8,0:0:0:0:
316,92,125600,1,2,3:0:0:0:
456,212,125700,6,0,P|392:272|264:276,1,190,2|10,0:0|0:0,0:0:0:0:
52,152,126000,2,0,P|116:212|244:216,1,190,0|0,3:0|0:0,0:0:0:0:
300,192,126300,1,8,0:0:0:0:
212,316,126400,1,0,3:0:0:0:
138,65,126500,6,0,B|146:109|182:133|182:133|174:157|174:157|208:180|214:225,1,190,2|10,0:0|0:0,0:0:0:0:
228,56,126800,1,0,3:0:0:0:
124,236,126900,2,0,P|76:268|8:268,1,95,2|2,0:0|0:0,0:0:0:0:
280,136,127100,2,0,P|326:145|364:173,1,95,8|2,0:0|3:0,0:0:0:0:
365,333,127300,6,0,B|312:360|312:360|288:232,1,190,2|10,0:0|0:0,0:0:0:0:
503,133,127600,2,0,B|496:268|496:268|448:296,1,190,0|0,3:0|0:0,0:0:0:0:
272,310,127900,2,0,L|365:333,1,95,8|0,0:0|3:0,0:0:0:0:
304,136,128100,38,0,P|248:144|124:212,1,190,2|10,0:0|0:0,0:0:0:0:
232,56,128400,1,0,3:0:0:0:
244,232,128500,1,2,0:0:0:0:
128,100,128600,1,2,0:0:0:0:
304,136,128700,2,0,P|336:100|344:32,1,95,8|2,0:0|3:0,0:0:0:0:
127,99,128900,6,0,P|210:143|304:136,1,190,2|10,0:0|0:0,0:0:0:0:
444,136,129200,1,0,3:0:0:0:
336,217,129300,2,0,P|291:231|243:231,1,95,2|0,0:0|0:0,0:0:0:0:
56,152,129500,2,0,P|90:184|132:205,1,95,10|0,0:0|3:0,0:0:0:0:
244,232,129700,6,0,B|272:228|272:228|288:256|288:256|356:264|400:316,1,190,2|8,0:0|0:0,0:0:0:0:
460,92,130000,2,0,B|432:92|410:85|410:85|426:125|426:125|370:133|346:173,1,190,0|0,3:0|0:0,0:0:0:0:
304,360,130300,1,10,0:0:0:0:
432,228,130400,1,0,3:0:0:0:
316,68,130500,6,0,L|92:96,1,190,2|8,0:0|0:0,0:0:0:0:
4,68,130800,1,0,3:0:0:0:
127,91,130900,2,0,L|256:112,1,95,2|0,0:0|0:0,0:0:0:0:
440,158,131100,2,0,L|311:178,1,95,10|0,0:0|3:0,0:0:0:0:
264,272,131300,38,0,B|208:280|208:280|152:352|56:328,1,190,6|10,0:0|0:0,0:0:0:0:
108,52,131600,1,0,3:0:0:0:
108,52,131700,2,0,P|137:141|121:234,1,190,2|8,0:0|0:0,0:0:0:0:
264,272,132000,1,2,3:0:0:0:
224,108,132100,6,0,L|328:92,1,95,2|0,0:0|3:0,0:0:0:0:
102,163,132300,2,0,L|10:187,1,95,10|0,0:0|3:0,0:0:0:0:
224,144,132501,2,0,L|318:150,1,95,2|0,0:0|0:0,0:0:0:0:
96,128,132700,2,0,L|1:131,1,95,10|0,0:0|3:0,0:0:0:0:
72,284,132900,6,0,L|280:268,1,190,2|8,0:0|0:0,0:0:0:0:
416,308,133200,1,0,3:0:0:0:
360,204,133300,1,0,0:0:0:0:
316,372,133400,1,0,0:0:0:0:
504,320,133500,2,0,P|496:272|460:224,1,95,8|0,0:0|3:0,0:0:0:0:
408,28,133700,6,0,P|408:96|432:148,1,95,0|0,0:0|3:0,0:0:0:0:
416,308,133900,2,0,L|244:216,2,190,10|0|10,0:0|0:0|0:0,0:0:0:0:
248,218,134500,38,0,L|132:232,1,95,14|0,0:0|0:0,0:0:0:0:
24,116,134700,2,0,L|140:129,1,95,10|0,0:0|0:0,0:0:0:0:
143,323,134900,2,0,L|154:229,1,95,10|0,0:0|0:0,0:0:0:0:
107,32,135100,2,0,L|118:127,1,95,10|0,0:0|0:0,0:0:0:0:
224,292,135300,5,14,0:0:0:0:
76,264,135400,1,0,0:0:0:0:
248,218,135500,1,8,0:0:0:0:
52,328,135600,1,2,0:0:0:0:
24,116,135700,2,0,P|72:116|120:128,1,95,10|0,0:0|0:0,0:0:0:0:
320,24,135900,2,0,P|273:35|226:35,1,95,10|0,0:0|0:0,0:0:0:0:
168,272,136100,38,0,P|236:268|344:324,1,190,2|0,0:0|3:0,0:0:0:0:
454,145,136400,2,0,P|370:102|319:23,1,190,2|0,3:0|3:0,0:0:0:0:
512,52,136700,1,0,3:0:0:0:
58,145,136950,6,0,P|141:102|192:23,1,190,2|0,3:0|3:0,0:0:0:0:
0,52,137250,1,0,3:0:0:0:
348,244,137500,2,0,P|257:220|165:242,1,190,2|0,3:0|3:0,0:0:0:0:
256,324,137800,1,0,3:0:0:0:
58,145,138100,38,0,L|26:37,1,95,10|0,0:0|3:0,0:0:0:0:
454,145,138300,2,0,L|486:37,1,95,10|0,0:0|3:0,0:0:0:0:
256,96,138500,2,0,L|256:-12,1,95,10|0,0:0|3:0,0:0:0:0:
212,192,138700,54,0,P|256:200|308:192,1,95,10|0,0:0|2:0,0:0:0:0:
108,168,138900,1,0,3:0:0:0:
128,264,139000,2,0,P|143:306|176:347,1,95,2|0,3:0|2:0,0:0:0:0:
404,168,139200,1,2,3:0:0:0:
384,264,139300,6,0,P|368:306|336:347,1,95,10|0,0:0|2:0,0:0:0:0:
36,236,139500,1,0,3:0:0:0:
108,168,139600,2,0,P|164:148|228:156,1,95,2|0,3:0|2:0,0:0:0:0:
476,236,139800,1,2,3:0:0:0:
404,168,139900,70,0,P|348:148|284:156,1,95,10|0,0:0|2:0,0:0:0:0:
12,148,140100,1,0,3:0:0:0:
76,80,140200,2,0,P|64:32|24:-8,1,95,2|0,3:0|2:0,0:0:0:0:
500,148,140400,1,2,3:0:0:0:
436,80,140500,6,0,P|448:32|488:-8,1,95,10|0,0:0|2:0,0:0:0:0:
476,236,140700,1,0,3:0:0:0:
313,148,140800,6,0,L|305:32,1,95,10|0,0:0|3:0,0:0:0:0:
199,236,141000,2,0,L|207:352,1,95,10|0,0:0|3:0,0:0:0:0:
424,312,141200,2,0,P|364:276|308:268,1,95,10|0,0:0|2:0,0:0:0:0:
88,72,141600,5,0,0:0:0:0:
126,99,141650,1,0,3:0:0:0:
171,113,141700,1,10,0:0:0:0:
256,192,151300,12,0,154450,2:0:0:0:
176,152,154500,38,0,P|160:92|176:24,1,95,6|0,0:0|3:0,0:0:0:0:
336,232,154700,2,0,P|352:292|336:360,1,95,10|0,0:0|3:0,0:0:0:0:
183,122,154900,2,0,P|188:61|227:2,1,95,2|0,0:0|3:0,0:0:0:0:
328,261,155100,1,10,0:0:0:0:
216,219,155200,1,2,3:0:0:0:
202,94,155300,6,0,P|228:38|284:-3,1,95,0|0,0:0|3:0,0:0:0:0:
309,289,155500,1,8,0:0:0:0:
222,197,155600,1,2,3:0:0:0:
232,71,155700,2,0,P|276:27|343:7,1,95,2|0,0:0|3:0,0:0:0:0:
279,312,155900,2,0,P|235:356|168:376,1,95,10|0,0:0|3:0,0:0:0:0:
273,58,156100,70,0,P|329:32|399:36,1,95,2|0,0:0|3:0,0:0:0:0:
238,325,156300,2,0,P|182:351|112:347,1,95,10|0,0:0|3:0,0:0:0:0:
319,61,156500,2,0,P|381:55|445:83,1,95,2|0,0:0|3:0,0:0:0:0:
192,322,156700,2,0,P|130:328|66:300,1,95,10|2,0:0|3:0,0:0:0:0:
72,180,156900,6,0,B|112:188|148:224|148:224|132:172|164:100,1,190,2|8,0:0|0:0,0:0:0:0:
46,88,157200,2,0,L|71:179,1,95,0|0,3:0|2:0,0:0:0:0:
154,125,157500,2,0,L|179:33,1,95,8|0,0:0|3:0,0:0:0:0:
296,148,157700,69,6,0:0:0:0:
372,84,157800,1,0,3:0:0:0:
400,188,157900,2,0,L|512:200,1,95,10|0,0:0|3:0,0:0:0:0:
112,196,158100,2,0,L|17:185,1,95,0|0,0:0|2:0,0:0:0:0:
140,300,158300,1,10,0:0:0:0:
216,236,158400,1,0,3:0:0:0:
192,128,158500,6,0,L|80:80,1,95,2|0,0:0|3:0,0:0:0:0:
320,256,158700,2,0,L|432:304,1,95,10|2,0:0|3:0,0:0:0:0:
260,64,158900,1,2,0:0:0:0:
210,203,159000,1,2,3:0:0:0:
302,181,159100,1,8,0:0:0:0:
252,320,159200,1,2,3:0:0:0:
408,292,159300,70,0,P|436:248|432:176,1,95,2|0,0:0|3:0,0:0:0:0:
260,64,159500,2,0,P|265:110|292:149,1,95,10|0,0:0|3:0,0:0:0:0:
404,72,159700,1,2,0:0:0:0:
440,206,159800,1,0,3:0:0:0:
292,152,159900,1,10,0:0:0:0:
504,124,160000,1,2,3:0:0:0:
408,292,160100,6,0,P|352:288|220:200,1,190,2|8,0:0|0:0,0:0:0:0:
72,104,160400,2,0,P|117:117|158:141,1,95,0|0,3:0|2:0,0:0:0:0:
158,141,160700,2,0,P|152:88|164:24,1,95,8|0,0:0|3:0,0:0:0:0:
280,8,160900,5,14,0:0:0:0:
236,172,161000,1,2,3:0:0:0:
360,104,161100,1,10,0:0:0:0:
296,228,161200,1,2,3:0:0:0:
400,312,161300,2,0,B|448:316|448:316|496:288,1,95,2|0,0:0|3:0,0:0:0:0:
296,228,161500,2,0,B|255:204|255:204|207:208,1,95,10|2,0:0|3:0,0:0:0:0:
220,384,161700,6,0,L|235:290,1,95,2|0,0:0|3:0,0:0:0:0:
40,168,161900,2,0,L|55:261,1,95,10|2,0:0|3:0,0:0:0:0:
55,261,162300,2,0,L|40:168,1,95,10|2,0:0|3:0,0:0:0:0:
168,60,162500,69,2,0:0:0:0:
132,216,162600,1,0,3:0:0:0:
88,24,162700,2,0,P|135:29|179:46,1,95,10|0,0:0|3:0,0:0:0:0:
396,44,162900,2,0,P|354:124|264:128,1,190,2|10,0:0|0:0,0:0:0:0:
313,387,163200,6,0,P|264:311|307:230,1,190,2|0,3:0|3:0,0:0:0:0:
356,312,163500,1,10,0:0:0:0:
149,140,163600,2,0,P|184:171|195:216,1,95,2|0,3:0|2:0,0:0:0:0:
196,217,163900,2,0,P|148:232|84:208,1,95,8|0,0:0|3:0,0:0:0:0:
64,52,164100,37,2,0:0:0:0:
149,140,164200,1,0,3:0:0:0:
227,46,164300,1,10,0:0:0:0:
149,140,164400,1,2,3:0:0:0:
282,107,164500,2,0,L|300:13,1,95,2|0,0:0|3:0,0:0:0:0:
17,114,164700,2,0,L|40:227,1,95,10|0,0:0|3:0,0:0:0:0:
87,350,164900,5,2,0:0:0:0:
196,300,165000,1,0,3:0:0:0:
105,222,165100,1,10,0:0:0:0:
196,300,165200,1,2,3:0:0:0:
265,196,165300,2,0,P|218:193|180:221,1,95,2|0,3:0|3:0,0:0:0:0:
226,376,165500,2,0,P|272:378|310:350,1,95,10|0,3:0|3:0,0:0:0:0:
369,219,165700,69,2,0:0:0:0:
384,115,165800,1,0,3:0:0:0:
369,219,165900,1,10,0:0:0:0:
384,115,166000,1,0,3:0:0:0:
472,185,166100,2,0,P|457:230|427:266,1,95,2|2,0:0|3:0,0:0:0:0:
324,152,166300,1,8,0:0:0:0:
441,287,166400,6,0,P|361:287|275:350,1,190,2|2,3:0|3:0,0:0:0:0:
269,204,166700,2,0,P|277:157|265:111,1,95,10|0,0:0|3:0,0:0:0:0:
27,207,166900,2,0,P|120:218|190:281,1,190,2|2,3:0|3:0,0:0:0:0:
48,372,167200,1,2,3:0:0:0:
104,164,167300,38,0,B|84:0|84:0|148:76,1,249.375009512902,0|0,3:0|2:0,2:0:0:0:
208,148,167700,2,0,B|260:196|260:196|456:160,1,249.375009512902,0|0,3:0|2:0,2:0:0:0:
376,72,168100,6,0,L|232:44,1,142.500005435944,0|0,3:0|2:0,2:0:0:0:
300,276,168400,2,0,L|444:248,1,142.500005435944,0|0,3:0|2:0,2:0:0:0:
440,248,168900,38,0,L|456:104,1,113.999996520996,10|0,0:0|3:0,0:0:0:0:
328,220,169100,2,0,L|340:333,1,113.999996520996,10|0,0:0|3:0,0:0:0:0:
171,333,169300,2,0,L|184:220,1,113.999996520996,10|0,0:0|3:0,0:0:0:0:
59,134,169500,2,0,L|72:248,1,113.999996520996,10|0,0:0|3:0,0:0:0:0:
84,376,169700,5,8,0:0:0:0:
171,333,169800,1,0,0:0:0:0:
256,368,169900,1,8,0:0:0:0:
341,333,170000,1,0,0:0:0:0:
428,376,170100,1,8,0:0:0:0:
428,376,170150,1,0,3:0:0:0:
428,376,170200,1,0,0:0:0:0:
424,284,170300,1,8,0:0:0:0:
424,284,170350,1,0,3:0:0:0:
424,284,170400,1,0,0:0:0:0:
424,284,170450,1,0,3:0:0:0:
424,284,170500,6,0,L|444:204,1,71.2500027179719,6|2,0:0|3:0,0:0:0:0:
348,56,170700,2,0,L|365:125,1,71.2500027179719,0|2,3:0|3:0,0:0:0:0:
424,284,170900,2,0,P|464:252|468:184,1,106.875004076958,0|0,3:0|2:0,0:0:0:0:
348,56,171100,2,0,P|388:88|392:156,1,106.875004076958,2|0,3:0|2:0,0:0:0:0:
328,236,171300,2,0,P|280:254|219:224,1,106.875004076958,2|0,3:0|2:0,0:0:0:0:
200,68,171500,2,0,P|248:24|272:28,1,71.2500027179719,2|0,3:0|2:0,0:0:0:0:
249,24,172100,6,0,P|209:32|161:56,1,71.2500027179719,2|0,3:0|3:0,0:0:0:0:
48,148,172300,2,0,L|180:164,1,106.875004076958,2|0,3:0|2:0,0:0:0:0:
249,24,172500,2,0,L|117:40,1,106.875004076958,2|0,3:0|2:0,0:0:0:0:
48,148,172700,2,0,P|88:140|136:116,1,71.2500027179719,0|2,3:0|3:0,0:0:0:0:
356,92,172900,2,0,P|304:124|256:176,1,106.875004076958,2|0,3:0|2:0,0:0:0:0:
216,256,173100,2,0,P|204:292|200:352,1,71.2500027179719,2|0,3:0|2:0,0:0:0:0:
199,324,173700,70,0,L|184:248,1,71.2500027179719,2|0,3:0|3:0,0:0:0:0:
377,321,173900,2,0,B|328:343|328:343|292:276,1,106.875004076958,2|0,3:0|2:0,0:0:0:0:
319,227,174100,2,0,B|368:205|368:205|404:272,1,106.875004076958,2|0,3:0|2:0,0:0:0:0:
446,301,174300,1,0,3:0:0:0:
477,162,174400,1,2,3:0:0:0:
335,125,174500,2,0,P|315:174|318:226,1,106.875004076958,2|0,3:0|2:0,0:0:0:0:
210,263,174700,2,0,P|213:210|193:161,1,106.875004076958,2|0,3:0|2:0,0:0:0:0:
318,226,174900,2,0,P|325:278|354:322,1,106.875004076958,2|0,3:0|2:0,0:0:0:0:
193,161,175100,2,0,P|169:113|128:80,1,106.875004076958,2|0,3:0|2:0,0:0:0:0:
33,207,175300,6,0,B|31:215|21:227|21:227|39:259|39:259|29:277|29:277|66:347|172:329|184:255,1,285.000010871888,2|0,0:0|2:0,0:0:0:0:
86,142,175900,2,0,P|65:90|81:54,1,71.2500027179719,2|2,3:0|3:0,0:0:0:0:
140,14,176100,2,0,B|136:32|100:60|100:60|140:76|140:76|96:120|96:120|120:188|104:236,1,285.000010871888,0|2,0:0|3:0,0:0:0:0:
108,240,176800,1,0,3:0:0:0:
108,240,176900,6,0,P|112:173|84:93,1,142.500005435944,6|0,0:0|3:0,0:0:0:0:
40,336,177200,1,0,3:0:0:0:
40,336,177300,2,0,L|204:308,1,142.500005435944,2|0,0:0|3:0,0:0:0:0:
472,336,177600,1,0,3:0:0:0:
472,336,177700,2,0,L|331:312,1,142.500005435944,2|0,0:0|3:0,0:0:0:0:
426,97,178000,1,0,3:0:0:0:
426,97,178099,2,0,P|404:164|406:181,1,71.2500027179719,2|0,0:0|3:0,0:0:0:0:
479,258,178300,2,0,P|495:226|501:191,1,71.2500027179719,0|0,0:0|3:0,0:0:0:0:
500,44,178500,6,0,B|436:12|436:12|344:32,1,142.500005435944,6|0,0:0|3:0,0:0:0:0:
145,27,178800,1,0,3:0:0:0:
145,27,178900,2,0,B|76:12|76:12|12:44,1,142.500005435944,2|0,0:0|3:0,0:0:0:0:
112,197,179200,1,0,3:0:0:0:
112,197,179300,2,0,L|96:128,1,71.2500027179719,2|0,0:0|3:0,0:0:0:0:
416,128,179500,2,0,L|399:197,1,71.2500027179719,0|0,3:0|3:0,0:0:0:0:
177,250,179700,2,0,L|193:158,1,71.2500027179719,2|0,0:0|3:0,0:0:0:0:
323,179,179900,2,0,L|336:250,1,71.2500027179719,2|0,3:0|3:0,0:0:0:0:
256,356,180100,37,4,0:0:0:0:
256,356,180900,1,0,0:0:0:0:
256,356,181300,1,10,0:0:0:0:
368,212,181500,1,10,0:0:0:0:
178,199,181700,53,6,0:0:0:0:
68,168,181800,2,0,P|44:120|48:56,1,95,8|0,0:0|3:0,0:0:0:0:
144,96,182000,1,10,0:0:0:0:
92,260,182100,2,0,L|84:360,1,95,8|0,0:0|3:0,0:0:0:0:
260,268,182300,1,10,0:0:0:0:
177,337,182400,2,0,L|84:354,1,95,8|0,0:0|0:0,0:0:0:0:
178,199,182600,1,8,0:0:0:0:
260,268,182700,2,0,L|353:285,1,95,8|0,0:0|3:0,0:0:0:0:
484,309,182900,1,8,0:0:0:0:
484,309,183000,1,0,0:0:0:0:
401,176,183100,1,8,0:0:0:0:
401,176,183200,1,0,0:0:0:0:
492,66,183300,5,8,0:0:0:0:
408,12,183400,1,0,0:0:0:0:
336,104,183500,1,8,0:0:0:0:
256,44,183600,1,8,0:0:0:0:
176,104,183700,1,8,0:0:0:0:
176,104,183750,1,0,3:0:0:0:
176,104,183800,1,0,0:0:0:0:
104,12,183900,1,8,0:0:0:0:
104,12,183950,1,0,3:0:0:0:
104,12,184000,1,0,0:0:0:0:
104,12,184050,1,0,3:0:0:0:
104,12,184100,38,0,P|64:56|56:124,1,95,6|2,0:0|3:0,0:0:0:0:
164,264,184300,2,0,P|148:219|114:186,1,95,8|0,0:0|3:0,0:0:0:0:
76,360,184500,2,0,P|148:300|268:288,1,190,2|8,0:0|0:0,0:0:0:0:
500,272,184800,1,2,3:0:0:0:
432,360,184900,6,0,L|316:336,1,95,2|0,0:0|3:0,0:0:0:0:
379,153,185100,2,0,L|392:248,1,95,10|0,0:0|3:0,0:0:0:0:
292,180,185300,1,0,0:0:0:0:
312,40,185400,1,0,0:0:0:0:
460,92,185500,2,0,L|472:186,1,95,8|0,0:0|3:0,0:0:0:0:
440,312,185700,6,0,P|388:328|336:304,1,95,2|2,0:0|3:0,0:0:0:0:
240,280,185900,2,0,P|212:220|152:192,1,95,8|0,0:0|3:0,0:0:0:0:
0,236,186100,2,0,B|0:268|48:308|48:308|108:276|168:284,1,190,2|8,0:0|0:0,0:0:0:0:
276,356,186400,1,2,3:0:0:0:
190,203,186500,6,0,L|86:183,1,95,2|0,0:0|3:0,0:0:0:0:
32,24,186700,2,0,L|124:100,1,95,10|0,0:0|3:0,0:0:0:0:
190,203,186900,1,0,0:0:0:0:
204,68,187000,1,0,0:0:0:0:
320,144,187100,2,0,P|300:192|248:228,1,95,8|0,0:0|3:0,0:0:0:0:
104,308,187300,38,0,P|160:304|216:336,1,95,2|2,0:0|3:0,0:0:0:0:
356,376,187500,2,0,P|324:336|308:280,1,95,8|0,0:0|3:0,0:0:0:0:
445,115,187700,2,0,P|412:203|428:296,1,190,2|8,0:0|0:0,0:0:0:0:
504,216,188000,1,2,3:0:0:0:
344,116,188100,6,0,L|236:140,1,95,2|0,0:0|3:0,0:0:0:0:
148,72,188300,2,0,L|44:56,1,95,10|0,0:0|3:0,0:0:0:0:
72,168,188500,2,0,B|120:176|120:176|144:256|84:316,1,190,2|10,0:0|0:0,0:0:0:0:
24,240,188800,1,0,3:0:0:0:
208,260,188900,6,0,B|240:256|240:256|264:292|264:292|320:304|376:348,1,190,2|8,0:0|0:0,0:0:0:0:
416,68,189200,2,0,B|386:82|386:82|386:125|386:125|346:165|323:233,1,190,0|0,3:0|0:0,0:0:0:0:
432,216,189500,1,10,0:0:0:0:
304,88,189600,1,2,3:0:0:0:
502,150,189700,6,0,L|327:222,1,190,0|8,0:0|0:0,0:0:0:0:
120,260,190000,1,0,3:0:0:0:
168,164,190100,2,0,B|176:148|176:148|200:160|200:160|264:108|244:48|204:24,1,190,2|8,0:0|0:0,0:0:0:0:
40,92,190400,1,2,3:0:0:0:
67,184,190500,38,0,B|84:228|84:228|120:260,1,95,6|0,0:0|3:0,0:0:0:0:
272,220,190700,2,0,B|308:252|308:252|324:295,1,95,10|0,0:0|3:0,0:0:0:0:
220,368,190900,2,0,B|304:324|304:324|400:344,1,190,2|8,0:0|0:0,0:0:0:0:
496,212,191200,1,0,3:0:0:0:
440,128,191300,6,0,B|389:259|389:259|437:271,1,190,0|8,0:0|0:0,0:0:0:0:
512,68,191600,1,0,3:0:0:0:
512,68,191700,2,0,L|320:116,1,190,2|8,0:0|0:0,0:0:0:0:
208,72,192000,1,2,3:0:0:0:
140,140,192100,6,0,P|60:136|28:28,1,190,2|10,0:0|0:0,0:0:0:0:
104,64,192400,1,0,3:0:0:0:
173,222,192500,2,0,P|152:264|117:297,1,95,2|0,0:0|0:0,0:0:0:0:
30,322,192700,2,0,P|77:321|118:298,1,95,8|0,0:0|3:0,0:0:0:0:
236,232,192900,6,0,B|264:180|248:96|248:96|280:120|316:128,1,190,0|8,0:0|0:0,0:0:0:0:
400,168,193200,1,0,3:0:0:0:
400,168,193300,2,0,P|456:160|508:120,1,95,2|0,0:0|0:0,0:0:0:0:
400,8,193500,2,0,P|374:47|366:94,1,95,10|0,0:0|3:0,0:0:0:0:
444,272,193700,38,0,B|464:292|480:320|480:320|440:308|404:300|404:300|408:312|408:320|408:320|330:290|244:320,1,285,6|2,0:0|3:0,0:0:0:0:
84,328,194100,2,0,P|152:348|196:348,1,95,2|0,0:0|0:0,0:0:0:0:
231,197,194300,1,8,0:0:0:0:
64,152,194400,1,0,3:0:0:0:
152,248,194500,6,0,P|200:224|256:164,1,95,0|0,0:0|3:0,0:0:0:0:
224,8,194700,2,0,P|200:68|196:136,1,95,8|0,0:0|3:0,0:0:0:0:
427,53,194900,2,0,L|336:80,1,95,2|0,0:0|0:0,0:0:0:0:
511,177,195100,2,0,L|399:161,1,95,10|0,0:0|3:0,0:0:0:0:
224,336,195300,5,2,0:0:0:0:
328,344,195400,2,0,B|384:320|388:240|388:240|456:248,1,190,8|10,0:0|0:0,0:0:0:0:
409,37,195700,2,0,B|364:69|359:155|359:155|419:163,1,190,0|10,0:0|0:0,0:0:0:0:
470,80,196000,6,0,P|367:93|276:147,1,190,8|8,0:0|0:0,2:0:0:0:
168,64,196300,2,0,L|64:52,1,95,8|0,0:0|3:0,0:0:0:0:
76,218,196500,2,0,L|180:206,1,95,8|0,0:0|0:0,0:0:0:0:
292,133,196700,1,8,0:0:0:0:
292,279,196800,1,0,0:0:0:0:
170,207,196900,38,0,B|129:178|125:130|125:130|116:128|116:128|112:80|72:52,1,190,6|10,0:0|0:0,0:0:0:0:
209,132,197200,1,0,3:0:0:0:
24,132,197300,2,0,P|16:192|28:260,1,95,2|0,0:0|0:0,0:0:0:0:
135,301,197500,1,8,0:0:0:0:
135,301,197600,1,2,3:0:0:0:
209,132,197700,6,0,P|255:136|304:147,1,95,2|0,0:0|3:0,0:0:0:0:
472,126,197900,2,0,P|426:122|377:111,1,95,8|0,0:0|3:0,0:0:0:0:
437,39,198100,1,0,0:0:0:0:
467,215,198200,1,0,0:0:0:0:
302,146,198300,1,8,0:0:0:0:
471,126,198400,1,0,3:0:0:0:
392,278,198500,6,0,B|378:294|368:314|368:314|348:298|348:298|292:374|220:346,1,190,2|10,0:0|0:0,0:0:0:0:
136,112,198800,1,0,3:0:0:0:
231,159,198900,2,0,L|252:252,1,95,2|0,0:0|0:0,0:0:0:0:
75,195,199100,1,8,0:0:0:0:
75,195,199200,1,2,3:0:0:0:
96,40,199300,6,0,B|98:42|114:30|114:30|74:198,1,190,2|10,0:0|0:0,0:0:0:0:
120,320,199600,1,0,3:0:0:0:
252,252,199700,2,0,P|168:228|132:232,1,95
232,380,199900,2,0,P|279:374|322:356,1,95,8|0,0:0|3:0,0:0:0:0:
448,224,200100,37,2,0:0:0:0:
408,376,200200,1,0,3:0:0:0:
360,208,200300,1,10,0:0:0:0:
472,312,200400,1,2,3:0:0:0:
416,148,200500,2,0,B|396:120|396:120|320:120|252:40,1,190,2|8,0:0|0:0,0:0:0:0:
388,40,200800,1,2,3:0:0:0:
268,164,200900,6,0,P|216:184|148:176,1,95,2|0,0:0|3:0,0:0:0:0:
42,62,201100,2,0,P|125:105|177:183,1,190,10|0,0:0|0:0,0:0:0:0:
16,256,201400,1,0,0:0:0:0:
16,256,201500,2,0,L|44:144,1,95,8|0,0:0|3:0,0:0:0:0:
84,340,201700,6,0,B|108:324|108:324|140:348|140:348|204:320|268:332,1,190,2|10,0:0|0:0,0:0:0:0:
504,316,202000,1,0,3:0:0:0:
400,244,202100,2,0,B|371:242|371:242|356:279|356:279|286:288|238:331,1,190,2|8,0:0|0:0,0:0:0:0:
300,208,202400,1,2,3:0:0:0:
316,96,202500,6,0,P|312:48|280:-8,1,95,2|0,0:0|3:0,0:0:0:0:
155,68,202700,2,0,B|168:72|188:60|188:60|200:84|200:84|216:68|216:68|260:100|316:96,1,190,10|0,0:0|0:0,0:0:0:0:
460,56,203000,1,0,0:0:0:0:
360,156,203100,1,8,0:0:0:0:
400,4,203200,1,0,3:0:0:0:
492,128,203300,38,0,B|460:164|448:216|448:216|460:240|460:240|448:288|404:328,1,190,6|10,0:0|0:0,0:0:0:0:
184,286,203600,1,0,3:0:0:0:
184,286,203700,2,0,P|266:240|360:244,1,190,2|8,0:0|0:0,0:0:0:0:
284,312,204000,1,2,3:0:0:0:
184,192,204100,6,0,L|148:84,1,95,2|0,0:3|3:3,0:3:0:0:
320,64,204300,2,0,L|320:160,1,95,10|0,0:3|3:3,0:3:0:0:
184,192,204500,2,0,P|136:204|76:188,1,95,0|0,0:3|0:3,0:0:0:0:
232,36,204700,2,0,P|281:41|332:76,1,95,8|0,0:0|3:0,0:0:0:0:
432,226,204900,6,0,B|390:122|390:122|415:89|409:41,1,190,2|10,0:0|0:0,0:0:0:0:
483,127,205200,1,0,0:0:0:0:
345,250,205300,2,0,L|133:224,1,190,2|8,0:0|3:0,0:0:0:0:
22,249,205600,1,2,3:0:0:0:
108,140,205700,6,0,B|168:120|228:160|228:160|256:132|304:124,1,190,2|10,0:0|0:0,0:0:0:0:
220,56,206000,1,0,3:0:0:0:
152,232,206100,2,0,P|144:280|104:336,1,95
32,184,206300,2,0,P|8:143|0:96,1,95,8|0,0:0|3:0,0:0:0:0:
144,20,206500,37,14,0:0:0:0:
32,184,206600,1,2,0:0:0:0:
184,112,206700,1,10,0:0:0:0:
0,96,206800,1,0,0:0:0:0:
236,204,206900,2,0,L|360:228,1,95,10|0,0:0|0:0,0:0:0:0:
444,128,207100,1,8,0:0:0:0:
384,280,207200,1,2,0:0:0:0:
360,144,207300,6,0,P|340:92|356:20,1,95,14|0,0:0|0:0,0:0:0:0:
488,256,207500,2,0,P|488:303|470:346,1,95,10|0,0:0|0:0,0:0:0:0:
292,301,207700,2,0,P|336:285|384:280,1,95,8|0,0:0|0:0,0:0:0:0:
434,74,207900,2,0,P|389:58|342:52,1,95,8|0,0:0|0:0,0:0:0:0:
160,132,208100,69,14,0:0:0:0:
224,252,208200,1,2,3:0:0:0:
232,132,208300,1,8,0:0:0:0:
152,252,208400,1,0,3:0:0:0:
275,192,208500,1,10,0:0:0:0:
109,192,208600,1,0,3:0:0:0:
260,260,208700,1,10,0:0:0:0:
124,124,208800,1,0,3:0:0:0:
124,124,208900,6,0,P|136:64|156:16,1,95,10|0,0:0|3:0,0:0:0:0:
152,252,209100,2,0,P|140:312|120:360,1,95,10|0,0:0|3:0,0:0:0:0:
320,100,209300,2,0,P|332:40|352:-8,1,95,8|0,0:0|3:3,0:3:0:0:
348,228,209500,2,0,P|336:288|316:336,1,95,8|0,0:0|3:3,0:3:0:0:
242,245,209700,5,14,0:0:0:0:
415,311,209800,1,2,3:0:0:0:
258,177,209900,1,8,0:0:0:0:
431,243,210000,1,0,3:0:0:0:
274,105,210100,1,10,0:0:0:0:
447,171,210200,1,0,3:0:0:0:
290,37,210300,1,10,0:0:0:0:
463,103,210400,1,0,3:0:0:0:
463,103,210500,6,0,L|351:83,1,95,10|0,0:0|3:0,0:0:0:0:
258,177,210700,2,0,L|370:149,1,95,10|0,0:0|3:0,0:0:0:0:
431,243,210900,2,0,L|319:223,1,95,8|0,0:0|3:0,0:0:0:0:
226,317,211100,2,0,L|342:285,1,95,8|0,0:0|3:0,0:0:0:0:
176,256,211300,37,14,0:0:0:0:
176,256,211400,1,2,3:0:0:0:
172,92,211500,1,8,0:0:0:0:
172,92,211600,1,0,3:0:0:0:
264,220,211700,1,10,0:0:0:0:
264,220,211800,1,0,3:0:0:0:
85,121,211900,1,10,0:0:0:0:
85,121,212000,1,0,3:0:0:0:
119,266,212100,6,0,P|63:270|3:242,1,95,10|0,0:0|3:0,0:0:0:0:
224,81,212300,2,0,P|280:77|340:105,1,95,10|0,0:0|3:0,0:0:0:0:
300,322,212500,2,0,P|253:328|207:315,1,95,8|0,0:0|3:0,0:0:0:0:
31,16,212700,2,0,P|78:10|124:23,1,95,8|0,0:0|3:0,0:0:0:0:
264,220,212900,5,14,0:0:0:0:
316,88,213000,1,2,3:0:0:0:
264,220,213100,1,8,0:0:0:0:
316,88,213200,1,0,3:0:0:0:
340,216,213300,1,10,0:0:0:0:
244,88,213400,1,0,3:0:0:0:
340,216,213500,1,10,0:0:0:0:
244,88,213600,1,0,3:0:0:0:
388,88,213700,6,0,L|500:84,1,95,2|0,0:0|3:0,0:0:0:0:
192,224,213900,2,0,L|80:228,1,95,10|0,0:0|3:0,0:0:0:0:
434,219,214100,2,0,L|339:215,1,95,0|0,0:0|3:0,0:0:0:0:
48,76,214300,2,0,L|142:79,1,95,8|0,0:0|3:0,0:0:0:0:
339,215,214500,38,0,P|367:271|375:355,1,113.999996520996,6|2,0:0|3:0,0:0:0:0:
192,224,214700,2,0,P|202:168|229:117,1,113.999996520996,8|0,0:0|3:0,0:0:0:0:
445,140,214900,2,0,B|468:252|468:252|376:320,1,227.999993041992,2|8,0:0|0:0,0:0:0:0:
240,360,215200,1,2,3:0:0:0:
192,224,215300,6,0,L|40:200,1,113.999996520996,2|0,0:0|3:0,0:0:0:0:
229,117,215500,2,0,L|381:93,1,113.999996520996,10|0,0:0|3:0,0:0:0:0:
79,206,215700,2,0,L|120:316,1,113.999996520996
381,206,215900,2,0,L|340:96,1,113.999996520996,8|0,0:0|3:0,0:0:0:0:
200,36,216100,5,2,0:0:0:0:
288,184,216200,1,2,3:0:0:0:
444,96,216300,2,0,P|425:42|384:3,1,113.999996520996,8|0,0:0|3:0,0:0:0:0:
200,36,216500,2,0,B|176:112|84:124|84:124|60:88|12:76,1,227.999993041992,2|8,0:0|0:0,0:0:0:0:
160,212,216800,1,2,3:0:0:0:
8,168,216900,6,0,L|44:280,1,113.999996520996,2|0,0:0|3:0,0:0:0:0:
265,347,217100,2,0,L|152:336,1,113.999996520996,10|0,0:0|3:0,0:0:0:0:
106,34,217300,2,0,L|92:148,1,113.999996520996
360,216,217500,2,0,L|256:264,1,113.999996520996,10|0,0:0|3:0,0:0:0:0:
64,352,217700,37,14,0:0:0:0:
108,220,217800,1,0,0:0:0:0:
64,352,217900,1,10,0:0:0:0:
176,268,218000,1,0,0:0:0:0:
32,284,218100,2,0,P|24:220|28:136,1,113.999996520996,8|0,0:0|0:0,0:0:0:0:
256,36,218300,2,0,P|255:92|248:149,1,113.999996520996,10|0,0:0|0:0,0:0:0:0:
140,84,218500,5,14,0:0:0:0:
140,84,218600,1,0,0:0:0:0:
325,155,218700,1,10,0:0:0:0:
325,155,218800,1,0,0:0:0:0:
136,187,218900,2,0,L|24:170,1,113.999996520996,10|0,0:0|0:0,0:0:0:0:
332,260,219100,2,0,L|496:240,1,142.5,10|0,0:0|2:0,0:0:0:0:
488,240,219300,70,0,P|504:172|484:112,1,95,6|0,0:0|3:0,0:0:0:0:
372,88,219500,1,8,0:0:0:0:
332,260,219600,1,0,3:0:0:0:
232,153,219700,2,0,L|420:184,1,190,2|8,0:0|0:0,0:0:0:0:
336,352,220000,1,0,3:0:0:0:
180,264,220100,2,0,L|136:168,1,95,2|0,0:0|3:0,0:0:0:0:
138,364,220300,1,8,0:0:0:0:
32,356,220400,2,0,L|56:244,1,95,2|0,3:0|2:0,0:0:0:0:
51,263,220700,6,0,P|24:212|20:160,1,95,10|0,0:0|3:0,0:0:0:0:
151,31,220900,2,0,B|166:47|166:47|132:48|132:48|150:71|150:71|136:204,1,190,2|8,0:0|0:0,0:0:0:0:
60,96,221200,1,0,3:0:0:0:
228,164,221300,2,0,L|328:148,1,95,2|0,0:0|3:0,0:0:0:0:
472,76,221500,2,0,L|372:60,1,95,8|0,0:0|3:0,0:0:0:0:
228,164,221700,2,0,B|324:188|324:188|344:232|400:264,1,190,2|8,0:0|0:0,0:0:0:0:
505,127,222000,2,0,P|460:137|424:168,1,95,2|0,3:0|2:0,0:0:0:0:
423,168,222300,70,0,L|440:52,1,95,10|0,0:0|3:0,0:0:0:0:
500,216,222500,1,6,0:0:0:0:
384,248,222600,1,0,3:0:0:0:
328,144,222700,2,0,P|284:104|220:92,1,95,8|0,0:0|3:0,0:0:0:0:
112,160,222900,2,0,B|160:244|160:244|244:184,1,190,2|8,0:0|0:0,0:0:0:0:
72,73,223200,1,0,3:0:0:0:
48,244,223300,2,0,L|36:352,1,95,2|0,0:0|3:0,0:0:0:0:
0,154,223500,1,8,0:0:0:0:
72,73,223600,2,0,L|112:160,1,95,2|0,3:0|2:0,0:0:0:0:
112,160,223900,6,0,P|152:108|200:96,1,95,10|0,0:0|3:0,0:0:0:0:
290,196,224100,2,0,L|196:184,1,95,2|0,0:0|3:0,0:0:0:0:
300,80,224300,2,0,L|400:40,1,95,8|0,0:0|3:0,0:0:0:0:
420,184,224500,2,0,L|400:304,1,95,2|0,0:0|3:0,0:0:0:0:
287,367,224700,2,0,L|235:288,1,95,8|0,0:0|3:0,0:0:0:0:
40,184,224900,2,0,B|80:176|128:220|128:220|104:264|112:316,1,190,2|8,0:0|0:0,0:0:0:0:
235,288,225200,2,0,B|299:280|355:236|355:236|307:232|271:188,1,190,0|0,3:0|0:0,0:0:0:0:
330,49,225500,2,0,P|355:89|360:136,1,95,8|0,0:0|3:0,0:0:0:0:
60,96,225700,6,0,L|248:128,1,190,10|0,0:0|0:0,0:0:0:0:
423,31,226000,2,0,L|329:49,1,95,8|0,0:0|3:0,0:0:0:0:
248,128,226200,1,0,0:0:0:0:
327,210,226300,1,8,0:0:0:0:
409,130,226400,1,0,0:0:0:0:
329,49,226500,2,0,P|345:129|421:209,1,190,10|0,0:0|0:0,0:0:0:0:
464,352,226800,2,0,P|388:300|256:288,1,190,10|0,0:0|0:0,0:0:0:0:
148,288,227100,1,10,0:0:0:0:
276,328,227200,1,0,0:0:0:0:
144,248,227300,6,0,B|104:224|56:232|56:232|12:176|48:124,1,190,10|0,0:0|0:0,0:0:0:0:
176,48,227600,2,0,P|170:94|147:136,1,95,8|0,0:0|3:0,0:0:0:0:
68,56,227800,1,0,0:0:0:0:
272,96,227900,2,0,P|312:108|368:168,1,95,8|0,0:0|0:0,0:0:0:0:
452,124,228100,2,0,L|271:183,1,190,10|0,0:0|0:0,0:0:0:0:
368,19,228400,2,0,L|271:183,1,190,10|0,0:3|0:0,0:0:0:0:
173,329,228700,1,10,0:0:0:0:
208,132,228800,1,0,0:0:0:0:
262,306,228900,70,0,P|330:290|386:154,1,190,10|0,0:0|3:0,0:0:0:0:
236,15,229200,2,0,P|215:81|305:198,1,190,8|0,0:0|3:0,0:0:0:0:
500,137,229500,2,0,P|452:86|306:105,1,190,8|0,0:0|3:0,0:0:0:0:
270,182,229800,1,8,0:0:0:0:
389,192,229900,1,0,0:0:0:0:
337,82,230000,1,0,0:0:0:0:
270,182,230100,2,0,L|293:284,1,95,10|0,0:0|3:0,0:0:0:0:
140,139,230300,2,0,L|119:46,1,95,10|0,0:0|3:0,0:0:0:0:
119,46,230700,6,0,P|17:63|57:203,2,285,10|10|10,0:0|0:0|0:0,0:0:0:0:
204,131,231400,2,0,B|248:143|248:143|290:116,1,95,0|0,0:0|3:0,0:0:0:0:
399,50,231600,1,8,0:0:0:0:
399,50,231700,2,0,B|383:96|383:96|395:140,1,95,8|8,0:0|0:0,0:0:0:0:
278,365,231900,2,0,B|294:319|294:319|282:275,1,95,8|0,0:0|0:0,0:0:0:0:
36,236,232100,6,0,L|292:276,1,249.375009512902,0|0,0:0|2:0,0:0:0:0:
252,113,232500,2,0,L|35:236,1,249.375009512902,0|0,0:0|2:0,0:0:0:0:
61,103,232900,6,0,P|68:173|36:236,1,142.500005435944,0|0,0:0|2:0,2:0:0:0:
212,372,233200,2,0,P|179:309|186:239,1,142.500005435944,0|0,0:0|2:0,2:0:0:0:
253,113,233500,5,8,0:0:0:0:
253,113,233700,22,0,L|416:80,1,113.999996520996,14|0,0:0|3:0,0:0:0:0:
220,32,233900,1,10,0:0:0:0:
216,196,234000,1,0,3:0:0:0:
364,256,234100,2,0,P|416:200|408:128,1,113.999996520996,10|0,0:0|3:0,0:0:0:0:
160,105,234300,2,0,P|172:159|215:195,1,113.999996520996,10|0,0:0|3:0,0:0:0:0:
340,176,234500,5,10,0:0:0:0:
239,297,234600,1,8,0:0:0:0:
235,307,234650,1,0,3:0:0:0:
231,317,234700,1,8,0:0:0:0:
85,254,234800,2,0,L|57:143,1,113.999996520996,10|0,0:0|0:0,0:0:0:0:
280,0,235000,2,0,L|248:128,1,113.999996520996,0|10,0:0|0:0,0:0:0:0:
256,192,235150,12,0,235700,2:0:0:0:
