osu file format v14

[General]
AudioFilename: audio.mp3
AudioLeadIn: 0
PreviewTime: 48900
Countdown: 1
SampleSet: Normal
StackLeniency: 0.3
Mode: 0
LetterboxInBreaks: 0
EpilepsyWarning: 1
WidescreenStoryboard: 1

[Editor]
DistanceSpacing: 1.3
BeatDivisor: 4
GridSize: 4
TimelineZoom: 1.6

[Metadata]
Title:Mune Ippai no Dame o
TitleUnicode:胸いっぱいのダメを
Artist:PinocchioP
ArtistUnicode:ピノキオピー
Creator:AruOtta
Version:Insane
Source:
Tags:whole lotta no's hatsune miku hatsune_miku 初音ミク vocaloid japanese pop j-pop jpop minamo 水面 naryuga bara-
BeatmapID:1069527
BeatmapSetID:502545

[Difficulty]
HPDrainRate:6
CircleSize:4
OverallDifficulty:6
ApproachRate:9
SliderMultiplier:1.2
SliderTickRate:1

[Events]
//Background and Video events
0,0,"bg.jpg",0,0
Video,-390,"video.avi"
//Break Periods
2,141899,150700
//Storyboard Layer 0 (Background)
//Storyboard Layer 1 (Fail)
//Storyboard Layer 2 (Pass)
//Storyboard Layer 3 (Foreground)
//Storyboard Layer 4 (Overlay)
//Storyboard Sound Samples

[TimingPoints]
900,200,4,1,1,70,1,0
2500,-133.333333333333,4,1,1,50,0,0
3200,-100,4,1,1,70,0,0
3500,-100,4,1,1,40,0,0
3600,-100,4,1,1,70,0,0
16900,-133.333333333333,4,1,1,50,0,0
17200,-133.333333333333,4,1,1,5,0,0
17300,-133.333333333333,4,1,1,50,0,0
17600,-133.333333333333,4,1,1,5,0,0
17700,-133.333333333333,4,1,1,50,0,0
17900,-133.333333333333,4,1,1,5,0,0
18000,-133.333333333333,4,1,1,50,0,0
18500,-100,4,1,1,70,0,0
20100,-133.333333333333,4,1,1,70,0,0
31500,-133.333333333333,4,1,1,50,0,0
32100,-133.333333333333,4,1,1,70,0,0
32900,-100,4,1,1,70,0,0
43300,-100,4,1,1,60,0,0
44100,-100,4,1,1,70,0,0
44900,-100,4,1,1,60,0,0
45700,-100,4,1,1,70,0,0
46700,-100,4,1,1,70,0,0
47300,-133.333333333333,4,1,1,70,0,0
48900,-133.333333333333,4,1,1,50,0,0
60100,-100,4,1,1,70,0,0
61700,-100,4,1,1,70,0,1
72900,-100,4,1,1,70,0,0
80100,-133.333333333333,4,1,1,70,0,0
86500,-100,4,1,1,70,0,0
103400,-100,4,1,1,60,0,0
104100,-100,4,1,1,70,0,0
105000,-100,4,1,1,60,0,0
105700,-100,4,1,1,70,0,0
109033,-100,4,1,1,40,0,0
109300,-100,4,1,1,70,0,0
109433,-100,4,1,1,40,0,0
109700,-100,4,1,1,70,0,0
109833,-100,4,1,1,50,0,0
110100,-100,4,1,1,70,0,0
110233,-100,4,1,1,50,0,0
110500,-100,4,1,1,80,0,0
110766,-100,4,1,1,60,0,0
110900,-100,4,1,1,80,0,0
111033,-100,4,1,1,70,0,0
111300,-100,4,1,1,80,0,0
111500,-100,4,1,1,50,0,0
111600,-100,4,1,1,70,0,0
112100,-133.333333333333,4,1,1,50,0,0
113300,-100,4,1,1,70,0,0
113700,-100,4,1,1,70,0,1
136100,-100,4,1,1,70,0,0
167300,-133.333333333333,4,1,1,60,0,0
167312,-133.333333333333,4,1,1,5,0,0
167700,-133.333333333333,4,1,1,50,0,0
167712,-133.333333333333,4,1,1,5,0,0
168100,-133.333333333333,4,1,1,50,0,0
168112,-133.333333333333,4,1,1,5,0,0
168400,-133.333333333333,4,1,1,50,0,0
168412,-133.333333333333,4,1,1,5,0,0
168900,-100,4,1,1,70,0,0
170500,-133.333333333333,4,1,1,70,0,0
181700,-100,4,1,1,70,0,0
183300,-100,4,1,1,50,0,0
184100,-100,4,1,1,70,0,1
208000,-100,4,1,1,70,0,0
208100,-100,4,1,1,100,0,1
214500,-100,4,1,1,80,0,1
219100,-100,4,1,1,70,0,0
219300,-100,4,1,1,70,0,1
232100,-133.333333333333,4,1,1,70,0,0
232400,-133.333333333333,4,1,1,5,0,0
232500,-133.333333333333,4,1,1,70,0,0
232800,-133.333333333333,4,1,1,5,0,0
232900,-133.333333333333,4,1,1,70,0,0
233100,-133.333333333333,4,1,1,5,0,0
233200,-133.333333333333,4,1,1,70,0,0
233500,-100,4,1,1,70,0,0

[Colours]
Combo1 : 165,193,228
Combo2 : 255,0,128
Combo3 : 82,207,207
Combo4 : 130,23,145
Combo5 : 0,0,255
Combo6 : 227,172,207

[HitObjects]
127,135,900,6,0,P|139:95|135:55,1,60,14|0,0:0|3:0,0:0:0:0:
63,87,1100,2,0,P|55:143|115:263,2,180,10|10|10,0:0|0:0|0:0,0:0:0:0:
192,212,2000,6,0,L|380:192,1,180,10|10,0:0|0:0,0:0:0:0:
370,192,2500,38,0,L|392:140,1,45.0000017166138,2|0,3:0|3:0,3:0:0:0:
452,200,2700,2,0,L|435:241,4,45.0000017166138,0|0|2|0|0,3:0|3:0|3:0|3:0|3:0,0:0:0:0:
368,272,3200,5,10,0:0:0:0:
281,371,3400,1,10,0:0:0:0:
238,245,3600,1,10,0:3:0:0:
324,145,3800,2,0,L|332:105,4,30,0|0|8|0|8,0:0|0:0|0:0|3:0|0:0,0:0:0:0:
284,96,4100,6,0,L|152:120,1,120,6|8,0:0|0:0,0:0:0:0:
92,131,4400,1,0,3:0:0:0:
92,131,4500,1,2,0:0:0:0:
230,210,4700,2,0,L|206:282,1,60,8|0,0:0|3:0,0:0:0:0:
138,298,4900,2,0,P|178:338|250:334,1,120,2|8,0:0|0:0,0:0:0:0:
313,244,5200,1,2,3:0:0:0:
313,244,5500,6,0,L|385:260,1,60,10|0,0:0|3:0,0:0:0:0:
448,232,5700,2,0,P|468:176|452:96,1,120,2|8,0:0|0:0,0:0:0:0:
431,49,6000,1,0,3:0:0:0:
431,49,6100,1,2,0:0:0:0:
318,156,6300,2,0,P|286:132|254:120,1,60,8|0,0:0|3:0,0:0:0:0:
198,168,6500,2,0,L|54:192,1,120,2|8,0:0|0:0,0:0:0:0:
7,298,6800,1,2,3:0:0:0:
7,298,7100,70,0,L|23:222,1,60,10|0,0:0|3:0,0:0:0:0:
79,187,7300,2,0,P|113:145|100:65,1,120,6|8,0:0|0:0,0:0:0:0:
48,42,7600,1,0,3:0:0:0:
48,42,7700,1,2,0:0:0:0:
190,137,7900,2,0,L|258:121,1,60,8|0,0:0|3:0,0:0:0:0:
311,71,8100,2,0,B|327:131|327:131|295:199,1,120,2|8,0:0|0:0,0:0:0:0:
250,294,8400,1,2,3:0:0:0:
250,294,8700,6,0,L|166:282,1,60,10|0,0:0|3:0,0:0:0:0:
136,229,8900,2,0,P|76:237|20:281,1,120,2|8,0:0|0:0,0:0:0:0:
11,349,9200,1,0,3:0:0:0:
11,349,9300,1,2,0:0:0:0:
176,343,9500,2,0,L|190:284,1,60,8|0,0:0|3:0,0:0:0:0:
230,197,9700,2,0,P|213:140|230:83,1,120,2|8,0:0|0:0,0:0:0:0:
308,32,10000,2,0,L|432:44,1,120,0|0,3:0|0:0,0:0:0:0:
496,96,10300,1,8,0:0:0:0:
456,208,10500,6,0,P|392:232|416:332,1,180,10|8,0:0|0:0,0:0:0:0:
258,298,11000,1,8,0:0:0:0:
258,298,11100,2,0,L|194:286,1,60,0|8,0:0|0:0,0:0:0:0:
134,243,11300,1,10,0:0:0:0:
39,125,11500,1,0,3:0:0:0:
39,125,11600,2,0,L|219:101,1,180,10|2,0:0|0:0,0:0:0:0:
332,36,12100,6,0,B|416:72|416:72|368:164,1,180,10|8,0:0|0:0,0:0:0:0:
328,260,12600,1,8,0:0:0:0:
328,260,12700,2,0,L|348:330,1,60,0|8,0:0|0:0,0:0:0:0:
258,314,12900,1,10,0:0:0:0:
184,200,13100,1,0,3:0:0:0:
184,200,13200,2,0,P|140:184|12:224,1,180,10|10,0:0|0:0,0:0:0:0:
40,100,13700,70,0,L|160:92,1,120,10|0,0:0|3:0,0:0:0:0:
224,38,14000,2,0,B|284:26|284:26|268:88,1,120,8|0,0:0|3:0,0:0:0:0:
301,160,14300,2,0,P|357:164|377:92,1,120,8|0,0:0|3:0,0:0:0:0:
453,65,14600,2,0,P|465:109|445:189,1,120,8|0,0:0|3:0,0:0:0:0:
365,239,14900,2,0,L|389:307,1,60,10|0,0:0|3:0,0:0:0:0:
460,344,15100,2,0,L|479:287,1,60,10|0,0:0|3:0,0:0:0:0:
479,287,15500,6,0,L|299:335,2,180,10|10|10,0:0|0:0|0:0,0:0:0:0:
388,216,16300,1,0,3:0:0:0:
359,194,16400,1,8,0:0:0:0:
340,164,16500,1,8,0:0:0:0:
334,128,16600,1,8,0:0:0:0:
341,93,16700,1,8,0:0:0:0:
360,63,16800,1,8,0:0:0:0:
332,20,16900,6,0,L|196:44,1,135.000005149841,0|0,0:0|2:0,0:0:0:0:
176,112,17300,2,0,L|32:96,1,135.000005149841,0|0,0:0|2:0,0:0:0:0:
52,172,17700,6,0,L|152:184,1,90.0000034332277,0|0,0:0|2:0,0:0:0:0:
196,236,18000,2,0,P|228:232|284:280,1,90.0000034332277,0|0,0:0|2:0,0:0:0:0:
312,328,18300,1,8,0:0:0:0:
432,272,18500,38,0,L|448:196,1,60,14|0,0:0|3:0,0:0:0:0:
428,136,18700,2,0,L|444:60,1,60,10|0,0:0|3:0,0:0:0:0:
504,28,18900,1,10,0:0:0:0:
344,84,19100,1,10,0:0:0:0:
200,44,19300,6,0,P|156:40|100:100,1,120,10|8,0:0|0:0,0:0:0:0:
28,156,19600,2,0,B|60:192|112:188|112:188|92:208|88:228,1,120,10|0,0:0|0:0,0:0:0:0:
20,264,19900,1,0,0:0:0:0:
128,344,20100,38,0,L|232:328,1,90.0000034332277,0|8,0:0|0:0,0:0:0:0:
252,300,20400,1,0,3:0:0:0:
296,304,20500,2,0,P|344:324|392:316,1,90.0000034332277,2|10,0:0|0:0,0:0:0:0:
420,296,20800,1,0,3:0:0:0:
409,242,20900,1,0,0:0:0:0:
440,137,21100,2,0,L|432:77,2,45.0000017166138,10|0|2,0:0|3:0|0:0,0:0:0:0:
402,160,21400,1,2,0:0:0:0:
357,165,21500,1,8,0:0:0:0:
316,148,21600,1,2,3:0:0:0:
288,116,21700,6,0,P|248:96|196:100,1,90.0000034332277,0|8,0:0|0:0,0:0:0:0:
104,160,22100,1,2,0:0:0:0:
128,196,22200,1,0,0:0:0:0:
152,232,22300,2,0,L|132:324,1,90.0000034332277,10|0,0:0|0:0,0:0:0:0:
204,360,22600,1,0,3:0:0:0:
212,320,22700,2,0,L|224:264,1,45.0000017166138,10|0,0:0|3:0,0:0:0:0:
288,304,22900,2,0,L|300:248,1,45.0000017166138,10|2,0:0|3:0,0:0:0:0:
364,288,23100,2,0,L|376:232,1,45.0000017166138,0|2,0:0|0:0,0:0:0:0:
428,188,23300,70,0,P|448:156|432:92,1,90.0000034332277,0|8,0:0|0:0,0:0:0:0:
340,24,23700,1,2,0:0:0:0:
260,136,23900,1,10,0:0:0:0:
144,72,24100,1,2,0:0:0:0:
99,66,24200,1,0,0:0:0:0:
54,59,24300,2,0,L|-2:51,2,45.0000017166138,10|0|2,0:0|3:0|0:0,3:0:0:0:
78,96,24600,1,2,0:0:0:0:
82,140,24700,1,8,0:0:0:0:
67,182,24800,1,2,3:0:0:0:
34,212,24900,6,0,L|143:196,1,90.0000034332277,0|8,0:0|0:0,0:0:0:0:
223,248,25300,1,2,0:0:0:0:
267,248,25400,1,0,0:0:0:0:
311,236,25500,1,10,0:0:0:0:
428,208,25700,2,0,L|432:156,1,45.0000017166138,2|2,0:0|0:0,0:0:0:0:
360,64,26000,2,0,L|356:120,2,45.0000017166138,2|2|2,3:0|3:0|3:0,0:0:0:0:
338,43,26300,1,0,3:0:0:0:
312,28,26400,1,2,3:0:0:0:
283,20,26500,70,0,B|244:40|244:40|180:28,1,90.0000034332277,0|8,0:0|0:0,0:0:0:0:
81,90,26900,1,2,0:0:0:0:
73,122,27000,1,0,0:0:0:0:
68,155,27100,1,10,0:0:0:0:
62,188,27200,1,0,3:0:0:0:
55,222,27300,2,0,P|75:241|106:261,1,45.0000017166138,2|0,0:0|3:0,0:0:0:0:
181,224,27500,2,0,P|192:199|200:163,2,45.0000017166138,10|0|2,0:0|3:0|0:0,0:0:0:0:
163,264,27800,1,2,0:0:0:0:
173,307,27900,1,8,0:0:0:0:
206,336,28000,1,2,3:0:0:0:
251,339,28100,6,0,B|268:316|272:300|272:300|332:316,1,90.0000034332277,0|8,0:0|0:0,0:0:0:0:
440,248,28500,2,0,L|376:256,1,45.0000017166138,2|0,0:0|0:0,0:0:0:0:
424,172,28700,2,0,L|468:166,1,45.0000017166138,10|0,0:0|3:0,0:0:0:0:
496,84,28900,2,0,L|452:90,1,45.0000017166138,2|0,0:0|3:0,0:0:0:0:
372,107,29100,2,0,P|371:79|380:52,2,45.0000017166138,10|0|2,0:0|0:0|0:0,0:0:0:0:
378,145,29400,1,2,0:0:0:0:
363,181,29500,1,8,0:0:0:0:
332,203,29600,1,2,3:0:0:0:
293,206,29700,70,0,L|280:304,1,90.0000034332277,0|8,0:0|0:0,0:0:0:0:
156,348,30100,1,2,0:0:0:0:
176,224,30300,1,10,0:0:0:0:
281,295,30500,2,0,L|233:319,1,45.0000017166138,2|0,0:0|3:0,0:0:0:0:
156,348,30700,2,0,L|104:332,1,45.0000017166138,10|0,0:0|3:0,0:0:0:0:
60,264,30900,1,2,0:0:0:0:
55,219,31000,1,2,0:0:0:0:
50,174,31100,1,8,0:3:0:0:
45,129,31200,1,2,3:0:0:0:
40,85,31300,70,0,L|48:40,7,45.0000017166138,0|0|0|0|2|2|0|2,0:0|0:0|0:0|0:0|0:0|0:0|0:0|0:0,0:0:0:0:
120,24,32100,21,8,0:0:0:0:
164,29,32200,1,2,0:0:0:0:
201,54,32300,1,8,0:0:0:0:
223,93,32400,2,0,B|232:140|232:140|288:120,1,90.0000034332277,2|2,0:0|0:0,0:0:0:0:
344,96,32700,2,0,L|400:112,1,45.0000017166138,8|2,0:0|3:0,0:0:0:0:
448,160,32900,6,0,P|456:204|424:288,1,120,4|8,0:0|0:0,0:0:0:0:
320,312,33300,2,0,L|256:308,1,60,2|8,0:0|0:0,0:0:0:0:
220,236,33500,2,0,L|152:248,1,60,2|8,0:0|0:0,0:0:0:0:
88,204,33700,2,0,P|76:244|88:284,2,60,2|0|10,0:0|3:0|0:0,0:0:0:0:
124,160,34000,1,10,0:0:0:0:
152,108,34100,2,0,P|144:72|120:48,2,60,2|2|10,3:0|3:0|0:0,0:0:0:0:
264,144,34500,6,0,P|304:140|328:124,1,60,2|0,0:0|3:0,0:0:0:0:
380,80,34700,2,0,P|420:84|444:100,1,60,10|2,0:0|0:0,0:0:0:0:
488,156,34900,1,2,0:0:0:0:
491,200,35000,1,8,0:0:0:0:
479,243,35100,1,2,0:0:0:0:
454,280,35200,1,8,0:0:0:0:
418,307,35300,2,0,L|352:288,1,60,2|2,0:0|3:0,0:0:0:0:
312,220,35500,2,0,L|378:200,1,60,8|8,0:0|0:0,0:0:0:0:
448,184,35700,1,2,3:0:0:0:
340,92,35900,2,0,L|348:56,3,30,8|0|0|0,0:0|3:0|0:0|3:0,0:0:0:0:
320,32,36100,70,0,L|292:152,1,120,4|8,0:0|0:0,0:0:0:0:
184,76,36500,2,0,L|125:88,1,60,2|8,0:0|0:0,0:0:0:0:
72,164,36699,1,2,0:0:0:0:
72,164,36799,1,8,0:0:0:0:
72,164,36900,2,0,L|148:180,1,60,2|2,0:0|3:0,0:0:0:0:
204,224,37100,2,0,P|240:204|280:200,2,60,10|10|2,0:0|0:0|3:0,0:0:0:0:
120,332,37500,1,10,0:0:0:0:
160,356,37600,1,0,3:0:0:0:
212,344,37700,6,0,B|240:332|240:332|288:340,1,60,2|0,0:0|3:0,0:0:0:0:
340,304,37900,2,0,B|368:316|368:316|397:311,1,60,10|0,0:0|0:0,0:0:0:0:
464,260,38100,1,0,0:0:0:0:
482,227,38200,1,10,0:0:0:0:
486,190,38300,1,0,0:0:0:0:
474,155,38400,1,10,0:0:0:0:
448,128,38500,2,0,L|372:108,1,60,2|0,0:0|3:0,0:0:0:0:
379,25,38700,2,0,L|303:45,1,60,10|10,0:0|0:0,0:0:0:0:
244,59,38900,1,2,3:0:0:0:
208,198,39100,2,0,L|200:230,3,30,8|0|0|0,0:0|0:0|0:0|3:0,0:0:0:0:
170,246,39300,70,0,P|130:214|134:146,1,120,4|10,0:0|0:0,0:0:0:0:
272,212,39700,2,0,L|256:272,1,60,0|2,0:0|0:0,0:0:0:0:
308,344,39900,1,8,0:0:0:0:
308,344,40000,2,0,B|352:336|384:308|384:308|404:324|424:328,1,120,2|0,3:0|3:0,0:0:0:0:
450,330,40300,1,10,0:0:0:0:
482,312,40400,1,2,3:0:0:0:
498,279,40500,1,2,0:0:0:0:
490,243,40600,2,0,P|456:192|480:124,1,120,2|0,0:0|3:0,0:0:0:0:
492,50,40900,6,0,L|367:83,1,120,0|10,0:0|0:0,0:0:0:0:
294,94,41200,2,0,B|226:54|226:54|185:62,1,120,2|2,3:0|3:0,0:0:0:0:
103,61,41500,2,0,L|123:133,1,60,10|0,0:0|3:0,0:0:0:0:
200,141,41700,2,0,L|180:213,1,60,2|2,0:0|3:0,0:0:0:0:
161,270,41900,1,8,0:0:0:0:
144,295,42000,1,2,3:0:0:0:
120,313,42100,1,2,0:0:0:0:
91,322,42200,2,0,L|224:352,1,120,2|0,0:0|3:0,0:0:0:0:
280,316,42500,37,12,0:0:0:0:
408,192,42800,1,10,0:0:0:0:
452,364,43100,1,10,0:0:0:0:
339,324,43300,54,0,L|280:316,2,60,2|0|10,3:0|3:0|0:0,0:0:0:0:
415,251,43700,2,0,L|408:192,2,60,2|0|8,0:0|0:0|0:0,0:0:0:0:
472,140,44100,37,12,0:0:0:0:
344,16,44400,1,8,0:0:0:0:
300,188,44700,1,10,0:0:0:0:
329,72,44900,54,0,P|341:45|344:16,2,60,0|0|10,3:0|3:0|0:0,0:0:0:0:
232,140,45300,1,2,0:0:0:0:
194,137,45400,1,0,0:0:0:0:
160,123,45500,1,0,0:0:0:0:
132,98,45600,1,0,3:0:0:0:
114,66,45700,5,8,0:0:0:0:
48,220,46000,1,10,0:0:0:0:
160,336,46300,1,10,0:0:0:0:
264,268,46500,2,0,P|287:236|284:200,1,60,10|0,0:0|3:0,0:0:0:0:
212,185,46700,2,0,P|189:217|192:253,1,60,10|0,3:0|3:0,0:0:0:0:
246,299,46900,1,0,0:0:0:0:
287,314,47000,1,0,3:0:0:0:
330,304,47100,1,10,3:0:0:0:
360,271,47200,1,2,3:0:0:0:
365,226,47300,6,0,B|327:199|340:146|340:146|353:97|314:66,1,180.000006866455,2|8,0:0|0:0,0:0:0:0:
175,35,47900,1,2,3:0:0:0:
169,84,48000,1,10,0:0:0:0:
163,133,48100,2,0,P|169:167|258:121,1,180.000006866455,2|0,0:0|3:0,0:0:0:0:
260,128,48900,37,6,0:0:0:0:
260,128,49000,2,0,P|264:168|256:187,1,45.0000017166138,2|8,3:0|0:0,0:0:0:0:
184,258,49300,1,2,0:0:0:0:
95,188,49500,2,0,L|102:133,1,45.0000017166138,8|2,0:0|0:0,0:0:0:0:
170,117,49700,2,0,L|260:128,1,90.0000034332277,2|10,0:0|0:0,0:0:0:0:
295,132,50000,1,0,0:0:0:0:
331,136,50100,1,0,0:0:0:0:
423,64,50300,1,8,0:3:0:0:
438,184,50500,5,6,0:0:0:0:
438,184,50600,2,0,L|433:245,1,45.0000017166138,2|8,3:0|0:0,0:0:0:0:
452,344,50900,1,2,0:0:0:0:
339,355,51100,2,0,L|283:343,1,45.0000017166138,8|2,0:0|0:0,0:0:0:0:
248,280,51300,2,0,P|200:252|160:252,1,90.0000034332277,2|10,0:0|0:0,0:0:0:0:
128,272,51600,1,0,0:0:0:0:
104,308,51700,1,0,0:0:0:0:
7,242,51900,1,8,0:0:0:0:
36,131,52100,69,6,0:0:0:0:
36,131,52200,2,0,L|95:125,1,45.0000017166138,2|8,3:0|0:0,0:0:0:0:
195,147,52500,1,2,0:0:0:0:
213,29,52700,2,0,P|241:37|265:53,1,45.0000017166138,8|2,0:0|0:0,0:0:0:0:
289,73,52900,1,2,0:0:0:0:
404,57,53100,1,10,0:0:0:0:
362,166,53300,1,2,0:0:0:0:
444,248,53500,2,0,L|392:240,1,45.0000017166138,10|0,0:0|0:0,0:0:0:0:
336,278,53700,6,0,P|304:282|252:334,1,90.0000034332277,2|8,0:0|0:0,0:0:0:0:
200,215,54100,2,0,P|172:183|108:163,1,90.0000034332277,0|10,0:0|0:0,0:0:0:0:
87,205,54400,2,0,L|39:213,1,45.0000017166138,2|0,0:0|0:0,0:0:0:0:
0,102,54700,1,8,0:0:0:0:
103,47,54900,2,0,B|143:71|143:71|183:47|239:43,1,135.000005149841,2|2,0:0|0:0,0:0:0:0:
272,52,55300,69,6,0:0:0:0:
363,124,55500,1,10,0:0:0:0:
472,83,55700,2,0,L|460:191,1,90.0000034332277,2|8,0:0|0:0,0:0:0:0:
439,229,56000,2,0,L|451:273,2,45.0000017166138
387,199,56300,1,8,0:0:0:0:
387,199,56400,1,0,0:0:0:0:
387,199,56500,2,0,L|251:183,1,135.000005149841,2|2,0:0|0:0,0:0:0:0:
199,179,56900,5,6,0:0:0:0:
122,267,57100,1,10,0:0:0:0:
45,178,57300,2,0,P|18:110|20:75,1,90.0000034332277,2|8,0:0|0:0,0:0:0:0:
52,46,57600,2,0,P|35:17|21:-1,2,45.0000017166138
114,74,57900,1,8,0:0:0:0:
114,74,58000,1,0,0:0:0:0:
114,74,58100,2,0,L|101:122,1,45.0000017166138,2|0,0:0|0:0,0:0:0:0:
182,118,58300,2,0,L|170:162,1,45.0000017166138,10|0,0:0|0:0,0:0:0:0:
250,162,58500,69,4,0:0:0:0:
250,162,59300,1,0,0:0:0:0:
483,149,59700,5,8,3:0:0:0:
369,178,59900,1,10,0:0:0:0:
444,272,60100,37,6,0:0:0:0:
408,312,60200,2,0,P|364:312|300:364,1,120,8|10,0:0|0:0,0:0:0:0:
220,320,60500,2,0,B|232:292|256:268|256:268|212:216,1,120,8|10,0:0|0:0,0:0:0:0:
134,161,60800,6,0,L|6:185,1,120,8|8,0:0|0:0,0:0:0:0:
44,264,61100,2,0,B|12:316|12:316|84:332,1,120,8|8,0:0|0:0,0:0:0:0:
94,312,61400,1,0,0:0:0:0:
120,296,61500,1,8,0:0:0:0:
145,280,61600,1,0,0:0:0:0:
172,264,61700,38,0,P|128:192|144:144,1,120,6|10,0:0|0:0,0:0:0:0:
184,108,62000,1,0,3:0:0:0:
260,120,62100,2,0,B|320:132|320:132|384:96,1,120,2|8,0:0|0:0,0:0:0:0:
440,136,62400,1,2,3:0:0:0:
440,136,62500,2,0,P|448:96|432:56,1,60,2|0,0:0|3:0,0:0:0:0:
380,184,62700,2,0,P|368:236|388:304,1,120,10|0,0:0|0:0,0:0:0:0:
355,298,63000,1,0,0:0:0:0:
325,303,63100,1,8,0:0:0:0:
297,314,63200,1,0,3:0:0:0:
273,331,63300,6,0,L|144:320,1,120,2|10,0:0|0:0,0:0:0:0:
70,218,63700,2,0,L|199:206,1,120,2|8,0:0|0:0,0:0:0:0:
204,131,64000,1,2,3:0:0:0:
204,131,64100,2,0,L|144:135,1,60,2|0,0:0|3:0,0:0:0:0:
248,64,64300,2,0,P|304:52|376:80,1,120,10|0,0:0|0:0,0:0:0:0:
390,79,64600,1,0,0:0:0:0:
420,77,64700,1,8,0:0:0:0:
447,63,64800,1,0,3:0:0:0:
465,40,64900,6,0,L|480:120,1,60,2|2,0:0|3:0,0:0:0:0:
440,164,65100,2,0,L|428:228,1,60,10|0,0:0|3:0,0:0:0:0:
464,292,65300,2,0,P|412:300|352:252,1,120,2|8,0:0|0:0,0:0:0:0:
284,260,65600,1,2,3:0:0:0:
284,260,65700,2,0,P|232:232|164:240,1,120,2|10,0:0|0:0,0:0:0:0:
64,311,66100,1,2,0:0:0:0:
64,184,66300,2,0,B|52:156|52:156|56:120,1,60,10|0,0:0|3:0,0:0:0:0:
104,60,66500,6,0,L|224:40,1,120,2|8,0:0|0:0,0:0:0:0:
292,92,66800,2,0,L|412:112,1,120,0|0,3:0|0:0,0:0:0:0:
447,191,67100,1,10,0:0:0:0:
447,191,67200,1,2,3:0:0:0:
447,191,67300,2,0,P|415:235|431:315,1,120,2|8,0:0|0:0,0:0:0:0:
392,336,67600,1,0,3:0:0:0:
348,352,67700,2,0,L|279:337,1,60,2|0,0:0|0:0,0:0:0:0:
256,268,67900,2,0,L|197:280,1,60,8|0,0:0|3:0,0:0:0:0:
120,292,68100,38,0,L|136:174,1,120,6|10,0:0|0:0,0:0:0:0:
97,108,68400,1,0,3:0:0:0:
97,108,68500,2,0,B|90:79|90:79|105:53,1,60,2|0,0:0|0:0,0:0:0:0:
210,66,68700,2,0,B|217:95|217:95|202:121,1,60,8|0,0:0|0:0,0:0:0:0:
136,173,68900,2,0,P|137:234|185:282,1,120,2|8,0:0|0:0,0:0:0:0:
251,259,69200,1,2,0:0:0:0:
251,259,69300,1,2,0:0:0:0:
365,323,69500,1,10,0:0:0:0:
372,191,69700,6,0,P|404:135|384:67,1,120,2|8,0:0|0:0,0:0:0:0:
372,61,70000,1,0,3:0:0:0:
347,45,70100,1,0,0:0:0:0:
318,39,70200,1,0,0:0:0:0:
288,43,70300,2,0,P|253:62|209:50,1,60,8|0,0:0|3:0,0:0:0:0:
161,39,70500,1,0,0:0:0:0:
63,127,70700,2,0,L|128:138,1,60,10|0,0:0|3:0,0:0:0:0:
78,207,70900,2,0,L|67:266,1,60,2|0,0:0|0:0,0:0:0:0:
150,249,71100,2,0,L|215:260,1,60,10|0,0:0|3:0,0:0:0:0:
258,320,71300,5,14,0:0:0:0:
287,315,71400,1,0,0:0:0:0:
317,310,71500,1,10,0:0:0:0:
346,305,71600,1,0,0:0:0:0:
376,300,71700,2,0,P|406:324|430:332,1,60,10|0,0:0|0:0,0:0:0:0:
465,265,71900,2,0,P|493:253|517:217,1,60,10|0,0:0|0:0,0:0:0:0:
464,165,72100,2,0,P|477:78|448:43,1,120,14|0,0:0|0:0,0:0:0:0:
398,17,72400,1,2,0:0:0:0:
398,17,72500,1,10,0:0:0:0:
328,129,72700,1,10,0:0:0:0:
208,84,72900,6,0,L|192:144,1,60,0|8,0:0|0:0,0:0:0:0:
112,152,73100,2,0,L|127:94,1,60,8|0,0:0|0:0,0:0:0:0:
48,212,73400,2,0,L|64:276,1,60,0|10,0:0|0:0,0:0:0:0:
176,340,73700,1,0,0:0:0:0:
260,240,73900,2,0,P|308:200|380:208,1,120,10|10,0:0|0:0,0:0:0:0:
397,213,74200,1,0,0:0:0:0:
432,202,74300,1,8,0:0:0:0:
453,172,74400,1,0,0:0:0:0:
451,135,74500,69,0,0:0:0:0:
451,135,74900,2,0,L|324:120,1,120,14|0,0:0|0:0,0:0:0:0:
249,110,75200,1,8,0:0:0:0:
249,110,75300,1,10,0:0:0:0:
75,178,75600,2,0,P|60:227|91:288,1,120,10|8,0:0|0:0,2:0:0:0:
160,336,75900,1,8,0:0:0:0:
160,336,76000,1,8,0:0:0:0:
160,336,76100,6,0,L|240:316,1,60,2|0,3:0|2:0,0:0:0:0:
276,256,76300,2,0,L|336:272,1,60,10|0,0:0|3:0,0:0:0:0:
408,316,76500,2,0,L|424:248,1,60,2|0,3:0|0:0,0:0:0:0:
496,224,76700,2,0,L|484:164,1,60,10|0,0:0|3:0,0:0:0:0:
428,96,76900,2,0,B|400:80|372:76|372:76|344:96|312:100,1,120,10|0,0:0|3:0,0:0:0:0:
236,64,77200,2,0,P|228:104|280:180,1,120,10|0,0:0|2:0,0:0:0:0:
336,208,77500,2,0,L|372:196,4,30,0|0|0|0|0,0:0|3:0|0:0|3:0|0:0,0:0:0:0:
212,300,78100,70,0,L|84:280,1,120,14|0,0:0|0:0,0:0:0:0:
40,212,78400,1,8,0:0:0:0:
40,212,78500,1,10,0:0:0:0:
160,44,78800,2,0,P|208:40|276:92,1,120,10|8,0:0|0:0,0:0:0:0:
344,44,79100,2,0,P|348:74|344:104,1,60
280,156,79300,5,10,0:0:0:0:
232,160,79400,1,2,0:0:0:0:
192,184,79500,1,0,0:0:0:0:
168,224,79600,1,10,0:0:0:0:
168,224,79900,1,8,0:0:0:0:
232,336,80100,6,0,P|288:296|408:312,1,180.000006866455,0|10,0:0|0:0,0:0:0:0:
424,287,80600,1,0,3:0:0:0:
445,261,80700,1,2,3:0:0:0:
453,229,80800,1,0,3:0:0:0:
448,196,80900,2,0,L|456:152,1,45.0000017166138,0|0,3:0|3:0,0:0:0:0:
392,72,81100,2,0,L|372:176,1,90.0000034332277,14|2,0:0|3:3,0:0:0:0:
344,173,81400,1,2,3:0:0:0:
310,179,81500,1,0,0:3:0:0:
277,175,81600,1,2,3:0:0:0:
246,163,81700,6,0,P|176:144|156:244,1,180.000006866455,0|10,0:0|0:0,0:0:0:0:
169,256,82200,1,0,3:0:0:0:
180,290,82300,2,0,P|224:318|268:318,1,90.0000034332277,2|0,3:0|3:0,0:0:0:0:
328,280,82600,1,0,3:0:0:0:
328,280,82700,2,0,L|332:236,1,45.0000017166138,14|0,0:0|3:0,0:0:0:0:
408,268,82900,2,0,L|412:224,1,45.0000017166138,2|2,3:0|3:0,0:0:0:0:
414,186,83100,1,0,0:0:0:0:
417,149,83200,1,2,3:0:0:0:
420,111,83300,70,0,B|340:72|340:72|304:172,1,180.000006866455,0|10,0:0|0:0,0:0:0:0:
204,236,83900,1,2,3:0:0:0:
184,112,84100,2,0,L|128:104,1,45.0000017166138,2|0,3:0|3:0,0:0:0:0:
68,136,84300,2,0,P|52:156|44:184,1,45.0000017166138,14|0,0:0|3:0,0:0:0:0:
44,248,84500,1,2,3:0:0:0:
52,284,84600,1,2,3:0:0:0:
75,313,84700,1,0,0:0:0:0:
108,329,84800,1,2,3:0:0:0:
148,328,84900,6,0,B|196:328|224:288|224:288|272:284|304:328,1,180.000006866455,0|10,0:0|0:0,0:0:0:0:
385,314,85400,1,0,0:0:0:0:
385,314,85500,2,0,L|389:258,1,45.0000017166138,2|0,3:0|3:0,0:0:0:0:
329,213,85700,2,0,L|333:157,1,45.0000017166138,2|0,3:0|3:0,0:0:0:0:
376,96,85900,1,14,0:0:0:0:
376,96,86000,2,0,L|276:88,1,90.0000034332277,2|2,3:0|3:0,0:0:0:0:
248,85,86300,1,2,3:0:0:0:
211,83,86400,1,2,0:0:0:0:
174,80,86500,6,0,L|112:96,2,60,0|0|8,0:0|3:0|0:0,0:0:0:0:
180,172,86900,2,0,L|240:184,2,60,2|10|0,3:0|0:0|0:0,0:0:0:0:
153,171,87200,1,10,0:0:0:0:
128,180,87300,1,0,3:0:0:0:
108,198,87400,1,0,0:0:0:0:
96,222,87500,1,10,0:0:0:0:
95,249,87600,1,0,3:0:0:0:
104,274,87700,1,2,3:0:0:0:
122,294,87800,1,10,0:0:0:0:
146,306,87900,1,8,0:0:0:0:
173,308,88000,1,2,0:0:0:0:
198,299,88100,6,0,P|204:268|216:232,2,60,0|0|8,0:0|3:0|0:0,0:0:0:0:
300,304,88500,2,0,P|308:334|312:368,2,60,2|10|0,3:0|0:0|0:0,0:0:0:0:
286,277,88800,1,10,0:0:0:0:
279,248,88900,1,0,3:0:0:0:
280,218,89000,1,0,0:0:0:0:
287,189,89100,1,10,0:0:0:0:
301,162,89200,1,0,3:0:0:0:
320,139,89300,1,2,3:0:0:0:
345,122,89400,1,10,0:0:0:0:
372,111,89500,1,8,0:0:0:0:
402,106,89600,1,2,0:0:0:0:
437,110,89700,70,0,L|497:122,2,60,0|0|8,0:0|3:0|0:0,0:0:0:0:
386,231,90100,2,0,L|446:243,2,60,2|10|2,3:0|0:0|0:0,0:0:0:0:
357,240,90400,1,8,0:0:0:0:
332,256,90500,1,2,3:0:0:0:
310,277,90600,1,0,0:0:0:0:
292,301,90700,2,0,P|251:305|214:285,1,60,10|0,0:0|3:0,0:0:0:0:
180,246,90900,1,2,3:0:0:0:
153,220,91000,1,10,0:0:0:0:
116,218,91100,1,8,0:0:0:0:
86,240,91200,1,2,0:0:0:0:
78,276,91300,6,0,B|118:272|162:232|162:232|194:256,1,120,0|8,0:0|0:0,0:0:0:0:
292,301,91700,1,0,3:0:0:0:
315,272,91800,1,2,0:0:0:0:
329,237,91900,1,8,0:0:0:0:
332,200,92000,1,0,3:0:0:0:
324,163,92100,2,0,B|308:105|308:105|336:45,1,120,2|0,0:0|0:0,0:0:0:0:
266,15,92400,2,0,B|246:51|246:51|202:47|166:71,1,120,2|2,0:0|3:0,0:0:0:0:
126,131,92700,1,10,3:0:0:0:
98,262,92900,6,0,B|122:280|150:280|150:280|159:274|159:274|185:274|210:289,1,120,4|8,0:0|0:0,0:0:0:0:
327,207,93300,2,0,P|322:159|293:137,1,60,2|8,0:0|0:0,0:0:0:0:
239,169,93500,2,0,P|243:216|272:238,1,60,2|10,0:0|0:0,0:0:0:0:
284,304,93700,1,2,0:0:0:0:
329,323,93800,1,0,0:0:0:0:
376,319,93900,1,10,0:0:0:0:
416,294,94000,2,0,P|444:235|433:177,1,120,2|2,0:0|3:0,0:0:0:0:
375,132,94300,1,10,0:0:0:0:
424,8,94500,6,0,P|396:16|368:36,1,60,2|0,0:0|3:0,0:0:0:0:
300,64,94700,2,0,P|264:64|232:52,1,60,10|0,0:0|0:0,0:0:0:0:
168,32,94900,1,0,0:0:0:0:
131,34,95000,1,10,0:0:0:0:
100,56,95100,1,0,0:0:0:0:
85,89,95200,1,10,0:0:0:0:
89,126,95300,2,0,L|160:120,1,60,2|2,0:0|3:0,0:0:0:0:
108,212,95500,2,0,L|48:206,1,60,8|2,0:0|0:0,0:0:0:0:
1,142,95700,1,2,3:0:0:0:
71,301,95900,2,0,L|79:329,3,30,8|0|0|0,0:0|3:0|0:0|3:0,0:0:0:0:
120,333,96100,70,0,P|143:303|225:277,1,120,4|8,0:0|0:0,0:0:0:0:
396,231,96500,2,0,L|409:306,1,60,0|10,0:0|0:0,0:0:0:0:
313,334,96700,2,0,L|323:274,1,60,0|8,0:0|0:0,0:0:0:0:
396,231,96900,1,2,0:0:0:0:
432,205,97000,1,0,0:0:0:0:
452,165,97100,1,8,0:0:0:0:
451,121,97200,1,2,0:0:0:0:
428,83,97300,2,0,P|418:46|429:7,2,60,2|2|10,3:0|3:0|0:0,0:0:0:0:
272,67,97700,6,0,L|208:51,1,60,2|0,0:0|3:0,0:0:0:0:
208,135,97900,2,0,L|144:151,1,60,10|2,0:0|0:0,0:0:0:0:
73,133,98100,2,0,L|57:253,1,120,0|10,0:0|0:0,0:0:0:0:
94,320,98400,1,2,0:0:0:0:
94,320,98500,2,0,B|124:326|124:326|156:304,1,60,2|2,0:0|3:0,0:0:0:0:
171,234,98700,2,0,B|195:217|195:217|225:223,1,60,8|2,0:0|0:0,0:0:0:0:
272,284,98900,1,2,3:0:0:0:
405,202,99100,2,0,L|410:164,3,30,8|0|0|0,0:0|0:0|0:0|3:0,0:0:0:0:
368,213,99300,70,0,L|387:84,1,120,4|10,0:0|0:0,0:0:0:0:
243,28,99700,2,0,L|181:42,1,60,0|2,0:0|0:0,0:0:0:0:
132,112,99900,2,0,L|194:126,1,60,8|2,0:0|3:0,0:0:0:0:
265,145,100100,1,2,3:0:0:0:
299,172,100200,1,0,3:0:0:0:
312,214,100300,1,10,0:0:0:0:
299,256,100400,1,2,3:0:0:0:
263,283,100500,1,2,0:0:0:0:
263,283,100600,2,0,P|219:287|159:343,1,120,2|0,0:0|3:0,0:0:0:0:
86,315,100900,6,0,B|33:286|33:286|81:228,1,120,0|10,0:0|0:0,0:0:0:0:
126,110,101300,1,0,0:0:0:0:
126,110,101400,1,0,0:0:0:0:
126,110,101500,2,0,P|156:93|206:98,1,60,10|0,0:0|3:0,0:0:0:0:
265,103,101700,1,2,0:0:0:0:
297,136,101800,1,0,3:0:0:0:
336,156,101900,1,10,0:0:0:0:
381,160,102000,1,2,3:0:0:0:
424,148,102100,1,2,0:0:0:0:
464,112,102200,2,0,L|335:87,1,120,2|0,0:0|3:0,0:0:0:0:
280,40,102500,37,0,0:0:0:0:
464,112,102800,1,2,0:0:0:0:
300,224,103100,1,2,0:0:0:0:
286,99,103300,54,0,L|280:40,1,60,10|0,0:0|3:0,0:0:0:0:
200,32,103500,1,2,0:0:0:0:
203,76,103600,1,2,0:0:0:0:
207,121,103700,1,2,0:0:0:0:
207,121,103900,1,0,0:0:0:0:
108,259,104100,37,0,0:0:0:0:
285,347,104400,1,2,0:0:0:0:
277,150,104700,1,2,0:0:0:0:
166,248,104900,54,0,P|137:255|108:258,1,60,10|0,0:0|3:0,0:0:0:0:
119,338,105100,1,2,0:0:0:0:
163,337,105200,1,2,0:0:0:0:
206,322,105300,1,2,0:0:0:0:
206,322,105500,1,0,0:0:0:0:
360,296,105700,6,8,P|400:264|404:188,1,120,0|10,0:0|0:0,0:0:0:0:
384,120,106000,1,0,3:0:0:0:
360,88,106100,2,0,P|352:60|364:20,2,60,2|2|10,0:0|3:0|0:0,0:0:0:0:
260,176,106500,2,0,L|184:192,3,60,10|0|2|2,0:0|3:0|3:0|3:0,0:0:0:0:
200,108,106900,2,0,L|136:100,3,60,2|0|2|0,0:0|3:0|3:0|3:0,0:0:0:0:
63,92,107300,6,0,P|31:140|45:214,1,120,2|0,0:0|0:0,0:0:0:0:
125,279,107700,2,0,P|184:282|228:243,1,120,10|0,0:0|0:0,0:0:0:0:
280,232,108000,1,10,0:0:0:0:
280,232,108100,2,0,P|316:240|384:288,1,120,10|10,0:0|3:0,0:0:0:0:
240,301,108500,2,0,P|286:338|343:356,1,120,10|10,0:0|3:3,0:0:0:0:
440,213,108900,38,0,P|440:173|464:129,2,80
306,188,109300,2,0,P|341:208|364:240,2,80
392,89,109700,2,0,P|358:109|319:112,2,80
247,75,110100,2,0,P|203:59|147:67,2,80
192,146,110500,6,0,L|100:170,1,80,0|10,0:0|0:0,0:0:0:0:
114,246,110766,2,0,L|192:226,1,80,2|10,0:0|0:0,0:0:0:0:
192,306,111033,2,0,L|100:330,1,80,10|10,0:0|0:0,0:0:0:0:
192,226,111300,6,0,L|320:246,1,120,10|0,0:0|0:0,0:0:0:0:
383,288,111600,2,0,L|443:272,1,60,8|10,0:0|0:0,0:0:0:0:
296,68,112100,53,6,0:0:0:0:
296,68,112200,2,0,P|270:50|245:41,1,45.0000017166138,2|0,3:0|2:0,0:0:0:0:
140,38,112500,1,2,3:0:0:0:
84,144,112700,2,0,L|100:204,1,45.0000017166138,0|2,3:0|3:0,0:0:0:0:
148,248,112900,2,0,L|136:348,1,90.0000034332277,2|2,3:0|3:0,3:0:0:0:
268,284,113300,22,0,L|316:352,1,60,8|0,0:0|0:0,0:0:0:0:
384,264,113500,2,0,L|396:200,1,60,8|0,0:0|0:0,0:0:0:0:
408,112,113700,5,6,0:0:0:0:
408,112,113800,1,2,3:0:0:0:
408,112,113900,1,8,0:0:0:0:
253,87,114100,2,0,P|194:87|131:139,1,120,0|8,0:0|0:0,0:0:0:0:
109,194,114400,1,2,3:0:0:0:
109,194,114500,2,0,B|121:254|121:254|97:294|97:326,1,120,2|10,0:0|0:3,0:0:0:0:
133,322,114800,1,0,3:3:0:0:
170,325,114900,1,0,0:0:0:0:
206,316,115000,1,0,0:0:0:0:
237,296,115100,2,0,L|305:310,1,60,8|0,0:0|3:0,0:0:0:0:
378,333,115300,5,2,0:0:0:0:
378,333,115400,1,2,3:0:0:0:
378,333,115500,1,8,0:0:0:0:
436,188,115700,2,0,P|448:136|404:80,1,120,2|8,0:0|0:0,0:0:0:0:
372,72,116000,1,2,3:0:0:0:
332,88,116100,2,0,L|272:80,1,60,2|0,0:0|3:0,0:0:0:0:
280,160,116300,2,0,L|151:179,1,120,10|2,0:0|0:0,0:0:0:0:
8,148,116700,1,10,0:0:0:0:
104,25,116900,6,0,L|90:160,1,120,2|8,0:0|0:0,0:0:0:0:
41,218,117200,2,0,B|25:278|25:278|69:330,1,120,0|0,3:0|0:0,0:0:0:0:
102,316,117500,1,10,0:0:0:0:
141,311,117600,1,2,3:0:0:0:
181,306,117700,2,0,P|236:307|289:344,1,120,0|8,0:0|0:0,0:0:0:0:
360,312,118000,1,0,3:0:0:0:
360,312,118100,2,0,P|344:268|452:244,1,180,2|2,0:0|3:0,0:0:0:0:
496,176,118500,38,0,P|448:144|360:144,1,120,6|10,0:0|0:0,0:0:0:0:
316,104,118800,1,0,3:0:0:0:
316,104,118900,2,0,B|244:128|244:128|208:76,1,120,2|8,0:0|0:0,0:0:0:0:
147,59,119200,1,0,3:0:0:0:
147,59,119300,2,0,L|80:67,1,60,0|0,0:0|3:0,3:0:0:0:
117,153,119500,2,0,L|57:145,1,60,8|0,3:0|3:0,3:0:0:0:
6,214,119700,2,0,B|2:278|62:318|62:318|62:286|78:266,1,180,2|2,0:0|3:0,0:0:0:0:
141,314,120100,6,0,P|185:310|269:262,1,120,2|10,0:0|0:0,0:0:0:0:
302,211,120400,1,0,3:0:0:0:
302,211,120500,2,0,L|291:79,1,120,0|8,0:0|0:0,0:0:0:0:
367,37,120800,1,0,3:0:0:0:
367,37,120900,2,0,L|371:97,1,60,0|0,0:0|3:0,0:0:0:0:
452,134,121100,2,0,L|448:74,1,60,8|0,0:0|3:0,0:0:0:0:
379,176,121300,2,0,L|383:236,1,60,2|0,0:0|0:0,0:0:0:0:
464,273,121500,2,0,L|460:213,1,60,10|0,0:0|3:0,0:0:0:0:
379,176,121700,6,0,P|320:182|278:223,1,120,6|8,0:0|0:0,0:0:0:0:
199,274,122000,1,2,3:0:0:0:
199,274,122100,1,2,0:0:0:0:
154,279,122200,1,0,0:0:0:0:
113,262,122300,1,8,0:0:0:0:
86,227,122400,1,0,3:0:0:0:
79,183,122500,2,0,P|79:131|119:63,1,120,0|8,0:0|0:0,0:0:0:0:
180,35,122800,1,0,3:0:0:0:
180,35,122900,1,2,0:0:0:0:
299,135,123100,1,10,0:0:0:0:
453,100,123300,5,2,0:0:0:0:
453,100,123400,2,0,B|474:153|474:153|439:205,1,120,8|10,0:0|0:0,0:0:0:0:
391,268,123700,2,0,P|333:309|278:279,1,120,8|10,0:0|0:0,0:0:0:0:
232,243,124000,2,0,L|105:268,1,120,8|8,0:0|0:0,0:0:0:0:
41,235,124300,2,0,P|25:173|69:122,1,120,8|10,0:0|0:0,0:0:0:0:
98,120,124600,1,0,0:0:0:0:
142,110,124700,1,8,0:0:0:0:
186,101,124800,1,0,3:0:0:0:
230,92,124900,38,0,B|289:78|289:78|253:6,1,120,6|10,0:0|0:0,0:0:0:0:
115,50,125300,1,2,0:0:0:0:
98,83,125400,1,2,0:0:0:0:
98,120,125500,1,8,0:0:0:0:
114,154,125600,1,2,3:0:0:0:
142,178,125700,2,0,L|222:192,1,60,2|0,0:0|3:0,0:0:0:0:
256,132,125900,2,0,B|292:104|336:104|336:104|328:92|327:70,1,120,10|0,0:0|0:0,0:0:0:0:
343,30,126200,1,0,0:0:0:0:
382,9,126300,1,8,0:0:0:0:
425,20,126400,1,0,3:0:0:0:
450,55,126500,6,0,L|431:172,1,120,2|10,0:0|0:0,0:0:0:0:
367,233,126800,1,0,3:0:0:0:
367,233,126900,2,0,P|331:245|291:241,1,60,2|2,0:0|0:0,0:0:0:0:
264,170,127100,1,8,0:0:0:0:
237,155,127200,1,2,3:0:0:0:
208,150,127300,2,0,P|178:151|150:162,1,60,2|0,0:0|3:0,0:0:0:0:
59,153,127500,2,0,P|40:214|68:275,1,120,10|0,0:0|0:0,0:0:0:0:
102,274,127800,1,0,0:0:0:0:
146,283,127900,1,8,0:0:0:0:
190,293,128000,1,0,3:0:0:0:
234,303,128100,6,0,B|266:300|290:284|290:284|326:284|362:316,1,120,2|10,0:0|0:0,0:0:0:0:
440,336,128400,1,0,3:0:0:0:
440,336,128500,2,0,L|428:268,1,60,2|2,0:0|0:0,0:0:0:0:
415,191,128700,1,8,0:0:0:0:
439,175,128800,1,2,3:0:0:0:
469,169,128900,2,0,P|497:113|477:45,1,120,2|10,0:0|0:0,0:0:0:0:
358,148,129300,1,2,0:0:0:0:
486,58,129500,2,0,P|454:41|412:46,1,60,10|0,0:0|3:0,0:0:0:0:
334,73,129700,6,0,B|304:66|283:41|283:41|242:109,1,120,2|8,0:0|0:0,0:0:0:0:
183,160,130000,2,0,B|158:135|158:135|165:37,1,120,0|0,3:0|0:0,0:0:0:0:
261,99,130300,1,10,0:0:0:0:
261,99,130400,1,0,3:0:0:0:
261,99,130500,2,0,P|286:138|279:214,1,120,2|8,0:0|0:0,0:0:0:0:
204,280,130800,1,0,3:0:0:0:
242,313,130900,2,0,L|320:328,1,60,2|0,0:0|0:0,0:0:0:0:
380,358,131100,2,0,L|458:343,1,60,10|0,0:0|3:0,0:0:0:0:
481,264,131300,38,0,B|457:240|433:228|433:228|441:160,1,120,6|10,0:0|0:0,0:0:0:0:
343,46,131700,2,0,B|343:72|359:92|359:92|349:175,1,120,2|8,0:0|0:0,0:0:0:0:
303,219,132000,1,2,3:0:0:0:
303,219,132100,2,0,P|244:212|197:175,1,120,2|10,0:0|0:0,0:0:0:0:
162,111,132400,1,0,3:0:0:0:
162,111,132500,1,2,0:0:0:0:
280,8,132700,1,10,0:0:0:0:
433,37,132900,6,0,P|465:85|461:153,1,120,2|8,0:0|0:0,0:0:0:0:
425,168,133200,1,0,3:0:0:0:
403,207,133300,1,0,0:0:0:0:
405,251,133400,1,0,0:0:0:0:
428,289,133500,2,0,P|402:311|365:316,1,60,8|0,0:0|3:0,0:0:0:0:
303,288,133700,1,0,0:0:0:0:
255,136,133900,2,0,L|269:64,1,60,10|0,0:0|3:0,0:0:0:0:
331,153,134100,2,0,L|403:167,1,60
314,229,134300,2,0,L|300:301,1,60,10|0,0:0|3:0,0:0:0:0:
220,340,134500,5,14,0:0:0:0:
210,295,134600,1,0,3:0:0:0:
201,251,134700,1,10,0:0:0:0:
192,207,134800,1,0,3:0:0:0:
183,163,134900,2,0,P|175:131|151:103,1,60,10|0,0:0|0:0,0:0:0:0:
87,79,135100,2,0,P|55:83|19:115,1,60,10|0,0:0|0:0,0:0:0:0:
20,174,135300,2,0,P|61:218|126:210,1,120,10|8,0:0|0:0,0:0:0:0:
183,163,135600,1,2,3:0:0:0:
183,163,135700,1,10,0:0:0:0:
279,40,135900,1,10,0:0:0:0:
369,166,136100,54,0,L|352:305,1,120,4|0,0:0|2:0,0:0:0:0:
340,361,136400,2,0,P|285:355|242:302,1,120,2|0,3:0|3:0,0:0:0:0:
251,256,136700,1,0,3:0:0:0:
90,174,136950,2,0,P|121:129|189:118,1,120,2|0,3:0|3:0,0:0:0:0:
225,150,137250,1,0,3:0:0:0:
376,51,137500,2,0,P|398:100|373:165,1,120,2|0,3:0|3:0,0:0:0:0:
329,180,137800,1,0,3:0:0:0:
463,201,138100,6,0,P|463:241|439:273,1,60,10|0,0:0|3:0,0:0:0:0:
387,217,138300,2,0,P|375:189|378:159,1,60,10|0,0:0|3:0,0:0:0:0:
385,293,138500,2,0,L|317:297,1,60,10|0,0:0|3:0,0:0:0:0:
259,268,138700,70,0,B|199:252|199:252|139:300|87:312,1,180,10|2,0:0|3:0,0:0:0:0:
27,208,139200,1,2,3:0:0:0:
27,208,139300,2,0,P|83:188|179:88,1,180,10|2,0:0|3:0,0:0:0:0:
283,60,139800,1,2,3:0:0:0:
283,60,139900,2,0,L|319:248,1,180,10|2,0:0|3:0,0:0:0:0:
427,295,140400,1,2,3:0:0:0:
427,295,140500,2,0,P|371:351|315:359,1,120,10|0,0:0|3:0,0:0:0:0:
244,298,140800,6,0,L|172:278,1,60,10|0,0:0|3:0,0:0:0:0:
168,186,141000,2,0,L|221:133,1,60,10|0,0:0|3:0,0:0:0:0:
302,176,141200,2,0,L|320:248,1,60,10|0,0:0|2:0,0:0:0:0:
284,54,141600,2,0,L|296:14,2,30,0|0|10,0:0|3:0|0:0,0:0:0:0:
256,192,151300,12,0,154300,0:0:0:0:
52,72,154500,69,6,0:0:0:0:
93,56,154600,1,0,3:0:0:0:
138,58,154700,1,10,0:0:0:0:
178,78,154800,1,0,3:0:0:0:
207,111,154900,2,0,B|228:144|228:144|292:60,1,120,2|10,0:0|0:0,0:0:0:0:
332,24,155200,1,2,3:0:0:0:
332,24,155300,2,0,P|392:20|440:64,1,120,0|8,0:0|0:0,0:0:0:0:
413,144,155600,1,2,3:0:0:0:
413,144,155700,1,2,0:0:0:0:
413,144,155900,2,0,L|398:207,1,60,10|0,0:0|3:0,0:0:0:0:
325,235,156100,6,0,L|353:355,1,120,2|10,0:0|0:0,0:0:0:0:
307,371,156400,1,0,0:0:0:0:
259,359,156500,1,2,0:0:0:0:
229,320,156600,1,0,0:0:0:0:
199,281,156700,2,0,P|167:269|131:273,1,60,10|2,0:0|3:0,0:0:0:0:
57,322,156900,2,0,B|5:294|5:294|25:226,1,120,2|8,0:0|0:0,0:0:0:0:
56,147,157200,1,0,3:0:0:0:
56,147,157500,2,0,P|43:121|46:77,1,60,8|0,0:0|3:0,0:0:0:0:
124,39,157700,69,6,0:0:0:0:
162,45,157800,1,0,3:0:0:0:
202,51,157900,1,10,0:0:0:0:
241,59,158000,2,0,B|259:50|259:50|273:66|273:66|313:47|362:64,1,120,0|0,3:0|3:0,0:0:0:0:
444,100,158300,1,10,0:0:0:0:
444,100,158400,1,0,3:0:0:0:
444,100,158500,2,0,L|456:164,1,60,2|0,0:0|3:0,0:0:0:0:
344,208,158700,2,0,L|352:148,1,60,10|2,0:0|3:0,0:0:0:0:
420,240,158900,1,2,0:0:0:0:
420,240,159000,1,2,3:0:0:0:
420,240,159100,1,8,0:0:0:0:
389,276,159200,1,2,3:0:0:0:
342,287,159300,6,0,B|309:263|264:271|264:271|237:307,1,120,2|10,0:0|0:0,0:0:0:0:
86,328,159700,1,2,0:0:0:0:
60,291,159800,1,0,0:0:0:0:
57,247,159900,1,10,0:0:0:0:
78,208,160000,1,2,3:0:0:0:
117,185,160100,2,0,P|122:128|74:93,1,120,2|8,0:0|0:0,0:0:0:0:
16,33,160400,1,0,3:0:0:0:
16,33,160700,2,0,L|100:17,1,60,8|0,0:0|3:0,0:0:0:0:
165,39,160900,5,14,0:0:0:0:
201,42,161000,1,2,3:0:0:0:
235,57,161100,1,10,0:0:0:0:
264,80,161200,1,2,3:0:0:0:
285,112,161300,2,0,P|317:79|328:48,1,60,2|0,0:0|3:0,0:0:0:0:
418,37,161500,2,0,P|423:65|452:100,1,60,10|2,0:0|3:0,0:0:0:0:
512,164,161700,2,0,L|448:180,1,60,2|0,0:0|3:0,0:0:0:0:
390,267,161900,1,10,0:0:0:0:
390,267,162000,1,2,3:0:0:0:
390,267,162300,2,0,L|449:253,1,60,10|2,0:0|3:0,0:0:0:0:
384,360,162500,5,2,0:0:0:0:
347,352,162600,1,0,3:0:0:0:
310,345,162700,1,10,0:0:0:0:
273,338,162800,1,0,3:0:0:0:
236,331,162900,2,0,B|208:296|160:289|160:289|132:322,1,120,2|10,0:0|0:0,0:0:0:0:
58,361,163200,2,0,B|38:321|51:281|51:281|85:237,1,120,2|0,3:0|3:0,0:0:0:0:
149,166,163500,1,10,0:0:0:0:
149,166,163600,1,2,3:0:0:0:
148,165,163900,2,0,P|173:165|206:140,1,60,10|0,0:0|3:0,0:0:0:0:
261,78,164100,37,2,0:0:0:0:
290,44,164200,1,0,0:0:0:0:
331,27,164300,1,10,0:0:0:0:
375,29,164400,1,2,0:0:0:0:
414,52,164500,1,2,0:0:0:0:
465,199,164700,1,10,0:0:0:0:
338,289,164900,1,2,0:0:0:0:
291,277,165000,1,0,3:0:0:0:
243,265,165100,1,10,0:0:0:0:
196,253,165200,1,2,3:0:0:0:
196,253,165300,1,2,3:0:0:0:
196,253,165500,2,0,L|119:265,1,60,10|0,0:0|3:0,0:0:0:0:
49,211,165700,5,2,0:0:0:0:
38,167,165800,1,0,3:0:0:0:
49,124,165900,1,10,0:0:0:0:
80,92,166000,1,0,3:0:0:0:
123,79,166100,1,2,0:0:0:0:
151,106,166200,1,2,3:0:0:0:
188,120,166300,1,8,0:0:0:0:
228,117,166400,2,0,L|292:99,1,60,2|0,3:0|3:0,0:0:0:0:
393,103,166600,1,2,3:0:0:0:
382,139,166700,1,10,0:0:0:0:
358,171,166800,1,0,3:0:0:0:
323,189,166900,2,0,L|259:207,1,60,2|0,0:0|3:0,0:0:0:0:
167,232,167100,1,2,0:0:0:0:
167,232,167200,1,2,3:0:0:0:
195,270,167300,38,0,L|339:294,1,135.000005149841,0|0,3:0|2:0,2:0:0:0:
417,186,167700,2,0,L|277:218,1,135.000005149841,0|0,3:0|2:0,2:0:0:0:
195,270,168100,6,0,L|171:165,1,90.0000034332277,0|0,3:0|2:0,2:0:0:0:
235,87,168400,2,0,P|264:53|308:48,1,90.0000034332277,0|0,3:0|2:0,2:0:0:0:
308,48,168900,38,0,L|328:116,1,60,10|0,0:0|3:0,0:0:0:0:
440,112,169100,2,0,L|416:176,1,60,10|0,0:0|3:0,0:0:0:0:
308,204,169300,2,0,P|308:236|328:272,1,60,10|0,0:0|3:0,0:0:0:0:
416,272,169500,2,0,P|416:304|396:340,1,60,10|0,0:0|3:0,0:0:0:0:
300,372,169700,5,8,0:0:0:0:
277,368,169800,1,0,0:0:0:0:
255,365,169900,1,8,0:0:0:0:
233,361,170000,1,0,0:0:0:0:
211,358,170100,1,8,0:0:0:0:
188,354,170200,1,0,0:0:0:0:
166,351,170300,1,8,0:0:0:0:
144,347,170400,1,0,0:0:0:0:
120,344,170500,6,0,P|96:311|98:291,1,45.0000017166138,6|2,0:0|3:0,0:0:0:0:
81,258,170700,2,0,P|113:233|134:236,1,45.0000017166138,0|2,3:0|3:0,0:0:0:0:
171,220,170900,1,0,3:0:0:0:
89,113,171100,1,2,3:0:0:0:
189,36,171300,1,2,3:0:0:0:
292,108,171500,2,0,B|316:96|316:96|328:108|328:108|344:100|360:80|360:80|412:80|440:124,1,180.000006866455,2|0,3:0|2:0,0:0:0:0:
400,240,172100,6,0,P|392:256|408:288,1,45.0000017166138,2|0,3:0|3:0,0:0:0:0:
436,314,172300,1,2,3:0:0:0:
468,191,172500,1,2,3:0:0:0:
328,188,172700,2,0,L|272:204,1,45.0000017166138,0|2,3:0|3:0,0:0:0:0:
250,210,172900,1,2,3:0:0:0:
231,343,173100,2,0,B|214:328|214:328|177:345|177:345|160:322|160:322|109:335|67:310,1,180.000006866455,2|0,3:0|2:0,0:0:0:0:
132,192,173700,70,0,P|156:168|164:144,1,45.0000017166138,2|0,3:0|3:0,0:0:0:0:
164,108,173900,1,2,3:0:0:0:
32,132,174100,1,2,3:0:0:0:
104,32,174300,2,0,L|168:40,1,45.0000017166138,0|2,3:0|3:0,0:0:0:0:
192,44,174500,2,0,L|280:28,1,90.0000034332277,2|2,3:0|3:0,0:0:0:0:
414,47,174900,1,2,3:0:0:0:
290,102,175100,1,2,3:0:0:0:
422,127,175300,6,0,B|410:139|410:139|434:147|434:147|394:183|390:227|402:255|402:255|422:227,1,180.000006866455,2|0,0:0|2:0,0:0:0:0:
503,304,175900,2,0,L|479:348,1,45.0000017166138,2|2,3:0|3:0,0:0:0:0:
408,364,176100,2,0,B|360:364|328:332|328:332|312:348|312:348|276:328|276:328|240:336,1,180.000006866455,0|2,0:0|3:0,0:0:0:0:
108,268,176800,1,0,3:0:0:0:
108,268,176900,6,0,P|80:228|92:180,1,90.0000034332277,6|0,0:0|3:0,0:0:0:0:
108,156,177200,1,0,3:0:0:0:
140,132,177300,2,0,L|236:120,1,90.0000034332277,2|0,0:0|3:0,0:0:0:0:
256,96,177600,1,0,3:0:0:0:
288,72,177700,2,0,L|392:88,1,90.0000034332277,2|0,0:0|3:0,0:0:0:0:
404,116,178000,1,0,3:0:0:0:
424,152,178100,2,0,B|440:196|440:196|408:244,1,90.0000034332277,2|0,0:0|3:0,0:0:0:0:
392,268,178400,1,2,3:0:0:0:
360,292,178500,6,0,P|332:300|280:344,1,90.0000034332277,6|0,0:0|3:0,0:0:0:0:
248,336,178800,1,0,3:0:0:0:
208,320,178900,2,0,P|184:280|144:252,1,90.0000034332277,2|0,0:0|3:0,0:0:0:0:
104,244,179200,1,0,3:0:0:0:
72,216,179300,2,0,P|56:180|80:116,1,90.0000034332277,2|0,0:0|3:0,0:0:0:0:
96,104,179600,1,0,3:0:0:0:
132,88,179700,2,0,L|192:100,1,45.0000017166138,2|0,0:0|3:0,0:0:0:0:
216,168,179900,2,0,L|276:180,1,45.0000017166138,2|0,3:0|3:0,0:0:0:0:
336,132,180100,69,4,0:0:0:0:
336,132,180900,1,0,0:0:0:0:
464,280,181300,5,10,0:0:0:0:
368,340,181500,1,10,0:0:0:0:
312,240,181700,5,6,0:0:0:0:
312,240,181800,2,0,B|280:244|260:264|260:264|224:264|192:236,1,120,8|10,0:0|0:0,0:0:0:0:
116,268,182100,2,0,P|112:232|168:160,1,120,0|10,0:0|0:0,0:0:0:0:
226,62,182400,2,0,B|196:92|196:92|159:69|121:86,1,120,8|8,0:0|0:0,0:0:0:0:
50,180,182700,2,0,P|54:216|134:268,1,120,8|8,0:0|0:0,0:0:0:0:
171,214,183000,1,0,0:0:0:0:
211,194,183100,1,8,0:0:0:0:
256,192,183200,1,0,0:0:0:0:
296,216,183300,5,8,0:0:0:0:
319,212,183400,1,0,0:0:0:0:
341,209,183500,1,8,0:0:0:0:
363,205,183600,1,8,0:0:0:0:
385,202,183700,1,8,0:0:0:0:
408,198,183800,1,0,0:0:0:0:
430,195,183900,1,8,0:0:0:0:
452,191,184000,1,0,0:0:0:0:
480,188,184100,37,6,0:0:0:0:
480,188,184200,1,2,3:0:0:0:
480,188,184300,2,0,P|481:141|462:118,1,60,8|0,0:0|3:0,0:0:0:0:
409,70,184500,2,0,B|369:94|369:94|281:58,1,120,2|8,0:0|0:0,0:0:0:0:
204,108,184800,1,2,3:0:0:0:
204,108,184900,2,0,L|276:136,1,60,2|0,0:0|3:0,0:0:0:0:
320,180,185100,2,0,P|348:220|344:296,1,120,10|0,0:0|0:0,0:0:0:0:
310,299,185400,1,0,0:0:0:0:
274,309,185500,1,8,0:0:0:0:
238,319,185600,1,0,3:0:0:0:
202,329,185700,5,2,0:0:0:0:
202,329,185800,1,2,3:0:0:0:
202,329,185900,2,0,L|119:316,1,60,8|0,0:0|3:0,0:0:0:0:
69,259,186100,2,0,P|45:219|65:135,1,120,2|8,0:0|0:0,0:0:0:0:
151,137,186400,1,2,3:0:0:0:
151,137,186500,2,0,P|143:177|123:209,1,60,2|0,0:0|3:0,0:0:0:0:
150,38,186700,2,0,P|190:46|222:66,1,60,10|0,0:0|3:0,0:0:0:0:
260,119,186900,1,0,0:0:0:0:
303,126,187000,1,0,0:0:0:0:
346,113,187100,1,8,0:0:0:0:
378,82,187200,1,0,3:0:0:0:
391,40,187300,5,2,0:0:0:0:
391,40,187400,1,2,3:0:0:0:
391,40,187500,2,0,L|465:50,1,60,8|0,0:0|3:0,0:0:0:0:
464,128,187700,2,0,L|344:112,1,120,2|8,0:0|0:0,0:0:0:0:
369,194,188000,1,2,3:0:0:0:
369,194,188100,2,0,L|457:206,1,60,2|0,0:0|3:0,0:0:0:0:
323,272,188300,2,0,L|235:284,1,60,10|0,0:0|3:0,0:0:0:0:
188,292,188500,1,2,0:0:0:0:
240,152,188700,1,10,0:0:0:0:
96,196,188900,6,0,P|60:156|80:84,1,120,2|8,0:0|0:0,0:0:0:0:
129,35,189200,2,0,B|171:57|171:57|258:41,1,120
281,52,189500,1,10,3:0:0:0:
315,73,189600,1,2,3:0:0:0:
341,103,189700,2,0,L|206:131,1,120,0|8,0:0|3:0,0:0:0:0:
96,196,190100,2,0,B|127:205|127:205|141:222|141:222|173:213|173:213|270:245,1,180,2|2,0:0|3:0,0:0:0:0:
336,269,190500,38,0,P|376:265|440:213,1,120,6|10,0:0|0:0,0:0:0:0:
453,141,190800,1,0,3:0:0:0:
453,141,190900,2,0,L|441:13,1,120,2|8,0:0|0:0,0:0:0:0:
357,10,191200,1,0,3:0:0:0:
357,10,191300,2,0,P|356:40|328:85,1,60,0|0,0:0|3:0,0:0:0:0:
324,149,191500,2,0,P|297:163|244:161,1,60,8|0,0:0|3:0,0:0:0:0:
187,189,191700,2,0,B|133:157|113:91|113:91|97:144|78:163,1,180,2|2,0:0|3:0,0:0:0:0:
70,216,192100,6,0,L|186:188,1,120,2|10,0:0|0:0,0:0:0:0:
268,166,192400,1,0,3:0:0:0:
268,166,192500,2,0,P|318:160|367:212,1,120,2|8,0:0|0:0,0:0:0:0:
422,262,192800,1,0,3:0:0:0:
422,262,192900,2,0,P|423:297|405:326,1,60
288,286,193100,2,0,P|287:251|305:222,1,60,8|0,3:0|3:0,3:0:0:0:
361,374,193300,2,0,P|319:369|291:348,1,60,2|0,0:0|0:0,0:0:0:0:
212,289,193500,2,0,P|184:276|155:275,1,60,10|0,0:0|3:0,0:0:0:0:
61,306,193700,6,0,L|77:182,1,120,6|8,0:0|0:0,0:0:0:0:
122,120,194000,1,2,3:0:0:0:
122,120,194100,1,0,0:0:0:0:
123,75,194200,1,0,0:0:0:0:
150,40,194300,1,8,0:0:0:0:
192,26,194400,1,0,3:0:0:0:
235,38,194500,2,0,P|276:57|282:135,1,120,0|8,0:0|0:0,0:0:0:0:
339,213,194800,1,0,3:0:0:0:
339,213,194900,2,0,P|298:194|292:116,1,120,2|10,0:0|0:0,0:0:0:0:
436,184,195300,5,2,0:0:0:0:
436,184,195400,2,0,B|444:240|444:240|396:300,1,120,8|10,0:0|0:0,0:0:0:0:
332,332,195700,2,0,B|300:304|252:300|252:300|216:328,1,120,0|10,0:0|0:0,0:0:0:0:
139,351,196000,2,0,P|101:308|112:242,1,120,8|8,0:0|0:0,0:0:0:0:
159,181,196300,2,0,L|169:58,1,120,8|8,0:0|0:0,0:0:0:0:
203,47,196600,1,0,0:0:0:0:
240,50,196700,1,8,0:0:0:0:
272,68,196800,1,0,0:0:0:0:
294,99,196900,38,0,B|325:97|353:85|353:85|421:101,1,120,6|10,0:0|0:0,0:0:0:0:
484,118,197200,1,0,3:0:0:0:
475,193,197300,2,0,L|347:217,1,120,2|8,0:0|0:0,0:0:0:0:
272,225,197600,1,2,3:0:0:0:
272,225,197700,2,0,L|264:297,1,60,2|0,0:0|3:0,0:0:0:0:
343,335,197900,2,0,L|357:215,1,120,10|0,0:0|0:0,0:0:0:0:
353,171,198200,1,0,0:0:0:0:
332,131,198300,1,8,0:0:0:0:
297,104,198400,1,0,3:0:0:0:
254,93,198500,6,0,B|226:113|198:121|198:121|166:101|130:101,1,120,2|10,0:0|0:0,0:0:0:0:
19,195,198900,2,0,P|14:253|45:304,1,120,2|8,0:0|0:0,0:0:0:0:
120,325,199200,1,2,3:0:0:0:
120,325,199300,2,0,L|192:316,1,60,2|0,0:0|3:0,0:0:0:0:
105,232,199500,2,0,L|233:216,1,120,10|0,0:0|0:0,0:0:0:0:
268,211,199800,1,0,0:0:0:0:
313,206,199900,1,8,0:0:0:0:
357,200,200000,1,0,3:0:0:0:
402,195,200100,6,0,P|418:227|409:269,1,60,2|0,0:0|3:0,3:0:0:0:
312,344,200300,2,0,P|312:314|327:288,1,60,10|2,0:0|3:0,3:0:0:0:
416,250,200500,2,0,P|457:211|451:134,1,120,2|8,0:0|0:0,0:0:0:0:
412,86,200800,1,2,3:0:0:0:
412,86,200900,2,0,P|368:72|339:85,1,60,2|0,0:0|3:0,0:0:0:0:
293,119,201100,2,0,L|153:146,1,120,10|0,0:0|0:0,0:0:0:0:
134,159,201400,1,0,0:0:0:0:
105,193,201500,1,8,0:0:0:0:
96,236,201600,1,0,3:0:0:0:
107,279,201700,6,0,B|165:295|165:295|227:247,1,120,2|10,0:0|0:0,0:0:0:0:
268,200,202000,1,0,3:0:0:0:
268,200,202100,2,0,B|316:164|316:164|373:179,1,120,2|10,0:0|0:0,0:0:0:0:
453,208,202400,1,2,3:0:0:0:
453,208,202500,2,0,L|463:271,1,60
438,129,202700,2,0,P|455:91|432:19,1,120,10|0,0:0|0:0,0:0:0:0:
388,28,203000,1,0,0:0:0:0:
344,37,203100,1,8,0:0:0:0:
300,46,203200,1,0,3:0:0:0:
256,56,203300,38,0,L|114:87,1,120,6|10,0:0|0:0,0:0:0:0:
59,100,203600,1,0,3:0:0:0:
59,100,203700,2,0,P|20:143|26:212,1,120,2|8,0:0|0:0,0:0:0:0:
81,265,204000,1,2,3:0:0:0:
81,265,204100,2,0,L|69:329,1,60,2|0,0:3|3:3,0:3:0:0:
153,231,204300,2,0,L|281:218,1,120,10|0,0:0|0:0,0:0:0:0:
288,260,204600,1,0,0:0:0:0:
321,290,204700,1,8,0:0:0:0:
364,303,204800,1,0,3:0:0:0:
407,295,204900,6,0,P|439:239|419:163,1,120,2|10,0:0|0:0,0:0:0:0:
290,106,205300,2,0,B|297:126|297:126|267:197|267:197|272:218,1,120,2|8,0:0|0:0,0:0:0:0:
256,303,205600,1,2,3:0:0:0:
256,303,205700,2,0,L|326:313,1,60,0|0,0:0|3:0,0:0:0:0:
407,295,205900,2,0,P|439:239|419:163,1,120,10|0,0:0|0:0,0:0:0:0:
392,166,206200,1,0,0:0:0:0:
369,128,206300,1,8,0:0:0:0:
368,84,206400,1,0,3:0:0:0:
390,45,206500,5,0,0:0:0:0:
352,49,206600,1,2,0:0:0:0:
315,54,206700,1,10,0:0:0:0:
278,59,206800,1,0,0:0:0:0:
241,64,206900,2,0,L|226:193,1,120,10|8,0:0|0:0,0:0:0:0:
311,170,207200,1,2,0:0:0:0:
311,170,207300,6,0,L|304:251,1,60,14|0,0:0|3:0,0:0:0:0:
224,281,207500,2,0,P|162:290|109:252,1,120,10|8,0:0|0:0,0:0:0:0:
85,226,207800,1,0,0:0:0:0:
70,184,207900,1,8,0:0:0:0:
72,140,208000,1,0,0:0:0:0:
90,99,208100,38,0,L|154:111,1,60,14|2,0:0|3:0,0:0:0:0:
140,24,208300,2,0,L|200:12,1,60,8|0,0:0|3:0,0:0:0:0:
229,89,208500,2,0,L|281:121,1,60,10|0,0:0|3:0,0:0:0:0:
214,176,208700,2,0,L|246:236,1,60,10|0,0:0|3:0,0:0:0:0:
318,260,208900,6,0,P|302:288|262:312,1,60,10|0,0:0|3:0,0:0:0:0:
130,308,209100,2,0,P|146:280|186:256,1,60,10|0,0:0|3:0,0:0:0:0:
315,201,209300,2,0,P|323:230|318:260,1,60,8|0,0:0|3:3,0:3:0:0:
167,263,209500,2,0,P|159:234|164:204,1,60,8|0,0:0|3:3,0:3:0:0:
184,112,209700,6,0,L|244:104,1,60,14|2,0:0|3:0,0:0:0:0:
228,24,209900,2,0,L|288:32,1,60,8|0,0:0|3:0,0:0:0:0:
328,120,210100,2,0,L|388:112,1,60,10|0,0:0|3:0,0:0:0:0:
372,32,210300,2,0,L|432:40,1,60,10|0,0:0|3:0,0:0:0:0:
472,120,210500,6,0,P|488:164|484:204,1,60,10|0,0:0|3:0,0:0:0:0:
457,310,210700,2,0,P|441:266|445:226,1,60,10|0,0:0|3:0,0:0:0:0:
408,172,210900,2,0,P|384:200|348:216,1,60,8|0,0:0|3:0,0:0:0:0:
232,230,211100,2,0,P|256:202|292:186,1,60,8|0,0:0|3:0,0:0:0:0:
308,270,211300,38,0,L|296:346,1,60,14|2,0:0|3:0,0:0:0:0:
218,362,211500,2,0,L|159:352,1,60,8|0,0:0|3:0,0:0:0:0:
126,272,211700,2,0,L|138:196,1,60,10|2,0:0|3:0,0:0:0:0:
216,180,211900,2,0,L|275:190,1,60,8|0,0:0|3:0,0:0:0:0:
362,140,212100,6,0,P|390:96|394:64,1,60,10|0,0:0|3:0,0:0:0:0:
286,96,212300,2,0,P|289:43|276:14,1,60,10|0,0:0|3:0,0:0:0:0:
199,95,212500,2,0,P|175:48|150:29,1,60,8|0,0:0|3:0,0:0:0:0:
124,137,212700,2,0,P|80:109|48:105,1,60,8|0,0:0|3:0,0:0:0:0:
20,234,212900,6,0,B|48:246|48:246|92:238,1,60,14|2,0:0|3:0,0:0:0:0:
160,213,213100,2,0,B|189:207|189:207|217:219,1,60,8|0,0:0|3:0,0:0:0:0:
106,290,213300,2,0,B|85:269|85:269|77:241,1,60,10|0,0:0|3:0,0:0:0:0:
124,137,213500,2,0,B|132:109|132:109|153:87,1,60,10|0,0:0|3:0,0:0:0:0:
287,37,213700,6,0,L|293:97,1,60,2|0,0:0|3:0,0:0:0:0:
423,101,213900,2,0,L|429:161,1,60,10|0,0:0|3:0,0:0:0:0:
317,172,214100,2,0,L|323:232,1,60,0|0,0:0|3:0,0:0:0:0:
405,236,214300,2,0,L|411:296,1,60,8|0,0:0|3:0,0:0:0:0:
349,359,214500,37,6,0:0:0:0:
349,359,214600,1,2,3:0:0:0:
349,359,214700,2,0,P|307:351|284:331,1,60,8|0,0:0|3:0,0:0:0:0:
233,279,214900,2,0,B|193:233|193:233|137:276,1,120,2|8,0:0|0:0,0:0:0:0:
63,287,215200,1,2,3:0:0:0:
63,287,215300,2,0,P|70:315|90:337,1,60,2|0,0:0|3:0,0:0:0:0:
92,208,215500,2,0,L|100:77,1,120,10|0,0:0|0:0,0:0:0:0:
125,52,215800,1,0,0:0:0:0:
166,34,215900,1,8,0:0:0:0:
210,37,216000,1,0,3:0:0:0:
254,69,216100,5,0,0:0:0:0:
254,69,216200,1,2,3:0:0:0:
254,69,216300,2,0,L|259:152,1,60,8|0,0:0|3:0,0:0:0:0:
263,208,216500,2,0,P|311:208|375:164,1,120,2|8,0:0|0:0,0:0:0:0:
453,159,216800,1,2,3:0:0:0:
453,159,216900,2,0,L|441:223,1,60,2|0,0:0|3:0,0:0:0:0:
428,294,217100,2,0,P|380:294|316:338,1,120,8|0,0:0|0:0,0:0:0:0:
174,275,217500,1,10,0:0:0:0:
207,122,217700,5,14,0:0:0:0:
165,109,217800,1,0,0:0:0:0:
121,117,217900,1,10,0:0:0:0:
85,145,218000,1,0,0:0:0:0:
66,185,218100,2,0,L|91:254,1,60,8|0,0:0|0:0,0:0:0:0:
174,275,218300,2,0,L|199:344,1,60,10|0,0:0|0:0,0:0:0:0:
282,365,218500,5,14,0:0:0:0:
300,342,218600,1,0,0:0:0:0:
309,313,218700,1,10,0:0:0:0:
309,283,218800,1,0,0:0:0:0:
299,255,218900,1,10,0:0:0:0:
206,141,219100,1,10,0:0:0:0:
368,148,219300,38,0,P|336:108|264:100,1,120,6|8,0:0|0:0,0:0:0:0:
206,141,219600,1,0,3:0:0:0:
206,141,219700,1,2,0:0:0:0:
88,232,219900,2,0,L|108:300,1,60,8|0,0:0|3:0,0:0:0:0:
204,324,220100,2,0,L|164:208,1,120,2|8,0:0|0:0,0:0:0:0:
68,148,220400,1,2,3:0:0:0:
68,148,220700,6,0,P|96:116|136:104,1,60,10|0,0:0|3:0,0:0:0:0:
184,64,220900,2,0,P|228:108|304:104,1,120,2|8,0:0|0:0,0:0:0:0:
364,80,221200,1,0,3:0:0:0:
364,80,221300,1,2,0:0:0:0:
467,197,221500,2,0,L|451:261,1,60,8|0,0:0|3:0,0:0:0:0:
374,263,221700,2,0,L|403:146,1,120,2|8,0:0|0:0,0:0:0:0:
499,89,222000,1,2,3:0:0:0:
309,225,222300,70,0,L|293:283,1,60,10|0,0:0|3:0,0:0:0:0:
234,331,222500,2,0,P|206:284|230:216,1,120,2|8,0:0|0:0,0:0:0:0:
268,161,222800,1,0,3:0:0:0:
268,161,222900,1,2,0:0:0:0:
124,223,223100,2,0,P|81:213|63:189,1,60,8|0,0:0|3:0,0:0:0:0:
60,124,223300,2,0,P|72:84|152:68,1,120,2|8,0:0|0:0,0:0:0:0:
240,136,223600,1,2,3:0:0:0:
240,136,223900,6,0,L|304:128,1,60,10|0,0:0|3:0,0:0:0:0:
376,88,224100,2,0,B|408:140|408:140|388:220,1,120,2|8,0:0|0:0,0:0:0:0:
373,272,224400,1,0,3:0:0:0:
373,272,224500,1,2,0:0:0:0:
274,151,224700,2,0,L|259:209,1,60,8|0,0:0|3:0,0:0:0:0:
206,266,224900,2,0,B|166:298|110:298|110:298|130:314|126:330,1,120,2|8,0:3|0:3,0:3:0:0:
50,352,225200,2,0,P|30:297|50:242,1,120,0|0,3:0|0:0,0:0:0:0:
112,170,225500,1,8,0:0:0:0:
116,140,225600,1,0,3:0:0:0:
121,110,225700,6,0,L|260:86,1,120,10|0,0:0|0:0,0:0:0:0:
312,78,226000,1,8,0:0:0:0:
453,105,226200,2,0,L|442:172,1,60,0|8,0:0|0:0,0:0:0:0:
431,241,226400,1,0,0:0:0:0:
431,241,226500,2,0,L|409:381,1,120,10|0,0:0|0:0,0:0:0:0:
336,336,226800,2,0,P|288:292|208:292,1,120,10|0,0:0|0:0,0:0:0:0:
206,307,227100,1,10,0:0:0:0:
169,310,227200,1,0,0:0:0:0:
137,293,227300,6,0,L|124:156,1,120,10|0,0:0|0:0,0:0:0:0:
114,96,227600,1,8,0:0:0:0:
248,174,227800,2,0,P|284:170|316:150,1,60,0|8,0:0|0:0,0:0:0:0:
362,105,228000,1,0,0:0:0:0:
362,105,228100,2,0,B|381:99|381:99|396:115|396:115|435:111|468:145,1,120,10|0,0:0|0:0,0:0:0:0:
499,213,228400,2,0,L|381:254,1,120,10|0,0:0|0:0,0:0:0:0:
338,242,228700,1,10,0:0:0:0:
306,205,228800,1,0,0:0:0:0:
304,159,228900,70,0,P|279:121|203:113,1,120,10|0,0:0|3:0,0:0:0:0:
139,158,229200,2,0,P|118:198|149:268,1,120,8|0,0:0|3:0,0:0:0:0:
209,318,229500,2,0,B|241:290|241:290|342:316,1,120,8|0,0:0|3:0,0:0:0:0:
385,252,229800,2,0,B|263:221,1,120,8|0,0:0|0:0,0:0:0:0:
226,130,230100,2,0,L|216:70,1,60,10|0,0:0|3:0,0:0:0:0:
141,109,230300,2,0,L|131:168,1,60,10|0,0:0|3:0,0:0:0:0:
131,168,230700,6,0,P|68:151|105:66,2,180,10|10|10,0:0|0:0|0:0,0:0:0:0:
220,94,231500,1,0,3:0:0:0:
256,68,231600,1,8,3:0:0:0:
300,58,231700,1,8,0:0:0:0:
344,63,231800,1,8,0:0:0:0:
382,81,231900,1,8,0:0:0:0:
413,109,232000,1,8,0:0:0:0:
435,148,232100,6,0,P|412:177|386:277,1,135.000005149841,0|0,0:0|2:0,0:0:0:0:
308,307,232500,2,0,P|268:267|180:243,1,135.000005149841,0|0,0:0|2:0,0:0:0:0:
115,215,232900,6,0,L|106:123,1,90.0000034332277,0|0,0:0|2:0,0:0:0:0:
174,77,233200,2,0,L|184:167,1,90.0000034332277,0|0,0:0|2:0,0:0:0:0:
194,242,233500,1,8,0:0:0:0:
288,149,233700,38,0,L|360:141,1,60,14|0,0:0|3:0,0:0:0:0:
420,81,233900,2,0,L|488:93,1,60,10|0,0:0|3:0,0:0:0:0:
442,179,234100,2,0,P|442:219|418:259,1,60,10|0,0:0|3:0,0:0:0:0:
280,207,234300,2,0,P|280:167|304:127,1,60,10|0,0:0|3:0,0:0:0:0:
349,265,234500,5,10,0:0:0:0:
310,293,234600,1,8,0:0:0:0:
262,296,234700,1,8,0:0:0:0:
219,274,234800,1,10,0:0:0:0:
256,192,234900,12,0,235700,2:0:0:0:
