osu file format v14

[General]
AudioFilename: audio.mp3
AudioLeadIn: 0
PreviewTime: 216363
Countdown: 1
SampleSet: Normal
StackLeniency: 0.7
Mode: 1
LetterboxInBreaks: 0
WidescreenStoryboard: 1

[Editor]
DistanceSpacing: 0.7
BeatDivisor: 8
GridSize: 32
TimelineZoom: 3.299999

[Metadata]
Title:Motivation is Dead
TitleUnicode:モチベーションが死んでる
Artist:PinocchioP
ArtistUnicode:PinocchioP
Creator:Raphalge
Version:Inner Oni (Lower SV)
Source:
Tags:Hatsune Miku Antenna pinocchio p
BeatmapID:1600433
BeatmapSetID:761042

[Difficulty]
HPDrainRate:6
CircleSize:5
OverallDifficulty:6
ApproachRate:10
SliderMultiplier:1.4
SliderTickRate:1

[Events]
//Background and Video events
0,0,"4562251594135_PINO-0009-600x600.jpg",0,0
//Break Periods
2,179415,186265
//Storyboard Layer 0 (Background)
//Storyboard Layer 1 (Fail)
//Storyboard Layer 2 (Pass)
//Storyboard Layer 3 (Foreground)
//Storyboard Sound Samples

[TimingPoints]
1090,468.75,4,1,0,75,1,0
1090,-66.6666666666667,4,1,0,75,0,0
76090,-66.6666666666667,4,1,0,75,0,1
102340,-66.6666666666667,4,1,0,75,0,0
216715,-66.6666666666667,4,1,0,75,0,1
254215,-66.6666666666667,4,1,0,75,0,0

[HitObjects]
236,192,1090,5,8,0:0:0:0:
240,200,1558,1,0,0:0:0:0:
240,200,1675,1,8,0:0:0:0:
256,216,1910,1,8,0:0:0:0:
276,208,2144,1,0,0:0:0:0:
276,208,2261,1,8,0:0:0:0:
276,208,2496,1,8,0:0:0:0:
276,208,2730,1,0,0:0:0:0:
276,208,2965,1,8,0:0:0:0:
276,208,3199,1,8,0:0:0:0:
292,208,3433,1,0,0:0:0:0:
292,208,3550,1,8,0:0:0:0:
292,208,3785,1,8,0:0:0:0:
292,212,4019,1,0,0:0:0:0:
292,212,4136,1,8,0:0:0:0:
292,208,4371,1,0,0:0:0:0:
308,212,4840,1,8,0:0:0:0:
240,200,5308,1,0,0:0:0:0:
240,200,5425,1,8,0:0:0:0:
256,216,5660,1,8,0:0:0:0:
276,208,5894,1,0,0:0:0:0:
276,208,6011,1,8,0:0:0:0:
276,208,6246,1,8,0:0:0:0:
276,208,6480,1,0,0:0:0:0:
276,208,6715,1,8,0:0:0:0:
276,208,6949,1,8,0:0:0:0:
292,208,7183,1,8,0:0:0:0:
292,208,7300,1,8,0:0:0:0:
292,208,7535,1,0,0:0:0:0:
292,212,7769,1,8,0:0:0:0:
292,212,7886,1,8,0:0:0:0:
292,208,8121,1,0,0:0:0:0:
288,224,8590,1,8,0:0:0:0:
240,200,9058,1,0,0:0:0:0:
240,200,9175,1,8,0:0:0:0:
256,216,9410,1,8,0:0:0:0:
276,208,9644,1,0,0:0:0:0:
276,208,9761,1,8,0:0:0:0:
276,208,9996,1,8,0:0:0:0:
276,208,10230,1,0,0:0:0:0:
276,208,10465,1,8,0:0:0:0:
276,208,10699,1,8,0:0:0:0:
292,208,10933,1,0,0:0:0:0:
292,208,11050,1,8,0:0:0:0:
292,208,11285,1,8,0:0:0:0:
292,212,11519,1,0,0:0:0:0:
292,212,11636,1,8,0:0:0:0:
292,208,11871,1,0,0:0:0:0:
352,224,12340,1,8,0:0:0:0:
240,200,12808,1,0,0:0:0:0:
240,200,12925,1,8,0:0:0:0:
256,216,13160,1,8,0:0:0:0:
276,208,13394,1,0,0:0:0:0:
276,208,13511,1,8,0:0:0:0:
276,208,13746,1,8,0:0:0:0:
276,208,13980,1,0,0:0:0:0:
276,208,14215,1,8,0:0:0:0:
276,208,14449,1,8,0:0:0:0:
292,208,14683,1,8,0:0:0:0:
292,208,14800,1,8,0:0:0:0:
292,208,15035,1,0,0:0:0:0:
292,212,15269,1,8,0:0:0:0:
292,212,15386,1,8,0:0:0:0:
292,208,15621,1,0,0:0:0:0:
288,224,15855,1,8,0:0:0:0:
256,192,16090,5,8,0:0:0:0:
288,224,16207,1,0,0:0:0:0:
288,224,16324,1,8,0:0:0:0:
288,224,16441,1,8,0:0:0:0:
320,224,16558,1,0,0:0:0:0:
352,256,16675,1,0,0:0:0:0:
320,224,16793,1,8,0:0:0:0:
320,224,16910,1,0,0:0:0:0:
320,224,17027,1,8,0:0:0:0:
320,224,17144,1,0,0:0:0:0:
320,224,17261,1,8,0:0:0:0:
320,224,17379,1,8,0:0:0:0:
320,224,17496,1,0,0:0:0:0:
320,224,17613,1,8,0:0:0:0:
320,224,17730,1,0,0:0:0:0:
320,224,17847,1,0,0:0:0:0:
320,224,17965,1,8,0:0:0:0:
320,224,18082,1,0,0:0:0:0:
320,224,18199,1,8,0:0:0:0:
320,224,18316,1,8,0:0:0:0:
320,224,18433,1,0,0:0:0:0:
320,224,18550,1,0,0:0:0:0:
320,224,18668,1,8,0:0:0:0:
320,224,18785,1,0,0:0:0:0:
288,224,18902,1,8,0:0:0:0:
320,224,19019,1,8,0:0:0:0:
320,224,19136,1,0,0:0:0:0:
352,224,19254,1,0,0:0:0:0:
352,224,19371,1,8,0:0:0:0:
352,224,19840,1,8,0:0:0:0:
352,224,19957,1,0,0:0:0:0:
352,224,20074,1,8,0:0:0:0:
352,224,20191,1,8,0:0:0:0:
352,224,20308,1,0,0:0:0:0:
352,224,20425,1,0,0:0:0:0:
352,224,20543,1,8,0:0:0:0:
352,224,20660,1,0,0:0:0:0:
384,224,20777,1,8,0:0:0:0:
384,224,20894,1,0,0:0:0:0:
384,224,21011,1,8,0:0:0:0:
384,256,21129,1,8,0:0:0:0:
384,256,21246,1,0,0:0:0:0:
384,256,21363,1,8,0:0:0:0:
384,256,21480,1,0,0:0:0:0:
384,256,21597,1,0,0:0:0:0:
384,256,21715,1,8,0:0:0:0:
384,256,21832,1,0,0:0:0:0:
384,256,21949,1,8,0:0:0:0:
384,256,22066,1,8,0:0:0:0:
384,256,22183,1,8,0:0:0:0:
384,256,22300,1,0,0:0:0:0:
384,256,22418,1,8,0:0:0:0:
384,256,22535,1,8,0:0:0:0:
384,256,22652,1,0,0:0:0:0:
384,256,22769,1,0,0:0:0:0:
384,256,22886,1,8,0:0:0:0:
384,224,23121,1,0,0:0:0:0:
384,224,23355,1,8,0:0:0:0:
384,224,23590,1,0,0:0:0:0:
384,224,23707,1,8,0:0:0:0:
384,224,23824,1,0,0:0:0:0:
384,224,23941,1,0,0:0:0:0:
352,192,24058,1,8,0:0:0:0:
384,256,24175,1,0,0:0:0:0:
384,224,24293,1,8,0:0:0:0:
384,224,24410,1,8,0:0:0:0:
384,224,24527,1,0,0:0:0:0:
384,224,24644,1,8,0:0:0:0:
384,224,24761,1,0,0:0:0:0:
384,224,24879,1,0,0:0:0:0:
352,224,24996,1,8,0:0:0:0:
352,224,25113,1,0,0:0:0:0:
384,224,25230,1,8,0:0:0:0:
384,224,25347,1,0,0:0:0:0:
352,224,25465,1,8,0:0:0:0:
352,224,25582,1,8,0:0:0:0:
352,224,25699,1,0,0:0:0:0:
352,224,25816,1,8,0:0:0:0:
352,224,25933,1,0,0:0:0:0:
352,224,26050,1,0,0:0:0:0:
352,224,26168,1,8,0:0:0:0:
352,224,26285,1,0,0:0:0:0:
352,224,26402,1,8,0:0:0:0:
352,224,26519,1,8,0:0:0:0:
352,224,26636,1,0,0:0:0:0:
352,224,26754,1,0,0:0:0:0:
320,224,26871,1,8,0:0:0:0:
320,224,26988,1,8,0:0:0:0:
352,256,27105,1,8,0:0:0:0:
352,224,27222,1,8,0:0:0:0:
352,224,27340,1,0,0:0:0:0:
352,224,27457,1,8,0:0:0:0:
352,224,27574,1,0,0:0:0:0:
352,224,27691,1,0,0:0:0:0:
352,224,27808,1,8,0:0:0:0:
352,224,27925,1,0,0:0:0:0:
352,224,28043,1,8,0:0:0:0:
352,224,28160,1,8,0:0:0:0:
352,224,28277,1,0,0:0:0:0:
352,224,28394,1,0,0:0:0:0:
352,224,28511,1,8,0:0:0:0:
352,224,28629,1,0,0:0:0:0:
352,224,28746,1,8,0:0:0:0:
352,224,28980,1,8,0:0:0:0:
352,224,29097,1,8,0:0:0:0:
352,224,29215,1,0,0:0:0:0:
352,192,29449,1,8,0:0:0:0:
352,224,29683,1,0,0:0:0:0:
352,192,29918,1,8,0:0:0:0:
352,224,30035,1,0,0:0:0:0:
352,224,30152,1,8,0:0:0:0:
352,224,30269,1,8,0:0:0:0:
352,224,30386,1,0,0:0:0:0:
352,224,30504,1,0,0:0:0:0:
352,224,30621,1,8,0:0:0:0:
352,224,30855,1,0,0:0:0:0:
352,224,31090,1,8,0:0:0:0:
352,224,31207,1,0,0:0:0:0:
352,224,31324,1,8,0:0:0:0:
352,224,31441,1,8,0:0:0:0:
352,224,31558,1,0,0:0:0:0:
352,224,31675,1,8,0:0:0:0:
352,224,31793,1,0,0:0:0:0:
352,224,31910,1,0,0:0:0:0:
352,224,32027,1,8,0:0:0:0:
352,224,32144,1,0,0:0:0:0:
352,224,32261,1,8,0:0:0:0:
352,224,32379,1,0,0:0:0:0:
352,224,32496,1,8,0:0:0:0:
352,224,32613,1,8,0:0:0:0:
352,224,32730,1,0,0:0:0:0:
352,256,32847,1,8,0:0:0:0:
352,256,32965,1,0,0:0:0:0:
320,256,33082,1,0,0:0:0:0:
320,256,33199,1,8,0:0:0:0:
320,256,33316,1,0,0:0:0:0:
320,256,33433,1,8,0:0:0:0:
320,256,33550,1,8,0:0:0:0:
320,256,33668,1,0,0:0:0:0:
320,256,33785,1,8,0:0:0:0:
320,256,33902,1,0,0:0:0:0:
320,256,34019,1,0,0:0:0:0:
320,256,34136,1,8,0:0:0:0:
320,256,34254,1,0,0:0:0:0:
320,256,34371,1,8,0:0:0:0:
352,256,34488,1,8,0:0:0:0:
352,256,34605,1,8,0:0:0:0:
352,256,34722,1,8,0:0:0:0:
352,256,34840,1,0,0:0:0:0:
352,256,34957,1,8,0:0:0:0:
352,256,35074,1,0,0:0:0:0:
352,256,35191,1,0,0:0:0:0:
352,256,35308,1,8,0:0:0:0:
352,256,35425,1,0,0:0:0:0:
352,256,35543,1,8,0:0:0:0:
352,256,35660,1,8,0:0:0:0:
352,256,35777,1,8,0:0:0:0:
320,256,35894,1,0,0:0:0:0:
352,256,36011,1,8,0:0:0:0:
352,256,36129,1,8,0:0:0:0:
352,256,36246,1,0,0:0:0:0:
352,256,36363,1,0,0:0:0:0:
352,256,36480,1,8,0:0:0:0:
352,256,36597,1,0,0:0:0:0:
352,256,36715,1,8,0:0:0:0:
352,256,36832,1,8,0:0:0:0:
352,256,36949,1,0,0:0:0:0:
352,256,37066,1,8,0:0:0:0:
352,256,37183,1,0,0:0:0:0:
352,256,37300,1,0,0:0:0:0:
352,256,37418,1,8,0:0:0:0:
352,256,37535,1,0,0:0:0:0:
352,256,37652,1,8,0:0:0:0:
352,256,37769,1,8,0:0:0:0:
352,256,37886,1,0,0:0:0:0:
352,256,38004,1,0,0:0:0:0:
352,256,38121,1,8,0:0:0:0:
352,256,38355,1,8,0:0:0:0:
352,256,38590,1,0,0:0:0:0:
352,256,38707,1,8,0:0:0:0:
352,256,38824,1,0,0:0:0:0:
352,256,38941,1,0,0:0:0:0:
352,256,39058,1,8,0:0:0:0:
352,256,39175,1,0,0:0:0:0:
352,256,39293,1,8,0:0:0:0:
352,256,39410,1,8,0:0:0:0:
352,256,39527,1,0,0:0:0:0:
352,256,39644,1,8,0:0:0:0:
384,256,39761,1,0,0:0:0:0:
384,256,39879,1,0,0:0:0:0:
384,256,39996,1,8,0:0:0:0:
384,288,40113,1,0,0:0:0:0:
288,192,40230,1,8,0:0:0:0:
288,192,40289,1,8,0:0:0:0:
288,192,40347,1,8,0:0:0:0:
288,192,40406,1,8,0:0:0:0:
288,192,40465,1,0,0:0:0:0:
384,288,40582,1,0,0:0:0:0:
288,192,40699,1,8,0:0:0:0:
320,192,40816,1,0,0:0:0:0:
320,224,40933,1,8,0:0:0:0:
320,224,41050,1,8,0:0:0:0:
320,224,41168,1,0,0:0:0:0:
320,224,41285,1,8,0:0:0:0:
320,224,41402,1,0,0:0:0:0:
320,224,41519,1,0,0:0:0:0:
320,224,41636,1,8,0:0:0:0:
320,224,41754,1,0,0:0:0:0:
320,224,41871,1,8,0:0:0:0:
320,224,41988,1,8,0:0:0:0:
320,224,42105,1,8,0:0:0:0:
320,224,42222,1,8,0:0:0:0:
320,224,42340,1,0,0:0:0:0:
320,224,42457,1,8,0:0:0:0:
320,224,42574,1,0,0:0:0:0:
320,224,42691,1,0,0:0:0:0:
320,224,42808,1,8,0:0:0:0:
320,224,42925,1,0,0:0:0:0:
320,224,43043,1,8,0:0:0:0:
320,224,43160,1,8,0:0:0:0:
320,224,43277,1,0,0:0:0:0:
320,224,43394,1,8,0:0:0:0:
320,224,43511,1,8,0:0:0:0:
320,224,43629,1,8,0:0:0:0:
320,224,43746,1,0,0:0:0:0:
320,224,43863,1,0,0:0:0:0:
288,192,43980,1,8,0:0:0:0:
288,192,44039,1,8,0:0:0:0:
288,192,44097,1,8,0:0:0:0:
288,192,44156,1,8,0:0:0:0:
288,192,44215,1,0,0:0:0:0:
320,224,44332,1,0,0:0:0:0:
320,224,44449,1,8,0:0:0:0:
320,224,44566,1,0,0:0:0:0:
320,224,44683,1,8,0:0:0:0:
320,224,44800,1,8,0:0:0:0:
320,224,44918,1,0,0:0:0:0:
320,224,45035,1,0,0:0:0:0:
320,224,45152,1,8,0:0:0:0:
256,192,45386,1,4,0:0:0:0:
256,192,45621,1,12,0:0:0:0:
256,192,45855,1,8,0:0:0:0:
256,192,45914,1,8,0:0:0:0:
256,192,45972,1,8,0:0:0:0:
256,192,46031,1,8,0:0:0:0:
256,192,46090,1,4,0:0:0:0:
256,224,46324,1,8,0:0:0:0:
288,224,46558,1,0,0:0:0:0:
288,224,46675,1,8,0:0:0:0:
288,224,46734,1,8,0:0:0:0:
288,224,46793,1,0,0:0:0:0:
288,224,46910,1,8,0:0:0:0:
288,224,47027,1,0,0:0:0:0:
288,224,47144,1,8,0:0:0:0:
288,224,47261,1,8,0:0:0:0:
288,224,47379,1,0,0:0:0:0:
288,224,47496,1,8,0:0:0:0:
288,224,47730,1,8,0:0:0:0:
288,224,47965,1,4,0:0:0:0:
288,224,48199,1,8,0:0:0:0:
288,224,48433,1,0,0:0:0:0:
288,224,48550,1,8,0:0:0:0:
288,224,48609,1,8,0:0:0:0:
288,224,48668,1,0,0:0:0:0:
288,224,48785,1,8,0:0:0:0:
288,224,48902,1,0,0:0:0:0:
288,224,49019,1,8,0:0:0:0:
288,224,49136,1,8,0:0:0:0:
288,224,49254,1,8,0:0:0:0:
288,224,49371,1,0,0:0:0:0:
288,224,49605,1,8,0:0:0:0:
288,224,49840,1,4,0:0:0:0:
256,224,50074,1,8,0:0:0:0:
288,224,50308,1,0,0:0:0:0:
288,224,50425,1,8,0:0:0:0:
288,224,50484,1,8,0:0:0:0:
288,224,50543,1,0,0:0:0:0:
288,224,50660,1,8,0:0:0:0:
288,224,50777,1,0,0:0:0:0:
288,224,50894,1,8,0:0:0:0:
288,224,51011,1,8,0:0:0:0:
288,224,51129,1,0,0:0:0:0:
288,224,51246,1,8,0:0:0:0:
288,224,51480,1,8,0:0:0:0:
288,224,51597,1,8,0:0:0:0:
288,224,51715,1,0,0:0:0:0:
288,224,51949,1,8,0:0:0:0:
320,224,52066,1,0,0:0:0:0:
320,224,52183,1,8,0:0:0:0:
320,224,52300,1,8,0:0:0:0:
320,224,52418,1,0,0:0:0:0:
320,224,52535,1,8,0:0:0:0:
320,224,52652,1,0,0:0:0:0:
320,224,52769,1,0,0:0:0:0:
320,256,52886,1,8,0:0:0:0:
352,256,52945,1,8,0:0:0:0:
352,256,53004,1,8,0:0:0:0:
352,256,53062,1,8,0:0:0:0:
352,224,53121,1,0,0:0:0:0:
352,256,53238,1,0,0:0:0:0:
320,224,53355,1,8,0:0:0:0:
384,192,53414,1,8,0:0:0:0:
384,192,53472,1,8,0:0:0:0:
384,192,53531,1,8,0:0:0:0:
320,224,53590,1,4,0:0:0:0:
320,224,53824,1,8,0:0:0:0:
288,224,54058,1,0,0:0:0:0:
288,224,54175,1,8,0:0:0:0:
288,224,54234,1,8,0:0:0:0:
288,224,54293,1,0,0:0:0:0:
288,224,54410,1,8,0:0:0:0:
288,224,54527,1,0,0:0:0:0:
288,224,54644,1,8,0:0:0:0:
288,224,54761,1,8,0:0:0:0:
288,224,54879,1,0,0:0:0:0:
320,224,54996,1,8,0:0:0:0:
320,256,55230,1,8,0:0:0:0:
320,224,55465,1,4,0:0:0:0:
320,224,55699,1,8,0:0:0:0:
320,224,55933,1,0,0:0:0:0:
320,256,56050,1,8,0:0:0:0:
320,256,56109,1,8,0:0:0:0:
320,256,56168,1,0,0:0:0:0:
320,256,56285,1,8,0:0:0:0:
320,256,56402,1,0,0:0:0:0:
320,256,56519,1,8,0:0:0:0:
320,256,56636,1,8,0:0:0:0:
320,256,56754,1,8,0:0:0:0:
320,256,56871,1,0,0:0:0:0:
320,224,57105,1,8,0:0:0:0:
320,224,57340,1,4,0:0:0:0:
384,256,57574,1,8,0:0:0:0:
288,224,57808,1,0,0:0:0:0:
288,224,57925,1,8,0:0:0:0:
320,256,57984,1,8,0:0:0:0:
320,256,58043,1,0,0:0:0:0:
320,256,58160,1,8,0:0:0:0:
320,256,58277,1,0,0:0:0:0:
352,256,58394,1,8,0:0:0:0:
320,256,58511,1,8,0:0:0:0:
320,256,58629,1,0,0:0:0:0:
320,256,58746,1,8,0:0:0:0:
320,256,58980,1,8,0:0:0:0:
320,256,59215,1,4,0:0:0:0:
320,256,59449,1,8,0:0:0:0:
320,256,59566,1,0,0:0:0:0:
320,256,59683,1,8,0:0:0:0:
320,256,59800,1,8,0:0:0:0:
320,256,59918,1,0,0:0:0:0:
320,256,60035,1,8,0:0:0:0:
320,256,60152,1,0,0:0:0:0:
320,256,60269,1,0,0:0:0:0:
256,192,60386,1,8,0:0:0:0:
256,192,60445,1,8,0:0:0:0:
256,192,60504,1,8,0:0:0:0:
256,192,60562,1,8,0:0:0:0:
256,256,60621,1,0,0:0:0:0:
256,224,60738,1,0,0:0:0:0:
320,256,60855,1,8,0:0:0:0:
320,256,60914,1,8,0:0:0:0:
320,256,60972,1,8,0:0:0:0:
320,256,61031,1,8,0:0:0:0:
320,256,61090,1,4,0:0:0:0:
256,224,61324,1,8,0:0:0:0:
256,224,61558,1,0,0:0:0:0:
320,256,61675,1,8,0:0:0:0:
320,256,61734,1,8,0:0:0:0:
320,256,61793,1,0,0:0:0:0:
320,256,61910,1,8,0:0:0:0:
320,256,62027,1,0,0:0:0:0:
320,256,62144,1,8,0:0:0:0:
320,256,62261,1,8,0:0:0:0:
320,256,62379,1,0,0:0:0:0:
320,256,62496,1,8,0:0:0:0:
320,224,62730,1,8,0:0:0:0:
320,256,62965,1,4,0:0:0:0:
320,256,63199,1,8,0:0:0:0:
320,256,63433,1,0,0:0:0:0:
320,256,63550,1,8,0:0:0:0:
288,256,63609,1,8,0:0:0:0:
320,256,63668,1,0,0:0:0:0:
320,256,63785,1,8,0:0:0:0:
320,256,63902,1,0,0:0:0:0:
320,256,64019,1,8,0:0:0:0:
320,256,64136,1,8,0:0:0:0:
320,256,64254,1,8,0:0:0:0:
320,256,64371,1,0,0:0:0:0:
320,256,64605,1,8,0:0:0:0:
320,256,64840,1,4,0:0:0:0:
320,256,65074,1,8,0:0:0:0:
352,256,65308,1,0,0:0:0:0:
352,256,65425,1,8,0:0:0:0:
352,256,65484,1,8,0:0:0:0:
352,256,65543,1,0,0:0:0:0:
352,256,65660,1,8,0:0:0:0:
352,256,65777,1,0,0:0:0:0:
352,256,65894,1,8,0:0:0:0:
352,256,66011,1,8,0:0:0:0:
352,256,66129,1,0,0:0:0:0:
352,256,66246,1,8,0:0:0:0:
352,224,66480,1,8,0:0:0:0:
352,224,66597,1,8,0:0:0:0:
352,224,66715,1,0,0:0:0:0:
416,192,66949,1,8,0:0:0:0:
416,192,67066,1,0,0:0:0:0:
416,192,67183,1,8,0:0:0:0:
416,192,67300,1,8,0:0:0:0:
416,192,67418,1,0,0:0:0:0:
416,192,67535,1,8,0:0:0:0:
448,192,67652,1,0,0:0:0:0:
448,192,67769,1,0,0:0:0:0:
448,192,67886,1,8,0:0:0:0:
448,192,67945,1,8,0:0:0:0:
448,192,68004,1,8,0:0:0:0:
448,192,68062,1,8,0:0:0:0:
448,192,68121,1,0,0:0:0:0:
448,192,68238,1,0,0:0:0:0:
448,192,68355,1,8,0:0:0:0:
448,192,68414,1,8,0:0:0:0:
448,192,68472,1,8,0:0:0:0:
448,192,68531,1,8,0:0:0:0:
448,192,68590,1,4,0:0:0:0:
480,192,68824,5,8,0:0:0:0:
416,224,69058,1,0,0:0:0:0:
416,224,69175,1,8,0:0:0:0:
416,224,69234,1,8,0:0:0:0:
416,224,69293,1,0,0:0:0:0:
416,224,69410,1,8,0:0:0:0:
448,224,69527,1,0,0:0:0:0:
448,256,69644,1,8,0:0:0:0:
448,256,69761,1,8,0:0:0:0:
416,256,69879,1,0,0:0:0:0:
416,256,69996,1,8,0:0:0:0:
416,256,70230,1,8,0:0:0:0:
384,256,70465,1,4,0:0:0:0:
384,256,70699,1,8,0:0:0:0:
384,256,70933,1,0,0:0:0:0:
384,256,71050,1,8,0:0:0:0:
384,256,71109,1,8,0:0:0:0:
384,256,71168,1,0,0:0:0:0:
416,256,71285,1,8,0:0:0:0:
416,256,71402,1,0,0:0:0:0:
416,256,71519,1,8,0:0:0:0:
416,256,71636,1,8,0:0:0:0:
416,256,71754,1,8,0:0:0:0:
416,256,71871,1,0,0:0:0:0:
416,256,72105,1,8,0:0:0:0:
416,256,72340,1,4,0:0:0:0:
256,192,74215,1,12,0:0:0:0:
256,192,74449,1,12,0:0:0:0:
288,192,74683,1,12,0:0:0:0:
288,192,74800,1,12,0:0:0:0:
288,192,74918,1,12,0:0:0:0:
256,192,75035,1,12,0:0:0:0:
256,192,75152,1,12,0:0:0:0:
320,160,75621,1,0,0:0:0:0:
448,192,75679,1,0,0:0:0:0:
448,192,75738,1,0,0:0:0:0:
384,160,75797,1,0,0:0:0:0:
384,192,75855,1,8,0:0:0:0:
480,192,75972,1,8,0:0:0:0:
384,160,76090,1,4,0:0:0:0:
352,224,76324,1,8,0:0:0:0:
352,224,76441,1,8,0:0:0:0:
352,224,76558,1,0,0:0:0:0:
384,224,76793,1,0,0:0:0:0:
384,224,76910,1,8,0:0:0:0:
384,224,77027,1,0,0:0:0:0:
384,224,77144,1,0,0:0:0:0:
384,224,77203,1,0,0:0:0:0:
384,224,77261,1,8,0:0:0:0:
384,224,77379,1,8,0:0:0:0:
384,224,77496,1,0,0:0:0:0:
416,224,77730,1,8,0:0:0:0:
416,224,77847,1,0,0:0:0:0:
416,224,77965,1,8,0:0:0:0:
416,256,78199,1,8,0:0:0:0:
416,256,78316,1,8,0:0:0:0:
384,224,78433,1,0,0:0:0:0:
416,256,78668,1,0,0:0:0:0:
416,288,78785,1,8,0:0:0:0:
416,288,78902,1,0,0:0:0:0:
384,288,79019,1,0,0:0:0:0:
384,288,79078,1,0,0:0:0:0:
384,288,79136,1,8,0:0:0:0:
448,288,79254,1,8,0:0:0:0:
448,288,79371,1,0,0:0:0:0:
416,288,79488,1,8,0:0:0:0:
416,288,79547,1,0,0:0:0:0:
416,288,79605,1,8,0:0:0:0:
416,288,79722,1,8,0:0:0:0:
416,288,79840,1,0,0:0:0:0:
416,256,80074,1,8,0:0:0:0:
416,288,80191,1,8,0:0:0:0:
416,288,80308,1,0,0:0:0:0:
416,288,80543,1,0,0:0:0:0:
416,288,80660,1,8,0:0:0:0:
416,288,80777,1,0,0:0:0:0:
416,288,80894,1,0,0:0:0:0:
416,288,80953,1,0,0:0:0:0:
416,288,81011,1,8,0:0:0:0:
384,256,81129,1,8,0:0:0:0:
384,256,81246,1,0,0:0:0:0:
416,288,81480,1,8,0:0:0:0:
384,256,81597,1,0,0:0:0:0:
384,256,81715,1,8,0:0:0:0:
448,288,81949,1,8,0:0:0:0:
448,288,82066,1,8,0:0:0:0:
416,288,82183,1,0,0:0:0:0:
448,288,82417,1,0,0:0:0:0:
448,288,82534,1,8,0:0:0:0:
448,288,82651,1,0,0:0:0:0:
448,288,82769,1,0,0:0:0:0:
320,192,82887,1,8,0:0:0:0:
320,192,82946,1,8,0:0:0:0:
320,192,83004,1,8,0:0:0:0:
320,192,83063,1,8,0:0:0:0:
320,192,83121,1,0,0:0:0:0:
320,192,83239,1,0,0:0:0:0:
320,192,83356,1,8,0:0:0:0:
320,192,83414,1,8,0:0:0:0:
320,192,83473,1,8,0:0:0:0:
320,192,83532,1,8,0:0:0:0:
320,192,83590,1,4,0:0:0:0:
352,192,83823,1,8,0:0:0:0:
352,192,83940,1,8,0:0:0:0:
352,192,84058,1,0,0:0:0:0:
352,192,84293,1,0,0:0:0:0:
352,224,84410,1,8,0:0:0:0:
352,224,84527,1,0,0:0:0:0:
352,224,84644,1,0,0:0:0:0:
352,224,84703,1,0,0:0:0:0:
352,224,84761,1,8,0:0:0:0:
352,224,84879,1,8,0:0:0:0:
352,224,84996,1,0,0:0:0:0:
320,224,85230,1,8,0:0:0:0:
320,224,85347,1,0,0:0:0:0:
320,256,85465,1,8,0:0:0:0:
320,224,85699,1,8,0:0:0:0:
320,224,85816,1,8,0:0:0:0:
320,224,85933,1,0,0:0:0:0:
320,224,86168,1,0,0:0:0:0:
320,224,86285,1,8,0:0:0:0:
320,224,86402,1,0,0:0:0:0:
320,224,86519,1,0,0:0:0:0:
320,224,86578,1,0,0:0:0:0:
320,224,86636,1,8,0:0:0:0:
352,224,86754,1,8,0:0:0:0:
352,224,86871,1,0,0:0:0:0:
352,224,86988,1,8,0:0:0:0:
352,224,87047,1,0,0:0:0:0:
352,224,87105,1,8,0:0:0:0:
352,224,87222,1,8,0:0:0:0:
352,224,87340,1,0,0:0:0:0:
352,224,87457,1,8,0:0:0:0:
352,224,87574,1,8,0:0:0:0:
352,224,87691,1,0,0:0:0:0:
352,224,87808,1,8,0:0:0:0:
384,224,87867,1,8,0:0:0:0:
384,224,87925,1,0,0:0:0:0:
352,224,88043,1,8,0:0:0:0:
352,224,88160,1,8,0:0:0:0:
352,224,88277,1,0,0:0:0:0:
352,224,88394,1,8,0:0:0:0:
352,224,88511,1,8,0:0:0:0:
352,224,88570,1,8,0:0:0:0:
352,224,88629,1,0,0:0:0:0:
352,256,88746,1,8,0:0:0:0:
352,224,88863,1,0,0:0:0:0:
352,224,88980,1,8,0:0:0:0:
352,224,89097,1,8,0:0:0:0:
352,224,89215,1,0,0:0:0:0:
352,224,89332,1,0,0:0:0:0:
352,224,89390,1,0,0:0:0:0:
416,256,89449,1,8,0:0:0:0:
352,224,89566,1,8,0:0:0:0:
416,224,89683,1,0,0:0:0:0:
416,224,89800,1,8,0:0:0:0:
384,224,89859,1,0,0:0:0:0:
416,224,89918,1,8,0:0:0:0:
416,256,90035,1,8,0:0:0:0:
416,256,90152,1,0,0:0:0:0:
384,256,90386,1,0,0:0:0:0:
384,256,90504,1,8,0:0:0:0:
384,256,90621,1,0,0:0:0:0:
384,256,90738,1,0,0:0:0:0:
384,256,90855,1,8,0:0:0:0:
384,256,90972,1,8,0:0:0:0:
384,256,91090,1,0,0:0:0:0:
384,288,91324,1,8,0:0:0:0:
384,288,91441,1,8,0:0:0:0:
384,288,91558,1,0,0:0:0:0:
352,256,91793,1,0,0:0:0:0:
352,256,91910,1,8,0:0:0:0:
384,256,92027,1,0,0:0:0:0:
352,256,92144,1,0,0:0:0:0:
352,256,92203,1,0,0:0:0:0:
352,256,92262,1,8,0:0:0:0:
384,256,92379,1,8,0:0:0:0:
352,256,92496,1,0,0:0:0:0:
384,256,92730,1,8,0:0:0:0:
384,256,92847,1,0,0:0:0:0:
384,256,92965,1,8,0:0:0:0:
384,288,93199,1,8,0:0:0:0:
384,288,93316,1,8,0:0:0:0:
384,288,93433,1,0,0:0:0:0:
384,256,93668,1,0,0:0:0:0:
384,256,93785,1,8,0:0:0:0:
384,256,93902,1,0,0:0:0:0:
384,256,94019,1,0,0:0:0:0:
384,256,94078,1,0,0:0:0:0:
384,256,94136,1,8,0:0:0:0:
384,256,94254,1,8,0:0:0:0:
384,288,94371,1,0,0:0:0:0:
384,256,94488,1,8,0:0:0:0:
384,256,94546,1,0,0:0:0:0:
384,256,94605,1,8,0:0:0:0:
384,256,94722,1,8,0:0:0:0:
384,256,94839,1,0,0:0:0:0:
384,256,95074,1,8,0:0:0:0:
384,256,95191,1,8,0:0:0:0:
384,256,95308,1,0,0:0:0:0:
384,256,95543,1,0,0:0:0:0:
384,256,95660,1,8,0:0:0:0:
384,256,95777,1,0,0:0:0:0:
384,224,95894,1,0,0:0:0:0:
384,224,95953,1,0,0:0:0:0:
384,224,96011,1,8,0:0:0:0:
384,256,96129,1,8,0:0:0:0:
384,224,96246,1,0,0:0:0:0:
384,224,96480,1,8,0:0:0:0:
384,224,96597,1,0,0:0:0:0:
384,256,96715,1,8,0:0:0:0:
384,256,96949,1,8,0:0:0:0:
384,256,97066,1,8,0:0:0:0:
384,256,97183,1,0,0:0:0:0:
448,288,97418,1,0,0:0:0:0:
448,288,97535,1,8,0:0:0:0:
448,288,97652,1,0,0:0:0:0:
448,288,97770,1,0,0:0:0:0:
320,192,97888,1,8,0:0:0:0:
320,192,97947,1,8,0:0:0:0:
320,192,98005,1,8,0:0:0:0:
320,192,98064,1,8,0:0:0:0:
320,192,98122,1,0,0:0:0:0:
320,192,98240,1,0,0:0:0:0:
320,192,98357,1,8,0:0:0:0:
320,192,98415,1,8,0:0:0:0:
320,192,98474,1,8,0:0:0:0:
320,192,98533,1,8,0:0:0:0:
320,192,98591,1,4,0:0:0:0:
352,192,98824,1,8,0:0:0:0:
352,192,98941,1,8,0:0:0:0:
352,192,99059,1,0,0:0:0:0:
352,192,99294,1,0,0:0:0:0:
352,224,99411,1,8,0:0:0:0:
352,224,99528,1,0,0:0:0:0:
352,224,99645,1,0,0:0:0:0:
352,224,99704,1,0,0:0:0:0:
352,224,99762,1,8,0:0:0:0:
352,224,99880,1,8,0:0:0:0:
352,224,99997,1,0,0:0:0:0:
320,224,100231,1,8,0:0:0:0:
320,224,100348,1,0,0:0:0:0:
320,256,100466,1,8,0:0:0:0:
320,224,100700,1,8,0:0:0:0:
320,224,100817,1,8,0:0:0:0:
320,224,100934,1,0,0:0:0:0:
320,224,101169,1,8,0:0:0:0:
320,224,101403,1,4,0:0:0:0:
288,224,101871,1,12,0:0:0:0:
288,224,102340,1,4,0:0:0:0:
288,224,102574,1,8,0:0:0:0:
288,224,102691,1,0,0:0:0:0:
240,200,102808,1,0,0:0:0:0:
240,200,102925,1,8,0:0:0:0:
256,216,103160,1,8,0:0:0:0:
276,208,103394,1,0,0:0:0:0:
276,208,103511,1,8,0:0:0:0:
288,224,103629,1,8,0:0:0:0:
276,208,103746,1,8,0:0:0:0:
276,208,103980,1,0,0:0:0:0:
276,208,104215,1,8,0:0:0:0:
276,208,104449,1,8,0:0:0:0:
320,224,104566,1,0,0:0:0:0:
292,208,104683,1,0,0:0:0:0:
292,208,104800,1,8,0:0:0:0:
292,208,105035,1,8,0:0:0:0:
292,212,105269,1,0,0:0:0:0:
292,212,105386,1,8,0:0:0:0:
292,208,105504,1,8,0:0:0:0:
292,208,105621,1,0,0:0:0:0:
288,224,105855,1,8,0:0:0:0:
308,212,106090,1,4,0:0:0:0:
256,224,106324,1,8,0:0:0:0:
256,224,106441,1,0,0:0:0:0:
240,200,106558,1,0,0:0:0:0:
240,200,106675,1,8,0:0:0:0:
256,216,106910,1,8,0:0:0:0:
276,208,107144,1,0,0:0:0:0:
276,208,107261,1,8,0:0:0:0:
256,224,107379,1,8,0:0:0:0:
276,208,107496,1,8,0:0:0:0:
276,208,107730,1,0,0:0:0:0:
276,208,107965,1,8,0:0:0:0:
320,224,108082,1,0,0:0:0:0:
276,208,108199,1,0,0:0:0:0:
288,224,108316,1,0,0:0:0:0:
292,208,108433,1,8,0:0:0:0:
288,224,108550,1,0,0:0:0:0:
320,224,108668,1,0,0:0:0:0:
292,208,108785,1,8,0:0:0:0:
292,212,108902,1,0,0:0:0:0:
292,212,108961,1,0,0:0:0:0:
320,224,109019,1,0,0:0:0:0:
320,224,109078,1,0,0:0:0:0:
320,224,109136,1,8,0:0:0:0:
320,224,109254,1,8,0:0:0:0:
292,208,109371,1,4,0:0:0:0:
320,224,109840,1,0,0:0:0:0:
320,224,110074,1,8,0:0:0:0:
320,224,110191,1,0,0:0:0:0:
320,224,110308,1,0,0:0:0:0:
320,224,110425,1,8,0:0:0:0:
320,224,110660,1,0,0:0:0:0:
320,224,110777,1,8,0:0:0:0:
320,224,110836,1,8,0:0:0:0:
320,224,110894,1,0,0:0:0:0:
320,224,111011,1,8,0:0:0:0:
320,224,111129,1,8,0:0:0:0:
320,224,111246,1,0,0:0:0:0:
320,224,111480,1,8,0:0:0:0:
256,192,111715,1,0,0:0:0:0:
256,192,111832,1,0,0:0:0:0:
256,224,111949,1,8,0:0:0:0:
288,224,112066,1,0,0:0:0:0:
320,224,112300,1,8,0:0:0:0:
320,224,112535,1,0,0:0:0:0:
288,224,112769,1,8,0:0:0:0:
352,224,112886,1,0,0:0:0:0:
352,224,112945,1,0,0:0:0:0:
352,224,113004,1,0,0:0:0:0:
352,224,113121,1,8,0:0:0:0:
352,224,113590,1,0,0:0:0:0:
352,224,113824,1,8,0:0:0:0:
352,224,113941,1,0,0:0:0:0:
352,224,114058,1,0,0:0:0:0:
352,224,114175,1,8,0:0:0:0:
352,224,114410,1,0,0:0:0:0:
352,224,114527,1,8,0:0:0:0:
352,224,114586,1,8,0:0:0:0:
352,224,114644,1,0,0:0:0:0:
352,224,114761,1,8,0:0:0:0:
352,224,114879,1,8,0:0:0:0:
384,256,114996,1,0,0:0:0:0:
384,224,115113,1,0,0:0:0:0:
352,224,115230,1,8,0:0:0:0:
384,256,115347,1,0,0:0:0:0:
384,256,115465,1,8,0:0:0:0:
384,256,115523,1,8,0:0:0:0:
384,256,115582,1,8,0:0:0:0:
384,256,115640,1,8,0:0:0:0:
384,256,115699,1,8,0:0:0:0:
384,256,115757,1,8,0:0:0:0:
416,256,115816,1,8,0:0:0:0:
384,256,115875,1,8,0:0:0:0:
416,256,115933,1,0,0:0:0:0:
416,256,116050,1,0,0:0:0:0:
416,256,116168,1,8,0:0:0:0:
416,256,116285,1,8,0:0:0:0:
416,256,116402,1,0,0:0:0:0:
416,256,116519,1,8,0:0:0:0:
416,256,116636,1,8,0:0:0:0:
416,288,116754,1,8,0:0:0:0:
416,288,116871,1,0,0:0:0:0:
416,256,117340,1,0,0:0:0:0:
416,256,117574,1,8,0:0:0:0:
384,256,117691,1,0,0:0:0:0:
384,256,117808,1,8,0:0:0:0:
384,256,117925,1,8,0:0:0:0:
384,256,118043,1,0,0:0:0:0:
384,256,118160,1,0,0:0:0:0:
384,256,118277,1,8,0:0:0:0:
384,256,118511,1,8,0:0:0:0:
384,256,118629,1,0,0:0:0:0:
384,256,118746,1,8,0:0:0:0:
352,256,118863,1,8,0:0:0:0:
352,256,118980,1,0,0:0:0:0:
352,256,119097,1,8,0:0:0:0:
352,256,119215,1,0,0:0:0:0:
352,256,119332,1,0,0:0:0:0:
352,256,119449,1,8,0:0:0:0:
352,256,119566,1,0,0:0:0:0:
352,256,119683,1,8,0:0:0:0:
384,256,119918,1,8,0:0:0:0:
384,256,120035,1,8,0:0:0:0:
256,192,121090,1,0,0:0:0:0:
256,192,121324,1,8,0:0:0:0:
256,192,121441,1,0,0:0:0:0:
256,192,121558,1,8,0:0:0:0:
224,192,121675,1,8,0:0:0:0:
224,192,121793,1,0,0:0:0:0:
224,192,121910,1,0,0:0:0:0:
256,192,122027,1,8,0:0:0:0:
256,192,122261,1,8,0:0:0:0:
256,192,122379,1,0,0:0:0:0:
256,192,122496,1,8,0:0:0:0:
256,192,122613,1,8,0:0:0:0:
256,192,122730,1,0,0:0:0:0:
288,224,122847,1,8,0:0:0:0:
224,192,122965,1,0,0:0:0:0:
256,192,123082,1,0,0:0:0:0:
256,192,123199,1,8,0:0:0:0:
256,192,123316,1,0,0:0:0:0:
256,192,123433,1,8,0:0:0:0:
224,192,123668,1,8,0:0:0:0:
224,192,123785,1,8,0:0:0:0:
224,192,124840,1,0,0:0:0:0:
256,224,125074,1,8,0:0:0:0:
256,224,125191,1,0,0:0:0:0:
256,192,125308,1,8,0:0:0:0:
256,192,125425,1,8,0:0:0:0:
256,192,125543,1,0,0:0:0:0:
256,192,125660,1,0,0:0:0:0:
256,224,125777,1,8,0:0:0:0:
256,224,126011,1,8,0:0:0:0:
288,224,126129,1,0,0:0:0:0:
288,224,126246,1,8,0:0:0:0:
288,224,126363,1,8,0:0:0:0:
320,224,126480,1,0,0:0:0:0:
320,224,126597,1,8,0:0:0:0:
320,224,126715,1,0,0:0:0:0:
320,224,126832,1,0,0:0:0:0:
320,224,126949,1,8,0:0:0:0:
320,224,127066,1,0,0:0:0:0:
320,224,127183,1,8,0:0:0:0:
320,256,127418,1,8,0:0:0:0:
352,256,127535,1,8,0:0:0:0:
320,224,128590,1,0,0:0:0:0:
320,224,128824,1,8,0:0:0:0:
320,224,128941,1,0,0:0:0:0:
320,224,129058,1,8,0:0:0:0:
320,224,129175,1,8,0:0:0:0:
320,224,129293,1,0,0:0:0:0:
320,224,129410,1,8,0:0:0:0:
320,224,129527,1,0,0:0:0:0:
352,224,129644,1,0,0:0:0:0:
352,224,129761,1,8,0:0:0:0:
352,224,129879,1,0,0:0:0:0:
352,224,129996,1,8,0:0:0:0:
320,224,130230,1,0,0:0:0:0:
320,224,130465,1,8,0:0:0:0:
320,224,130582,1,0,0:0:0:0:
320,224,130699,1,8,0:0:0:0:
320,224,130816,1,8,0:0:0:0:
320,224,130933,1,0,0:0:0:0:
320,224,131168,1,8,0:0:0:0:
320,224,131285,1,8,0:0:0:0:
320,224,131519,1,0,0:0:0:0:
288,224,131636,1,0,0:0:0:0:
288,224,131871,1,8,0:0:0:0:
320,224,131929,1,8,0:0:0:0:
320,224,131988,1,8,0:0:0:0:
320,256,132047,1,8,0:0:0:0:
320,224,132105,1,8,0:0:0:0:
320,224,132164,1,8,0:0:0:0:
320,224,132222,1,8,0:0:0:0:
320,224,132281,1,8,0:0:0:0:
352,256,132340,1,0,0:0:0:0:
352,256,132457,1,0,0:0:0:0:
352,256,132574,1,8,0:0:0:0:
352,256,132691,1,0,0:0:0:0:
320,224,132808,1,8,0:0:0:0:
320,224,132925,1,8,0:0:0:0:
384,256,133043,1,0,0:0:0:0:
384,256,133160,1,8,0:0:0:0:
384,256,133277,1,0,0:0:0:0:
384,256,133394,1,0,0:0:0:0:
384,256,133511,1,8,0:0:0:0:
384,256,133629,1,0,0:0:0:0:
384,256,133746,1,8,0:0:0:0:
384,256,133863,1,0,0:0:0:0:
384,256,133980,1,8,0:0:0:0:
384,256,134097,1,8,0:0:0:0:
384,256,134215,1,0,0:0:0:0:
384,256,134332,1,8,0:0:0:0:
384,256,134449,1,0,0:0:0:0:
384,256,134566,1,0,0:0:0:0:
384,256,134683,1,8,0:0:0:0:
384,256,134800,1,0,0:0:0:0:
384,256,134918,1,8,0:0:0:0:
384,256,135035,1,8,0:0:0:0:
384,256,135152,1,0,0:0:0:0:
384,256,135387,1,0,0:0:0:0:
352,256,135504,1,8,0:0:0:0:
256,192,135621,1,0,0:0:0:0:
256,192,135679,1,0,0:0:0:0:
256,192,135738,1,0,0:0:0:0:
288,192,135797,1,0,0:0:0:0:
288,192,135855,1,0,0:0:0:0:
288,192,136090,1,0,0:0:0:0:
288,192,136207,1,0,0:0:0:0:
288,192,136324,1,8,0:0:0:0:
288,192,136441,1,0,0:0:0:0:
288,192,136558,1,8,0:0:0:0:
320,192,136675,1,8,0:0:0:0:
288,192,136793,1,0,0:0:0:0:
320,192,136910,1,8,0:0:0:0:
320,192,137027,1,0,0:0:0:0:
288,192,137144,1,0,0:0:0:0:
288,192,137261,1,8,0:0:0:0:
288,192,137379,1,0,0:0:0:0:
288,192,137496,1,8,0:0:0:0:
288,192,137613,1,8,0:0:0:0:
288,192,137730,1,8,0:0:0:0:
288,192,137847,1,0,0:0:0:0:
288,192,137965,1,8,0:0:0:0:
288,192,138082,1,0,0:0:0:0:
288,192,138199,1,8,0:0:0:0:
288,192,138316,1,8,0:0:0:0:
288,192,138433,1,0,0:0:0:0:
288,192,138550,1,0,0:0:0:0:
288,192,138668,1,8,0:0:0:0:
288,192,138785,1,8,0:0:0:0:
288,192,138902,1,0,0:0:0:0:
352,224,139136,1,0,0:0:0:0:
352,224,139254,1,8,0:0:0:0:
352,224,139371,1,0,0:0:0:0:
256,192,139429,1,0,0:0:0:0:
256,192,139488,1,0,0:0:0:0:
256,192,139547,1,0,0:0:0:0:
256,192,139605,1,0,0:0:0:0:
320,224,139840,1,0,0:0:0:0:
320,224,139957,1,8,0:0:0:0:
352,224,140074,1,0,0:0:0:0:
352,256,140191,1,0,0:0:0:0:
352,256,140308,1,8,0:0:0:0:
352,256,140425,1,0,0:0:0:0:
352,256,140543,1,8,0:0:0:0:
352,256,140660,1,8,0:0:0:0:
352,256,140777,1,0,0:0:0:0:
352,256,140894,1,0,0:0:0:0:
320,256,141011,1,8,0:0:0:0:
320,256,141129,1,8,0:0:0:0:
352,256,141246,1,0,0:0:0:0:
320,256,141480,1,8,0:0:0:0:
320,256,141715,1,0,0:0:0:0:
320,256,141832,1,0,0:0:0:0:
320,256,141949,1,8,0:0:0:0:
320,256,142066,1,0,0:0:0:0:
320,256,142183,1,8,0:0:0:0:
320,256,142300,1,8,0:0:0:0:
320,256,142418,1,0,0:0:0:0:
320,256,142535,1,0,0:0:0:0:
320,256,142652,1,8,0:0:0:0:
320,224,142769,1,0,0:0:0:0:
320,224,142886,1,0,0:0:0:0:
320,224,143004,1,8,0:0:0:0:
256,192,143121,1,0,0:0:0:0:
256,192,143179,1,0,0:0:0:0:
256,192,143238,1,0,0:0:0:0:
256,192,143297,1,0,0:0:0:0:
256,192,143355,1,0,0:0:0:0:
352,224,143590,1,8,0:0:0:0:
320,224,143707,1,0,0:0:0:0:
320,224,143824,1,8,0:0:0:0:
320,224,143941,1,8,0:0:0:0:
320,224,144058,1,0,0:0:0:0:
320,224,144175,1,8,0:0:0:0:
320,256,144293,1,0,0:0:0:0:
352,256,144410,1,0,0:0:0:0:
352,256,144527,1,8,0:0:0:0:
352,256,144644,1,0,0:0:0:0:
352,256,144761,1,8,0:0:0:0:
320,256,144879,1,0,0:0:0:0:
352,256,144996,1,8,0:0:0:0:
320,256,145230,1,8,0:0:0:0:
320,256,145347,1,0,0:0:0:0:
320,256,145465,1,8,0:0:0:0:
384,256,145582,1,8,0:0:0:0:
384,256,145699,1,0,0:0:0:0:
384,256,145816,1,8,0:0:0:0:
384,256,145933,1,0,0:0:0:0:
384,256,146050,1,0,0:0:0:0:
384,256,146168,1,8,0:0:0:0:
384,256,146285,1,8,0:0:0:0:
384,256,146402,1,0,0:0:0:0:
384,256,146636,1,8,0:0:0:0:
384,256,146871,1,0,0:0:0:0:
352,256,147105,1,8,0:0:0:0:
352,256,147340,1,12,0:0:0:0:
352,256,147574,1,12,0:0:0:0:
352,256,147808,1,12,0:0:0:0:
352,256,147925,1,12,0:0:0:0:
352,256,148160,1,12,0:0:0:0:
352,256,148394,1,12,0:0:0:0:
352,256,148511,1,12,0:0:0:0:
352,256,148746,1,12,0:0:0:0:
352,256,148863,1,12,0:0:0:0:
352,256,148980,1,12,0:0:0:0:
352,256,149097,1,12,0:0:0:0:
352,256,149215,1,4,0:0:0:0:
352,256,149449,1,8,0:0:0:0:
288,224,149683,1,0,0:0:0:0:
288,224,149800,1,8,0:0:0:0:
288,224,149859,1,8,0:0:0:0:
288,224,149918,1,0,0:0:0:0:
288,224,150035,1,8,0:0:0:0:
288,224,150152,1,0,0:0:0:0:
288,224,150269,1,8,0:0:0:0:
288,224,150386,1,8,0:0:0:0:
288,224,150504,1,0,0:0:0:0:
288,224,150621,1,8,0:0:0:0:
288,224,150855,1,8,0:0:0:0:
288,224,151090,1,4,0:0:0:0:
288,224,151324,1,8,0:0:0:0:
288,224,151558,1,0,0:0:0:0:
288,224,151675,1,8,0:0:0:0:
288,224,151734,1,8,0:0:0:0:
288,224,151793,1,0,0:0:0:0:
288,224,151910,1,8,0:0:0:0:
288,224,152027,1,0,0:0:0:0:
288,224,152144,1,8,0:0:0:0:
288,224,152261,1,8,0:0:0:0:
288,224,152379,1,8,0:0:0:0:
288,224,152496,1,0,0:0:0:0:
288,224,152730,1,8,0:0:0:0:
288,224,152965,1,4,0:0:0:0:
256,224,153199,1,8,0:0:0:0:
288,224,153433,1,0,0:0:0:0:
288,224,153550,1,8,0:0:0:0:
288,224,153609,1,8,0:0:0:0:
288,224,153668,1,0,0:0:0:0:
288,224,153785,1,8,0:0:0:0:
288,224,153902,1,0,0:0:0:0:
288,224,154019,1,8,0:0:0:0:
288,224,154136,1,8,0:0:0:0:
288,224,154254,1,0,0:0:0:0:
288,224,154371,1,8,0:0:0:0:
288,224,154605,1,8,0:0:0:0:
288,224,154722,1,8,0:0:0:0:
288,224,154840,1,0,0:0:0:0:
288,224,155074,1,8,0:0:0:0:
320,224,155191,1,0,0:0:0:0:
320,224,155308,1,8,0:0:0:0:
320,224,155425,1,8,0:0:0:0:
320,224,155543,1,0,0:0:0:0:
320,224,155660,1,8,0:0:0:0:
320,224,155777,1,0,0:0:0:0:
320,224,155894,1,0,0:0:0:0:
320,256,156011,1,8,0:0:0:0:
352,256,156070,1,8,0:0:0:0:
352,256,156129,1,8,0:0:0:0:
352,256,156187,1,8,0:0:0:0:
352,224,156246,1,0,0:0:0:0:
352,256,156363,1,0,0:0:0:0:
320,224,156480,1,8,0:0:0:0:
384,192,156539,1,8,0:0:0:0:
384,192,156597,1,8,0:0:0:0:
384,192,156656,1,8,0:0:0:0:
320,224,156715,1,4,0:0:0:0:
320,224,156949,1,8,0:0:0:0:
288,224,157183,1,0,0:0:0:0:
288,224,157300,1,8,0:0:0:0:
288,224,157359,1,8,0:0:0:0:
288,224,157418,1,0,0:0:0:0:
288,224,157535,1,8,0:0:0:0:
288,224,157652,1,0,0:0:0:0:
288,224,157769,1,8,0:0:0:0:
288,224,157886,1,8,0:0:0:0:
288,224,158004,1,0,0:0:0:0:
320,224,158121,1,8,0:0:0:0:
320,256,158355,1,8,0:0:0:0:
320,224,158590,1,4,0:0:0:0:
320,224,158824,1,8,0:0:0:0:
320,224,159058,1,0,0:0:0:0:
320,256,159175,1,8,0:0:0:0:
320,256,159234,1,8,0:0:0:0:
320,256,159293,1,0,0:0:0:0:
320,256,159410,1,8,0:0:0:0:
320,256,159527,1,0,0:0:0:0:
320,256,159644,1,8,0:0:0:0:
320,256,159761,1,8,0:0:0:0:
320,256,159879,1,8,0:0:0:0:
320,256,159996,1,0,0:0:0:0:
320,224,160230,1,8,0:0:0:0:
320,224,160465,1,4,0:0:0:0:
384,256,160699,1,8,0:0:0:0:
288,224,160933,1,0,0:0:0:0:
288,224,161050,1,8,0:0:0:0:
320,256,161109,1,8,0:0:0:0:
320,256,161168,1,0,0:0:0:0:
320,256,161285,1,8,0:0:0:0:
320,256,161402,1,0,0:0:0:0:
352,256,161519,1,8,0:0:0:0:
320,256,161636,1,8,0:0:0:0:
320,256,161754,1,0,0:0:0:0:
320,256,161871,1,8,0:0:0:0:
320,256,162105,1,8,0:0:0:0:
320,256,162340,1,4,0:0:0:0:
320,256,162574,1,8,0:0:0:0:
320,256,162691,1,0,0:0:0:0:
320,256,162808,1,8,0:0:0:0:
320,256,162925,1,8,0:0:0:0:
320,256,163043,1,0,0:0:0:0:
320,256,163160,1,8,0:0:0:0:
320,256,163277,1,0,0:0:0:0:
320,256,163394,1,0,0:0:0:0:
256,192,163511,1,8,0:0:0:0:
256,192,163570,1,8,0:0:0:0:
256,192,163629,1,8,0:0:0:0:
256,192,163687,1,8,0:0:0:0:
256,256,163746,1,0,0:0:0:0:
256,224,163863,1,0,0:0:0:0:
320,256,163980,1,8,0:0:0:0:
320,256,164039,1,8,0:0:0:0:
320,256,164097,1,8,0:0:0:0:
320,256,164156,1,8,0:0:0:0:
320,256,164215,1,4,0:0:0:0:
256,224,164449,1,8,0:0:0:0:
256,224,164683,1,0,0:0:0:0:
320,256,164800,1,8,0:0:0:0:
320,256,164859,1,8,0:0:0:0:
320,256,164918,1,0,0:0:0:0:
320,256,165035,1,8,0:0:0:0:
320,256,165152,1,0,0:0:0:0:
320,256,165269,1,8,0:0:0:0:
320,256,165386,1,8,0:0:0:0:
320,256,165504,1,0,0:0:0:0:
320,256,165621,1,8,0:0:0:0:
320,224,165855,1,8,0:0:0:0:
320,256,166090,1,4,0:0:0:0:
320,256,166324,1,8,0:0:0:0:
320,256,166558,1,0,0:0:0:0:
320,256,166675,1,8,0:0:0:0:
288,256,166734,1,8,0:0:0:0:
320,256,166793,1,0,0:0:0:0:
320,256,166910,1,8,0:0:0:0:
320,256,167027,1,0,0:0:0:0:
320,256,167144,1,8,0:0:0:0:
320,256,167261,1,8,0:0:0:0:
320,256,167379,1,8,0:0:0:0:
320,256,167496,1,0,0:0:0:0:
320,256,167730,1,8,0:0:0:0:
320,256,167965,1,4,0:0:0:0:
320,256,168199,1,8,0:0:0:0:
352,256,168433,1,0,0:0:0:0:
352,256,168550,1,8,0:0:0:0:
352,256,168609,1,8,0:0:0:0:
352,256,168668,1,0,0:0:0:0:
352,256,168785,1,8,0:0:0:0:
352,256,168902,1,0,0:0:0:0:
352,256,169019,1,8,0:0:0:0:
352,256,169136,1,8,0:0:0:0:
352,256,169254,1,0,0:0:0:0:
352,256,169371,1,8,0:0:0:0:
352,224,169605,1,8,0:0:0:0:
352,224,169722,1,8,0:0:0:0:
352,224,169840,1,0,0:0:0:0:
416,192,170074,1,8,0:0:0:0:
416,192,170191,1,0,0:0:0:0:
416,192,170308,1,8,0:0:0:0:
416,192,170425,1,8,0:0:0:0:
416,192,170543,1,0,0:0:0:0:
416,192,170660,1,8,0:0:0:0:
448,192,170777,1,0,0:0:0:0:
448,192,170894,1,0,0:0:0:0:
448,192,171011,1,8,0:0:0:0:
448,192,171070,1,8,0:0:0:0:
448,192,171129,1,8,0:0:0:0:
448,192,171187,1,8,0:0:0:0:
448,192,171246,1,0,0:0:0:0:
448,192,171363,1,0,0:0:0:0:
448,192,171480,1,8,0:0:0:0:
448,192,171539,1,8,0:0:0:0:
448,192,171597,1,8,0:0:0:0:
448,192,171656,1,8,0:0:0:0:
448,192,171715,1,4,0:0:0:0:
352,192,171949,1,8,0:0:0:0:
384,224,172183,1,0,0:0:0:0:
384,224,172300,1,8,0:0:0:0:
416,256,172359,1,8,0:0:0:0:
416,256,172418,1,0,0:0:0:0:
416,224,172535,1,8,0:0:0:0:
416,224,172652,1,0,0:0:0:0:
416,256,172769,1,8,0:0:0:0:
416,256,172886,1,8,0:0:0:0:
416,256,173004,1,0,0:0:0:0:
416,256,173121,1,8,0:0:0:0:
416,256,173355,1,8,0:0:0:0:
416,224,173590,1,4,0:0:0:0:
416,256,173824,1,8,0:0:0:0:
448,256,174058,1,0,0:0:0:0:
448,256,174175,1,8,0:0:0:0:
448,256,174234,1,8,0:0:0:0:
448,256,174293,1,0,0:0:0:0:
448,256,174410,1,8,0:0:0:0:
448,256,174527,1,0,0:0:0:0:
448,256,174644,1,8,0:0:0:0:
448,256,174761,1,8,0:0:0:0:
448,256,174879,1,8,0:0:0:0:
448,256,174996,1,0,0:0:0:0:
448,256,175230,1,8,0:0:0:0:
448,256,175465,1,4,0:0:0:0:
448,256,175699,1,12,0:0:0:0:
448,256,175933,1,4,0:0:0:0:
448,256,176168,1,12,0:0:0:0:
256,192,176402,1,4,0:0:0:0:
256,192,176636,1,12,0:0:0:0:
256,192,176871,1,4,0:0:0:0:
256,192,177105,1,12,0:0:0:0:
256,192,177340,1,4,0:0:0:0:
256,192,177457,1,12,0:0:0:0:
256,192,177574,1,4,0:0:0:0:
256,192,177808,1,4,0:0:0:0:
256,192,177925,1,12,0:0:0:0:
256,192,178043,1,4,0:0:0:0:
288,192,178277,1,4,0:0:0:0:
256,224,178511,1,12,0:0:0:0:
288,192,178746,1,4,0:0:0:0:
288,192,178863,1,12,0:0:0:0:
288,192,178980,1,4,0:0:0:0:
288,192,179097,1,12,0:0:0:0:
288,192,179215,1,4,0:0:0:0:
224,192,186715,5,0,0:0:0:0:
224,192,187652,1,8,0:0:0:0:
224,192,188590,1,8,0:0:0:0:
224,192,189527,1,0,0:0:0:0:
224,192,190465,1,8,0:0:0:0:
256,192,191402,1,8,0:0:0:0:
256,192,191871,1,0,0:0:0:0:
256,192,192106,1,8,0:0:0:0:
288,192,192223,1,8,0:0:0:0:
288,192,192340,1,8,0:0:0:0:
224,192,192808,2,0,L|224:224,8,26.2500010013581
288,192,193511,1,0,0:0:0:0:
288,224,193629,1,8,0:0:0:0:
256,192,193746,5,8,0:0:0:0:
256,192,193863,1,0,0:0:0:0:
256,192,193980,1,8,0:0:0:0:
256,192,194097,1,8,0:0:0:0:
256,192,194215,5,0,0:0:0:0:
288,224,194449,1,8,0:0:0:0:
288,224,194566,1,0,0:0:0:0:
288,224,194683,1,8,0:0:0:0:
352,256,194800,1,8,0:0:0:0:
352,256,194918,1,0,0:0:0:0:
352,256,195152,1,8,0:0:0:0:
256,192,195386,1,0,0:0:0:0:
352,256,195504,1,0,0:0:0:0:
288,192,195621,1,8,0:0:0:0:
288,192,195738,1,0,0:0:0:0:
288,192,195855,1,8,0:0:0:0:
288,192,195972,1,8,0:0:0:0:
288,192,196090,1,0,0:0:0:0:
352,256,196324,1,8,0:0:0:0:
352,256,196441,1,0,0:0:0:0:
352,256,196675,1,8,0:0:0:0:
352,256,196793,1,0,0:0:0:0:
416,288,197027,1,8,0:0:0:0:
352,256,197261,1,0,0:0:0:0:
352,256,197379,1,0,0:0:0:0:
352,256,197496,1,8,0:0:0:0:
352,256,197613,1,0,0:0:0:0:
352,256,197730,1,8,0:0:0:0:
352,256,197847,1,8,0:0:0:0:
288,224,197965,1,0,0:0:0:0:
320,256,198199,1,8,0:0:0:0:
320,224,198316,1,0,0:0:0:0:
320,224,198433,1,8,0:0:0:0:
352,224,198550,1,8,0:0:0:0:
320,224,198668,1,0,0:0:0:0:
320,224,198902,1,8,0:0:0:0:
256,192,199136,1,0,0:0:0:0:
320,192,199254,1,0,0:0:0:0:
288,224,199371,1,8,0:0:0:0:
288,224,199488,1,0,0:0:0:0:
288,224,199722,1,0,0:0:0:0:
288,224,199840,1,8,0:0:0:0:
288,224,199957,1,0,0:0:0:0:
288,224,200074,1,0,0:0:0:0:
288,224,200191,1,8,0:0:0:0:
288,192,200425,1,0,0:0:0:0:
288,192,200543,1,8,0:0:0:0:
288,192,200660,1,0,0:0:0:0:
288,224,200894,1,8,0:0:0:0:
288,224,201011,1,0,0:0:0:0:
288,224,201129,1,0,0:0:0:0:
288,224,201246,1,8,0:0:0:0:
288,224,201363,1,0,0:0:0:0:
288,224,201480,1,8,0:0:0:0:
288,224,201597,1,8,0:0:0:0:
288,224,201715,1,0,0:0:0:0:
288,224,201949,1,8,0:0:0:0:
288,224,202066,1,0,0:0:0:0:
288,224,202183,1,8,0:0:0:0:
288,224,202300,1,8,0:0:0:0:
288,224,202418,1,0,0:0:0:0:
288,224,202652,1,8,0:0:0:0:
288,224,202886,1,0,0:0:0:0:
288,224,203004,1,0,0:0:0:0:
288,224,203121,1,8,0:0:0:0:
288,224,203238,1,0,0:0:0:0:
288,224,203355,1,8,0:0:0:0:
288,224,203472,1,8,0:0:0:0:
288,224,203590,1,0,0:0:0:0:
288,224,203824,1,8,0:0:0:0:
288,224,203941,1,0,0:0:0:0:
320,224,204175,1,8,0:0:0:0:
320,224,204293,1,0,0:0:0:0:
320,224,204527,1,8,0:0:0:0:
320,224,204761,1,0,0:0:0:0:
288,256,204879,1,0,0:0:0:0:
288,256,204996,1,8,0:0:0:0:
320,256,205113,1,0,0:0:0:0:
320,256,205230,1,8,0:0:0:0:
320,256,205347,1,8,0:0:0:0:
320,256,205465,1,0,0:0:0:0:
320,256,205699,1,8,0:0:0:0:
320,256,205816,1,0,0:0:0:0:
320,256,205933,1,8,0:0:0:0:
320,256,206050,1,8,0:0:0:0:
320,256,206168,1,0,0:0:0:0:
352,224,206402,1,8,0:0:0:0:
320,224,206636,1,0,0:0:0:0:
320,224,206754,1,0,0:0:0:0:
320,224,206871,1,8,0:0:0:0:
320,224,206988,1,0,0:0:0:0:
352,224,207105,1,0,0:0:0:0:
352,224,207222,1,8,0:0:0:0:
352,224,207340,1,0,0:0:0:0:
352,224,207574,1,8,0:0:0:0:
352,224,207808,1,0,0:0:0:0:
352,256,208043,1,8,0:0:0:0:
352,256,208277,1,0,0:0:0:0:
352,256,208511,1,8,0:0:0:0:
352,256,208746,1,0,0:0:0:0:
352,256,208980,1,8,0:0:0:0:
352,256,209215,1,0,0:0:0:0:
320,256,209449,1,8,0:0:0:0:
384,256,209683,1,0,0:0:0:0:
384,256,209918,1,8,0:0:0:0:
384,256,210152,1,0,0:0:0:0:
384,256,210386,1,8,0:0:0:0:
384,256,210621,1,0,0:0:0:0:
384,256,210855,1,8,0:0:0:0:
384,256,211090,1,0,0:0:0:0:
384,256,211207,1,0,0:0:0:0:
384,256,211324,1,0,0:0:0:0:
384,256,211441,1,0,0:0:0:0:
384,256,211558,1,0,0:0:0:0:
384,256,211675,1,0,0:0:0:0:
384,256,211793,1,0,0:0:0:0:
384,256,211910,1,0,0:0:0:0:
384,256,212027,1,0,0:0:0:0:
384,256,212144,1,0,0:0:0:0:
384,256,212261,1,0,0:0:0:0:
384,256,212379,1,0,0:0:0:0:
384,256,212496,1,0,0:0:0:0:
384,256,212613,1,0,0:0:0:0:
384,256,212730,1,0,0:0:0:0:
384,224,212847,1,0,0:0:0:0:
256,192,212965,12,0,214840,0:0:0:0:
256,192,215074,5,8,0:0:0:0:
288,224,215308,1,8,0:0:0:0:
256,192,215543,1,8,0:0:0:0:
256,224,215660,1,8,0:0:0:0:
256,224,215777,1,0,0:0:0:0:
256,224,216011,1,8,0:0:0:0:
256,224,216246,1,0,0:0:0:0:
320,224,216304,1,0,0:0:0:0:
352,256,216363,1,0,0:0:0:0:
320,224,216422,1,0,0:0:0:0:
320,224,216480,1,8,0:0:0:0:
352,256,216597,1,8,0:0:0:0:
416,288,216715,1,4,0:0:0:0:
288,192,216949,1,8,0:0:0:0:
288,192,217066,1,8,0:0:0:0:
288,192,217183,1,0,0:0:0:0:
320,224,217418,1,0,0:0:0:0:
320,224,217535,1,8,0:0:0:0:
320,224,217652,1,0,0:0:0:0:
352,192,217769,1,0,0:0:0:0:
352,192,217828,1,0,0:0:0:0:
352,192,217886,1,8,0:0:0:0:
352,224,218004,1,8,0:0:0:0:
352,224,218121,1,0,0:0:0:0:
320,224,218355,1,8,0:0:0:0:
320,224,218472,1,0,0:0:0:0:
320,256,218590,1,8,0:0:0:0:
352,224,218823,1,8,0:0:0:0:
352,224,218940,1,8,0:0:0:0:
352,224,219058,1,0,0:0:0:0:
352,224,219293,1,0,0:0:0:0:
352,224,219410,1,8,0:0:0:0:
352,224,219527,1,0,0:0:0:0:
352,224,219644,1,0,0:0:0:0:
352,224,219703,1,0,0:0:0:0:
352,224,219761,1,8,0:0:0:0:
352,224,219879,1,8,0:0:0:0:
384,256,219996,1,0,0:0:0:0:
384,256,220114,1,8,0:0:0:0:
384,256,220172,1,0,0:0:0:0:
384,256,220231,1,8,0:0:0:0:
384,256,220348,1,8,0:0:0:0:
416,256,220465,1,0,0:0:0:0:
384,256,220699,1,8,0:0:0:0:
384,256,220816,1,8,0:0:0:0:
384,256,220933,1,0,0:0:0:0:
384,256,221168,1,0,0:0:0:0:
384,256,221285,1,8,0:0:0:0:
384,256,221402,1,0,0:0:0:0:
416,256,221519,1,0,0:0:0:0:
416,256,221578,1,0,0:0:0:0:
416,256,221636,1,8,0:0:0:0:
416,256,221754,1,8,0:0:0:0:
416,256,221871,1,0,0:0:0:0:
416,256,222105,1,8,0:0:0:0:
416,256,222222,1,0,0:0:0:0:
416,256,222340,1,8,0:0:0:0:
416,256,222574,1,8,0:0:0:0:
416,256,222691,1,8,0:0:0:0:
416,256,222808,1,0,0:0:0:0:
416,256,223043,1,0,0:0:0:0:
416,256,223160,1,8,0:0:0:0:
416,256,223277,1,0,0:0:0:0:
416,256,223394,1,0,0:0:0:0:
448,256,223511,1,8,0:0:0:0:
448,256,223570,1,8,0:0:0:0:
448,256,223629,1,8,0:0:0:0:
448,256,223687,1,8,0:0:0:0:
448,256,223746,1,0,0:0:0:0:
448,256,223863,1,0,0:0:0:0:
448,256,223980,1,8,0:0:0:0:
448,256,224039,1,8,0:0:0:0:
448,256,224097,1,8,0:0:0:0:
448,256,224156,1,8,0:0:0:0:
448,256,224215,1,4,0:0:0:0:
352,192,224449,1,8,0:0:0:0:
352,192,224566,1,8,0:0:0:0:
352,192,224684,1,0,0:0:0:0:
352,192,224919,1,0,0:0:0:0:
352,224,225036,1,8,0:0:0:0:
352,224,225153,1,0,0:0:0:0:
352,224,225270,1,0,0:0:0:0:
352,224,225329,1,0,0:0:0:0:
352,224,225387,1,8,0:0:0:0:
352,224,225505,1,8,0:0:0:0:
352,224,225622,1,0,0:0:0:0:
320,224,225856,1,8,0:0:0:0:
320,224,225973,1,0,0:0:0:0:
320,256,226091,1,8,0:0:0:0:
320,224,226325,1,8,0:0:0:0:
320,224,226442,1,8,0:0:0:0:
320,224,226559,1,0,0:0:0:0:
320,224,226794,1,0,0:0:0:0:
320,224,226911,1,8,0:0:0:0:
320,224,227028,1,0,0:0:0:0:
320,224,227145,1,0,0:0:0:0:
320,224,227204,1,0,0:0:0:0:
320,224,227262,1,8,0:0:0:0:
352,224,227380,1,8,0:0:0:0:
352,224,227497,1,0,0:0:0:0:
352,224,227614,1,8,0:0:0:0:
352,224,227673,1,0,0:0:0:0:
352,224,227731,1,8,0:0:0:0:
352,224,227848,1,8,0:0:0:0:
352,224,227966,1,0,0:0:0:0:
352,224,228083,1,8,0:0:0:0:
352,224,228200,1,8,0:0:0:0:
352,224,228317,1,0,0:0:0:0:
352,224,228434,1,8,0:0:0:0:
384,224,228493,1,8,0:0:0:0:
384,224,228551,1,0,0:0:0:0:
352,224,228669,1,8,0:0:0:0:
352,224,228786,1,8,0:0:0:0:
352,224,228903,1,0,0:0:0:0:
352,224,229020,1,8,0:0:0:0:
352,224,229137,1,8,0:0:0:0:
352,224,229196,1,8,0:0:0:0:
352,224,229255,1,0,0:0:0:0:
352,256,229372,1,8,0:0:0:0:
352,224,229489,1,0,0:0:0:0:
352,224,229606,1,8,0:0:0:0:
352,224,229723,1,8,0:0:0:0:
352,224,229841,1,0,0:0:0:0:
352,224,229958,1,0,0:0:0:0:
352,224,230016,1,0,0:0:0:0:
416,256,230075,1,8,0:0:0:0:
352,224,230192,1,8,0:0:0:0:
416,224,230309,1,0,0:0:0:0:
416,224,230426,1,8,0:0:0:0:
384,224,230485,1,0,0:0:0:0:
416,224,230544,1,8,0:0:0:0:
416,256,230661,1,8,0:0:0:0:
416,256,230778,1,0,0:0:0:0:
416,256,231011,1,0,0:0:0:0:
416,256,231129,1,8,0:0:0:0:
416,256,231246,1,0,0:0:0:0:
416,256,231363,1,0,0:0:0:0:
384,256,231480,1,8,0:0:0:0:
448,288,231597,1,8,0:0:0:0:
416,320,231715,1,0,0:0:0:0:
416,288,231949,1,8,0:0:0:0:
288,256,232066,1,8,0:0:0:0:
320,256,232183,1,0,0:0:0:0:
352,256,232418,5,0,0:0:0:0:
352,256,232535,5,8,0:0:0:0:
384,256,232652,5,0,0:0:0:0:
352,256,232769,5,0,0:0:0:0:
352,256,232828,5,0,0:0:0:0:
352,256,232887,5,8,0:0:0:0:
384,256,233004,5,8,0:0:0:0:
352,256,233121,5,0,0:0:0:0:
384,256,233355,5,8,0:0:0:0:
384,256,233472,5,0,0:0:0:0:
384,256,233590,5,8,0:0:0:0:
384,288,233824,5,8,0:0:0:0:
384,288,233941,5,8,0:0:0:0:
384,288,234058,5,0,0:0:0:0:
384,256,234293,5,0,0:0:0:0:
384,256,234410,5,8,0:0:0:0:
384,256,234527,5,0,0:0:0:0:
384,256,234644,5,0,0:0:0:0:
384,256,234703,5,0,0:0:0:0:
384,256,234761,5,8,0:0:0:0:
384,256,234879,5,8,0:0:0:0:
384,288,234996,5,0,0:0:0:0:
384,256,235113,5,8,0:0:0:0:
384,256,235171,5,0,0:0:0:0:
384,256,235230,5,8,0:0:0:0:
384,256,235347,5,8,0:0:0:0:
384,256,235464,5,0,0:0:0:0:
384,256,235699,5,8,0:0:0:0:
384,256,235816,5,8,0:0:0:0:
384,256,235933,5,0,0:0:0:0:
384,256,236168,5,0,0:0:0:0:
384,256,236285,5,8,0:0:0:0:
384,256,236402,5,0,0:0:0:0:
384,224,236519,5,0,0:0:0:0:
384,224,236578,5,0,0:0:0:0:
384,224,236636,5,8,0:0:0:0:
384,256,236754,5,8,0:0:0:0:
384,224,236871,5,0,0:0:0:0:
384,224,237105,5,8,0:0:0:0:
384,224,237222,5,0,0:0:0:0:
384,256,237340,5,8,0:0:0:0:
384,256,237574,5,8,0:0:0:0:
384,256,237691,5,8,0:0:0:0:
384,256,237808,5,0,0:0:0:0:
448,288,238043,5,0,0:0:0:0:
448,288,238160,5,8,0:0:0:0:
448,288,238277,5,0,0:0:0:0:
448,288,238395,5,0,0:0:0:0:
320,192,238513,5,8,0:0:0:0:
320,192,238572,5,8,0:0:0:0:
320,192,238630,5,8,0:0:0:0:
320,192,238689,5,8,0:0:0:0:
320,192,238747,5,0,0:0:0:0:
320,192,238865,5,0,0:0:0:0:
320,192,238982,5,8,0:0:0:0:
320,192,239040,5,8,0:0:0:0:
320,192,239099,5,8,0:0:0:0:
320,192,239158,5,8,0:0:0:0:
320,192,239216,5,4,0:0:0:0:
352,192,239449,5,8,0:0:0:0:
352,192,239566,5,8,0:0:0:0:
352,192,239684,5,0,0:0:0:0:
352,192,239919,5,0,0:0:0:0:
352,224,240036,5,8,0:0:0:0:
352,224,240153,5,0,0:0:0:0:
352,224,240270,5,0,0:0:0:0:
352,224,240329,5,0,0:0:0:0:
352,224,240387,5,8,0:0:0:0:
352,224,240505,5,8,0:0:0:0:
352,224,240622,5,0,0:0:0:0:
320,224,240856,5,8,0:0:0:0:
320,224,240973,5,0,0:0:0:0:
320,256,241091,5,8,0:0:0:0:
320,224,241325,5,8,0:0:0:0:
352,224,241441,1,8,0:0:0:0:
320,224,241558,5,0,0:0:0:0:
320,224,241793,1,8,0:0:0:0:
320,224,242027,1,4,0:0:0:0:
320,224,242379,1,12,0:0:0:0:
320,224,242730,1,12,0:0:0:0:
288,224,242965,1,0,0:0:0:0:
320,224,243199,1,8,0:0:0:0:
320,224,243316,1,0,0:0:0:0:
320,224,243550,1,0,0:0:0:0:
320,224,243668,1,8,0:0:0:0:
320,192,244019,1,0,0:0:0:0:
320,192,244078,1,0,0:0:0:0:
320,192,244136,1,0,0:0:0:0:
320,224,244195,1,0,0:0:0:0:
320,224,244254,1,0,0:0:0:0:
320,224,244312,1,0,0:0:0:0:
320,224,244371,1,8,0:0:0:0:
320,224,244488,1,8,0:0:0:0:
320,224,244605,1,8,0:0:0:0:
320,224,244722,1,8,0:0:0:0:
320,224,244840,1,4,0:0:0:0:
320,224,245074,1,8,0:0:0:0:
320,224,245191,1,8,0:0:0:0:
320,224,245308,1,0,0:0:0:0:
352,256,245543,1,0,0:0:0:0:
352,256,245660,1,8,0:0:0:0:
384,256,245777,1,0,0:0:0:0:
352,256,245894,1,0,0:0:0:0:
352,256,245953,1,0,0:0:0:0:
352,256,246012,1,8,0:0:0:0:
384,256,246129,1,8,0:0:0:0:
352,256,246246,1,0,0:0:0:0:
384,256,246363,1,8,0:0:0:0:
384,256,246480,1,8,0:0:0:0:
384,256,246597,1,8,0:0:0:0:
384,256,246715,1,0,0:0:0:0:
384,288,246949,1,8,0:0:0:0:
384,288,247066,1,8,0:0:0:0:
384,288,247183,1,0,0:0:0:0:
384,256,247418,1,0,0:0:0:0:
384,256,247535,1,8,0:0:0:0:
384,256,247652,1,0,0:0:0:0:
384,256,247769,1,0,0:0:0:0:
384,256,247828,1,0,0:0:0:0:
384,256,247886,1,8,0:0:0:0:
384,256,248004,1,8,0:0:0:0:
384,288,248121,1,0,0:0:0:0:
384,256,248238,1,8,0:0:0:0:
384,256,248296,1,0,0:0:0:0:
384,256,248355,1,8,0:0:0:0:
384,256,248472,1,8,0:0:0:0:
384,256,248589,1,0,0:0:0:0:
384,256,248824,1,8,0:0:0:0:
384,256,248941,1,8,0:0:0:0:
384,256,249058,1,0,0:0:0:0:
384,256,249293,1,0,0:0:0:0:
384,256,249410,1,8,0:0:0:0:
384,256,249527,1,0,0:0:0:0:
384,224,249644,1,0,0:0:0:0:
384,224,249703,1,0,0:0:0:0:
384,224,249761,1,8,0:0:0:0:
384,256,249879,1,8,0:0:0:0:
384,224,249996,1,0,0:0:0:0:
384,224,250113,1,8,0:0:0:0:
384,224,250230,1,8,0:0:0:0:
384,224,250347,1,8,0:0:0:0:
384,256,250465,1,0,0:0:0:0:
384,256,250699,1,8,0:0:0:0:
384,256,250816,1,8,0:0:0:0:
384,256,250933,1,0,0:0:0:0:
448,288,251168,1,0,0:0:0:0:
448,288,251285,1,8,0:0:0:0:
448,288,251402,1,0,0:0:0:0:
448,288,251520,1,0,0:0:0:0:
320,192,251638,1,8,0:0:0:0:
320,192,251697,1,8,0:0:0:0:
320,192,251755,1,8,0:0:0:0:
320,192,251814,1,8,0:0:0:0:
320,192,251872,1,0,0:0:0:0:
320,192,251990,1,0,0:0:0:0:
320,192,252107,1,8,0:0:0:0:
320,192,252165,1,8,0:0:0:0:
320,192,252224,1,8,0:0:0:0:
320,192,252283,1,8,0:0:0:0:
320,192,252341,1,4,0:0:0:0:
256,192,253511,1,0,0:0:0:0:
256,192,253746,1,12,0:0:0:0:
288,192,254215,1,0,0:0:0:0:
240,200,254683,1,0,0:0:0:0:
240,200,254800,1,8,0:0:0:0:
256,216,255035,1,8,0:0:0:0:
276,208,255269,1,0,0:0:0:0:
276,208,255386,1,8,0:0:0:0:
276,208,255621,1,8,0:0:0:0:
276,208,255855,1,0,0:0:0:0:
276,208,256090,1,8,0:0:0:0:
276,208,256324,1,8,0:0:0:0:
292,208,256558,1,0,0:0:0:0:
292,208,256675,1,8,0:0:0:0:
292,208,256910,1,8,0:0:0:0:
292,212,257144,1,0,0:0:0:0:
292,212,257261,1,8,0:0:0:0:
292,208,257496,1,4,0:0:0:0:
308,212,257965,1,8,0:0:0:0:
240,200,258433,1,0,0:0:0:0:
240,200,258550,1,8,0:0:0:0:
256,216,258785,1,8,0:0:0:0:
276,208,259019,1,0,0:0:0:0:
276,208,259136,1,8,0:0:0:0:
276,208,259371,1,8,0:0:0:0:
276,208,259605,1,0,0:0:0:0:
276,208,259840,1,8,0:0:0:0:
276,208,260074,1,8,0:0:0:0:
292,208,260308,1,8,0:0:0:0:
292,208,260425,1,8,0:0:0:0:
292,208,260660,1,0,0:0:0:0:
292,212,260894,1,8,0:0:0:0:
292,212,261011,1,8,0:0:0:0:
292,208,261246,1,4,0:0:0:0:
320,224,261715,1,0,0:0:0:0:
320,224,261949,1,8,0:0:0:0:
320,224,262183,1,0,0:0:0:0:
320,224,262300,1,8,0:0:0:0:
320,224,262535,1,0,0:0:0:0:
352,224,262652,1,8,0:0:0:0:
352,224,262711,1,8,0:0:0:0:
352,224,262769,1,0,0:0:0:0:
352,224,262886,1,8,0:0:0:0:
352,256,263004,1,8,0:0:0:0:
352,256,263121,1,0,0:0:0:0:
384,256,263355,1,8,0:0:0:0:
384,256,263590,1,0,0:0:0:0:
384,256,263707,1,0,0:0:0:0:
384,256,263824,1,8,0:0:0:0:
384,256,263941,1,0,0:0:0:0:
384,256,264175,1,8,0:0:0:0:
384,256,264410,1,0,0:0:0:0:
384,256,264644,1,8,0:0:0:0:
384,256,264761,1,0,0:0:0:0:
384,256,264820,1,0,0:0:0:0:
384,256,264879,1,0,0:0:0:0:
384,256,264996,1,8,0:0:0:0:
352,256,265465,1,0,0:0:0:0:
352,256,265699,1,8,0:0:0:0:
352,256,265933,1,0,0:0:0:0:
352,256,266050,1,8,0:0:0:0:
352,256,266285,1,0,0:0:0:0:
352,256,266402,1,8,0:0:0:0:
352,256,266461,1,8,0:0:0:0:
352,256,266519,1,0,0:0:0:0:
352,256,266636,1,8,0:0:0:0:
352,256,266754,1,8,0:0:0:0:
352,256,266871,1,0,0:0:0:0:
352,256,266988,1,0,0:0:0:0:
352,256,267105,1,8,0:0:0:0:
352,256,267222,1,0,0:0:0:0:
352,256,267340,1,8,0:0:0:0:
352,256,267398,1,8,0:0:0:0:
352,256,267457,1,8,0:0:0:0:
352,256,267515,1,8,0:0:0:0:
352,288,267574,1,0,0:0:0:0:
352,256,267691,1,0,0:0:0:0:
384,256,267808,1,8,0:0:0:0:
384,288,267925,1,0,0:0:0:0:
384,288,268043,1,8,0:0:0:0:
384,288,268160,1,8,0:0:0:0:
384,288,268277,1,0,0:0:0:0:
384,288,268394,1,0,0:0:0:0:
384,288,268511,1,8,0:0:0:0:
384,288,268629,1,0,0:0:0:0:
384,288,268746,1,8,0:0:0:0:
384,288,268980,1,8,0:0:0:0:
236,192,269215,5,0,0:0:0:0:
240,200,269683,1,0,0:0:0:0:
240,200,269800,1,8,0:0:0:0:
256,216,270035,1,8,0:0:0:0:
276,208,270269,1,0,0:0:0:0:
276,208,270386,1,8,0:0:0:0:
276,208,270621,1,8,0:0:0:0:
276,208,270855,1,0,0:0:0:0:
276,208,271090,1,8,0:0:0:0:
276,208,271324,1,8,0:0:0:0:
292,208,271558,1,0,0:0:0:0:
292,208,271675,1,8,0:0:0:0:
292,208,271910,1,8,0:0:0:0:
292,212,272144,1,0,0:0:0:0:
292,212,272261,1,8,0:0:0:0:
292,208,272496,1,0,0:0:0:0:
308,212,272965,1,8,0:0:0:0:
240,200,273433,1,0,0:0:0:0:
240,200,273550,1,8,0:0:0:0:
256,216,273785,1,8,0:0:0:0:
276,208,274019,1,0,0:0:0:0:
276,208,274136,1,8,0:0:0:0:
276,208,274371,1,8,0:0:0:0:
276,208,274605,1,0,0:0:0:0:
276,208,274840,1,8,0:0:0:0:
276,208,275074,1,8,0:0:0:0:
292,208,275308,1,8,0:0:0:0:
292,208,275425,1,8,0:0:0:0:
292,208,275660,1,0,0:0:0:0:
292,212,275894,1,8,0:0:0:0:
292,212,276011,1,8,0:0:0:0:
292,208,276246,1,0,0:0:0:0:
288,224,276715,1,8,0:0:0:0:
240,200,277183,1,0,0:0:0:0:
240,200,277300,1,8,0:0:0:0:
256,216,277535,1,8,0:0:0:0:
276,208,277769,1,0,0:0:0:0:
276,208,277886,1,8,0:0:0:0:
276,208,278121,1,8,0:0:0:0:
276,208,278355,1,0,0:0:0:0:
276,208,278590,1,8,0:0:0:0:
276,208,278824,1,8,0:0:0:0:
292,208,279058,1,0,0:0:0:0:
292,208,279175,1,8,0:0:0:0:
292,208,279410,1,8,0:0:0:0:
292,212,279644,1,0,0:0:0:0:
292,212,279761,1,8,0:0:0:0:
292,208,279996,1,0,0:0:0:0:
352,224,280465,1,8,0:0:0:0:
240,200,280933,1,0,0:0:0:0:
240,200,281050,1,8,0:0:0:0:
256,216,281285,1,8,0:0:0:0:
276,208,281519,1,0,0:0:0:0:
276,208,281636,1,8,0:0:0:0:
276,208,281871,1,8,0:0:0:0:
276,208,282105,1,0,0:0:0:0:
276,208,282340,1,8,0:0:0:0:
276,208,282574,1,8,0:0:0:0:
292,208,282808,1,8,0:0:0:0:
292,208,282925,1,8,0:0:0:0:
292,208,283160,1,0,0:0:0:0:
292,212,283394,1,8,0:0:0:0:
292,212,283511,1,8,0:0:0:0:
292,208,283746,1,0,0:0:0:0:
288,224,283863,1,0,0:0:0:0:
288,224,283980,1,8,0:0:0:0:
288,192,284097,1,8,0:0:0:0:
