osu file format v14

[General]
AudioFilename: audio.mp3
AudioLeadIn: 0
PreviewTime: 268607
Countdown: 0
SampleSet: Soft
StackLeniency: 0.4
Mode: 0
LetterboxInBreaks: 0
WidescreenStoryboard: 0

[Editor]
Bookmarks: 11647,60738,88010,131647,153380,175283,180738,216192,232556,243465,248834,251561,254374,270056,294601,332783
DistanceSpacing: 1.7
BeatDivisor: 8
GridSize: 4
TimelineZoom: 4.399998

[Metadata]
Title:I'm glad you're evil too
TitleUnicode:きみも悪い人でよかった
Artist:PinocchioP
ArtistUnicode:ピノキオピー
Creator:Monstrata
Version:Devious
Source:
Tags:hatsune miku 初音ミク hatsune_miku vocaloid ボーカロイド yuma saito kimi mo warui hito de yokatta
BeatmapID:1301658
BeatmapSetID:617301

[Difficulty]
HPDrainRate:5
CircleSize:4
OverallDifficulty:8
ApproachRate:9
SliderMultiplier:3.2
SliderTickRate:1

[Events]
//Background and Video events
0,0,"evil.jpg",0,0
//Break Periods
2,33495,38319
2,120738,131047
2,232756,242865
//Storyboard Layer 0 (Background)
//Storyboard Layer 1 (Fail)
//Storyboard Layer 2 (Pass)
//Storyboard Layer 3 (Foreground)
//Storyboard Sound Samples

[TimingPoints]
738,681.818181818182,4,2,1,25,1,0
738,-200,4,2,1,25,0,0
11988,-166.666666666667,4,2,1,25,0,0
38919,-166.666666666667,4,2,2,25,0,0
39019,-166.666666666667,4,2,1,25,0,0
41647,-166.666666666667,4,2,2,25,0,0
41747,-166.666666666667,4,2,1,25,0,0
44374,-166.666666666667,4,2,2,25,0,0
44474,-166.666666666667,4,2,1,25,0,0
47101,-166.666666666667,4,2,2,25,0,0
47201,-166.666666666667,4,2,1,25,0,0
49828,-166.666666666667,4,2,2,25,0,0
49928,-166.666666666667,4,2,1,25,0,0
52556,-166.666666666667,4,2,2,25,0,0
52656,-166.666666666667,4,2,1,25,0,0
55283,-166.666666666667,4,2,2,25,0,0
55383,-166.666666666667,4,2,1,25,0,0
58010,-166.666666666667,4,2,2,25,0,0
58110,-166.666666666667,4,2,1,25,0,0
60738,-166.666666666667,4,2,2,25,0,0
60838,-166.666666666667,4,2,1,25,0,0
86647,-166.666666666667,4,2,2,25,0,0
86747,-166.666666666667,4,2,1,25,0,0
88010,-166.666666666667,4,2,2,25,0,0
88110,-166.666666666667,4,2,1,25,0,0
90738,-166.666666666667,4,2,2,25,0,0
90838,-166.666666666667,4,2,1,25,0,0
93465,-166.666666666667,4,2,2,25,0,0
93565,-166.666666666667,4,2,1,25,0,0
96192,-166.666666666667,4,2,2,25,0,0
96292,-166.666666666667,4,2,1,25,0,0
98919,-166.666666666667,4,2,2,25,0,0
99019,-166.666666666667,4,2,1,25,0,0
101647,-166.666666666667,4,2,2,25,0,0
101747,-166.666666666667,4,2,1,25,0,0
104374,-166.666666666667,4,2,2,25,0,0
104474,-166.666666666667,4,2,1,25,0,0
105738,-166.666666666667,4,2,2,25,0,0
105838,-166.666666666667,4,2,1,25,0,0
107101,-166.666666666667,4,2,2,25,0,0
107201,-166.666666666667,4,2,1,25,0,0
109828,-166.666666666667,4,2,2,25,0,0
109928,-166.666666666667,4,2,1,25,0,0
112556,-166.666666666667,4,2,2,25,0,0
112656,-166.666666666667,4,2,1,25,0,0
115283,-166.666666666667,4,2,2,25,0,0
115383,-166.666666666667,4,2,1,25,0,0
116647,-200,4,2,1,25,0,0
118010,-200,4,2,2,25,0,0
118110,-200,4,2,1,25,0,0
131647,-142.857142857143,4,2,1,35,0,0
153465,-142.857142857143,4,2,2,45,0,0
153565,-142.857142857143,4,2,1,45,0,0
156192,-142.857142857143,4,2,2,45,0,0
156292,-142.857142857143,4,2,1,45,0,0
158919,-142.857142857143,4,2,2,45,0,0
159019,-142.857142857143,4,2,1,45,0,0
161647,-142.857142857143,4,2,2,45,0,0
161747,-142.857142857143,4,2,1,45,0,0
164374,-142.857142857143,4,2,2,45,0,0
164474,-142.857142857143,4,2,1,45,0,0
167101,-142.857142857143,4,2,2,45,0,0
167201,-142.857142857143,4,2,1,45,0,0
169828,-142.857142857143,4,2,2,45,0,0
169928,-142.857142857143,4,2,1,45,0,0
172556,-142.857142857143,4,2,2,45,0,0
172656,-142.857142857143,4,2,1,45,0,0
175283,-142.857142857143,4,2,1,35,0,0
178010,-142.857142857143,4,2,2,45,0,0
178110,-142.857142857143,4,2,1,45,0,0
179374,-142.857142857143,4,2,2,45,0,0
179474,-142.857142857143,4,2,1,45,0,0
180738,-125,4,2,1,50,0,0
213465,-166.666666666667,4,2,1,35,0,0
216192,-117.647058823529,4,2,1,50,0,0
243465,-117.647058823529,4,2,1,35,0,0
248919,-117.647058823529,4,2,1,50,0,0
254374,-117.647058823529,4,2,1,35,0,0
254459,-117.647058823529,4,2,1,25,0,0
257101,-200,4,2,1,25,0,0
268693,681.818181818182,4,2,2,20,1,0
268693,-200,4,2,2,20,0,0
268778,-200,4,2,2,5,0,0
270056,681.818181818182,4,2,3,60,1,1
270056,-90.9090909090909,4,2,3,60,0,1
291874,-200,4,2,3,60,0,1
293237,-133.333333333333,4,2,3,60,0,1
293919,-90.9090909090909,4,2,3,60,0,1
293962,-90.9090909090909,4,2,3,5,0,1
294090,-90.9090909090909,4,2,3,60,0,1
294132,-90.9090909090909,4,2,3,5,0,1
294260,-90.9090909090909,4,2,3,60,0,1
294303,-90.9090909090909,4,2,3,5,0,1
294431,-90.9090909090909,4,2,3,60,0,1
294473,-90.9090909090909,4,2,3,5,0,1
294601,-90.9090909090909,4,2,3,70,0,1
332101,-90.9090909090909,4,2,3,70,0,0
332783,-90.9090909090909,4,2,3,80,0,1
354601,-133.333333333333,4,2,3,80,0,0

[Colours]
Combo1 : 255,165,74
Combo2 : 185,115,255
Combo3 : 140,255,255
Combo4 : 255,149,255

[HitObjects]
164,104,738,6,0,P|173:121|179:140,2,40,2|0|0,0:0|0:0|0:0,0:0:0:0:
138,204,1249,2,0,P|175:215|214:207,1,80,2|0,0:0|0:0,0:0:0:0:
270,149,1760,2,0,L|309:147,1,40
363,206,2101,6,0,L|355:245,2,40,2|0|0,0:0|0:0|0:0,0:0:0:0:
391,317,2613,2,0,P|352:324|313:313,1,80,2|0,0:0|0:0,0:0:0:0:
236,296,3124,2,0,L|246:352,1,40
162,337,3465,6,0,L|172:393,2,40,2|0|0,0:0|0:0|0:0,0:0:0:0:
81,300,3976,2,0,P|111:275|128:236,1,80,2|0,0:0|0:0,0:0:0:0:
40,184,4488,2,0,L|47:223,1,40
115,164,4828,6,0,L|122:124,1,40,2|0,0:0|0:0,0:0:0:0:
197,153,5169,2,0,L|236:147,1,40,2|0,0:0|0:0,0:0:0:0:
194,33,5510,2,0,L|186:72,1,40,2|0,0:0|0:0,0:0:0:0:
274,30,5851,2,0,L|266:69,1,40,2|0,0:0|0:0,0:0:0:0:
317,132,6192,6,0,L|356:137,2,40,2|0|0,0:0|0:0|0:0,0:0:0:0:
416,84,6703,2,0,P|433:119|432:159,1,80,2|0,0:0|0:0,0:0:0:0:
374,215,7215,2,0,P|363:231|358:253,1,40
400,318,7556,6,0,L|449:316,2,40,2|0|0,0:0|0:0|0:0,0:0:0:0:
349,383,8067,2,0,P|321:354|283:346,1,80,2|0,0:0|0:0,0:0:0:0:
205,361,8578,2,0,L|198:306,1,40
261,270,8919,6,0,L|266:230,2,40,2|0|0,0:0|0:0|0:0,0:0:0:0:
331,184,9431,2,0,P|301:158|262:150,1,80,2|0,0:0|0:0,0:0:0:0:
197,197,9942,2,0,L|153:200,1,40
90,131,10283,6,0,L|109:133,3,20,2|2|2|2,0:0|0:0|0:0|0:0,0:0:0:0:
110,133,11306,6,0,P|147:119|185:128,1,80,0|2,0:0|0:0,0:0:0:0:
185,129,11988,5,0,0:0:0:0:
151,203,12158,1,0,0:0:0:0:
185,277,12328,1,2,0:0:0:0:
264,296,12499,2,0,P|287:299|311:295,1,47.9999985351563
366,235,12840,6,0,P|389:231|413:235,1,47.9999985351563,2|0,0:0|0:0,0:0:0:0:
483,193,13181,1,2,0:0:0:0:
441,122,13351,2,0,L|436:74,2,47.9999985351563,2|0|0,0:0|0:0|0:0,0:0:0:0:
362,147,13863,1,0,0:0:0:0:
283,172,14033,2,0,L|278:124,1,47.9999985351563
203,196,14374,6,0,P|227:236|270:256,1,95.9999970703126,2|0,0:0|0:0,0:0:0:0:
250,335,14885,2,0,P|297:333|336:306,1,95.9999970703126,2|0,0:0|0:0,0:0:0:0:
394,249,15397,2,0,L|460:253,1,47.9999985351563
466,173,15738,5,2,0:0:0:0:
429,100,15908,1,0,0:0:0:0:
348,112,16078,1,0,0:0:0:0:
334,192,16249,1,0,0:0:0:0:
253,203,16419,1,2,0:0:0:0:
217,130,16590,1,0,0:0:0:0:
276,73,16760,1,0,0:0:0:0:
348,112,16931,1,0,0:0:0:0:
334,192,17101,6,0,L|346:261,1,47.9999985351563,2|0,0:0|0:0,0:0:0:0:
294,306,17442,1,0,0:0:0:0:
212,316,17613,1,0,0:0:0:0:
158,254,17783,1,2,0:0:0:0:
82,284,17953,2,0,L|31:273,1,47.9999985351563
65,197,18294,1,2,0:0:0:0:
105,124,18465,5,0,0:0:0:0:
188,122,18635,1,2,0:0:0:0:
231,193,18806,1,2,0:0:0:0:
190,266,18976,2,0,P|185:289|187:312,1,47.9999985351563
267,296,19317,1,0,0:0:0:0:
307,223,19488,2,0,P|313:199|311:176,1,47.9999985351563
259,112,19828,6,0,P|314:95|364:114,1,95.9999970703126,2|0,0:0|0:0,0:0:0:0:
377,26,20340,2,0,P|420:65|428:117,1,95.9999970703126,2|0,0:0|0:0,0:0:0:0:
506,127,20851,2,0,L|494:191,1,47.9999985351563
456,245,21192,5,2,0:0:0:0:
380,275,21363,1,0,0:0:0:0:
305,242,21533,1,0,0:0:0:0:
275,166,21703,1,0,0:0:0:0:
200,133,21874,1,2,0:0:0:0:
123,163,22044,1,0,0:0:0:0:
91,238,22215,1,0,0:0:0:0:
121,315,22385,1,0,0:0:0:0:
196,347,22556,6,0,L|266:338,1,47.9999985351563,2|0,0:0|0:0,0:0:0:0:
306,288,22897,1,0,0:0:0:0:
360,348,23067,1,0,0:0:0:0:
422,295,23238,2,0,L|517:282,1,95.9999970703126,2|0,0:0|0:0,0:0:0:0:
509,201,23749,5,2,0:0:0:0:
456,138,23919,1,0,0:0:0:0:
483,60,24090,2,0,P|486:37|482:13,1,47.9999985351563,2|2,0:0|0:0,0:0:0:0:
404,36,24431,1,0,0:0:0:0:
376,113,24601,1,0,0:0:0:0:
294,127,24772,2,0,P|271:123|251:110,2,47.9999985351563
347,191,25283,6,0,P|355:213|355:237,1,47.9999985351563,2|0,0:0|0:3,0:3:0:0:
292,289,25624,1,0,0:0:0:0:
228,237,25794,1,0,0:0:0:0:
178,302,25965,1,2,0:0:0:0:
148,225,26135,1,0,0:0:0:0:
72,256,26306,1,0,0:0:0:0:
85,174,26476,1,0,0:0:0:0:
3,163,26647,5,2,0:0:0:0:
55,99,26817,2,0,P|105:95|154:129,1,95.9999970703126,2|0,0:0|0:0,0:0:0:0:
172,193,27328,1,2,0:0:0:0:
245,226,27499,1,2,0:0:0:0:
321,197,27669,1,0,0:0:0:0:
354,124,27840,1,0,0:0:0:0:
428,95,28010,6,0,P|471:98|481:104,1,47.9999985351563,2|0,0:0|0:0,0:0:0:0:
511,172,28351,1,0,0:0:0:0:
466,239,28522,1,0,0:0:0:0:
385,233,28692,1,2,0:0:0:0:
320,180,28863,2,0,P|297:178|274:185,1,47.9999985351563
229,253,29203,1,2,0:0:0:0:
162,300,29374,6,0,P|138:302|115:295,1,47.9999985351563,0|2,0:0|0:0,0:0:0:0:
61,233,29715,1,2,0:0:0:0:
115,170,29885,2,0,B|162:157|163:182|211:168,1,95.9999970703126
262,103,30397,2,0,P|266:80|262:56,1,47.9999985351563
194,9,30738,6,0,P|147:4|103:22,1,95.9999970703126,2|0,0:0|0:0,0:0:0:0:
42,77,31249,2,0,P|66:117|64:164,1,95.9999970703126,2|0,0:0|0:0,0:0:0:0:
6,222,31760,2,0,L|16:284,1,47.9999985351563
72,326,32101,5,2,0:0:0:0:
152,340,32272,1,0,0:0:0:0:
194,270,32442,1,0,0:0:0:0:
270,242,32613,1,0,0:0:0:0:
314,310,32783,1,2,0:0:0:0:
394,324,32954,1,0,0:0:0:0:
436,254,33124,1,0,0:0:0:0:
512,226,33295,1,0,0:0:0:0:
134,85,38919,6,0,L|137:139,1,47.9999985351563,2|0,0:0|0:0,0:0:0:0:
193,192,39260,1,0,0:0:0:0:
273,205,39431,1,0,0:0:0:0:
322,140,39601,1,2,0:0:0:0:
402,126,39772,2,0,P|425:125|448:131,1,47.9999985351563
416,207,40113,6,0,L|406:272,1,47.9999985351563,2|2,0:0|0:0,0:0:0:0:
340,299,40453,1,0,0:0:0:0:
275,248,40624,2,0,L|210:238,2,47.9999985351563,0|2|0,0:0|0:0|0:0,0:0:0:0:
344,204,41135,1,0,0:0:0:0:
362,124,41306,1,0,0:0:0:0:
318,55,41476,1,0,0:0:0:0:
237,36,41647,6,0,P|191:48|158:81,1,95.9999970703126,2|0,0:0|0:0,0:0:0:0:
230,120,42158,2,0,P|242:165|228:211,1,95.9999970703126,2|0,0:0|0:0,0:0:0:0:
153,242,42669,2,0,L|89:227,1,47.9999985351563
41,280,43010,5,2,0:0:0:0:
75,354,43181,1,0,0:0:0:0:
152,328,43351,2,0,L|216:313,1,47.9999985351563
228,240,43692,1,2,0:0:0:0:
302,205,43863,2,0,L|366:220,1,47.9999985351563
409,270,44203,1,0,0:0:0:0:
476,224,44374,6,0,P|480:200|476:176,1,47.9999985351563,2|0,0:0|0:0,0:0:0:0:
429,110,44715,1,0,0:0:0:0:
345,101,44885,1,0,0:0:0:0:
278,148,45056,1,2,0:0:0:0:
269,232,45226,2,0,P|273:255|283:277,1,47.9999985351563
357,314,45567,1,2,0:0:0:0:
432,282,45738,6,0,P|452:229|440:170,1,95.9999970703126,2|0,0:0|0:0,0:0:0:0:
386,136,46249,2,0,P|366:83|378:24,1,95.9999970703126,2|0,0:0|0:0,0:0:0:0:
295,6,46760,2,0,P|274:-2|250:-4,1,47.9999985351563
175,29,47101,6,0,P|156:72|158:120,1,95.9999970703126,2|0,0:0|0:0,0:0:0:0:
238,141,47613,2,0,P|256:184|254:232,1,95.9999970703126,2|0,0:0|0:0,0:0:0:0:
201,294,48124,2,0,P|177:295|153:291,1,47.9999985351563
101,228,48465,5,2,0:0:0:0:
129,150,48635,1,0,0:0:0:0:
78,85,48806,2,0,P|54:83|30:87,1,47.9999985351563
160,74,49147,2,0,P|162:50|157:25,1,47.9999985351563,2|0,0:0|0:0,0:0:0:0:
210,139,49488,1,0,0:0:0:0:
292,150,49658,1,0,0:0:0:0:
350,92,49828,6,8,P|373:90|397:95,1,47.9999985351563,2|0,0:0|0:0,0:0:0:0:
439,165,50169,1,0,0:0:0:0:
406,240,50340,1,0,0:0:0:0:
329,267,50510,1,2,0:0:0:0:
253,233,50681,2,0,P|230:229|206:230,1,47.9999985351563
133,267,51022,5,2,0:0:0:0:
122,347,51192,1,2,0:0:0:0:
195,382,51363,2,0,P|234:381|284:354,1,95.9999970703126
346,301,51874,1,0,0:0:0:0:
420,335,52044,2,0,P|443:333|465:324,2,47.9999985351563
425,255,52556,6,0,L|432:190,1,47.9999985351563,2|0,0:0|0:0,0:0:0:0:
392,134,52897,1,0,0:0:0:0:
319,96,53067,1,0,0:0:0:0:
273,164,53238,1,2,0:0:0:0:
194,189,53408,1,0,0:3:0:0:
148,121,53578,1,0,0:3:0:0:
69,96,53748,1,0,0:3:0:0:
4,146,53919,5,2,0:0:0:0:
0,228,54090,2,0,P|3:251|12:273,1,47.9999985351563
85,309,54431,1,0,0:0:0:0:
151,261,54601,1,2,0:0:0:0:
217,308,54772,1,0,0:0:0:0:
282,259,54942,1,0,0:0:0:0:
256,182,55113,1,0,0:0:0:0:
173,182,55283,6,0,P|150:181|128:174,1,47.9999985351563,2|0,0:0|0:0,0:0:0:0:
88,101,55624,2,0,P|110:93|134:91,1,47.9999985351563
215,106,55965,1,2,0:0:0:0:
280,58,56135,1,0,0:0:0:0:
323,127,56306,1,0,0:0:0:0:
403,118,56476,1,2,0:0:0:0:
375,194,56647,6,0,B|367:245|398:239|390:286,1,95.9999970703126,2|0,0:0|0:0,0:0:0:0:
333,345,57158,2,0,P|287:352|243:334,1,95.9999970703126,2|0,0:0|0:0,0:0:0:0:
219,255,57669,1,0,0:0:0:0:
262,185,57840,1,0,0:0:0:0:
189,149,58010,6,0,P|141:148|99:170,1,95.9999970703126,2|0,0:0|0:0,0:0:0:0:
60,243,58522,1,0,0:0:0:0:
99,315,58692,2,0,P|141:337|189:337,1,95.9999970703126,2|0,0:0|0:0,0:0:0:0:
242,275,59203,1,0,0:0:0:0:
323,266,59374,5,2,0:0:0:0:
373,202,59544,1,0,0:0:0:0:
364,121,59715,1,0,0:0:0:0:
300,71,59885,1,0,0:0:0:0:
219,80,60056,1,2,0:0:0:0:
168,143,60226,1,0,0:0:0:0:
87,151,60397,1,0,0:0:0:0:
24,100,60567,1,0,0:0:0:0:
16,19,60738,5,2,0:0:0:0:
81,261,61419,6,0,P|123:282|170:276,1,95.9999970703126,2|0,0:0|0:0,0:0:0:0:
227,123,62101,2,0,P|269:101|316:107,1,95.9999970703126,2|0,0:0|0:0,0:0:0:0:
423,230,62783,2,0,P|420:277|392:315,1,95.9999970703126,2|0,0:0|0:0,0:0:0:0:
232,346,63465,6,0,P|192:319|173:276,1,95.9999970703126,2|0,0:0|0:0,0:0:0:0:
327,221,64147,2,0,P|366:194|385:151,1,95.9999970703126,2|0,0:0|0:0,0:0:0:0:
259,47,64828,2,0,B|211:31|211:59|164:46,1,95.9999970703126,2|0,0:0|0:0,0:0:0:0:
26,166,65510,2,0,B|74:182|74:154|121:167,1,95.9999970703126,2|0,0:0|0:0,0:0:0:0:
265,254,66192,6,0,P|311:243|357:253,1,95.9999970703126,2|0,0:0|0:0,0:0:0:0:
464,129,66874,2,0,P|417:140|371:130,1,95.9999970703126,2|0,0:0|0:0,0:0:0:0:
246,23,67556,2,0,P|257:69|247:115,1,95.9999970703126,2|0,0:0|0:0,0:0:0:0:
372,222,68238,2,0,P|360:175|370:129,1,95.9999970703126,2|0,0:0|0:0,0:0:0:0:
446,273,68919,6,0,P|456:319|444:365,1,95.9999970703126,2|0,0:0|0:0,0:0:0:0:
304,280,69601,2,0,L|204:280,1,95.9999970703126,2|0,0:0|0:0,0:0:0:0:
67,365,70283,2,0,P|55:319|66:273,1,95.9999970703126,2|0,0:0|0:0,0:0:0:0:
141,129,70965,2,0,P|151:175|140:222,1,95.9999970703126,2|0,0:0|0:0,0:0:0:0:
67,78,71647,5,2,0:0:0:0:
67,77,72328,2,0,P|108:54|155:54,1,95.9999970703126,2|0,0:0|0:0,0:0:0:0:
236,196,73010,2,0,P|277:219|324:219,1,95.9999970703126,2|0,0:0|0:0,0:0:0:0:
401,75,73692,2,0,P|353:75|312:98,1,95.9999970703126,2|0,0:0|0:0,0:0:0:0:
149,77,74374,6,0,P|196:76|237:53,1,95.9999970703126,2|0,0:0|0:0,0:0:0:0:
75,27,75056,2,0,P|63:72|72:119,1,95.9999970703126,2|0,0:0|0:0,0:0:0:0:
180,243,75738,2,0,P|189:289|176:335,1,95.9999970703126,2|0,0:0|0:0,0:0:0:0:
307,268,76419,2,0,P|353:258|399:271,1,95.9999970703126,2|0,0:0|0:0,0:0:0:0:
332,141,77101,6,0,P|322:94|335:48,1,95.9999970703126,2|0,0:0|0:0,0:0:0:0:
205,116,77783,2,0,P|158:125|112:112,1,95.9999970703126,2|0,0:0|0:0,0:0:0:0:
74,272,78465,2,0,P|120:262|166:275,2,95.9999970703126,2|0|2,0:0|0:0|0:0,0:0:0:0:
222,341,79488,2,0,L|285:341,1,47.9999985351563,2|0,0:0|0:0,0:0:0:0:
334,291,79828,6,0,P|346:245|337:198,2,95.9999970703126,2|0|2,0:0|0:0|0:0,0:0:0:0:
166,275,80851,1,0,0:0:0:0:
263,144,81192,2,0,P|327:107|406:135,2,143.999995605469,2|2|2,0:0|0:0|0:0,0:0:0:0:
311,300,82556,5,2,0:0:0:0:
376,240,83238,1,0,0:0:0:0:
339,159,83919,1,2,0:0:0:0:
251,169,84601,1,0,0:3:0:0:
233,256,85283,5,2,0:0:0:0:
143,266,85624,1,2,0:0:0:0:
107,183,85965,1,2,0:0:0:0:
173,124,86306,1,2,0:0:0:0:
251,169,86647,1,2,0:0:0:0:
251,169,87669,1,0,0:0:0:0:
251,168,88010,6,0,P|291:143|338:144,1,95.9999970703126,2|0,0:0|0:0,0:0:0:0:
311,224,88522,1,0,0:0:0:0:
370,279,88692,2,0,P|410:303|457:302,1,95.9999970703126
430,224,89203,1,0,0:0:0:0:
453,145,89374,6,0,L|520:137,1,47.9999985351563,2|0,0:0|0:0,0:0:0:0:
468,64,89715,2,0,L|401:56,1,47.9999985351563
372,124,90056,1,2,0:0:0:0:
365,147,90397,1,0,0:0:0:0:
357,170,90738,6,0,P|320:198|268:202,1,95.9999970703126,2|0,0:0|0:0,0:0:0:0:
151,93,91419,2,0,P|189:121|236:125,1,95.9999970703126
109,21,92101,6,0,P|90:35|76:54,1,47.9999985351563,2|0,0:0|0:0,0:0:0:0:
0,54,92442,2,0,P|2:77|12:99,1,47.9999985351563
84,137,92783,1,2,0:0:0:0:
91,160,93124,2,0,L|145:156,1,47.9999985351563
187,221,93465,6,0,P|230:202|276:210,1,95.9999970703126,2|0,0:0|0:0,0:0:0:0:
241,283,93976,1,0,0:0:0:0:
161,301,94147,2,0,L|107:297,1,47.9999985351563
107,215,94488,2,0,L|111:161,1,47.9999985351563
191,163,94828,6,0,P|234:182|280:174,1,95.9999970703126,2|0,0:0|0:0,0:0:0:0:
245,102,95339,1,0,0:0:0:0:
299,41,95510,2,0,L|367:29,1,47.9999985351563,2|0,0:0|0:0,0:0:0:0:
399,95,95851,2,0,L|446:103,1,47.9999985351563
359,166,96192,6,0,P|388:202|395:249,1,95.9999970703126,2|0,0:0|0:0,0:0:0:0:
315,236,96703,1,0,0:0:0:0:
254,290,96874,2,0,P|294:316|342:317,1,95.9999970703126
315,236,97385,1,0,0:0:0:0:
236,211,97556,6,0,P|214:220|194:233,1,47.9999985351563,2|0,0:0|0:0,0:0:0:0:
115,208,97897,2,0,P|112:231|113:255,1,47.9999985351563
174,310,98238,2,0,P|175:333|172:357,1,47.9999985351563,2|0,0:0|0:0,0:0:0:0:
94,334,98578,2,0,P|73:347|51:356,1,47.9999985351563
32,276,98919,6,0,P|25:229|35:183,1,95.9999970703126,2|0,0:0|0:0,0:0:0:0:
100,132,99431,1,0,0:0:0:0:
155,191,99601,2,0,P|201:201|248:193,1,95.9999970703126
316,147,100113,1,0,0:0:0:0:
303,66,100283,6,0,L|294:5,1,47.9999985351563,2|0,0:0|0:0,0:0:0:0:
219,47,100624,2,0,L|158:56,1,47.9999985351563
200,131,100965,1,2,0:0:0:0:
193,154,101306,1,0,0:0:0:0:
186,177,101647,6,0,P|181:224|202:266,1,95.9999970703126,2|0,0:0|0:0,0:0:0:0:
362,232,102328,2,0,P|366:184|345:142,1,95.9999970703126
288,201,102840,1,0,0:0:0:0:
298,281,103010,6,0,L|289:336,1,47.9999985351563,2|0,0:0|0:0,0:0:0:0:
210,315,103351,2,0,L|218:370,1,47.9999985351563
135,352,103692,1,2,0:0:0:0:
135,352,104033,5,0,0:0:0:0:
91,282,104203,1,0,0:0:0:0:
129,208,104374,2,0,L|199:204,1,47.9999985351563,2|0,0:0|0:0,0:0:0:0:
258,199,104715,5,0,0:0:0:0:
302,269,104885,1,0,0:0:0:0:
264,343,105056,2,0,L|194:347,1,47.9999985351563,2|0,0:0|0:0,0:0:0:0:
91,282,105397,5,0,0:0:0:0:
47,212,105567,1,0,0:0:0:0:
85,138,105738,2,0,L|155:134,1,47.9999985351563,2|0,0:0|0:0,0:0:0:0:
296,125,106078,5,0,0:0:0:0:
340,195,106248,1,0,0:0:0:0:
302,269,106419,2,0,L|232:273,1,47.9999985351563,2|0,0:0|0:0,0:0:0:0:
129,208,106760,5,0,0:0:0:0:
85,138,106930,1,0,0:0:0:0:
123,64,107101,2,0,L|193:60,1,47.9999985351563,2|0,0:0|0:0,0:0:0:0:
224,144,107442,2,0,L|177:142,1,47.9999985351563
269,76,107783,2,0,L|316:73,1,47.9999985351563,2|0,0:0|0:0,0:0:0:0:
370,156,108124,2,0,L|322:153,1,47.9999985351563
400,80,108465,6,0,P|438:113|447:176,2,95.9999970703126,2|0|0,0:0|0:0|0:0,0:0:0:0:
351,236,109488,2,0,L|357:283,1,47.9999985351563
284,188,109828,6,0,P|323:159|378:158,2,95.9999970703126,2|0|0,0:0|0:0|0:0,0:0:0:0:
164,299,110851,2,0,L|157:346,1,47.9999985351563
231,251,111192,6,0,P|191:222|136:221,1,95.9999970703126,2|0,0:0|0:0,0:0:0:0:
250,345,111874,2,0,P|295:325|323:278,1,95.9999970703126
241,74,112556,5,2,0:0:0:0:
135,198,112897,1,0,0:0:0:0:
220,337,113238,1,0,0:0:0:0:
378,298,113578,1,0,0:3:0:0:
391,136,113919,1,2,0:0:0:0:
153,221,114260,5,0,0:0:0:0:
332,264,114601,1,0,0:0:0:0:
279,88,114942,1,0,0:0:0:0:
256,192,115283,6,0,L|364:160,2,95.9999970703126,2|0|0,0:0|0:0|0:0,0:0:0:0:
190,130,116306,1,0,0:0:0:0:
276,103,116647,6,0,P|296:69|299:30,2,80,2|0|0,0:0|0:0|0:0,0:0:0:0:
190,130,117669,1,0,0:0:0:0:
210,42,118010,5,2,0:0:0:0:
332,219,131647,5,4,0:3:0:0:
332,219,131988,2,0,L|395:207,1,55.9999982910157
423,126,132328,1,4,0:3:0:0:
330,35,132499,2,0,L|342:98,1,55.9999982910157
239,152,132840,6,0,L|249:96,1,55.9999982910157,0|2,0:0|0:3,0:0:0:0:
188,30,133181,1,0,0:0:0:0:
111,127,133351,2,0,L|166:116,1,55.9999982910157
79,43,133692,2,0,L|23:53,1,55.9999982910157,4|0,0:3|0:0,0:0:0:0:
24,200,134033,2,0,L|79:210,1,55.9999982910157
190,255,134374,6,0,P|139:277|112:328,1,111.999996582031,4|0,0:3|0:0,0:0:0:0:
201,344,134885,2,0,L|315:365,1,111.999996582031
337,268,135397,2,0,L|282:279,1,55.9999982910157
353,178,135738,5,2,0:3:0:0:
337,268,135908,1,0,0:0:0:0:
422,236,136078,2,0,L|477:246,1,55.9999982910157
369,90,136419,1,4,0:3:0:0:
297,167,136590,2,0,L|352:177,1,55.9999982910157
267,67,136931,1,0,0:0:0:0:
195,144,137101,6,0,L|209:213,1,55.9999982910157,4|0,0:3|0:0,0:0:0:0:
173,282,137442,1,0,0:0:0:0:
87,253,137613,1,0,0:0:0:0:
104,341,137783,1,4,0:3:0:0:
173,281,137953,2,0,P|200:276|227:280,1,55.9999982910157
297,337,138294,1,0,0:0:0:0:
366,246,138465,6,0,P|339:252|312:248,1,55.9999982910157,2|0,0:3|0:0,0:0:0:0:
336,107,138806,2,0,P|342:134|338:162,1,55.9999982910157
233,162,139147,2,0,P|285:144|337:161,1,111.999996582031,4|0,0:3|0:0,0:0:0:0:
366,246,139658,1,0,0:0:0:0:
441,294,139828,6,0,L|466:172,1,111.999996582031,4|0,0:3|0:0,0:0:0:0:
366,246,140340,1,0,0:0:0:0:
366,246,140510,2,0,L|358:121,1,111.999996582031,4|0,0:3|0:0,0:0:0:0:
281,219,141022,1,0,0:0:0:0:
281,219,141192,6,0,L|261:159,1,55.9999982910157,2|0,0:3|0:0,0:0:0:0:
88,165,141533,1,0,0:0:0:0:
176,140,141703,1,0,0:0:0:0:
44,245,141874,1,4,0:3:0:0:
69,332,142044,1,0,0:0:0:0:
201,227,142215,1,0,0:0:0:0:
157,307,142385,1,0,0:0:0:0:
88,165,142556,5,4,0:3:0:0:
88,165,142897,2,0,P|115:165|141:155,1,55.9999982910157
203,90,143238,1,4,0:3:0:0:
270,148,143408,1,0,0:0:0:0:
339,91,143578,1,0,0:0:0:0:
368,174,143748,1,0,0:0:0:0:
456,159,143919,5,2,0:3:0:0:
439,246,144090,2,0,P|444:298|461:322,1,55.9999982910157
373,355,144431,1,0,0:0:0:0:
286,338,144601,1,4,0:3:0:0:
344,271,144772,2,0,P|339:219|322:195,2,55.9999982910157
199,321,145283,6,0,L|144:310,1,55.9999982910157,4|0,0:3|0:0,0:0:0:0:
144,151,145624,1,0,0:0:0:0:
100,231,145794,1,0,0:0:0:0:
225,188,145965,1,4,0:3:0:0:
270,268,146135,1,0,0:0:0:0:
145,225,146306,1,0,0:0:0:0:
100,305,146476,1,0,0:0:0:0:
225,261,146647,5,2,0:3:0:0:
270,341,146817,2,0,L|352:345,1,55.9999982910157
460,268,147158,1,0,0:0:0:0:
415,348,147328,1,4,0:3:0:0:
380,223,147499,1,0,0:0:0:0:
460,268,147669,1,0,0:0:0:0:
458,176,147840,1,0,0:0:0:0:
380,223,148010,6,0,L|305:223,1,55.9999982910157,4|0,0:3|0:0,0:0:0:0:
249,172,148351,1,0,0:0:0:0:
299,97,148522,1,0,0:0:0:0:
177,118,148692,1,4,0:3:0:0:
182,28,148863,1,0,0:0:0:0:
87,107,149033,1,0,0:0:0:0:
46,26,149204,1,0,0:0:0:0:
3,142,149374,6,0,P|34:182|100:199,1,111.999996582031,2|0,0:3|0:0,0:0:0:0:
177,141,149885,2,0,P|124:156|90:199,1,111.999996582031
174,287,150397,2,0,L|174:231,1,55.9999982910157
90,319,150738,6,0,P|124:361|178:377,1,111.999996582031,4|0,0:3|0:0,0:0:0:0:
256,332,151249,1,0,0:0:0:0:
333,376,151419,2,0,P|386:361|421:319,1,111.999996582031,4|0,0:3|0:0,0:0:0:0:
419,228,151931,1,0,0:0:0:0:
331,231,152101,6,0,L|338:287,1,55.9999982910157,4|0,0:3|0:0,0:0:0:0:
180,231,152442,2,0,L|174:287,1,55.9999982910157,2|2,0:3|0:3,0:3:0:0:
335,142,152783,1,4,0:3:0:0:
176,142,152953,1,2,0:3:0:0:
256,221,153124,1,2,0:3:0:0:
256,62,153294,1,2,0:3:0:0:
256,142,153465,5,6,0:3:0:0:
349,294,153806,2,0,L|421:303,1,55.9999982910157
399,189,154147,2,0,L|405:310,1,111.999996582031,4|0,0:3|0:0,0:0:0:0:
317,278,154658,2,0,L|354:393,1,111.999996582031,2|0,0:0|0:0,0:0:0:0:
262,365,155169,2,0,P|208:367|163:334,2,111.999996582031,0|2|0,0:0|0:1|0:0,0:0:0:0:
130,141,156192,6,0,L|137:275,1,111.999996582031,6|0,0:3|0:0,0:0:0:0:
221,226,156703,2,0,P|265:258|320:256,1,111.999996582031,2|0,0:0|0:0,0:0:0:0:
389,143,157215,2,0,P|334:141|290:174,1,111.999996582031,0|4,0:0|0:3,0:0:0:0:
207,138,157726,1,0,0:0:0:0:
245,56,157897,2,0,L|307:59,1,55.9999982910157
154,65,158238,2,0,P|135:85|122:110,1,55.9999982910157,2|0,0:1|0:0,0:0:0:0:
103,197,158578,2,0,P|82:177|57:164,1,55.9999982910157
83,282,158919,6,0,L|209:273,1,111.999996582031,6|0,0:3|0:0,0:0:0:0:
272,226,159431,1,0,0:0:0:0:
201,169,159601,2,0,P|181:220|194:273,1,111.999996582031,4|0,0:3|0:0,0:0:0:0:
343,283,160113,2,0,P|362:231|349:178,1,111.999996582031,2|0,0:0|0:0,0:0:0:0:
343,283,160624,2,0,L|454:275,2,111.999996582031,0|2|0,0:0|0:1|0:0,0:0:0:0:
169,101,161647,6,0,L|57:108,1,111.999996582031,6|0,0:3|0:0,0:0:0:0:
24,192,162158,1,0,0:0:0:0:
57,275,162328,2,0,L|127:280,1,55.9999982910157,4|0,0:3|0:0,0:0:0:0:
141,193,162669,2,0,L|196:189,1,55.9999982910157
208,43,163010,2,0,L|205:99,1,55.9999982910157,4|0,0:3|0:0,0:0:0:0:
307,99,163351,2,0,L|303:43,1,55.9999982910157
315,189,163692,2,0,L|439:197,1,111.999996582031,2|0,0:1|0:0,0:0:0:0:
448,284,164203,1,0,0:0:0:0:
354,334,164374,6,0,L|358:279,1,55.9999982910157,6|0,0:3|0:0,0:0:0:0:
262,322,164715,2,0,L|266:267,1,55.9999982910157
185,330,165056,2,0,P|237:312|267:262,1,111.999996582031,4|0,0:3|0:0,0:0:0:0:
253,164,165567,2,0,P|241:217|269:269,1,111.999996582031,2|0,0:0|0:0,0:0:0:0:
413,248,166078,2,0,P|424:194|396:142,2,111.999996582031,0|2|0,0:0|0:1|0:0,0:0:0:0:
112,238,167101,6,0,P|87:189|99:136,1,111.999996582031,6|0,0:3|0:0,0:0:0:0:
191,75,167613,2,0,P|202:129|178:178,1,111.999996582031,2|0,0:0|0:0,0:0:0:0:
191,75,168124,2,0,L|338:75,1,111.999996582031,0|4,0:0|0:3,0:0:0:0:
320,308,168806,2,0,L|174:309,2,111.999996582031,0|2|0,0:0|0:1|0:0,0:0:0:0:
303,75,169828,6,0,L|191:75,1,111.999996582031,6|0,0:3|0:0,0:0:0:0:
161,160,170340,1,0,0:0:0:0:
212,232,170510,2,0,L|270:231,1,55.9999982910157,2|0,0:1|0:0,0:0:0:0:
311,153,170851,2,0,L|255:153,1,55.9999982910157
352,232,171192,2,0,P|387:201|394:124,2,111.999996582031,4|0|2,0:3|0:0|0:1,0:0:0:0:
160,208,172215,2,0,L|160:152,1,55.9999982910157
91,266,172556,6,0,P|152:297|209:284,1,111.999996582031,6|0,0:3|0:0,0:0:0:0:
421,118,173238,2,0,P|360:87|303:100,1,111.999996582031,2|0,0:1|0:0,0:0:0:0:
317,322,173919,2,0,P|365:256|352:176,1,167.999994873047,2|0,0:1|0:0,0:0:0:0:
262,163,174601,2,0,L|144:182,1,111.999996582031,2|0,0:1|0:0,0:0:0:0:
317,322,175283,5,4,0:3:0:0:
92,366,175965,1,4,0:3:0:0:
48,141,176647,1,4,0:3:0:0:
273,97,177328,1,4,0:3:0:0:
317,322,178010,5,6,0:3:0:0:
151,303,178351,1,4,0:3:0:0:
170,137,178692,1,4,0:3:0:0:
336,156,179033,1,4,0:3:0:0:
317,322,179374,5,6,0:3:0:0:
236,322,179545,1,0,0:3:0:0:
210,240,179715,1,4,0:3:0:0:
277,192,179885,1,0,0:3:0:0:
343,244,180056,1,4,0:3:0:0:
151,303,180397,1,4,0:3:0:0:
195,106,180738,6,0,P|256:90|317:107,1,128,4|0,0:0|0:0,0:0:0:0:
376,166,181249,1,0,0:0:0:0:
305,281,181419,2,0,L|312:218,1,64
433,224,181760,2,0,L|426:287,1,64,4|0,0:3|0:0,0:0:0:0:
296,364,182101,5,2,0:1:0:0:
177,277,182272,1,0,0:0:0:0:
312,217,182442,2,0,P|345:165|335:103,2,128
263,149,183294,1,0,0:0:0:0:
331,16,183465,6,0,P|362:20|389:37,1,64,4|0,0:3|0:0,0:0:0:0:
263,149,183806,2,0,P|231:145|204:128,1,64
201,45,184147,2,0,P|232:48|259:65,1,64
132,177,184488,2,0,P|100:173|73:156,1,64,4|0,0:3|0:0,0:0:0:0:
125,5,184828,5,2,0:1:0:0:
204,128,184999,1,0,0:0:0:0:
271,0,185169,2,0,L|197:44,1,64
294,155,185510,2,0,L|350:123,1,64
204,128,185851,5,0,0:0:0:0:
139,264,186022,1,0,0:0:0:0:
289,252,186192,2,0,L|344:219,1,64,4|0,0:3|0:0,0:0:0:0:
132,177,186533,5,0,0:0:0:0:
67,313,186704,1,0,0:0:0:0:
217,301,186874,2,0,L|272:268,1,64
259,95,187215,2,0,L|203:127,1,64,4|0,0:3|0:0,0:0:0:0:
181,229,187556,6,0,L|313:150,2,128,2|0|0,0:1|0:0|0:0,0:0:0:0:
127,164,188408,1,0,0:0:0:0:
291,163,188578,2,0,P|317:180|336:205,1,64
253,302,188919,6,0,L|260:239,1,64,4|0,0:3|0:0,0:0:0:0:
412,171,189260,2,0,L|405:235,1,64
292,377,189601,2,0,P|230:383|181:345,1,128,0|4,0:0|0:3,0:0:0:0:
253,302,190113,1,0,0:0:0:0:
378,380,190283,6,0,L|385:316,1,64,2|0,0:1|0:0,0:0:0:0:
246,238,190624,2,0,L|253:302,1,64
339,241,190965,2,0,L|332:177,1,64
194,74,191306,5,0,0:0:0:0:
159,174,191476,1,0,0:0:0:0:
300,75,191647,2,0,L|440:77,1,128,4|0,0:3|0:0,0:0:0:0:
468,149,192158,1,0,0:0:0:0:
320,258,192328,2,0,L|251:135,1,128,0|4,0:0|0:3,0:0:0:0:
300,75,192840,1,0,0:0:0:0:
468,149,193010,6,0,L|424:222,1,64,2|0,0:1|0:0,0:0:0:0:
287,312,193351,2,0,L|319:257,1,64
461,290,193692,2,0,L|398:286,1,64
293,170,194033,2,0,L|356:174,1,64
198,160,194374,6,0,P|220:217|191:285,1,128,4|0,0:3|0:0,0:0:0:0:
136,218,194885,1,0,0:0:0:0:
51,132,195056,2,0,L|115:137,1,64
239,84,195397,2,0,L|176:80,1,64,4|0,0:3|0:0,0:0:0:0:
320,233,195738,5,2,0:1:0:0:
323,91,195908,1,0,0:0:0:0:
198,160,196078,2,0,L|193:223,1,64
320,233,196419,2,0,L|324:169,1,64
239,84,196760,5,0,0:0:0:0:
253,283,196931,1,0,0:0:0:0:
418,171,197101,2,0,L|422:107,1,64,4|0,0:3|0:0,0:0:0:0:
320,233,197442,5,0,0:0:0:0:
351,35,197613,1,0,0:0:0:0:
505,161,197783,2,0,L|503:224,1,64
320,233,198124,5,4,0:3:0:0:
450,82,198294,1,0,0:0:0:0:
254,45,198465,2,0,L|174:53,1,64,2|0,0:1|0:0,0:0:0:0:
363,7,198806,5,0,0:0:0:0:
232,158,198976,1,0,0:0:0:0:
428,195,199147,2,0,L|507:186,1,64
341,120,199488,5,0,0:0:0:0:
406,307,199658,1,0,0:0:0:0:
450,82,199828,2,0,L|464:9,1,64,4|0,0:3|0:0,0:0:0:0:
236,163,200169,2,0,L|248:225,1,64
406,307,200510,2,0,L|420:234,1,64
328,57,200851,2,0,L|340:119,1,64,4|0,0:3|0:0,0:0:0:0:
487,354,201192,6,0,L|515:211,2,128,2|0|0,0:1|0:0|0:0,0:0:0:0:
406,307,202044,1,0,0:0:0:0:
324,353,202215,2,0,L|250:350,1,64
374,194,202556,6,0,P|411:243|405:306,2,128,4|0|0,0:0|0:0|0:0,0:0:0:0:
291,180,203408,1,0,0:0:0:0:
270,264,203578,2,0,L|334:267,1,64,4|0,0:3|0:0,0:0:0:0:
272,100,203919,6,0,P|222:138|212:200,2,128,2|0|0,0:1|0:0|0:0,0:0:0:0:
355,98,204772,1,0,0:0:0:0:
354,182,204942,2,0,L|290:179,1,64
273,16,205283,6,0,L|336:18,1,64,4|0,0:3|0:0,0:0:0:0:
417,184,205624,2,0,L|353:181,1,64
393,264,205965,2,0,L|457:267,1,64
376,101,206306,2,0,L|313:99,1,64,4|0,0:3|0:0,0:0:0:0:
244,256,206647,6,0,L|307:254,1,64,2|0,0:1|0:0,0:0:0:0:
168,193,206988,2,0,L|172:322,2,128
168,193,208010,6,0,P|228:176|261:107,1,128,4|0,0:3|0:0,0:0:0:0:
177,108,208522,1,0,0:0:0:0:
104,190,208692,2,0,L|167:192,1,64
94,106,209033,2,0,L|30:103,1,64,4|0,0:3|0:0,0:0:0:0:
50,271,209374,6,0,L|177:276,1,128,2|0,0:1|0:0,0:0:0:0:
247,231,209885,1,0,0:0:0:0:
163,129,210056,2,0,L|168:201,1,64
279,146,210397,2,0,L|274:82,1,64
137,47,210738,6,0,P|92:81|88:170,2,128,4|0|0,0:3|0:0|0:0,0:0:0:0:
196,105,211590,1,0,0:0:0:0:
274,82,211760,2,0,L|280:16,1,64,4|0,0:3|0:0,0:0:0:0:
190,187,212101,2,0,L|184:250,1,64,2|0,0:1|0:0,0:0:0:0:
269,332,212442,6,0,B|208:309|207:352|145:324,2,128
338,380,213294,1,0,0:0:0:0:
403,328,213465,6,0,P|383:286|391:239,1,95.9999970703126,4|0,0:3|0:0,0:3:0:0:
392,44,214147,2,0,P|350:64|303:56,1,95.9999970703126
108,55,214828,2,0,P|128:97|120:144,1,95.9999970703126,4|0,0:3|0:0,0:0:0:0:
119,339,215510,2,0,P|161:319|208:327,1,95.9999970703126
256,192,216192,5,12,0:0:0:0:
128,158,216703,1,8,0:0:0:0:
128,158,216789,1,8,0:0:0:0:
128,158,216874,1,8,0:0:0:0:
162,285,217385,1,8,0:0:0:0:
162,285,217471,1,8,0:0:0:0:
162,285,217556,1,8,0:0:0:0:
256,192,218067,1,8,0:0:0:0:
256,192,218152,1,8,0:0:0:0:
256,192,218238,5,8,0:0:0:0:
223,117,218408,1,8,0:0:0:0:
271,50,218578,1,8,0:0:0:0:
353,58,218749,1,8,0:0:0:0:
387,133,218919,5,12,0:0:0:0:
321,251,219431,1,8,0:0:0:0:
321,251,219516,1,8,0:0:0:0:
321,251,219601,1,8,0:0:0:0:
456,249,220113,1,8,0:0:0:0:
456,249,220198,1,8,0:0:0:0:
456,249,220283,1,8,0:0:0:0:
387,133,220794,1,8,0:0:0:0:
387,133,220880,1,8,0:0:0:0:
387,133,220965,5,8,0:0:0:0:
338,206,221135,1,8,0:0:0:0:
256,170,221306,1,8,0:0:0:0:
174,206,221476,1,8,0:0:0:0:
125,133,221647,5,12,0:0:0:0:
290,93,222158,1,8,0:0:0:0:
290,93,222243,1,8,0:0:0:0:
290,93,222328,1,8,0:0:0:0:
242,256,222840,1,8,0:0:0:0:
242,256,222925,1,8,0:0:0:0:
242,256,223010,1,8,0:0:0:0:
125,133,223522,1,8,0:0:0:0:
125,133,223607,1,8,0:0:0:0:
125,133,223692,5,8,0:0:0:0:
52,195,223863,1,8,0:0:0:0:
142,226,224033,1,8,0:0:0:0:
111,316,224203,1,8,0:0:0:0:
204,297,224374,5,12,0:0:0:0:
306,146,224885,1,8,0:0:0:0:
306,146,224970,1,8,0:0:0:0:
306,146,225056,1,8,0:0:0:0:
125,133,225567,1,8,0:0:0:0:
125,133,225652,1,8,0:0:0:0:
125,133,225738,1,8,0:0:0:0:
204,297,226249,1,8,0:0:0:0:
204,297,226334,1,8,0:0:0:0:
204,297,226419,5,8,0:0:0:0:
304,318,226590,1,8,0:0:0:0:
372,241,226760,1,8,0:0:0:0:
339,143,226931,1,8,0:0:0:0:
271,220,227101,5,12,0:0:0:0:
84,199,227613,1,8,0:0:0:0:
84,199,227698,1,8,0:0:0:0:
84,199,227783,1,8,0:0:0:0:
196,48,228294,1,8,0:0:0:0:
196,48,228380,1,8,0:0:0:0:
196,48,228465,1,8,0:0:0:0:
271,220,228976,1,8,0:0:0:0:
271,220,229061,1,8,0:0:0:0:
271,220,229146,5,8,0:0:0:0:
360,157,229317,1,8,0:0:0:0:
260,111,229488,1,8,0:0:0:0:
349,48,229658,1,8,0:0:0:0:
249,2,229829,5,12,0:0:0:0:
271,220,230340,1,8,0:0:0:0:
271,220,230425,1,8,0:0:0:0:
271,220,230510,1,8,0:0:0:0:
448,91,231022,1,8,0:0:0:0:
448,91,231107,1,8,0:0:0:0:
448,91,231192,1,8,0:0:0:0:
249,2,231533,1,8,0:0:0:0:
378,197,231874,5,8,0:0:0:0:
256,136,232044,1,8,0:0:0:0:
265,273,232215,1,8,0:0:0:0:
144,212,232385,1,8,0:0:0:0:
83,333,232556,5,12,0:0:0:0:
165,139,243465,6,0,P|231:133|286:172,1,136.000002593994,4|0,0:0|0:0,0:0:0:0:
111,78,244147,2,0,L|125:220,1,136.000002593994,8|0,0:0|0:0,0:0:0:0:
80,282,244658,1,8,0:0:0:0:
119,352,244828,6,0,P|182:371|244:346,1,136.000002593994,8|0,0:0|0:0,0:0:0:0:
280,272,245340,1,8,0:0:0:0:
280,272,245425,1,8,0:0:0:0:
280,272,245510,2,0,L|352:281,1,68.0000012969971,8|8,0:0|0:0,0:0:0:0:
278,189,245851,2,0,L|346:198,1,68.0000012969971,8|8,0:0|0:0,0:0:0:0:
304,68,246192,6,0,L|348:207,1,136.000002593994,8|0,0:0|0:0,0:0:0:0:
449,105,246703,1,8,0:0:0:0:
449,105,246789,1,8,0:0:0:0:
449,105,246874,2,0,L|417:247,1,136.000002593994,8|0,0:0|0:0,0:0:0:0:
302,271,247385,1,8,0:0:0:0:
302,271,247470,1,8,0:0:0:0:
302,271,247556,6,0,P|368:279|419:237,1,136.000002593994,8|0,0:0|0:0,0:0:0:0:
233,217,248067,1,8,0:0:0:0:
233,217,248152,1,8,0:0:0:0:
233,217,248238,2,0,P|199:214|168:227,1,68.0000012969971,8|8,0:0|0:0,0:0:0:0:
287,156,248578,2,0,P|320:158|351:145,1,68.0000012969971,8|8,0:0|0:0,0:0:0:0:
248,81,248919,6,0,L|232:216,1,136.000002593994,12|2,0:0|0:3,0:0:0:0:
127,158,249431,1,8,0:0:0:0:
127,158,249516,1,8,0:0:0:0:
127,158,249601,2,0,L|143:293,1,136.000002593994,8|2,0:0|0:3,0:0:0:0:
27,258,250113,1,8,0:0:0:0:
27,258,250198,1,8,0:0:0:0:
27,258,250283,6,0,L|77:384,1,136.000002593994,8|2,0:0|0:3,0:0:0:0:
209,292,250794,1,8,0:0:0:0:
209,292,250880,1,8,0:0:0:0:
209,292,250965,2,0,B|177:285|177:285|143:293,1,68.0000012969971,8|8,0:0|0:0,0:0:0:0:
277,247,251306,2,0,B|309:254|309:254|343:246,1,68.0000012969971,8|8,0:0|0:0,0:0:0:0:
217,94,251647,5,8,0:0:0:0:
281,328,251988,1,12,0:0:0:0:
366,101,252328,1,8,0:0:0:0:
163,234,252669,1,12,0:0:0:0:
405,244,253010,5,8,0:0:0:0:
285,198,253181,1,8,0:0:0:0:
356,306,253351,1,12,0:0:0:0:
362,177,253522,1,8,0:0:0:0:
281,278,253692,5,8,0:0:0:0:
305,121,253863,1,8,0:0:0:0:
405,244,254033,1,12,0:0:0:0:
382,100,254203,1,8,0:0:0:0:
362,177,254374,5,2,0:0:0:0:
274,86,255056,1,0,0:0:0:0:
161,141,255738,1,2,0:0:0:0:
179,266,256419,1,0,0:0:0:0:
303,288,257101,6,0,P|320:252|317:213,1,80,2|0,0:0|0:0,0:0:0:0:
236,96,257783,2,0,P|218:131|221:171,1,80
366,159,258465,2,0,P|330:141|290:144,1,80,2|0,0:0|0:0,0:0:0:0:
173,225,259147,2,0,P|208:242|248:239,1,80
149,151,259828,5,2,0:0:0:0:
96,208,260169,1,0,0:0:0:0:
185,135,260510,5,2,0:0:0:0:
142,232,260851,1,0,0:0:0:0:
222,120,261192,5,2,0:0:0:0:
188,256,261533,1,0,0:0:0:0:
259,104,261874,5,2,0:0:0:0:
234,280,262215,1,0,0:0:0:0:
296,89,262556,5,2,0:0:0:0:
280,304,262897,1,2,0:0:0:0:
168,121,263238,1,2,0:0:0:0:
367,203,263578,1,2,0:0:0:0:
158,253,263919,5,2,0:0:0:0:
256,192,264090,12,0,266647,0:0:0:0:
191,213,268693,6,0,B|210:129|321:80|408:208|300:268|256:215,1,280
274,228,270056,6,0,L|485:243,1,176.000005371094,4|4,0:0|0:3,0:0:0:0:
409,161,270567,1,0,0:0:0:0:
314,307,270737,2,0,P|231:305|187:216,1,176.000005371094,8|4,0:0|0:3,0:0:0:0:
226,153,271249,1,0,0:0:0:0:
314,307,271419,5,4,0:0:0:0:
265,74,271590,1,0,0:0:0:0:
98,239,271760,2,0,L|186:231,1,88.000002685547,4|0,0:3|0:0,0:0:0:0:
147,114,272101,2,0,L|59:122,1,88.000002685547,8|0,0:0|0:0,0:0:0:0:
241,300,272442,2,0,P|267:266|273:222,1,88.000002685547,4|0,0:3|0:0,0:0:0:0:
179,36,272783,6,0,P|152:70|146:113,1,88.000002685547,4|0,0:0|0:0,0:0:0:0:
365,113,273124,2,0,P|359:70|333:36,1,88.000002685547,4|0,0:3|0:0,0:0:0:0:
215,171,273465,2,0,B|256:183|256:183|299:170,1,88.000002685547,8|0,0:0|0:0,0:0:0:0:
256,16,273806,2,0,L|256:120,1,88.000002685547,0|4,0:0|0:3,0:0:0:0:
256,340,274146,5,4,0:0:0:0:
144,200,274317,1,0,0:0:0:0:
368,200,274487,2,0,B|460:226,1,88.000002685547,4|0,0:3|0:0,0:0:0:0:
256,340,274828,2,0,B|163:313,1,88.000002685547,8|0,0:0|0:0,0:0:0:0:
284,176,275169,1,4,0:3:0:0:
341,365,275340,1,0,0:0:0:0:
346,115,275510,6,0,P|310:93|266:91,1,88.000002685547,4|0,0:0|0:0,0:0:0:0:
171,315,275851,1,4,0:3:0:0:
368,200,276021,1,0,0:0:0:0:
169,87,276192,2,0,L|180:188,1,88.000002685547,8|0,0:0|0:0,0:0:0:0:
377,287,276533,2,0,L|366:186,1,88.000002685547,4|0,0:3|0:0,0:0:0:0:
265,104,276874,6,0,L|256:192,1,88.000002685547,4|0,0:0|0:0,0:0:0:0:
246,279,277215,2,0,L|256:192,1,88.000002685547,4|0,0:3|0:0,0:0:0:0:
275,17,277556,2,0,P|224:25|195:53,1,88.000002685547,8|0,0:0|0:0,0:0:0:0:
237,367,277896,2,0,P|288:359|317:331,1,88.000002685547,4|0,0:3|0:0,0:0:0:0:
109,42,278237,6,0,L|123:151,1,88.000002685547,4|0,0:0|0:0,0:0:0:0:
246,279,278578,2,0,L|232:170,1,88.000002685547,4|0,0:3|0:0,0:0:0:0:
65,201,278919,2,0,B|117:219|117:219|234:191,1,176.000005371094,8|4,0:0|0:3,0:0:0:0:
109,42,279431,1,0,0:0:0:0:
10,271,279601,6,0,B|101:303,1,88.000002685547,4|0,0:0|0:0,0:0:0:0:
235,191,279942,1,8,0:3:0:0:
120,129,280112,1,0,0:0:0:0:
210,275,280283,1,8,0:3:0:0:
320,206,280453,1,0,0:0:0:0:
149,211,280624,1,8,0:3:0:0:
154,341,280794,1,4,0:3:0:0:
235,191,280965,6,0,L|223:5,1,176.000005371094,4|4,0:0|0:3,0:0:0:0:
141,108,281476,1,0,0:0:0:0:
317,97,281646,2,0,L|404:91,1,88.000002685547,8|0,0:0|0:0,0:0:0:0:
240,278,281987,2,0,L|152:283,1,88.000002685547,4|0,0:3|0:0,0:0:0:0:
230,104,282328,5,4,0:0:0:0:
328,274,282499,1,0,0:0:0:0:
492,84,282669,2,0,L|405:90,1,88.000002685547,4|0,0:3|0:0,0:0:0:0:
415,267,283010,2,0,L|502:261,1,88.000002685547,8|0,0:0|0:0,0:0:0:0:
317,97,283351,2,0,L|323:184,1,88.000002685547,4|0,0:3|0:0,0:0:0:0:
421,354,283692,6,0,L|415:267,1,88.000002685547,4|0,0:0|0:0,0:0:0:0:
202,268,284033,2,0,B|188:319|188:319|204:368,1,88.000002685547
313,352,284374,2,0,B|324:319|324:319|310:268,1,88.000002685547,8|0,0:0|0:0,0:0:0:0:
97,267,284715,2,0,L|91:354,1,88.000002685547,0|4,0:0|0:3,0:0:0:0:
256,192,285056,5,4,0:0:0:0:
111,91,285226,1,0,0:0:0:0:
270,15,285396,2,0,L|276:102,1,88.000002685547,4|0,0:3|0:0,0:0:0:0:
235,281,285737,2,0,P|171:227|177:143,1,176.000005371094,8|4,0:0|0:3,0:0:0:0:
346,213,286249,1,0,0:0:0:0:
228,369,286419,6,0,L|141:363,1,88.000002685547,4|0,0:0|0:0,0:0:0:0:
256,192,286760,1,4,0:3:0:0:
319,348,286931,1,0,0:0:0:0:
318,123,287101,2,0,P|280:102|237:100,1,88.000002685547,8|0,0:0|0:0,0:0:0:0:
235,281,287442,5,4,0:3:0:0:
409,145,287612,1,0,0:0:0:0:
166,219,287783,2,0,P|145:257|143:300,1,88.000002685547,4|0,0:0|0:0,0:0:0:0:
347,214,288124,5,4,0:3:0:0:
158,131,288294,1,0,0:0:0:0:
380,53,288465,2,0,P|417:49|472:73,1,88.000002685547,8|0,0:0|0:0,0:0:0:0:
235,281,288806,5,4,0:3:0:0:
290,34,288976,1,0,0:0:0:0:
476,203,289146,6,0,P|488:245|476:296,1,88.000002685547,4|0,0:0|0:0,0:0:0:0:
158,326,289487,2,0,P|146:284|158:233,1,88.000002685547,4|0,0:3|0:0,0:0:0:0:
380,53,289828,2,0,P|391:94|379:145,1,88.000002685547,8|0,0:0|0:0,0:0:0:0:
61,175,290169,2,0,P|49:133|61:82,1,88.000002685547,4|0,0:3|0:0,0:0:0:0:
368,286,290510,6,0,L|481:297,1,88.000002685547,12|0,0:0|0:0,0:0:0:0:
144,98,290851,2,0,L|31:87,1,88.000002685547,8|0,0:0|0:0,0:0:0:0:
214,295,291192,1,8,0:0:0:0:
297,88,291362,1,8,0:0:0:0:
287,264,291533,1,8,0:0:0:0:
224,119,291703,1,8,0:0:0:0:
256,191,291874,6,0,P|332:198|364:268,1,160,4|0,0:0|0:0,0:0:0:0:
224,119,293237,6,0,L|143:109,1,60.0000022888184,0|8,0:0|0:3,0:0:0:0:
280,58,293578,1,14,0:3:0:0:
212,318,293919,6,0,L|204:357,1,22.0000006713867,4|0,0:2|0:0,0:0:0:0:
299,292,294090,6,0,L|306:331,1,22.0000006713867,4|0,0:2|0:0,0:0:0:0:
369,234,294260,6,0,L|390:267,1,22.0000006713867,4|0,0:2|0:0,0:0:0:0:
411,153,294431,6,0,L|443:175,1,22.0000006713867,4|0,0:2|0:0,0:0:0:0:
419,62,294601,6,0,L|515:84,1,88.000002685547,4|0,0:0|0:0,0:0:0:0:
283,214,294942,2,0,L|197:194,1,88.000002685547,8|0,0:0|0:0,0:0:0:0:
419,322,295283,2,0,L|515:299,1,88.000002685547,0|8,0:0|0:0,0:0:0:0:
283,174,295624,2,0,L|197:193,1,88.000002685547,8|4,0:0|0:3,0:0:0:0:
334,343,295965,5,8,0:3:0:0:
369,156,296135,1,8,0:3:0:0:
178,107,296306,2,0,L|197:193,1,88.000002685547,4|0,0:3|0:0,0:0:0:0:
419,322,296646,5,8,0:0:0:0:
309,91,296817,1,8,0:0:0:0:
334,343,296987,1,8,0:0:0:0:
395,71,297158,1,8,0:0:0:0:
504,301,297328,6,0,P|503:344|482:384,1,88.000002685547,4|0,0:0|0:0,0:0:0:0:
273,279,297669,1,4,0:3:0:0:
444,238,297840,1,0,0:0:0:0:
187,258,298010,2,0,P|187:301|209:340,1,88.000002685547,8|0,0:0|0:0,0:0:0:0:
325,126,298351,2,0,P|324:82|302:43,1,88.000002685547,4|0,0:3|0:0,0:0:0:0:
114,214,298692,6,0,P|145:244|188:257,1,88.000002685547,4|0,0:0|0:0,0:0:0:0:
398,170,299033,2,0,P|366:139|323:126,1,88.000002685547,4|0,0:3|0:0,0:0:0:0:
167,339,299374,2,0,P|210:338|249:316,1,88.000002685547,8|0,0:0|0:0,0:0:0:0:
303,44,299715,2,0,P|265:66|242:104,1,88.000002685547,4|0,0:3|0:0,0:0:0:0:
334,344,300056,6,0,L|326:257,1,88.000002685547,4|0,0:0|0:0,0:0:0:0:
168,151,300396,2,0,L|159:238,1,88.000002685547,4|0,0:3|0:0,0:0:0:0:
405,292,300737,2,0,L|423:101,1,176.000005371094,8|4,0:0|0:3,0:0:0:0:
256,188,301249,1,0,0:0:0:0:
89,116,301419,6,0,L|80:29,1,88.000002685547,4|0,0:0|0:0,0:0:0:0:
108,295,301760,1,8,0:3:0:0:
169,152,301931,1,8,0:3:0:0:
29,260,302101,2,0,P|22:305|37:347,1,88.000002685547,4|0,0:3|0:0,0:0:0:0:
262,277,302442,1,8,0:0:0:0:
163,63,302612,1,8,0:0:0:0:
108,295,302783,6,0,P|173:322|266:270,1,176.000005371094,4|4,0:0|0:3,0:0:0:0:
169,152,303294,1,0,0:0:0:0:
323,133,303465,2,0,L|369:322,1,176.000005371094,8|4,0:0|0:3,0:0:0:0:
256,192,303976,1,0,0:0:0:0:
390,74,304146,5,4,0:0:0:0:
169,152,304317,1,0,0:0:0:0:
407,160,304487,2,0,P|446:143|472:108,1,88.000002685547,4|0,0:3|0:0,0:0:0:0:
151,65,304828,2,0,P|111:82|86:117,1,88.000002685547,8|0,0:0|0:0,0:0:0:0:
205,325,305169,1,4,0:3:0:0:
236,93,305340,1,0,0:0:0:0:
120,298,305510,6,0,L|1:259,1,88.000002685547,4|0,0:0|0:0,0:0:0:0:
321,121,305851,2,0,L|440:160,1,88.000002685547,4|0,0:3|0:0,0:0:0:0:
184,237,306192,2,0,L|65:198,1,88.000002685547,8|0,0:0|0:0,0:0:0:0:
237,93,306533,2,0,L|320:120,1,88.000002685547,4|0,0:3|0:0,0:0:0:0:
205,325,306874,5,4,0:0:0:0:
163,149,307044,1,0,0:0:0:0:
336,200,307215,2,0,P|355:238|355:282,1,88.000002685547,4|0,0:3|0:0,0:0:0:0:
96,208,307556,2,0,P|76:169|76:125,1,88.000002685547,8|0,0:0|0:0,0:0:0:0:
205,325,307896,5,4,0:3:0:0:
163,149,308067,1,0,0:0:0:0:
31,273,308237,2,0,P|66:296|124:295,1,88.000002685547,4|0,0:0|0:0,0:0:0:0:
228,84,308578,5,4,0:3:0:0:
96,208,308749,1,0,0:0:0:0:
269,260,308919,2,0,P|271:218|241:168,1,88.000002685547,8|0,0:0|0:0,0:0:0:0:
6,183,309260,5,4,0:3:0:0:
180,236,309431,1,0,0:0:0:0:
138,60,309601,2,0,P|100:78|72:129,1,88.000002685547,4|0,0:0|0:0,0:0:0:0:
205,325,309942,5,4,0:3:0:0:
163,149,310113,1,0,0:0:0:0:
31,273,310283,2,0,P|66:296|124:295,1,88.000002685547,8|0,0:0|0:0,0:0:0:0:
228,84,310624,5,4,0:3:0:0:
6,183,310794,1,0,0:0:0:0:
205,325,310965,6,0,P|246:301|271:252,1,88.000002685547,4|0,0:0|0:0,0:0:0:0:
139,62,311306,2,0,P|139:109|169:155,1,88.000002685547
397,136,311646,2,0,P|355:112|300:115,1,88.000002685547,8|0,0:0|0:0,0:0:0:0:
93,208,311987,2,0,P|134:231|189:228,1,88.000002685547,0|4,0:0|0:3,0:0:0:0:
342,30,312328,6,0,P|318:71|321:126,1,88.000002685547,4|0,0:0|0:0,0:0:0:0:
399,311,312669,1,8,0:3:0:0:
399,136,312839,1,8,0:3:0:0:
318,335,313010,2,0,L|219:364,1,88.000002685547,4|0,0:3|0:0,0:0:0:0:
235,85,313351,1,4,0:3:0:0:
338,253,313521,1,0,0:0:0:0:
458,72,313692,6,0,P|376:51|315:110,2,176.000005371094,4|4|8,0:0|0:3|0:0,0:0:0:0:
252,366,314715,2,0,P|210:379|167:371,1,88.000002685547,4|0,0:3|0:0,0:0:0:0:
60,253,315056,6,0,P|141:232|202:291,2,176.000005371094,4|4|8,0:0|0:3|0:0,0:0:0:0:
353,320,316078,2,0,P|371:280|365:226,1,88.000002685547,4|0,0:3|0:0,0:0:0:0:
159,64,316419,6,0,P|140:103|146:157,1,88.000002685547,4|0,0:0|0:0,0:0:0:0:
384,95,316760,2,0,P|344:76|290:82,1,88.000002685547,4|0,0:3|0:0,0:0:0:0:
128,289,317101,2,0,P|167:307|221:301,1,88.000002685547,8|0,0:0|0:0,0:0:0:0:
241,152,317442,2,0,L|184:220,1,88.000002685547,4|0,0:3|0:0,0:0:0:0:
327,163,317783,6,0,L|433:175,1,88.000002685547,4|0,0:0|0:0,0:0:0:0:
128,289,318124,2,0,L|22:277,1,88.000002685547,4|0,0:3|0:0,0:0:0:0:
302,307,318465,2,0,L|408:319,1,88.000002685547,8|0,0:0|0:0,0:0:0:0:
185,221,318806,1,8,0:3:0:0:
245,375,318976,1,4,0:3:0:0:
266,189,319146,6,0,P|242:154|203:133,1,88.000002685547,4|0,0:0|0:0,0:0:0:0:
104,247,319487,2,0,P|147:243|184:220,1,88.000002685547,4|0,0:3|0:0,0:0:0:0:
136,77,319828,2,0,P|117:116|119:160,1,88.000002685547,8|0,0:0|0:0,0:0:0:0:
250,273,320169,2,0,P|268:233|266:189,1,88.000002685547,4|0,0:3|0:0,0:0:0:0:
180,327,320510,6,0,L|286:369,1,88.000002685547,4|0,0:0|0:0,0:0:0:0:
348,157,320851,2,0,L|266:189,1,88.000002685547,4|0,0:3|0:0,0:0:0:0:
330,304,321192,2,0,L|411:271,1,88.000002685547,8|0,0:0|0:0,0:0:0:0:
498,134,321533,2,0,L|391:91,1,88.000002685547,4|0,0:3|0:0,0:0:0:0:
184,157,321874,6,0,L|265:189,1,88.000002685547,4|0,0:0|0:0,0:0:0:0:
208,331,322215,2,0,L|196:244,1,88.000002685547,4|0,0:3|0:0,0:0:0:0:
348,223,322556,2,0,L|278:277,1,88.000002685547,8|0,0:0|0:0,0:0:0:0:
114,211,322896,2,0,L|183:156,1,88.000002685547,4|0,0:3|0:0,0:0:0:0:
290,363,323237,6,0,L|208:330,1,88.000002685547,4|0,0:0|0:0,0:0:0:0:
335,135,323578,2,0,L|347:222,1,88.000002685547,4|0,0:3|0:0,0:0:0:0:
126,298,323919,2,0,L|113:210,1,88.000002685547,8|0,0:0|0:0,0:0:0:0:
263,187,324260,1,4,0:0:0:0:
208,330,324431,1,0,0:3:0:0:
34,166,324601,6,0,P|106:121|182:156,2,176.000005371094,4|4|8,0:0|0:3|0:0,0:0:0:0:
294,296,325624,1,4,0:3:0:0:
428,138,325794,1,0,0:0:0:0:
238,226,325965,6,0,P|206:308|274:381,2,176.000005371094,4|4|8,0:0|0:3|0:0,0:0:0:0:
512,302,326987,2,0,P|470:313|428:302,1,88.000002685547,4|0,0:3|0:0,0:0:0:0:
469,140,327328,6,0,P|481:182|470:224,1,88.000002685547,4|0,0:0|0:0,0:0:0:0:
351,345,327669,2,0,P|339:303|350:261,1,88.000002685547,4|0,0:3|0:0,0:0:0:0:
315,115,328010,2,0,P|299:198|221:230,1,176.000005371094,8|4,0:0|0:3,0:0:0:0:
231,142,328521,1,0,0:0:0:0:
418,3,328692,6,0,L|398:88,1,88.000002685547,4|0,0:0|0:0,0:0:0:0:
450,225,329033,2,0,L|469:139,1,88.000002685547,4|0,0:3|0:0,0:0:0:0:
231,142,329374,2,0,L|211:227,1,88.000002685547,8|0,0:0|0:0,0:0:0:0:
263,364,329715,2,0,L|282:278,1,88.000002685547,4|0,0:3|0:0,0:0:0:0:
145,161,330056,6,0,L|59:181,1,88.000002685547,4|0,0:0|0:0,0:0:0:0:
366,222,330396,2,0,L|452:202,1,88.000002685547,4|0,0:3|0:0,0:0:0:0:
199,92,330737,6,0,L|124:45,1,88.000002685547,8|0,0:0|0:0,0:0:0:0:
312,291,331078,2,0,L|387:338,1,88.000002685547,4|0,0:3|0:0,0:0:0:0:
286,81,331419,6,0,L|266:-4,1,88.000002685547,12|0,0:0|0:0,0:0:0:0:
225,302,331760,2,0,L|245:388,1,88.000002685547,12|0,0:0|0:0,0:0:0:0:
355,135,332101,5,0,0:0:0:0:
156,248,332442,1,0,0:0:0:0:
266,0,332783,6,0,L|286:81,1,88.000002685547,4|0,0:0|0:0,0:0:0:0:
336,220,333124,2,0,L|355:134,1,88.000002685547,4|0,3:0|0:0,0:0:0:0:
164,180,333465,2,0,L|250:200,1,88.000002685547,8|0,0:0|0:0,0:0:0:0:
132,95,333806,2,0,P|97:120|78:160,1,88.000002685547,4|0,3:0|0:0,0:0:0:0:
100,10,334146,6,0,P|154:8|206:42,1,88.000002685547,4|0,0:0|0:0,0:0:0:0:
302,114,334487,2,0,P|258:118|218:103,1,88.000002685547,4|0,3:0|0:0,0:0:0:0:
313,30,334828,2,0,P|317:73|301:114,1,88.000002685547,8|0,0:0|0:0,0:0:0:0:
206,187,335169,2,0,P|201:143|217:102,1,88.000002685547,4|0,3:0|0:0,0:0:0:0:
263,254,335510,6,0,L|370:272,1,88.000002685547,4|0,0:0|0:0,0:0:0:0:
388,128,335851,2,0,L|281:110,1,88.000002685547
176,297,336192,2,0,L|383:262,1,176.000005371094,8|0,0:0|0:0,0:0:0:0:
206,214,336703,1,4,3:0:0:0:
88,315,336874,6,0,P|109:354|145:379,1,88.000002685547,4|0,0:0|0:0,0:0:0:0:
115,230,337215,2,0,P|71:228|32:247,1,88.000002685547,4|0,3:0|0:0,0:0:0:0:
206,214,337556,2,0,L|243:108,1,88.000002685547,8|0,0:0|0:0,0:0:0:0:
92,79,337896,2,0,L|149:146,1,88.000002685547,4|0,3:0|0:0,0:0:0:0:
322,115,338237,6,0,L|235:130,1,88.000002685547,4|0,0:0|0:0,0:0:0:0:
351,32,338578,2,0,L|437:47,1,88.000002685547,4|0,3:0|0:0,0:0:0:0:
437,182,338919,2,0,L|351:198,1,88.000002685547,8|0,0:0|0:0,0:0:0:0:
494,115,339260,2,0,P|519:149|525:195,1,88.000002685547,4|0,3:0|0:0,0:0:0:0:
294,265,339601,6,0,P|268:230|263:185,1,88.000002685547,4|0,0:0|0:0,0:0:0:0:
403,131,339942,2,0,P|385:170|349:197,1,88.000002685547,4|0,3:0|0:0,0:0:0:0:
232,103,340283,2,0,P|275:98|316:116,1,88.000002685547,8|0,0:0|0:0,0:0:0:0:
294,265,340624,2,0,P|250:269|209:251,1,88.000002685547,4|0,3:0|0:0,0:0:0:0:
434,209,340965,6,0,L|531:191,1,88.000002685547,4|0,0:0|0:0,0:0:0:0:
401,98,341306,2,0,L|314:114,1,88.000002685547,4|0,3:0|0:0,0:0:0:0:
294,265,341646,2,0,L|380:281,1,88.000002685547,8|0,0:0|0:0,0:0:0:0:
434,209,341987,2,0,L|347:192,1,88.000002685547,4|0,3:0|0:0,0:0:0:0:
153,353,342328,6,0,L|239:336,1,88.000002685547,4|0,0:0|0:0,0:0:0:0:
152,119,342669,1,8,0:0:0:0:
95,286,342839,1,8,0:0:0:0:
268,252,343010,2,0,L|354:235,1,88.000002685547,8|0,0:0|0:0,0:0:0:0:
181,35,343351,1,8,3:0:0:0:
124,202,343521,1,4,3:0:0:0:
297,168,343692,6,0,L|383:151,1,88.000002685547,4|0,0:0|0:0,0:0:0:0:
235,102,344033,2,0,P|213:140|210:183,1,88.000002685547,4|0,3:0|0:0,0:0:0:0:
325,314,344374,2,0,P|303:275|267:251,1,88.000002685547,8|0,0:0|0:0,0:0:0:0:
154,352,344715,2,0,P|198:352|238:334,1,88.000002685547,4|0,3:0|0:0,0:0:0:0:
383,151,345056,6,0,P|339:150|299:169,1,88.000002685547,4|0,0:0|0:0,0:0:0:0:
377,320,345396,2,0,P|377:276|359:237,1,88.000002685547,4|0,3:0|0:0,0:0:0:0:
364,67,345737,2,0,P|363:110|382:150,1,88.000002685547,8|0,0:0|0:0,0:0:0:0:
450,50,346078,2,0,L|350:69,1,88.000002685547,4|0,3:0|0:0,0:0:0:0:
272,253,346419,6,0,L|358:236,1,88.000002685547,4|0,0:0|0:0,0:0:0:0:
243,102,346760,2,0,L|214:185,1,88.000002685547
329,319,347101,2,0,L|391:139,1,176.000005371094,8|0,0:0|0:0,0:0:0:0:
272,253,347612,1,4,3:0:0:0:
444,219,347783,6,0,P|473:169|465:113,1,88.000002685547,4|0,0:0|0:0,0:0:0:0:
330,85,348124,2,0,P|301:135|309:191,1,88.000002685547,4|0,3:0|0:0,0:0:0:0:
473,297,348465,2,0,P|468:254|444:219,1,88.000002685547,8|0,0:0|0:0,0:0:0:0:
300,274,348806,2,0,P|305:317|330:353,1,88.000002685547,4|0,3:0|0:0,0:0:0:0:
204,218,349146,6,0,L|82:218,1,88.000002685547,4|0,0:0|0:0,0:0:0:0:
159,53,349487,2,0,L|160:141,1,88.000002685547,4|0,3:0|0:0,0:0:0:0:
67,293,349828,2,0,P|38:260|28:218,1,88.000002685547,8|0,0:0|0:0,0:0:0:0:
156,296,350169,2,0,P|142:337|110:367,1,88.000002685547,4|0,3:0|0:0,0:0:0:0:
160,141,350510,6,0,L|276:152,1,88.000002685547,4|0,0:0|0:0,0:0:0:0:
352,243,350851,2,0,L|236:232,1,88.000002685547,4|0,3:0|0:0,0:0:0:0:
317,70,351192,2,0,L|334:157,1,88.000002685547,8|0,0:0|0:0,0:0:0:0:
194,313,351533,2,0,L|177:226,1,88.000002685547,4|0,3:0|0:0,0:0:0:0:
234,59,351874,6,0,P|277:53|317:70,1,88.000002685547,4|0,0:0|0:0,0:0:0:0:
277,324,352215,2,0,P|234:330|194:313,1,88.000002685547,4|0,3:0|0:0,0:0:0:0:
388,170,352556,2,0,P|394:213|377:253,1,88.000002685547,8|0,0:0|0:0,0:0:0:0:
123,213,352897,2,0,P|117:170|134:130,1,88.000002685547,4|0,3:0|0:0,0:0:0:0:
364,343,353237,6,0,L|463:328,1,88.000002685547,4|0,0:0|0:0,0:0:0:0:
204,183,353578,1,8,0:3:0:0:
217,271,353749,1,8,0:3:0:0:
292,170,353919,1,4,0:3:0:0:
134,238,354090,1,8,3:0:0:0:
305,258,354260,1,8,3:0:0:0:
236,100,354431,1,4,3:0:0:0:
217,271,354601,5,4,0:0:0:0:
