osu file format v14

[General]
AudioFilename: audio.mp3
AudioLeadIn: 0
PreviewTime: 268522
Countdown: 0
SampleSet: Normal
StackLeniency: 0.7
Mode: 1
LetterboxInBreaks: 0
WidescreenStoryboard: 0

[Editor]
Bookmarks: 738,11647,38919,60738,88010,120738,131647,154147,180738,216192,232556,268692,332783,354601,375056
DistanceSpacing: 1.7
BeatDivisor: 4
GridSize: 4
TimelineZoom: 0.9999999

[Metadata]
Title:I'm glad you're evil too
TitleUnicode:きみも悪い人でよかった
Artist:PinocchioP
ArtistUnicode:ピノキオピー
Creator:JarvisGaming
Version:Meager Heart
Source:
Tags:hatsune miku 初音ミク hatsune_miku vocaloid ボーカロイド yuma saito kimi mo warui hito de yokatta im youre
BeatmapID:1670115
BeatmapSetID:795204

[Difficulty]
HPDrainRate:5
CircleSize:5
OverallDifficulty:5
ApproachRate:5
SliderMultiplier:1.4
SliderTickRate:1

[Events]
//Background and Video events
0,0,"evil.jpg",0,0
//Break Periods
2,120738,130447
//Storyboard Layer 0 (Background)
//Storyboard Layer 1 (Fail)
//Storyboard Layer 2 (Pass)
//Storyboard Layer 3 (Foreground)
//Storyboard Sound Samples

[TimingPoints]
738,681.818181818182,4,1,0,20,1,0
11647,-100,4,1,0,25,0,0
38919,-100,4,1,0,30,0,0
82215,-100,4,1,0,25,0,0
82556,-102.040816326531,4,1,0,25,0,0
82897,-104.166666666667,4,1,0,20,0,0
83919,-113.636363636364,4,1,0,20,0,0
84601,-119.047619047619,4,1,0,20,0,0
85283,-114.942528735632,4,1,0,28,0,0
85624,-109.89010989011,4,1,0,28,0,0
85965,-105.263157894737,4,1,0,28,0,0
86306,-101.010101010101,4,1,0,28,0,0
86647,-97.0873786407767,4,1,0,28,0,0
87669,-93.4579439252336,4,1,0,30,0,0
88010,-90.9090909090909,4,1,0,35,0,0
154147,-86.2068965517241,4,1,0,40,0,0
174772,-86.9565217391304,4,1,0,37,0,0
174942,-87.719298245614,4,1,0,35,0,0
175113,-88.4955752212389,4,1,0,32,0,0
175283,-89.2857142857143,4,1,0,30,0,0
175965,-91.743119266055,4,1,0,30,0,0
176647,-94.3396226415094,4,1,0,30,0,0
177328,-97.0873786407767,4,1,0,30,0,0
178010,-94.3396226415094,4,1,0,38,0,0
178351,-91.743119266055,4,1,0,38,0,0
178692,-89.2857142857143,4,1,0,38,0,0
179033,-86.9565217391304,4,1,0,38,0,0
179374,-84.7457627118644,4,1,0,38,0,0
179715,-82.6446280991736,4,1,0,38,0,0
180056,-80.6451612903226,4,1,0,38,0,0
180397,-80,4,1,0,40,0,0
180738,-80,4,1,0,45,0,0
216192,-76.9230769230769,4,1,0,45,0,0
233238,-90.9090909090909,4,1,0,45,0,0
235283,-89.2857142857143,4,1,0,45,0,0
237328,-87.719298245614,4,1,0,45,0,0
238692,-86.2068965517241,4,1,0,45,0,0
240056,-85.4700854700855,4,1,0,45,0,0
241249,-84.7457627118644,4,1,0,45,0,0
241760,-83.3333333333333,4,1,0,45,0,0
242783,-82.6446280991736,4,1,0,45,0,0
243465,-81.9672131147541,4,1,0,45,0,0
244147,-81.3008130081301,4,1,0,45,0,0
244999,-80.6451612903226,4,1,0,45,0,0
245851,-80,4,1,0,45,0,0
246703,-78.7401574803149,4,1,0,45,0,0
247215,-77.5193798449612,4,1,0,45,0,0
247897,-76.9230769230769,4,1,0,45,0,0
248919,-75.7575757575758,4,1,0,45,0,0
249601,-74.6268656716418,4,1,0,45,0,0
250283,-73.5294117647059,4,1,0,45,0,0
250965,-72.463768115942,4,1,0,45,0,0
251647,-71.4285714285714,4,1,0,45,0,0
252328,-70.4225352112676,4,1,0,45,0,0
253010,-69.4444444444444,4,1,0,45,0,0
253351,-68.9655172413793,4,1,0,45,0,0
253692,-68.4931506849315,4,1,0,45,0,0
254033,-68.0272108843537,4,1,0,45,0,0
254374,-69.4444444444444,4,1,0,45,0,0
255056,-70.8215297450425,4,1,0,45,0,0
255738,-72.463768115942,4,1,0,45,0,0
256419,-74.0740740740741,4,1,0,50,0,0
257101,-75.7575757575758,4,1,0,45,0,0
257783,-77.5193798449612,4,1,0,50,0,0
258465,-79.3650793650794,4,1,0,45,0,0
259147,-81.3008130081301,4,1,0,50,0,0
259828,-80,4,1,0,45,0,0
260510,-78.7401574803149,4,1,0,50,0,0
261192,-77.5193798449612,4,1,0,45,0,0
261874,-76.3358778625954,4,1,0,50,0,0
262556,-74.6268656716418,4,1,0,45,0,0
262897,-72.992700729927,4,1,0,45,0,0
263238,-71.4285714285714,4,1,0,45,0,0
263578,-69.9300699300699,4,1,0,45,0,0
263919,-68.4931506849315,4,1,0,45,0,0
265283,681.818181818182,7,1,0,50,1,0
270055,-66.6666666666667,4,1,0,85,0,8
270056,681.818181818182,4,1,0,85,1,9
270056,-66.6666666666667,4,1,0,85,0,9
293408,-66.6666666666667,4,1,0,70,0,0
293919,-66.6666666666667,4,1,0,75,0,0
294090,-66.6666666666667,4,1,0,78,0,0
294260,-66.6666666666667,4,1,0,80,0,0
294431,-66.6666666666667,4,1,0,83,0,0
294601,-66.6666666666667,4,1,0,85,0,1
332101,-66.6666666666667,4,1,0,85,0,0
332783,-66.6666666666667,4,1,0,85,0,1
354601,-66.6666666666667,4,1,0,85,0,0
355283,-68.9655172413793,4,1,0,30,0,0
355965,-71.4285714285714,4,1,0,30,0,0
357328,-74.0740740740741,4,1,0,30,0,0
358010,-76.9230769230769,4,1,0,30,0,0
358692,-80,4,1,0,30,0,0
360737,-83.3333333333333,4,1,0,30,0,0
361419,-86.9565217391304,4,1,0,30,0,0
362783,-90.9090909090909,4,1,0,30,0,0
363465,-95.2380952380952,4,1,0,30,0,0
364146,-100,4,1,0,30,0,0
366192,-105.263157894737,4,1,0,30,0,0
366874,-111.111111111111,4,1,0,30,0,0
368237,-117.647058823529,4,1,0,30,0,0
368919,-125,4,1,0,30,0,0
372328,-133.333333333333,4,1,0,30,0,0
373692,-142.857142857143,4,1,0,30,0,0
374374,-153.846153846154,4,1,0,30,0,0
375056,-166.666666666667,4,1,0,30,0,0
375396,-166.666666666667,4,1,0,7,0,0
377783,-166.666666666667,4,1,0,30,0,0
378124,-166.666666666667,4,1,0,15,0,0
378465,-166.666666666667,4,1,0,17,0,0
378806,-166.666666666667,4,1,0,19,0,0
379146,-166.666666666667,4,1,0,21,0,0
379487,-166.666666666667,4,1,0,23,0,0
379828,-166.666666666667,4,1,0,25,0,0

[HitObjects]
176,184,738,5,0,0:0:0:0:
176,184,1249,1,8,0:0:0:0:
176,184,2101,1,0,0:0:0:0:
176,184,2612,1,8,0:0:0:0:
176,184,3465,1,0,0:0:0:0:
176,184,3976,1,8,0:0:0:0:
120,148,4828,1,0,0:0:0:0:
208,120,5510,1,8,0:0:0:0:
176,184,6192,5,0,0:0:0:0:
176,184,6703,1,8,0:0:0:0:
176,184,7556,1,0,0:0:0:0:
176,184,8067,1,8,0:0:0:0:
176,184,8919,1,0,0:0:0:0:
176,184,9430,1,8,0:0:0:0:
176,120,9942,1,0,0:0:0:0:
176,120,10113,1,8,0:0:0:0:
176,120,10283,1,0,0:0:0:0:
160,164,10453,1,12,0:0:0:0:
180,88,11647,5,0,0:0:0:0:
180,88,12328,1,8,0:0:0:0:
216,256,13010,1,0,0:0:0:0:
216,256,13351,1,8,0:0:0:0:
216,248,13692,1,8,0:0:0:0:
184,160,14374,1,0,0:0:0:0:
184,160,15056,1,8,0:0:0:0:
160,140,15738,1,0,0:0:0:0:
160,140,16078,1,0,0:0:0:0:
160,140,16419,1,8,0:0:0:0:
184,128,16760,1,8,0:0:0:0:
184,128,17101,5,0,0:0:0:0:
260,124,17783,1,8,0:0:0:0:
196,128,18465,1,0,0:0:0:0:
196,128,18806,1,8,0:0:0:0:
196,128,19147,1,8,0:0:0:0:
200,148,19828,1,8,0:0:0:0:
200,148,20510,1,0,0:0:0:0:
224,168,21192,1,8,0:0:0:0:
224,168,21533,1,0,0:0:0:0:
224,168,21874,1,8,0:0:0:0:
224,168,22215,1,8,0:0:0:0:
224,168,22556,5,0,0:0:0:0:
176,152,23238,1,8,0:0:0:0:
152,196,23919,1,8,0:0:0:0:
152,196,24260,1,0,0:0:0:0:
152,196,24601,1,8,0:0:0:0:
72,160,25283,1,0,0:0:0:0:
136,156,25965,1,8,0:0:0:0:
256,176,26647,1,8,0:0:0:0:
256,176,26988,1,8,0:0:0:0:
256,176,27328,1,0,0:0:0:0:
288,208,28010,5,0,0:0:0:0:
256,152,28692,1,8,0:0:0:0:
204,152,29374,1,0,0:0:0:0:
204,152,29715,1,8,0:0:0:0:
204,152,30056,1,8,0:0:0:0:
204,152,30397,1,0,0:0:0:0:
204,152,30738,1,8,0:0:0:0:
132,180,31419,1,0,0:0:0:0:
136,176,32101,1,8,0:0:0:0:
256,192,33465,12,0,37556,0:0:0:0:
216,180,38919,5,0,0:0:0:0:
216,180,39260,1,8,0:0:0:0:
216,180,39601,1,8,0:0:0:0:
276,156,40283,1,8,0:0:0:0:
264,160,40624,1,0,0:0:0:0:
260,160,40965,1,8,0:0:0:0:
256,108,41647,1,0,0:0:0:0:
224,144,41988,1,0,0:0:0:0:
248,108,42328,1,8,0:0:0:0:
196,104,42669,1,0,0:0:0:0:
196,104,43010,1,8,0:0:0:0:
132,168,43692,1,0,0:0:0:0:
132,160,44374,5,8,0:0:0:0:
136,120,44715,1,0,0:0:0:0:
144,96,45056,1,8,0:0:0:0:
156,140,45738,1,0,0:0:0:0:
156,140,46078,1,8,0:0:0:0:
156,140,46419,1,8,0:0:0:0:
192,172,47101,1,8,0:0:0:0:
192,172,47442,1,8,0:0:0:0:
192,172,47783,1,0,0:0:0:0:
192,172,48124,1,8,0:0:0:0:
192,172,48465,1,8,0:0:0:0:
176,136,49147,1,8,0:0:0:0:
160,132,49828,5,0,0:0:0:0:
32,116,50169,1,8,0:0:0:0:
40,116,50510,1,8,0:0:0:0:
136,208,51192,1,8,0:0:0:0:
136,208,51533,1,0,0:0:0:0:
136,208,51874,1,8,0:0:0:0:
48,152,52556,1,0,0:0:0:0:
56,156,52897,1,8,0:0:0:0:
56,156,53238,1,0,0:0:0:0:
104,132,53919,1,8,0:0:0:0:
140,136,54260,1,8,0:0:0:0:
140,136,54601,1,0,0:0:0:0:
140,136,54942,1,8,0:0:0:0:
140,136,55283,5,0,0:0:0:0:
136,152,55965,1,8,0:0:0:0:
136,152,56306,1,8,0:0:0:0:
136,152,56647,1,0,0:0:0:0:
116,112,57328,1,0,0:0:0:0:
116,112,57669,1,8,0:0:0:0:
116,112,58010,1,8,0:0:0:0:
120,180,58692,1,0,0:0:0:0:
60,176,59374,1,8,0:0:0:0:
208,192,60738,5,4,0:0:0:0:
188,164,61419,1,8,0:0:0:0:
120,124,61931,1,8,0:0:0:0:
104,128,62442,1,0,0:0:0:0:
136,128,62783,1,8,0:0:0:0:
136,128,63124,1,0,0:0:0:0:
260,116,63465,1,8,0:0:0:0:
196,108,63976,1,8,0:0:0:0:
200,132,64488,1,0,0:0:0:0:
200,132,65169,1,8,0:0:0:0:
72,152,65510,1,8,0:0:0:0:
116,132,66192,5,0,0:0:0:0:
216,184,66874,1,8,0:0:0:0:
216,184,67385,1,0,0:0:0:0:
240,164,67897,1,0,0:0:0:0:
240,164,68238,1,0,0:0:0:0:
240,164,68578,1,8,0:0:0:0:
192,144,68919,1,8,0:0:0:0:
169,228,69260,1,8,0:0:0:0:
68,144,69431,1,8,0:0:0:0:
176,164,69942,1,0,0:0:0:0:
192,128,70623,1,0,0:0:0:0:
216,136,70964,1,8,0:0:0:0:
394,149,71476,1,8,0:0:0:0:
204,140,71647,5,4,0:0:0:0:
188,164,72328,1,8,0:0:0:0:
120,124,72840,1,8,0:0:0:0:
104,128,73351,1,0,0:0:0:0:
136,128,73692,1,8,0:0:0:0:
136,128,74033,1,0,0:0:0:0:
260,116,74374,1,8,0:0:0:0:
196,108,74885,1,8,0:0:0:0:
200,132,75397,1,0,0:0:0:0:
200,132,76078,1,0,0:0:0:0:
72,152,76419,1,8,0:0:0:0:
227,103,76760,1,0,0:0:0:0:
116,132,77101,5,12,0:0:0:0:
216,184,78124,1,8,0:0:0:0:
216,184,78465,1,0,0:0:0:0:
240,164,79487,1,8,0:0:0:0:
93,168,79658,1,0,0:0:0:0:
192,144,79828,1,8,0:0:0:0:
176,164,80851,1,8,0:0:0:0:
262,204,81192,1,8,0:0:0:0:
192,128,81703,1,0,0:0:0:0:
12,186,82215,1,8,0:0:0:0:
216,136,82556,5,8,0:0:0:0:
125,176,82897,1,0,0:0:0:0:
287,154,83919,1,0,0:0:0:0:
287,154,84601,1,0,0:0:0:0:
287,154,85283,1,8,0:0:0:0:
287,154,85624,1,8,0:0:0:0:
287,154,85965,1,8,0:0:0:0:
287,154,86306,1,8,0:0:0:0:
287,154,86647,1,8,0:0:0:0:
364,87,87669,1,0,0:0:0:0:
208,83,88010,5,12,0:0:0:0:
134,125,88522,1,0,0:0:0:0:
134,125,88692,1,8,0:0:0:0:
297,154,89203,1,8,0:0:0:0:
128,178,89374,1,8,0:0:0:0:
336,214,89544,1,0,0:0:0:0:
145,168,89715,1,8,0:0:0:0:
94,207,90397,1,0,0:0:0:0:
110,182,90738,1,8,0:0:0:0:
93,159,91078,1,8,0:0:0:0:
147,142,91419,1,0,0:0:0:0:
147,142,91760,1,8,0:0:0:0:
210,165,92101,1,8,0:0:0:0:
106,170,92272,1,8,0:0:0:0:
195,144,92442,1,0,0:0:0:0:
211,131,93124,5,0,0:0:0:0:
222,184,93294,1,0,0:0:0:0:
211,131,93465,1,8,0:0:0:0:
163,133,93806,1,0,0:0:0:0:
137,286,93976,1,0,0:0:0:0:
163,133,94147,1,8,0:0:0:0:
169,129,94488,1,8,0:0:0:0:
169,129,94828,1,0,0:0:0:0:
182,110,95169,1,0,0:0:0:0:
182,110,95510,1,8,0:0:0:0:
215,96,95851,1,0,0:0:0:0:
211,115,96192,1,8,0:0:0:0:
211,115,96533,1,8,0:0:0:0:
211,114,96874,1,0,0:0:0:0:
172,132,97385,1,8,0:0:0:0:
212,176,97897,1,0,0:0:0:0:
217,172,98238,1,8,0:0:0:0:
152,154,98578,1,8,0:0:0:0:
28,182,98749,1,0,0:0:0:0:
152,154,98919,5,12,0:0:0:0:
115,129,99431,1,0,0:0:0:0:
115,129,99601,1,8,0:0:0:0:
175,139,100112,1,0,0:0:0:0:
175,139,100283,1,8,0:0:0:0:
154,177,100453,1,0,0:0:0:0:
175,139,100624,1,8,0:0:0:0:
275,170,101306,1,0,0:0:0:0:
275,170,101647,1,8,0:0:0:0:
275,170,101988,1,0,0:0:0:0:
275,170,102328,1,8,0:0:0:0:
275,170,102669,1,8,0:0:0:0:
275,170,103010,1,0,0:0:0:0:
292,192,103181,1,0,0:0:0:0:
275,170,103351,1,8,0:0:0:0:
322,107,104033,5,0,0:0:0:0:
166,210,104203,1,8,0:0:0:0:
322,107,104374,1,8,0:0:0:0:
322,107,104715,1,0,0:0:0:0:
322,107,105056,1,8,0:0:0:0:
322,107,105397,1,0,0:0:0:0:
98,135,105567,1,8,0:0:0:0:
322,107,105738,1,8,0:0:0:0:
322,107,106078,1,8,0:0:0:0:
322,107,106419,1,0,0:0:0:0:
322,107,106760,1,8,0:0:0:0:
451,168,106931,1,0,0:0:0:0:
322,107,107101,1,8,0:0:0:0:
246,98,107442,1,0,0:0:0:0:
224,121,107783,1,8,0:0:0:0:
261,109,108294,1,8,0:0:0:0:
201,148,108806,1,0,0:0:0:0:
201,148,109147,1,8,0:0:0:0:
144,153,109488,1,0,0:0:0:0:
92,166,109658,1,0,0:0:0:0:
150,145,109828,5,12,0:0:0:0:
285,117,110510,1,8,0:0:0:0:
285,117,110851,1,8,0:0:0:0:
170,130,111022,1,0,0:0:0:0:
285,117,111192,1,8,0:0:0:0:
383,104,111874,1,0,0:0:0:0:
274,103,112215,1,8,0:0:0:0:
274,103,112556,1,8,0:0:0:0:
149,159,112897,1,0,0:0:0:0:
159,159,113238,1,8,0:0:0:0:
125,139,113578,1,8,0:0:0:0:
125,139,113749,1,0,0:0:0:0:
312,131,114260,5,8,0:0:0:0:
312,131,114601,1,0,0:0:0:0:
312,131,114942,1,8,0:0:0:0:
312,131,115283,1,8,0:0:0:0:
229,169,115624,1,0,0:0:0:0:
229,169,115965,1,8,0:0:0:0:
234,165,116306,1,8,0:0:0:0:
205,140,116988,1,8,0:0:0:0:
205,140,117328,1,0,0:0:0:0:
205,140,117669,1,0,0:0:0:0:
205,140,118010,1,12,0:0:0:0:
145,153,131647,5,0,0:0:0:0:
148,144,131988,5,8,0:0:0:0:
148,144,132158,1,0,0:0:0:0:
148,144,132328,1,8,0:0:0:0:
67,149,132669,1,0,0:0:0:0:
73,148,133010,1,8,0:0:0:0:
140,145,133351,1,8,0:0:0:0:
140,145,133522,1,8,0:0:0:0:
178,158,134033,1,0,0:0:0:0:
62,147,134203,1,0,0:0:0:0:
178,158,134374,1,8,0:0:0:0:
177,125,134715,1,8,0:0:0:0:
195,123,134885,1,0,0:0:0:0:
67,155,135397,1,8,0:0:0:0:
67,155,135567,1,0,0:0:0:0:
242,111,135738,1,8,0:0:0:0:
42,192,136078,1,0,0:0:0:0:
68,189,136419,1,8,0:0:0:0:
68,189,136760,1,0,0:0:0:0:
79,134,137101,1,8,0:0:0:0:
148,144,137442,5,8,0:0:0:0:
148,144,137613,1,8,0:0:0:0:
148,144,137782,1,8,0:0:0:0:
67,149,138123,1,8,0:0:0:0:
73,148,138464,1,0,0:0:0:0:
140,145,138805,1,8,0:0:0:0:
140,145,138976,1,0,0:0:0:0:
119,156,139488,1,0,0:0:0:0:
119,156,139658,1,8,0:0:0:0:
119,156,139828,1,8,0:0:0:0:
172,158,140169,1,8,0:0:0:0:
172,158,140340,1,0,0:0:0:0:
187,154,140852,1,0,0:0:0:0:
187,154,141022,1,8,0:0:0:0:
328,160,141192,1,0,0:0:0:0:
47,153,141874,1,0,0:0:0:0:
447,235,142215,1,8,0:0:0:0:
70,148,142556,5,0,0:0:0:0:
184,96,142897,1,8,0:0:0:0:
184,96,143067,1,0,0:0:0:0:
184,96,143238,1,8,0:0:0:0:
140,169,143579,1,0,0:0:0:0:
140,169,143749,1,8,0:0:0:0:
140,169,143920,1,8,0:0:0:0:
132,143,144260,1,8,0:0:0:0:
132,143,144430,1,0,0:0:0:0:
132,143,144601,1,0,0:0:0:0:
192,178,144772,1,8,0:0:0:0:
134,158,145283,1,0,0:0:0:0:
174,162,145624,1,8,0:0:0:0:
174,162,145794,1,8,0:0:0:0:
174,162,145965,1,0,0:0:0:0:
174,162,146306,1,0,0:0:0:0:
174,162,146476,1,8,0:0:0:0:
174,162,146647,1,8,0:0:0:0:
174,162,146988,1,8,0:0:0:0:
174,162,147158,1,0,0:0:0:0:
174,162,147328,1,8,0:0:0:0:
344,169,147499,1,0,0:0:0:0:
225,152,148010,5,0,0:0:0:0:
277,154,148351,1,8,0:0:0:0:
277,154,148522,1,0,0:0:0:0:
277,154,148692,1,8,0:0:0:0:
277,154,149033,1,0,0:0:0:0:
277,154,149203,1,0,0:0:0:0:
277,154,149374,1,8,0:0:0:0:
277,154,149715,1,8,0:0:0:0:
277,154,149885,1,0,0:0:0:0:
245,137,150397,1,0,0:0:0:0:
245,137,150567,1,8,0:0:0:0:
173,143,151078,1,8,0:0:0:0:
173,143,151249,1,0,0:0:0:0:
244,117,151590,1,0,0:0:0:0:
173,143,151760,1,0,0:0:0:0:
173,143,151931,1,8,0:0:0:0:
64,155,152442,1,0,0:0:0:0:
64,155,152783,1,8,0:0:0:0:
147,146,153124,1,8,0:0:0:0:
147,146,153465,1,4,0:0:0:0:
154,148,154147,5,8,0:0:0:0:
157,149,154488,1,8,0:0:0:0:
154,148,154658,1,8,0:0:0:0:
154,148,154828,1,0,0:0:0:0:
155,111,155169,1,0,0:0:0:0:
155,111,155510,1,8,0:0:0:0:
155,111,155851,1,0,0:0:0:0:
217,158,156192,1,8,0:0:0:0:
134,150,156703,1,8,0:0:0:0:
157,183,157215,1,0,0:0:0:0:
74,147,157726,1,0,0:0:0:0:
74,147,157897,1,8,0:0:0:0:
68,137,158238,1,8,0:0:0:0:
74,136,158578,1,8,0:0:0:0:
77,135,158919,1,0,0:0:0:0:
154,148,159601,1,0,0:0:0:0:
157,149,159942,1,8,0:0:0:0:
154,148,160112,1,0,0:0:0:0:
154,148,160282,1,8,0:0:0:0:
155,111,160624,1,8,0:0:0:0:
155,111,160965,1,0,0:0:0:0:
155,111,161305,1,0,0:0:0:0:
217,158,161646,1,8,0:0:0:0:
157,183,161988,1,0,0:0:0:0:
134,150,162158,1,8,0:0:0:0:
154,156,162669,1,0,0:0:0:0:
154,155,163010,1,8,0:0:0:0:
29,155,163351,1,0,0:0:0:0:
40,146,163692,1,8,0:0:0:0:
159,131,164033,1,8,0:0:0:0:
159,131,164374,5,0,0:0:0:0:
153,148,165056,1,8,0:0:0:0:
156,149,165397,1,8,0:0:0:0:
153,148,165567,1,8,0:0:0:0:
153,148,165737,1,0,0:0:0:0:
154,111,166078,1,0,0:0:0:0:
154,111,166419,1,8,0:0:0:0:
154,111,166760,1,0,0:0:0:0:
216,158,167101,1,8,0:0:0:0:
156,183,167612,1,0,0:0:0:0:
133,150,168124,1,8,0:0:0:0:
73,147,168806,1,0,0:0:0:0:
67,137,169147,1,8,0:0:0:0:
73,136,169487,1,8,0:0:0:0:
76,135,169828,5,0,0:0:0:0:
230,152,170510,1,8,0:0:0:0:
230,152,170851,1,0,0:0:0:0:
230,152,171192,1,8,0:0:0:0:
219,138,171874,1,0,0:0:0:0:
219,138,172215,1,8,0:0:0:0:
10,170,172385,1,0,0:0:0:0:
219,138,172556,1,8,0:0:0:0:
83,158,173238,1,8,0:0:0:0:
271,67,173578,1,8,0:0:0:0:
217,70,173919,1,0,0:0:0:0:
53,172,174260,1,0,0:0:0:0:
53,172,174431,1,8,0:0:0:0:
171,147,174772,1,0,0:0:0:0:
171,147,174942,1,8,0:0:0:0:
171,147,175113,1,8,0:0:0:0:
171,147,175283,5,0,0:0:0:0:
129,207,175965,1,0,0:0:0:0:
205,199,176647,1,0,0:0:0:0:
205,199,177328,1,0,0:0:0:0:
225,199,178010,1,8,0:0:0:0:
226,171,178351,1,8,0:0:0:0:
226,171,178692,1,8,0:0:0:0:
226,171,179033,1,8,0:0:0:0:
226,171,179374,1,8,0:0:0:0:
226,171,179715,1,8,0:0:0:0:
226,171,180056,1,8,0:0:0:0:
238,196,180397,1,0,0:0:0:0:
230,181,180738,5,12,0:0:0:0:
168,135,181078,1,0,0:0:0:0:
93,166,181249,1,0,0:0:0:0:
93,166,181419,1,8,0:0:0:0:
194,155,181760,1,0,0:0:0:0:
194,155,182101,1,8,0:0:0:0:
194,155,182272,1,0,0:0:0:0:
194,155,182442,1,8,0:0:0:0:
139,144,182783,1,0,0:0:0:0:
144,146,183124,1,0,0:0:0:0:
144,146,183465,1,8,0:0:0:0:
137,124,183806,1,8,0:0:0:0:
137,124,184147,1,0,0:0:0:0:
102,147,184488,1,8,0:0:0:0:
163,128,184828,1,8,0:0:0:0:
163,128,184998,1,8,0:0:0:0:
163,128,185168,1,0,0:0:0:0:
223,76,185510,1,0,0:0:0:0:
223,76,185851,5,8,0:0:0:0:
223,76,186022,1,0,0:0:0:0:
223,76,186192,1,8,0:0:0:0:
115,135,186533,1,0,0:0:0:0:
134,137,186703,1,8,0:0:0:0:
134,137,186874,1,8,0:0:0:0:
223,76,187215,1,8,0:0:0:0:
223,76,187556,1,0,0:0:0:0:
56,132,187897,1,8,0:0:0:0:
79,128,188238,1,8,0:0:0:0:
99,141,188578,1,0,0:0:0:0:
99,141,188919,1,8,0:0:0:0:
127,133,189260,1,8,0:0:0:0:
127,133,189431,1,8,0:0:0:0:
127,133,189601,1,0,0:0:0:0:
174,124,189942,1,0,0:0:0:0:
203,129,190113,1,0,0:0:0:0:
93,96,190283,1,8,0:0:0:0:
203,129,190624,1,0,0:0:0:0:
207,126,190965,1,8,0:0:0:0:
160,220,191135,1,8,0:0:0:0:
207,126,191306,1,0,0:0:0:0:
160,220,191476,1,0,0:0:0:0:
230,181,191647,5,8,0:0:0:0:
168,135,191987,1,0,0:0:0:0:
93,166,192158,1,0,0:0:0:0:
93,166,192328,1,8,0:0:0:0:
194,155,192669,1,0,0:0:0:0:
194,155,193010,1,8,0:0:0:0:
194,155,193181,1,0,0:0:0:0:
194,155,193351,1,8,0:0:0:0:
139,144,193692,1,0,0:0:0:0:
144,146,194033,1,0,0:0:0:0:
144,146,194374,1,8,0:0:0:0:
137,124,194715,1,8,0:0:0:0:
137,124,195056,1,0,0:0:0:0:
102,147,195397,1,8,0:0:0:0:
163,128,195737,1,8,0:0:0:0:
163,128,195907,1,0,0:0:0:0:
163,128,196077,1,8,0:0:0:0:
223,76,196419,1,0,0:0:0:0:
223,76,196760,1,0,0:0:0:0:
223,76,196931,1,8,0:0:0:0:
223,76,197101,5,8,0:0:0:0:
115,135,197442,1,8,0:0:0:0:
134,137,197612,1,0,0:0:0:0:
134,137,197783,1,8,0:0:0:0:
223,76,198124,1,0,0:0:0:0:
252,128,198294,1,8,0:0:0:0:
223,76,198465,1,8,0:0:0:0:
56,132,198806,1,8,0:0:0:0:
252,128,198976,1,0,0:0:0:0:
79,128,199147,1,8,0:0:0:0:
99,141,199488,1,0,0:0:0:0:
108,183,199658,1,0,0:0:0:0:
99,141,199828,1,8,0:0:0:0:
127,133,200169,1,8,0:0:0:0:
127,133,200510,1,0,0:0:0:0:
174,124,200851,1,0,0:0:0:0:
203,129,201022,1,0,0:0:0:0:
93,96,201192,1,8,0:0:0:0:
203,129,201533,1,0,0:0:0:0:
207,126,201874,1,0,0:0:0:0:
207,126,202215,1,0,0:0:0:0:
88,152,202385,1,0,0:0:0:0:
207,126,202556,5,12,0:0:0:0:
117,121,202897,1,0,0:0:0:0:
117,121,203238,1,8,0:0:0:0:
139,122,203578,1,8,0:0:0:0:
139,119,203749,1,8,0:0:0:0:
139,119,203919,1,0,0:0:0:0:
162,142,204260,1,8,0:0:0:0:
162,142,204601,1,0,0:0:0:0:
105,164,204942,1,8,0:0:0:0:
105,164,205283,1,8,0:0:0:0:
204,136,205624,1,0,0:0:0:0:
204,136,205965,1,8,0:0:0:0:
147,100,206306,1,8,0:0:0:0:
147,100,206476,1,0,0:0:0:0:
219,161,206647,1,8,0:0:0:0:
212,136,206988,1,0,0:0:0:0:
212,136,207328,1,8,0:0:0:0:
212,136,207669,1,0,0:0:0:0:
212,136,208010,1,8,0:0:0:0:
58,142,208351,1,8,0:0:0:0:
67,142,208692,1,0,0:0:0:0:
98,153,209033,1,0,0:0:0:0:
359,140,209203,1,0,0:0:0:0:
102,149,209374,1,8,0:0:0:0:
317,153,209715,1,8,0:0:0:0:
317,153,210056,1,0,0:0:0:0:
317,153,210397,1,8,0:0:0:0:
201,192,210738,1,0,0:0:0:0:
201,192,211078,1,0,0:0:0:0:
132,176,211249,1,0,0:0:0:0:
196,126,211419,1,8,0:0:0:0:
104,132,211760,1,8,0:0:0:0:
139,176,211931,1,0,0:0:0:0:
104,132,212101,1,8,0:0:0:0:
225,129,212442,5,0,0:0:0:0:
225,129,212783,1,8,0:0:0:0:
225,129,213124,1,0,0:0:0:0:
225,129,213465,1,8,0:0:0:0:
300,160,213806,1,8,0:0:0:0:
265,163,214147,1,0,0:0:0:0:
265,163,214488,1,8,0:0:0:0:
120,143,215169,1,8,0:0:0:0:
120,143,215510,1,0,0:0:0:0:
127,138,215851,1,8,0:0:0:0:
326,263,216192,5,12,0:0:0:0:
87,128,216703,1,8,0:0:0:0:
180,140,216789,1,8,0:0:0:0:
87,128,216874,1,8,0:0:0:0:
217,53,217385,1,8,0:0:0:0:
152,132,217470,1,8,0:0:0:0:
219,58,217556,1,8,0:0:0:0:
217,53,218067,1,8,0:0:0:0:
152,132,218152,1,8,0:0:0:0:
219,58,218238,1,8,0:0:0:0:
220,58,218408,1,0,0:0:0:0:
219,58,218578,1,0,0:0:0:0:
220,58,218749,1,0,0:0:0:0:
326,263,218919,5,12,0:0:0:0:
87,128,219430,1,0,0:0:0:0:
152,132,219516,1,0,0:0:0:0:
87,128,219601,1,0,0:0:0:0:
217,53,220113,1,0,0:0:0:0:
152,132,220198,1,0,0:0:0:0:
219,58,220284,1,0,0:0:0:0:
217,53,220794,1,0,0:0:0:0:
152,132,220879,1,0,0:0:0:0:
219,58,220965,1,0,0:0:0:0:
220,58,221135,1,8,0:0:0:0:
219,58,221305,1,8,0:0:0:0:
220,58,221476,1,8,0:0:0:0:
220,58,221646,5,4,0:0:0:0:
217,53,222158,1,8,0:0:0:0:
152,132,222243,1,8,0:0:0:0:
219,58,222329,1,8,0:0:0:0:
217,53,222840,1,8,0:0:0:0:
152,132,222925,1,8,0:0:0:0:
219,58,223011,1,8,0:0:0:0:
217,53,223522,1,8,0:0:0:0:
152,132,223607,1,8,0:0:0:0:
219,58,223693,1,8,0:0:0:0:
220,58,223863,1,0,0:0:0:0:
219,58,224033,1,0,0:0:0:0:
220,58,224204,1,0,0:0:0:0:
326,263,224374,5,12,0:0:0:0:
217,53,224885,1,0,0:0:0:0:
152,132,224970,1,0,0:0:0:0:
219,58,225056,1,0,0:0:0:0:
217,53,225567,1,0,0:0:0:0:
152,132,225652,1,0,0:0:0:0:
219,58,225738,1,0,0:0:0:0:
217,53,226249,1,0,0:0:0:0:
152,132,226334,1,0,0:0:0:0:
219,58,226420,1,0,0:0:0:0:
220,58,226590,1,8,0:0:0:0:
219,58,226760,1,8,0:0:0:0:
220,58,226931,1,8,0:0:0:0:
326,263,227101,5,4,0:0:0:0:
217,53,227613,1,8,0:0:0:0:
152,132,227698,1,8,0:0:0:0:
87,128,227783,1,8,0:0:0:0:
217,53,228294,1,8,0:0:0:0:
152,132,228379,1,8,0:0:0:0:
219,58,228465,1,8,0:0:0:0:
217,53,228976,1,8,0:0:0:0:
152,132,229061,1,8,0:0:0:0:
219,58,229147,1,8,0:0:0:0:
220,58,229317,1,0,0:0:0:0:
219,58,229487,1,0,0:0:0:0:
172,122,229658,1,0,0:0:0:0:
326,263,229828,5,12,0:0:0:0:
87,128,230339,1,0,0:0:0:0:
152,132,230425,1,0,0:0:0:0:
219,58,230511,1,0,0:0:0:0:
217,53,231022,1,0,0:0:0:0:
152,132,231107,1,0,0:0:0:0:
219,58,231192,1,0,0:0:0:0:
220,58,231533,1,8,0:0:0:0:
220,58,231874,1,8,0:0:0:0:
220,58,232044,1,8,0:0:0:0:
219,58,232215,1,8,0:0:0:0:
220,58,232385,1,8,0:0:0:0:
220,58,232557,5,4,0:0:0:0:
460,92,233238,1,8,0:0:0:0:
155,117,233749,1,8,0:0:0:0:
262,100,234260,1,0,0:0:0:0:
268,148,234601,1,8,0:0:0:0:
240,136,234942,1,0,0:0:0:0:
329,147,235283,1,8,0:0:0:0:
240,136,235794,1,0,0:0:0:0:
184,56,236306,1,8,0:0:0:0:
155,117,236647,1,0,0:0:0:0:
204,116,237328,1,8,0:0:0:0:
340,136,237669,1,8,0:0:0:0:
283,160,238010,1,0,0:0:0:0:
293,171,238692,1,8,0:0:0:0:
244,167,239203,1,8,0:0:0:0:
168,152,239715,1,0,0:0:0:0:
168,152,240056,1,0,0:0:0:0:
168,152,240397,1,8,0:0:0:0:
248,170,240738,1,8,0:0:0:0:
253,170,241249,1,0,0:0:0:0:
24,136,241760,1,8,0:0:0:0:
242,171,242101,1,0,0:0:0:0:
112,140,242442,1,8,0:0:0:0:
112,140,242783,1,8,0:0:0:0:
112,140,243124,1,0,0:0:0:0:
174,181,243465,5,4,0:0:0:0:
174,181,243806,1,0,0:0:0:0:
174,181,244147,1,8,0:0:0:0:
127,138,244488,1,8,0:0:0:0:
127,138,244658,1,8,0:0:0:0:
225,126,244999,1,8,0:0:0:0:
162,156,245169,1,0,0:0:0:0:
169,136,245510,1,8,0:0:0:0:
170,135,245851,1,8,0:0:0:0:
170,135,246022,1,0,0:0:0:0:
170,135,246192,1,8,0:0:0:0:
225,156,246703,1,0,0:0:0:0:
225,156,247215,1,8,0:0:0:0:
212,148,247897,1,0,0:0:0:0:
211,148,248238,1,8,0:0:0:0:
201,170,248578,1,8,0:0:0:0:
224,109,248919,5,4,0:0:0:0:
182,144,249260,1,8,0:0:0:0:
182,144,249431,1,8,0:0:0:0:
182,144,249601,1,4,0:0:0:0:
182,144,249942,1,8,0:0:0:0:
182,144,250113,1,8,0:0:0:0:
182,144,250283,1,4,0:0:0:0:
182,144,250624,1,8,0:0:0:0:
182,144,250795,1,8,0:0:0:0:
182,144,250965,1,4,0:0:0:0:
133,149,251135,1,8,0:0:0:0:
185,117,251306,1,8,0:0:0:0:
185,117,251476,1,8,0:0:0:0:
185,117,251647,5,4,0:0:0:0:
220,112,251988,1,12,0:0:0:0:
185,117,252328,1,4,0:0:0:0:
220,112,252669,1,12,0:0:0:0:
177,169,253010,1,0,0:0:0:0:
177,169,253181,1,0,0:0:0:0:
177,169,253351,1,8,0:0:0:0:
177,169,253522,1,8,0:0:0:0:
177,169,253692,1,0,0:0:0:0:
177,169,253863,1,8,0:0:0:0:
177,169,254033,1,0,0:0:0:0:
177,169,254203,1,0,0:0:0:0:
102,151,254374,1,8,0:0:0:0:
190,154,255056,1,0,0:0:0:0:
190,154,255738,1,0,0:0:0:0:
190,154,256419,1,0,0:0:0:0:
190,154,257101,1,0,0:0:0:0:
190,154,257783,1,0,0:0:0:0:
190,154,258465,1,0,0:0:0:0:
190,154,259147,1,0,0:0:0:0:
190,154,259828,1,0,0:0:0:0:
206,171,260510,1,0,0:0:0:0:
206,171,261192,1,0,0:0:0:0:
206,171,261874,1,0,0:0:0:0:
206,171,262556,1,8,0:0:0:0:
206,171,262897,1,8,0:0:0:0:
206,171,263238,1,8,0:0:0:0:
206,171,263578,1,8,0:0:0:0:
206,171,263919,1,0,0:0:0:0:
196,84,264005,1,8,0:0:0:0:
256,150,264090,1,8,0:0:0:0:
256,192,264260,12,0,266647,0:0:0:0:
298,140,268692,5,0,0:0:0:0:
92,168,270055,5,12,0:0:0:0:
130,160,270396,1,0,0:0:0:0:
130,160,270567,1,0,0:0:0:0:
130,160,270737,1,8,0:0:0:0:
377,91,271078,1,0,0:0:0:0:
275,106,271249,1,8,0:0:0:0:
275,106,271419,1,8,0:0:0:0:
275,106,271590,1,0,0:0:0:0:
275,106,271760,1,8,0:0:0:0:
131,154,272101,1,0,0:0:0:0:
112,132,272271,1,0,0:0:0:0:
112,132,272357,1,0,0:0:0:0:
131,154,272442,1,8,0:0:0:0:
131,154,272612,1,0,0:0:0:0:
131,154,272783,1,8,0:0:0:0:
185,130,273124,1,0,0:0:0:0:
204,123,273465,1,8,0:0:0:0:
204,123,273635,1,0,0:0:0:0:
204,123,273806,1,8,0:0:0:0:
204,123,273976,1,8,0:0:0:0:
204,123,274146,1,0,0:0:0:0:
197,109,274317,1,0,0:0:0:0:
197,109,274487,1,8,0:0:0:0:
180,96,274828,1,0,0:0:0:0:
96,160,274999,1,0,0:0:0:0:
96,160,275084,1,0,0:0:0:0:
199,145,275169,1,8,0:0:0:0:
199,145,275340,1,0,0:0:0:0:
199,145,275510,5,8,0:0:0:0:
199,145,275851,1,0,0:0:0:0:
199,145,276021,1,8,0:0:0:0:
199,145,276192,1,8,0:0:0:0:
202,120,276533,1,8,0:0:0:0:
201,120,276703,1,8,0:0:0:0:
201,120,276874,1,0,0:0:0:0:
163,124,277215,1,8,0:0:0:0:
200,104,277385,1,0,0:0:0:0:
200,104,277470,1,0,0:0:0:0:
183,130,277556,1,8,0:0:0:0:
232,72,277726,1,8,0:0:0:0:
186,132,277896,1,0,0:0:0:0:
189,131,278237,1,8,0:0:0:0:
176,168,278578,1,8,0:0:0:0:
176,168,278749,1,0,0:0:0:0:
176,168,278919,1,8,0:0:0:0:
146,151,279260,1,0,0:0:0:0:
146,151,279431,1,0,0:0:0:0:
168,128,279516,1,0,0:0:0:0:
294,126,279601,1,8,0:0:0:0:
294,126,279771,1,8,0:0:0:0:
294,126,279942,1,0,0:0:0:0:
294,126,280112,1,0,0:0:0:0:
294,126,280283,1,8,0:0:0:0:
229,75,280453,1,8,0:0:0:0:
229,75,280624,1,0,0:0:0:0:
186,192,280709,1,0,0:0:0:0:
229,75,280794,1,0,0:0:0:0:
229,75,280965,5,12,0:0:0:0:
130,160,281306,1,8,0:0:0:0:
130,160,281477,1,0,0:0:0:0:
130,160,281647,1,8,0:0:0:0:
377,91,281987,1,0,0:0:0:0:
275,106,282159,1,0,0:0:0:0:
275,106,282329,1,8,0:0:0:0:
275,106,282500,1,0,0:0:0:0:
275,106,282670,1,8,0:0:0:0:
131,154,283011,1,0,0:0:0:0:
168,120,283181,1,0,0:0:0:0:
168,120,283266,1,0,0:0:0:0:
131,154,283352,1,8,0:0:0:0:
131,154,283522,1,0,0:0:0:0:
131,154,283693,1,8,0:0:0:0:
185,130,284034,1,0,0:0:0:0:
204,123,284375,1,0,0:0:0:0:
204,123,284545,1,0,0:0:0:0:
204,123,284716,1,8,0:0:0:0:
204,123,284886,1,0,0:0:0:0:
204,123,285056,1,8,0:0:0:0:
197,109,285226,1,8,0:0:0:0:
197,109,285397,1,0,0:0:0:0:
180,96,285738,1,0,0:0:0:0:
199,145,286079,1,0,0:0:0:0:
199,145,286250,1,8,0:0:0:0:
199,145,286420,5,8,0:0:0:0:
199,145,286761,1,8,0:0:0:0:
199,145,286931,1,0,0:0:0:0:
199,145,287102,1,8,0:0:0:0:
202,120,287443,1,0,0:0:0:0:
201,120,287613,1,8,0:0:0:0:
201,120,287784,1,8,0:0:0:0:
163,124,288125,1,8,0:0:0:0:
183,112,288294,1,0,0:0:0:0:
183,130,288466,1,8,0:0:0:0:
186,132,288806,1,0,0:0:0:0:
241,180,288976,1,0,0:0:0:0:
189,131,289147,1,8,0:0:0:0:
176,168,289488,1,0,0:0:0:0:
176,168,289659,1,8,0:0:0:0:
176,168,289829,1,0,0:0:0:0:
146,151,290170,1,0,0:0:0:0:
146,151,290341,1,0,0:0:0:0:
232,148,290425,1,0,0:0:0:0:
294,126,290511,1,8,0:0:0:0:
294,126,290681,1,0,0:0:0:0:
294,126,290852,1,8,0:0:0:0:
294,126,291022,1,0,0:0:0:0:
294,126,291193,1,8,0:0:0:0:
229,75,291363,1,8,0:0:0:0:
208,160,291447,1,8,0:0:0:0:
229,75,291534,1,0,0:0:0:0:
229,75,291704,1,0,0:0:0:0:
229,75,291875,1,12,0:0:0:0:
142,126,293408,5,8,0:0:0:0:
142,126,293578,1,0,0:0:0:0:
186,116,293919,1,8,0:0:0:0:
186,116,294090,1,8,0:0:0:0:
186,116,294260,1,8,0:0:0:0:
186,116,294431,1,8,0:0:0:0:
186,116,294601,5,4,0:0:0:0:
283,170,294942,1,8,0:0:0:0:
283,170,295283,1,0,0:0:0:0:
283,170,295453,1,8,0:0:0:0:
203,169,295794,1,8,0:0:0:0:
203,169,295965,1,4,0:0:0:0:
203,169,296135,1,0,0:0:0:0:
203,169,296306,1,8,0:0:0:0:
186,171,296646,1,8,0:0:0:0:
186,171,296817,1,8,0:0:0:0:
232,148,296902,1,8,0:0:0:0:
186,171,296987,1,8,0:0:0:0:
186,171,297158,1,0,0:0:0:0:
186,171,297328,1,12,0:0:0:0:
125,138,297669,1,8,0:0:0:0:
125,138,297840,1,0,0:0:0:0:
125,138,298010,1,8,0:0:0:0:
64,153,298351,1,8,0:0:0:0:
64,153,298521,1,8,0:0:0:0:
64,153,298692,1,0,0:0:0:0:
220,135,299033,1,8,0:0:0:0:
220,135,299374,1,8,0:0:0:0:
265,110,299715,1,0,0:0:0:0:
200,91,300056,1,8,0:0:0:0:
151,135,300396,1,8,0:0:0:0:
151,135,300567,1,0,0:0:0:0:
151,135,300737,1,8,0:0:0:0:
109,137,301078,1,0,0:0:0:0:
109,137,301249,1,8,0:0:0:0:
184,117,301419,1,8,0:0:0:0:
184,117,301590,1,8,0:0:0:0:
184,117,301760,1,0,0:0:0:0:
184,117,301931,1,0,0:0:0:0:
184,117,302101,1,8,0:0:0:0:
184,117,302271,1,8,0:0:0:0:
232,148,302357,1,8,0:0:0:0:
184,117,302442,1,0,0:0:0:0:
184,117,302612,1,0,0:0:0:0:
184,117,302783,5,12,0:0:0:0:
143,151,303124,1,0,0:0:0:0:
143,151,303294,1,0,0:0:0:0:
143,151,303465,1,8,0:0:0:0:
231,152,303806,1,0,0:0:0:0:
231,152,303976,1,0,0:0:0:0:
231,152,304146,1,8,0:0:0:0:
231,152,304317,1,0,0:0:0:0:
231,152,304487,1,8,0:0:0:0:
221,162,304828,1,0,0:0:0:0:
220,162,304999,1,8,0:0:0:0:
220,162,305169,1,0,0:0:0:0:
220,162,305340,1,0,0:0:0:0:
220,162,305510,1,8,0:0:0:0:
89,170,305851,1,8,0:0:0:0:
76,165,306192,1,8,0:0:0:0:
123,162,306362,1,0,0:0:0:0:
123,162,306533,1,8,0:0:0:0:
123,162,306703,1,8,0:0:0:0:
123,162,306874,1,0,0:0:0:0:
123,162,307044,1,0,0:0:0:0:
123,162,307215,1,8,0:0:0:0:
240,176,307385,1,0,0:0:0:0:
240,176,307470,1,0,0:0:0:0:
247,122,307556,1,8,0:0:0:0:
247,122,307726,1,0,0:0:0:0:
247,122,307896,1,8,0:0:0:0:
247,122,308067,1,0,0:0:0:0:
247,122,308237,5,12,0:0:0:0:
77,165,308578,1,0,0:0:0:0:
77,165,308749,1,8,0:0:0:0:
77,165,308919,1,8,0:0:0:0:
267,84,309260,1,8,0:0:0:0:
267,84,309431,1,0,0:0:0:0:
267,84,309601,1,8,0:0:0:0:
267,84,309942,1,0,0:0:0:0:
267,84,310112,1,8,0:0:0:0:
267,84,310283,1,8,0:0:0:0:
66,170,310624,1,8,0:0:0:0:
66,170,310794,1,8,0:0:0:0:
66,170,310965,1,0,0:0:0:0:
200,138,311306,1,0,0:0:0:0:
200,138,311646,1,8,0:0:0:0:
200,138,311987,1,0,0:0:0:0:
200,138,312158,1,8,0:0:0:0:
182,182,312499,1,0,0:0:0:0:
182,182,312669,1,8,0:0:0:0:
182,182,312840,1,0,0:0:0:0:
182,182,313010,1,8,0:0:0:0:
182,182,313181,1,8,0:0:0:0:
264,164,313266,1,0,0:0:0:0:
182,182,313351,1,0,0:0:0:0:
182,182,313521,1,0,0:0:0:0:
182,182,313692,5,12,0:0:0:0:
212,148,314033,1,0,0:0:0:0:
212,148,314203,1,0,0:0:0:0:
212,148,314374,1,8,0:0:0:0:
212,148,314715,1,8,0:0:0:0:
212,148,314885,1,0,0:0:0:0:
212,148,315056,1,8,0:0:0:0:
156,151,315396,1,0,0:0:0:0:
156,151,315567,1,0,0:0:0:0:
156,151,315737,1,8,0:0:0:0:
156,151,315908,1,8,0:0:0:0:
264,164,315993,1,0,0:0:0:0:
156,151,316078,1,8,0:0:0:0:
156,151,316249,1,0,0:0:0:0:
156,151,316419,1,8,0:0:0:0:
112,176,316760,1,0,0:0:0:0:
112,176,316931,1,0,0:0:0:0:
112,176,317101,1,8,0:0:0:0:
84,152,317442,1,8,0:0:0:0:
84,152,317612,1,0,0:0:0:0:
128,124,317953,1,0,0:0:0:0:
128,124,318124,1,8,0:0:0:0:
128,124,318294,1,0,0:0:0:0:
172,103,318465,1,8,0:0:0:0:
172,103,318635,1,0,0:0:0:0:
236,144,318720,1,8,0:0:0:0:
172,103,318806,1,8,0:0:0:0:
172,103,318976,1,0,0:0:0:0:
172,103,319146,5,12,0:0:0:0:
152,160,319487,1,0,0:0:0:0:
152,160,319828,1,8,0:0:0:0:
152,160,319999,1,0,0:0:0:0:
152,160,320169,1,8,0:0:0:0:
152,160,320340,1,8,0:0:0:0:
152,160,320510,1,0,0:0:0:0:
184,128,320851,1,8,0:0:0:0:
184,128,321021,1,8,0:0:0:0:
184,128,321192,1,0,0:0:0:0:
184,128,321362,1,0,0:0:0:0:
184,128,321533,1,8,0:0:0:0:
184,128,321703,1,0,0:0:0:0:
184,128,321874,1,8,0:0:0:0:
288,128,322215,1,0,0:0:0:0:
288,128,322385,1,0,0:0:0:0:
288,128,322556,1,8,0:0:0:0:
184,144,322896,1,8,0:0:0:0:
212,164,323237,1,0,0:0:0:0:
32,176,323578,1,0,0:0:0:0:
128,168,323919,1,8,0:0:0:0:
200,132,324090,1,8,0:0:0:0:
200,132,324175,1,8,0:0:0:0:
96,132,324260,1,8,0:0:0:0:
96,132,324431,1,0,0:0:0:0:
96,132,324601,5,12,0:0:0:0:
224,144,324942,1,0,0:0:0:0:
224,144,325112,1,0,0:0:0:0:
224,144,325283,1,8,0:0:0:0:
336,120,325624,1,8,0:0:0:0:
328,120,325794,1,0,0:0:0:0:
328,116,325965,1,8,0:0:0:0:
288,216,326306,1,0,0:0:0:0:
288,216,326476,1,0,0:0:0:0:
288,216,326646,1,8,0:0:0:0:
288,216,326817,1,0,0:0:0:0:
169,158,326902,1,0,0:0:0:0:
288,216,326987,1,8,0:0:0:0:
288,216,327158,1,8,0:0:0:0:
288,216,327328,1,0,0:0:0:0:
160,136,327669,1,0,0:0:0:0:
160,136,327840,1,0,0:0:0:0:
160,136,328010,1,8,0:0:0:0:
180,120,328351,1,0,0:0:0:0:
180,120,328521,1,8,0:0:0:0:
128,172,328862,1,0,0:0:0:0:
128,172,329033,1,8,0:0:0:0:
128,172,329203,1,8,0:0:0:0:
180,120,329374,1,0,0:0:0:0:
180,120,329544,1,0,0:0:0:0:
188,144,329629,1,0,0:0:0:0:
180,120,329715,1,8,0:0:0:0:
180,120,329885,1,0,0:0:0:0:
180,120,330056,1,12,0:0:0:0:
156,88,330396,1,8,0:0:0:0:
156,88,330567,1,0,0:0:0:0:
172,92,330737,1,8,0:0:0:0:
188,152,331078,1,0,0:0:0:0:
188,152,331419,1,8,0:0:0:0:
188,152,331590,1,8,0:0:0:0:
188,152,331760,1,8,0:0:0:0:
40,168,331845,1,8,0:0:0:0:
188,152,331931,1,0,0:0:0:0:
396,208,332016,1,0,0:0:0:0:
188,152,332101,1,8,0:0:0:0:
272,164,332783,5,4,0:0:0:0:
152,160,333124,1,0,0:0:0:0:
152,160,333294,1,0,0:0:0:0:
152,160,333465,1,8,0:0:0:0:
208,112,333806,1,8,0:0:0:0:
240,248,333976,1,0,0:0:0:0:
168,160,334146,1,8,0:0:0:0:
116,184,334487,1,0,0:0:0:0:
116,184,334658,1,0,0:0:0:0:
116,184,334828,1,8,0:0:0:0:
116,184,334999,1,8,0:0:0:0:
132,120,335084,1,8,0:0:0:0:
116,184,335169,1,0,0:0:0:0:
116,184,335340,1,0,0:0:0:0:
116,184,335510,1,12,0:0:0:0:
176,164,335851,1,8,0:0:0:0:
176,164,336021,1,8,0:0:0:0:
176,164,336192,1,0,0:0:0:0:
83,155,336533,1,8,0:0:0:0:
83,155,336703,1,0,0:0:0:0:
83,155,336874,1,8,0:0:0:0:
123,130,337044,1,8,0:0:0:0:
123,130,337215,1,0,0:0:0:0:
123,130,337385,1,0,0:0:0:0:
222,145,337556,1,8,0:0:0:0:
222,145,337726,1,8,0:0:0:0:
176,96,337811,1,8,0:0:0:0:
222,145,337896,1,8,0:0:0:0:
222,145,338067,1,8,0:0:0:0:
222,145,338237,5,4,0:0:0:0:
92,146,338578,1,0,0:0:0:0:
92,146,338749,1,0,0:0:0:0:
92,146,338919,1,8,0:0:0:0:
83,166,339260,1,8,0:0:0:0:
83,166,339431,1,0,0:0:0:0:
83,166,339601,1,12,0:0:0:0:
131,138,339942,1,0,0:0:0:0:
131,138,340112,1,0,0:0:0:0:
131,138,340283,1,8,0:0:0:0:
276,108,340453,1,0,0:0:0:0:
276,108,340538,1,8,0:0:0:0:
14,123,340624,1,8,0:0:0:0:
268,108,340794,1,0,0:0:0:0:
145,147,340965,1,12,0:0:0:0:
145,147,341306,1,8,0:0:0:0:
145,147,341476,1,8,0:0:0:0:
145,147,341646,1,0,0:0:0:0:
136,100,341987,1,0,0:0:0:0:
136,100,342158,1,8,0:0:0:0:
136,100,342328,1,0,0:0:0:0:
167,189,342669,1,4,0:0:0:0:
11,158,343010,1,8,0:0:0:0:
11,158,343181,1,8,0:0:0:0:
11,158,343351,1,0,0:0:0:0:
268,108,343436,1,0,0:0:0:0:
11,158,343521,1,0,0:0:0:0:
268,108,343607,1,0,0:0:0:0:
11,158,343692,5,12,0:0:0:0:
183,147,344033,1,0,0:0:0:0:
183,147,344203,1,0,0:0:0:0:
183,147,344374,1,8,0:0:0:0:
183,147,344715,1,8,0:0:0:0:
183,147,344885,1,0,0:0:0:0:
183,147,345056,1,12,0:0:0:0:
105,133,345396,1,0,0:0:0:0:
153,138,345737,1,8,0:0:0:0:
153,138,345908,1,8,0:0:0:0:
153,138,346078,1,8,0:0:0:0:
296,96,346163,1,8,0:0:0:0:
153,138,346249,1,8,0:0:0:0:
153,138,346419,1,4,0:0:0:0:
139,154,346760,1,0,0:0:0:0:
139,154,346931,1,0,0:0:0:0:
139,154,347101,1,8,0:0:0:0:
230,137,347442,1,0,0:0:0:0:
163,57,347612,1,0,0:0:0:0:
230,137,347783,1,12,0:0:0:0:
120,135,348124,1,0,0:0:0:0:
120,135,348294,1,0,0:0:0:0:
120,135,348465,1,8,0:0:0:0:
120,135,348635,1,8,0:0:0:0:
120,135,348806,1,8,0:0:0:0:
256,116,348891,1,8,0:0:0:0:
120,135,348976,1,0,0:0:0:0:
120,135,349146,5,12,0:0:0:0:
70,147,349487,1,8,0:0:0:0:
70,147,349658,1,0,0:0:0:0:
70,147,349828,1,8,0:0:0:0:
194,124,350169,1,0,0:0:0:0:
194,124,350340,1,0,0:0:0:0:
194,124,350510,1,12,0:0:0:0:
163,159,350851,1,0,0:0:0:0:
209,97,351192,1,8,0:0:0:0:
209,97,351362,1,8,0:0:0:0:
216,120,351448,1,8,0:0:0:0:
209,97,351533,1,8,0:0:0:0:
209,97,351703,1,8,0:0:0:0:
209,97,351874,1,4,0:0:0:0:
120,144,352215,1,0,0:0:0:0:
120,144,352385,1,0,0:0:0:0:
144,113,352556,1,8,0:0:0:0:
143,152,352896,1,8,0:0:0:0:
142,152,353067,1,0,0:0:0:0:
152,152,353237,1,12,0:0:0:0:
152,152,353578,1,0,0:0:0:0:
152,152,353749,1,0,0:0:0:0:
152,152,353919,1,8,0:0:0:0:
152,152,354090,1,8,0:0:0:0:
208,120,354175,1,8,0:0:0:0:
152,152,354260,1,8,0:0:0:0:
152,152,354431,1,8,0:0:0:0:
152,152,354601,5,4,0:0:0:0:
320,226,355283,1,8,0:0:0:0:
320,226,355965,1,8,0:0:0:0:
320,226,356306,1,0,0:0:0:0:
320,226,356646,1,8,0:0:0:0:
205,155,357328,1,0,0:0:0:0:
206,172,358010,1,8,0:0:0:0:
216,134,358692,1,0,0:0:0:0:
216,134,359033,1,8,0:0:0:0:
216,134,359374,1,8,0:0:0:0:
225,129,359715,1,8,0:0:0:0:
220,135,360056,1,0,0:0:0:0:
94,158,360737,1,8,0:0:0:0:
165,162,361419,1,0,0:0:0:0:
165,162,361760,1,8,0:0:0:0:
165,162,362101,1,8,0:0:0:0:
133,152,362783,1,0,0:0:0:0:
133,152,363465,1,8,0:0:0:0:
257,163,364146,1,0,0:0:0:0:
257,163,364487,1,8,0:0:0:0:
257,163,364828,1,0,0:0:0:0:
257,163,365169,1,0,0:0:0:0:
257,163,365510,5,8,0:0:0:0:
23,184,366192,1,0,0:0:0:0:
197,135,366874,1,8,0:0:0:0:
197,135,367215,1,0,0:0:0:0:
197,135,367556,1,8,0:0:0:0:
266,148,368237,1,0,0:0:0:0:
266,148,368919,1,8,0:0:0:0:
210,149,369601,1,0,0:0:0:0:
210,149,369942,1,8,0:0:0:0:
220,149,370283,1,8,0:0:0:0:
221,149,370624,1,0,0:0:0:0:
221,149,370965,1,0,0:0:0:0:
206,162,371646,1,8,0:0:0:0:
266,136,372328,1,8,0:0:0:0:
266,136,372669,1,0,0:0:0:0:
266,136,373010,1,8,0:0:0:0:
277,142,373692,1,0,0:0:0:0:
229,134,374374,1,8,0:0:0:0:
101,157,375056,5,0,0:0:0:0:
256,192,375396,12,0,377442,0:0:0:0:
300,170,377783,5,8,0:0:0:0:
256,192,378124,12,0,380169,0:0:0:0:
282,177,380510,5,8,0:0:0:0:
