osu file format v14

[General]
AudioFilename: audio.mp3
AudioLeadIn: 0
PreviewTime: -1
Countdown: 1
SampleSet: None
StackLeniency: 1
Mode: 0
LetterboxInBreaks: 0
SkinPreference:- NLief -
WidescreenStoryboard: 0

[Editor]
DistanceSpacing: 1
BeatDivisor: 4
GridSize: 4
TimelineZoom: 1

[Metadata]
Title:Common World Domination
TitleUnicode:Common World Domination
Artist:PinocchioP
ArtistUnicode:PinocchioP
Creator:kabito1
Version:Taking Over the World
Source:
Tags:
BeatmapID:2045599
BeatmapSetID:977334

[Difficulty]
HPDrainRate:7
CircleSize:4
OverallDifficulty:10
ApproachRate:9.5
SliderMultiplier:1.4
SliderTickRate:1

[Events]
//Background and Video events
0,0,"Konachan.com - 282801 sample.jpg",0,0
//Break Periods
2,14251,26365
2,65509,74443
//Storyboard Layer 0 (Background)
//Storyboard Layer 1 (Fail)
//Storyboard Layer 2 (Pass)
//Storyboard Layer 3 (Foreground)
//Storyboard Sound Samples

[TimingPoints]
1534.80340822217,397.350993377483,4,1,0,100,1,0
10276,-100,4,2,0,100,0,0
39084,-100,4,1,0,100,0,0
39481,-100,4,1,0,100,0,0
45823,-100,4,1,0,100,0,0
52395,198.675496688742,4,1,0,100,1,0
65706,397.350993377483,4,2,0,100,1,0
100474,198.675496688742,4,1,0,100,1,0

[Colours]
Combo1 : 255,255,83
Combo2 : 0,128,255
Combo3 : 131,180,252
Combo4 : 255,255,164

[HitObjects]
72,48,1336,5,0,0:0:0:0:
157,80,1534,6,0,L|134:155,1,70
160,123,1932,6,0,P|249:183|254:182,2,70
250,151,2528,5,2,0:0:0:0:
334,40,2726,5,2,0:0:0:0:
416,206,2925,6,0,P|375:275|368:273,1,70
415,300,3322,6,0,P|340:277|333:270,1,70
346,223,3720,6,0,L|312:147,1,70
163,62,4117,5,2,0:0:0:0:
107,254,4316,5,2,0:0:0:0:
125,232,4514,6,0,P|205:273|208:287,1,70
166,271,4912,6,0,P|241:311|248:308,1,70
237,282,5309,6,0,P|285:183|278:180,1,140
274,177,5905,5,0,0:0:0:0:
417,166,6104,6,0,B|326:132|326:132|336:98|336:98|255:72|255:72,2,210
446,91,7495,6,0,P|378:46|376:46,1,70
256,192,7892,12,0,10276,0:0:0:0:
137,56,10475,6,0,P|192:124|192:126,2,70
118,66,11071,6,2,P|99:154|101:167,1,70
183,150,11468,5,2,0:0:0:0:
416,186,11667,5,2,0:0:0:0:
253,218,11865,6,2,P|232:306|232:312,1,70
263,286,12263,6,2,P|342:232|337:225,1,140
362,242,13654,6,0,P|307:173|305:173,2,70
132,63,26965,5,0,0:0:0:0:
81,112,27163,6,0,P|65:198|66:205,1,70
89,182,27561,6,0,P|97:267|97:268,1,70
71,260,27958,6,0,P|134:343|146:344,1,70
111,319,28355,6,0,P|228:298|230:278,1,140
208,215,28952,5,0,0:0:0:0:
252,33,29150,5,2,0:0:0:0:
284,152,29349,5,2,0:0:0:0:
235,287,29548,6,0,P|333:300|335:298,2,70
356,338,30144,5,0,0:0:0:0:
409,300,30342,6,0,P|443:229|441:222,1,70
426,246,30740,6,0,P|420:153|414:140,1,70
406,174,31137,6,0,P|397:78|393:73,3,70
338,78,31932,5,2,0:0:0:0:
78,128,32130,5,2,0:0:0:0:
179,205,32329,5,2,0:0:0:0:
338,78,32528,5,0,0:0:0:0:
322,114,32726,6,0,P|244:138|233:138,3,70
122,41,33521,6,0,P|106:127|107:134,1,70
130,111,33919,6,0,P|138:196|138:197,1,70
112,189,34316,6,0,P|175:272|187:273,1,70
417,46,34713,5,0,0:0:0:0:
435,77,34912,2,0,P|444:162|441:166,1,70
352,140,35309,5,2,0:0:0:0:
134,195,35508,5,2,0:0:0:0:
321,304,35706,5,2,0:0:0:0:
285,332,35905,6,0,P|190:340|172:336,1,70
175,324,36303,5,0,0:0:0:0:
117,85,36501,5,0,0:0:0:0:
140,119,36700,6,0,P|206:133|215:131,1,70
191,120,37097,6,0,P|270:95|294:103,1,70
408,143,37495,5,0,0:0:0:0:
437,166,37693,6,0,P|436:255|434:257,1,70
355,267,38091,5,0,0:0:0:0:
343,270,38488,5,0,0:0:0:0:
327,277,38885,5,0,0:0:0:0:
111,40,39283,6,0,P|70:146|75:163,1,70
114,93,39680,6,0,B|179:168|179:168|101:226|101:226|188:298|188:298,1,280
397,339,40673,6,0,P|484:319|494:314,2,70
415,300,41269,6,0,B|430:191|430:191|415:69|415:69|346:131|346:131,1,280
386,161,42263,6,0,B|294:117|294:117|277:173|277:173,1,140
247,157,42859,5,0,0:0:0:0:
292,222,43057,6,0,B|183:165|183:165|123:264|123:264|64:207|64:207,1,280
107,215,44051,6,0,P|124:128|127:126,1,70
137,118,44448,5,0,0:0:0:0:
429,63,44647,5,0,0:0:0:0:
180,178,44846,5,0,0:0:0:0:
372,21,45044,5,0,0:0:0:0:
353,61,45243,6,0,P|244:99|201:84,1,140
215,122,46038,5,0,0:0:0:0:
205,135,46236,5,0,0:0:0:0:
195,146,46832,5,0,0:0:0:0:
187,156,47031,5,0,0:0:0:0:
221,194,47627,6,0,P|263:276|262:280,1,70
228,262,48024,6,0,P|204:360|215:373,3,70
256,192,49415,12,0,51799,0:0:0:0:
77,75,52395,6,0,P|46:155|48:163,1,70
102,133,52593,5,0,0:0:0:0:
117,162,52693,5,0,0:0:0:0:
140,177,52792,5,0,0:0:0:0:
170,178,52891,5,0,0:0:0:0:
193,164,52991,5,0,0:0:0:0:
208,137,53090,5,0,0:0:0:0:
222,109,53189,5,0,0:0:0:0:
249,86,53289,5,0,0:0:0:0:
281,70,53388,5,0,0:0:0:0:
318,66,53487,5,0,0:0:0:0:
354,77,53587,5,0,0:0:0:0:
382,99,53686,5,0,0:0:0:0:
398,132,53785,5,0,0:0:0:0:
408,171,53885,5,0,0:0:0:0:
397,211,53984,5,0,0:0:0:0:
367,255,54083,5,0,0:0:0:0:
316,276,54183,5,0,0:0:0:0:
263,272,54282,5,0,0:0:0:0:
216,244,54381,5,0,0:0:0:0:
175,209,54481,5,0,0:0:0:0:
119,196,54580,5,0,0:0:0:0:
78,224,54679,5,0,0:0:0:0:
62,276,54779,5,0,0:0:0:0:
81,320,54878,5,0,0:0:0:0:
129,333,54977,5,0,0:0:0:0:
173,280,55176,6,0,P|254:345|260:347,5,70
310,322,55871,5,0,0:0:0:0:
350,294,55971,5,0,0:0:0:0:
370,248,56070,5,0,0:0:0:0:
371,197,56169,5,0,0:0:0:0:
359,148,56269,5,0,0:0:0:0:
330,105,56368,5,0,0:0:0:0:
286,76,56467,5,0,0:0:0:0:
236,73,56567,5,0,0:0:0:0:
194,97,56666,5,0,0:0:0:0:
168,131,56765,5,0,0:0:0:0:
169,171,56865,5,0,0:0:0:0:
196,201,56964,5,0,0:0:0:0:
237,222,57063,5,0,0:0:0:0:
280,218,57163,5,0,0:0:0:0:
316,198,57262,5,0,0:0:0:0:
345,168,57361,5,0,0:0:0:0:
363,122,57461,5,0,0:0:0:0:
363,74,57560,5,0,0:0:0:0:
326,43,57659,5,0,0:0:0:0:
283,44,57759,5,0,0:0:0:0:
249,57,57858,5,0,0:0:0:0:
210,109,58057,6,0,B|126:168|126:168|130:233|130:233,3,140
165,217,58752,5,0,0:0:0:0:
165,217,58851,5,0,0:0:0:0:
172,269,58951,5,0,0:0:0:0:
212,301,59050,5,0,0:0:0:0:
261,308,59149,5,0,0:0:0:0:
303,280,59249,5,0,0:0:0:0:
326,240,59348,5,0,0:0:0:0:
331,186,59447,5,0,0:0:0:0:
332,141,59547,5,0,0:0:0:0:
302,100,59646,5,0,0:0:0:0:
264,68,59745,5,0,0:0:0:0:
221,53,59845,5,0,0:0:0:0:
172,60,59944,5,0,0:0:0:0:
128,79,60044,5,0,0:0:0:0:
97,113,60143,5,0,0:0:0:0:
79,162,60242,5,0,0:0:0:0:
83,208,60342,5,0,0:0:0:0:
115,244,60441,5,0,0:0:0:0:
162,258,60540,5,0,0:0:0:0:
212,240,60640,5,0,0:0:0:0:
250,211,60739,5,0,0:0:0:0:
288,179,60838,5,0,0:0:0:0:
346,157,60938,5,0,0:0:0:0:
405,186,61037,5,0,0:0:0:0:
441,243,61136,5,0,0:0:0:0:
426,303,61236,5,0,0:0:0:0:
360,328,61335,5,0,0:0:0:0:
302,301,61534,6,0,P|199:287|190:290,5,70
256,192,62229,12,0,65309,0:0:0:0:
108,38,75043,6,0,B|79:128|80:133|80:134,1,70
121,100,75441,6,0,P|130:186|124:193,1,70
115,172,75838,6,0,L|92:252,3,70
123,272,76633,6,0,P|180:315|192:312,1,70
199,296,77030,6,0,P|282:282|287:280,1,70
288,262,77427,6,0,P|380:302|404:295,1,70
383,229,77825,5,2,0:0:0:0:
405,48,78023,5,2,0:0:0:0:
357,40,78222,6,0,P|261:49|251:56,1,70
261,28,78619,6,0,P|207:111|194:128,1,70
190,77,79017,6,0,P|213:184|218:190,3,70
124,202,79811,5,2,0:0:0:0:
383,232,80010,5,2,0:0:0:0:
81,309,80209,5,2,0:0:0:0:
424,129,80407,5,2,0:0:0:0:
379,100,80606,6,2,P|285:106|276:114,3,70
288,61,81401,6,0,P|193:41|179:45,1,70
190,66,81798,6,0,P|129:138|128:148,1,70
158,135,82196,6,0,P|170:227|179:240,1,70
199,239,82593,5,0,0:0:0:0:
199,239,82792,5,0,0:0:0:0:
257,170,82990,6,0,P|306:268|301:279,7,70
312,51,84580,5,0,0:0:0:0:
405,253,85374,5,0,0:0:0:0:
77,108,86169,5,0,0:0:0:0:
206,252,86368,5,0,0:0:0:0:
133,42,86566,5,0,0:0:0:0:
124,319,86765,5,0,0:0:0:0:
205,57,86964,5,0,0:0:0:0:
228,18,87162,6,0,P|303:66|302:84,2,105
369,40,87758,5,2,0:0:0:0:
343,111,87957,6,0,B|296:244|296:244|375:237|375:237|410:145|410:145,2,280
437,122,89745,6,0,P|401:31|396:29,2,70
98,324,90341,6,0,L|81:226,1,70
104,247,90739,6,0,L|118:167,1,70
88,168,91136,6,0,B|81:80|81:80|194:31|194:31|225:238|225:238,1,420
179,273,92527,6,0,P|257:313|264:311,3,70
330,216,93321,5,0,0:0:0:0:
330,216,94116,5,0,0:0:0:0:
330,216,94911,5,0,0:0:0:0:
330,216,95507,5,0,0:0:0:0:
386,247,95706,6,0,P|379:334|373:340,1,70
349,302,96103,6,0,P|263:318|255:313,1,70
252,308,96500,6,0,L|167:257,4,70
256,192,97692,12,0,100076,0:0:0:0:
114,162,100176,5,0,0:0:0:0:
114,162,100275,1,0,0:0:0:0:
128,107,100672,5,0,0:0:0:0:
163,82,100772,5,0,0:0:0:0:
202,61,100871,5,0,0:0:0:0:
248,53,100970,5,0,0:0:0:0:
297,61,101070,5,0,0:0:0:0:
333,86,101169,5,0,0:0:0:0:
366,123,101268,5,0,0:0:0:0:
372,167,101368,5,0,0:0:0:0:
353,208,101467,5,0,0:0:0:0:
312,232,101566,5,0,0:0:0:0:
264,236,101666,5,0,0:0:0:0:
225,210,101765,5,0,0:0:0:0:
197,176,101864,5,0,0:0:0:0:
166,146,101964,5,0,0:0:0:0:
123,135,102063,5,0,0:0:0:0:
85,153,102162,5,0,0:0:0:0:
68,193,102262,5,0,0:0:0:0:
80,240,102361,5,0,0:0:0:0:
120,269,102460,5,0,0:0:0:0:
181,279,102560,5,0,0:0:0:0:
222,229,102659,5,0,0:0:0:0:
252,175,102758,5,0,0:0:0:0:
301,145,102858,5,0,0:0:0:0:
354,135,102957,5,0,0:0:0:0:
416,186,103156,6,0,P|365:252|356:257,5,70
437,280,103851,5,0,0:0:0:0:
408,317,103950,5,0,0:0:0:0:
368,341,104050,5,0,0:0:0:0:
321,340,104149,5,0,0:0:0:0:
273,322,104248,5,0,0:0:0:0:
237,284,104348,5,0,0:0:0:0:
221,237,104447,5,0,0:0:0:0:
199,186,104546,5,0,0:0:0:0:
161,153,104646,5,0,0:0:0:0:
112,159,104745,5,0,0:0:0:0:
69,195,104844,5,0,0:0:0:0:
74,246,104944,5,0,0:0:0:0:
112,284,105043,5,0,0:0:0:0:
169,283,105142,5,0,0:0:0:0:
216,245,105242,5,0,0:0:0:0:
252,194,105341,5,0,0:0:0:0:
279,135,105440,5,0,0:0:0:0:
323,86,105540,5,0,0:0:0:0:
389,79,105639,5,0,0:0:0:0:
440,117,105738,5,0,0:0:0:0:
455,184,105838,5,0,0:0:0:0:
438,250,105937,5,0,0:0:0:0:
417,322,106136,6,0,B|321:334|321:334|263:285|263:285,3,140
251,248,107030,5,0,0:0:0:0:
205,222,107129,5,0,0:0:0:0:
199,166,107228,5,0,0:0:0:0:
211,112,107328,5,0,0:0:0:0:
243,71,107427,5,0,0:0:0:0:
296,58,107526,5,0,0:0:0:0:
341,67,107626,5,0,0:0:0:0:
378,91,107725,5,0,0:0:0:0:
392,133,107824,5,0,0:0:0:0:
386,177,107924,5,0,0:0:0:0:
361,220,108023,5,0,0:0:0:0:
316,247,108123,5,0,0:0:0:0:
265,236,108222,5,0,0:0:0:0:
234,195,108321,5,0,0:0:0:0:
225,147,108421,5,0,0:0:0:0:
203,97,108520,5,0,0:0:0:0:
159,79,108619,5,0,0:0:0:0:
112,99,108719,5,0,0:0:0:0:
88,151,108818,5,0,0:0:0:0:
86,202,108917,5,0,0:0:0:0:
120,246,109017,5,0,0:0:0:0:
184,243,109116,5,0,0:0:0:0:
210,184,109215,5,0,0:0:0:0:
245,131,109315,5,0,0:0:0:0:
305,96,109414,5,0,0:0:0:0:
374,144,109613,6,0,P|331:208|314:217,2,70
413,252,110010,5,0,0:0:0:0:
211,326,110109,5,0,0:0:0:0:
256,192,110209,12,0,113338,0:0:0:0:
