osu file format v14

[General]
AudioFilename: audio.mp3
AudioLeadIn: 0
PreviewTime: -1
Countdown: 0
SampleSet: Soft
StackLeniency: 0.7
Mode: 3
LetterboxInBreaks: 0
SpecialStyle: 0
WidescreenStoryboard: 0

[Editor]
Bookmarks: 59224
DistanceSpacing: 1.6
BeatDivisor: 4
GridSize: 4
TimelineZoom: 3.499999

[Metadata]
Title:Anonymous M (Hatsune Miku & ARuFa)
TitleUnicode:Anonymous M (Hatsune Miku & ARuFa)
Artist:PinocchioP
ArtistUnicode:PinocchioP
Creator:Q_legenda
Version:who is she
Source:
Tags:miku hatsune Anonymous M interview
BeatmapID:4573186
BeatmapSetID:2167609

[Difficulty]
HPDrainRate:7
CircleSize:4
OverallDifficulty:6
ApproachRate:5
SliderMultiplier:1.4
SliderTickRate:1

[Events]
//Background and Video events
0,0,"Screenshot 2024-04-17 164731.png",0,0
//Break Periods
//Storyboard Layer 0 (Background)
//Storyboard Layer 1 (Fail)
//Storyboard Layer 2 (Pass)
//Storyboard Layer 3 (Foreground)
//Storyboard Layer 4 (Overlay)
//Storyboard Sound Samples

[TimingPoints]
8591.74309959327,428.571428571429,4,2,0,100,1,0
15448,-33.3333333333333,4,2,0,100,0,0
15550,-200,4,2,0,100,0,0
15877,-100,4,2,0,100,0,0
18556,-10000,4,2,0,100,0,0
19091,-100,4,2,0,100,0,0
21984,-10000,4,2,0,100,0,0
22091,-100,4,2,0,100,0,0
27127,-10000,4,2,0,100,0,0
27234,-100,4,2,0,100,0,0
28841,-10000,4,2,0,100,0,0
28948,-100,4,2,0,100,0,0
33448,-10000,4,2,0,100,0,0
33663,-100,4,2,0,100,0,0
35163,-10000,4,2,0,100,0,0
35377,-100,4,2,0,100,0,0
35591,-50,4,2,0,100,0,0
35663,-200,4,2,0,100,0,0
35734,-50,4,2,0,100,0,0
35806,-200,4,2,0,100,0,0
35877,-50,4,2,0,100,0,0
35948,-200,4,2,0,100,0,0
36020,-50,4,2,0,100,0,0
36091,-10000,4,2,0,100,0,0
36163,-100,4,2,0,100,0,0
36877,-10000,4,2,0,100,0,0
37091,-100,4,2,0,100,0,0
38163,-40,4,2,0,100,0,0
38198,-196.078431372549,4,2,0,100,0,0
38234,-100,4,2,0,100,0,0
42877,-105.263157894737,4,2,0,100,0,0
42984,-111.111111111111,4,2,0,100,0,0
43091,-117.647058823529,4,2,0,100,0,0
43198,-125,4,2,0,100,0,0
43664,-62.5,4,2,0,100,0,0
43690,-10000,4,2,0,100,0,0
43716,-62.5,4,2,0,100,0,0
43741,-10000,4,2,0,100,0,0
43771,-125,4,2,0,100,0,0
49520,-117.647058823529,4,2,0,100,0,0
49627,-111.111111111111,4,2,0,100,0,0
49734,-105.263157894737,4,2,0,100,0,0
49841,-100,4,2,0,100,0,0
50163,-71.4285714285714,4,2,0,100,0,0
50234,-1000,4,2,0,100,0,0
50270,-100,4,2,0,100,0,0
50591,-71.4285714285714,4,2,0,100,0,0
50662,-1000,4,2,0,100,0,0
50698,-100,4,2,0,100,0,0
51020,-71.4285714285714,4,2,0,100,0,0
51091,-1000,4,2,0,100,0,0
51127,-100,4,2,0,100,0,0
51448,-71.4285714285714,4,2,0,100,0,0
51519,-1000,4,2,0,100,0,0
51555,-100,4,2,0,100,0,0
51877,-71.4285714285714,4,2,0,100,0,0
51948,-1000,4,2,0,100,0,0
51984,-100,4,2,0,100,0,0
52306,-71.4285714285714,4,2,0,100,0,0
52377,-1000,4,2,0,100,0,0
52413,-100,4,2,0,100,0,0
52734,-71.4285714285714,4,2,0,100,0,0
52805,-1000,4,2,0,100,0,0
52841,-100,4,2,0,100,0,0
53163,-71.4285714285714,4,2,0,100,0,0
53234,-1000,4,2,0,100,0,0
53270,-100,4,2,0,100,0,0
53591,-71.4285714285714,4,2,0,100,0,0
53662,-1000,4,2,0,100,0,0
53698,-100,4,2,0,100,0,0
59698,-10000,4,2,0,100,0,0
59806,-100,4,2,0,100,0,0
60448,-71.4285714285714,4,2,0,100,0,0
60519,-1000,4,2,0,100,0,0
60555,-100,4,2,0,100,0,0
61306,-71.4285714285714,4,2,0,100,0,0
61377,-1000,4,2,0,100,0,0
61413,-100,4,2,0,100,0,0
62163,-71.4285714285714,4,2,0,100,0,0
62234,-1000,4,2,0,100,0,0
62270,-100,4,2,0,100,0,0
63020,-71.4285714285714,4,2,0,100,0,0
63091,-1000,4,2,0,100,0,0
63127,-100,4,2,0,100,0,0
63877,-71.4285714285714,4,2,0,100,0,0
63948,-1000,4,2,0,100,0,0
63984,-100,4,2,0,100,0,0
64734,-71.4285714285714,4,2,0,100,0,0
64805,-1000,4,2,0,100,0,0
64841,-100,4,2,0,100,0,0
65591,-71.4285714285714,4,2,0,100,0,0
65662,-1000,4,2,0,100,0,0
65698,-100,4,2,0,100,0,0
66448,-71.4285714285714,4,2,0,100,0,0
66519,-1000,4,2,0,100,0,0
66555,-100,4,2,0,100,0,0
67306,-71.4285714285714,4,2,0,100,0,0
67377,-1000,4,2,0,100,0,0
67413,-100,4,2,0,100,0,0
69020,-71.4285714285714,4,2,0,100,0,0
69091,-1000,4,2,0,100,0,0
69127,-100,4,2,0,100,0,0
70737,-71.4285714285714,4,2,0,100,0,0
70808,-1000,4,2,0,100,0,0
70844,-100,4,2,0,100,0,0
72448,-71.4285714285714,4,2,0,100,0,0
72519,-1000,4,2,0,100,0,0
72555,-100,4,2,0,100,0,0
74056,-105.263157894737,4,2,0,100,0,0
74163,-111.111111111111,4,2,0,100,0,0
74270,-117.647058823529,4,2,0,100,0,0
74377,-125,4,2,0,100,0,0
75234,-111.111111111111,4,2,0,100,0,0
81663,-99.9999999999999,4,2,0,100,0,0
89591,-71.4285714285714,4,2,0,100,0,0
89662,-1000,4,2,0,100,0,0
89698,-100,4,2,0,100,0,0
89913,-71.4285714285714,4,2,0,100,0,0
89984,-1000,4,2,0,100,0,0
90020,-100,4,2,0,100,0,0
90448,-71.4285714285714,4,2,0,100,0,0
90519,-1000,4,2,0,100,0,0
90555,-100,4,2,0,100,0,0
90770,-71.4285714285714,4,2,0,100,0,0
90841,-1000,4,2,0,100,0,0
90877,-100,4,2,0,100,0,0
91306,-71.4285714285714,4,2,0,100,0,0
91377,-1000,4,2,0,100,0,0
91413,-100,4,2,0,100,0,0
91627,-71.4285714285714,4,2,0,100,0,0
91698,-1000,4,2,0,100,0,0
91734,-100,4,2,0,100,0,0
92163,-71.4285714285714,4,2,0,100,0,0
92234,-1000,4,2,0,100,0,0
92270,-100,4,2,0,100,0,0
92484,-71.4285714285714,4,2,0,100,0,0
92555,-1000,4,2,0,100,0,0
92591,-100,4,2,0,100,0,0
93020,-71.4285714285714,4,2,0,100,0,0
93091,-1000,4,2,0,100,0,0
93127,-100,4,2,0,100,0,0
93341,-71.4285714285714,4,2,0,100,0,0
93412,-1000,4,2,0,100,0,0
93448,-100,4,2,0,100,0,0
93877,-71.4285714285714,4,2,0,100,0,0
93948,-1000,4,2,0,100,0,0
93984,-100,4,2,0,100,0,0
94198,-71.4285714285714,4,2,0,100,0,0
94269,-1000,4,2,0,100,0,0
94305,-100,4,2,0,100,0,0
94734,-71.4285714285714,4,2,0,100,0,0
94805,-1000,4,2,0,100,0,0
94841,-100,4,2,0,100,0,0
96448,-71.4285714285714,4,2,0,100,0,0
96519,-1000,4,2,0,100,0,0
96555,-100,4,2,0,100,0,0
96877,-71.4285714285714,4,2,0,100,0,0
96948,-1000,4,2,0,100,0,0
96984,-100,4,2,0,100,0,0
97306,-71.4285714285714,4,2,0,100,0,0
97377,-1000,4,2,0,100,0,0
97413,-100,4,2,0,100,0,0
97734,-71.4285714285714,4,2,0,100,0,0
97805,-1000,4,2,0,100,0,0
97841,-100,4,2,0,100,0,0
98163,-71.4285714285714,4,2,0,100,0,0
98234,-1000,4,2,0,100,0,0
98270,-100,4,2,0,100,0,0
98591,-71.4285714285714,4,2,0,100,0,0
98662,-1000,4,2,0,100,0,0
98698,-100,4,2,0,100,0,0
99020,-71.4285714285714,4,2,0,100,0,0
99091,-1000,4,2,0,100,0,0
99127,-100,4,2,0,100,0,0
99448,-71.4285714285714,4,2,0,100,0,0
99519,-1000,4,2,0,100,0,0
99555,-100,4,2,0,100,0,0
99877,-71.4285714285714,4,2,0,100,0,0
99948,-1000,4,2,0,100,0,0
99984,-100,4,2,0,100,0,0

[HitObjects]
64,192,8591,128,0,9020:0:0:0:0:
448,192,8591,1,0,0:0:0:0:
320,192,8591,1,0,0:0:0:0:
192,192,8806,1,0,0:0:0:0:
192,192,9020,128,0,9341:0:0:0:0:
320,192,9020,1,0,0:0:0:0:
448,192,9020,1,0,0:0:0:0:
64,192,9234,1,0,0:0:0:0:
448,192,9341,128,0,9448:0:0:0:0:
320,192,9448,128,0,9877:0:0:0:0:
64,192,9448,1,0,0:0:0:0:
448,192,9663,1,0,0:0:0:0:
192,192,9877,128,0,10306:0:0:0:0:
64,192,9877,1,0,0:0:0:0:
320,192,10091,1,0,0:0:0:0:
64,192,10306,128,0,10520:0:0:0:0:
448,192,10306,1,0,0:0:0:0:
192,192,10520,128,0,10734:0:0:0:0:
320,192,10520,1,0,0:0:0:0:
448,192,10734,128,0,10948:0:0:0:0:
64,192,10734,1,0,0:0:0:0:
320,192,10948,128,0,11056:0:0:0:0:
64,192,10948,1,0,0:0:0:0:
192,192,11056,128,0,11163:0:0:0:0:
64,192,11163,128,0,11591:0:0:0:0:
448,192,11163,1,0,0:0:0:0:
192,192,11377,1,0,0:0:0:0:
320,192,11591,128,0,11698:0:0:0:0:
448,192,11591,1,0,0:0:0:0:
192,192,12020,128,0,12448:0:0:0:0:
448,192,12020,1,0,0:0:0:0:
320,192,12020,1,0,0:0:0:0:
64,192,12127,1,0,0:0:0:0:
320,192,12234,1,0,0:0:0:0:
64,192,12341,1,0,0:0:0:0:
320,192,12448,128,0,12770:0:0:0:0:
448,192,12448,1,0,0:0:0:0:
64,192,12663,1,0,0:0:0:0:
192,192,12770,128,0,12877:0:0:0:0:
320,192,12877,128,0,13306:0:0:0:0:
448,192,12877,1,0,0:0:0:0:
192,192,13091,1,0,0:0:0:0:
64,192,13306,128,0,13520:0:0:0:0:
192,192,13306,1,0,0:0:0:0:
448,192,13734,128,0,14163:0:0:0:0:
320,192,13734,1,0,0:0:0:0:
320,192,13948,1,0,0:0:0:0:
192,192,14163,128,0,14484:0:0:0:0:
64,192,14163,1,0,0:0:0:0:
448,192,14377,1,0,0:0:0:0:
320,192,14484,128,0,14591:0:0:0:0:
448,192,14591,128,0,14913:0:0:0:0:
192,192,14806,1,0,0:0:0:0:
320,192,14913,128,0,15020:0:0:0:0:
192,192,15020,128,0,15234:0:0:0:0:
64,192,15020,1,0,0:0:0:0:
192,192,15877,1,0,0:0:0:0:
64,192,15877,1,0,0:0:0:0:
448,192,15984,1,0,0:0:0:0:
192,192,16091,1,0,0:0:0:0:
320,192,16091,1,0,0:0:0:0:
448,192,16198,1,0,0:0:0:0:
64,192,16306,1,0,0:0:0:0:
192,192,16306,1,0,0:0:0:0:
448,192,16413,1,0,0:0:0:0:
192,192,16520,1,0,0:0:0:0:
320,192,16520,1,0,0:0:0:0:
64,192,16627,1,0,0:0:0:0:
320,192,16734,1,0,0:0:0:0:
448,192,16734,1,0,0:0:0:0:
64,192,16948,128,0,17163:0:0:0:0:
192,192,16975,128,0,17163:0:0:0:0:
320,192,17163,128,0,17377:0:0:0:0:
448,192,17189,128,0,17377:0:0:0:0:
64,192,17591,128,0,18127:0:0:0:0:
320,192,17591,128,0,17806:0:0:0:0:
192,192,17806,128,0,18127:0:0:0:0:
448,192,18020,128,0,18341:0:0:0:0:
320,192,18127,128,0,18341:0:0:0:0:
192,192,18341,128,0,18556:0:0:0:0:
64,192,18341,128,0,18448:0:0:0:0:
448,192,18448,128,0,18556:0:0:0:0:
320,192,18448,128,0,18556:0:0:0:0:
192,192,19306,1,0,0:0:0:0:
64,192,19306,1,0,0:0:0:0:
448,192,19413,1,0,0:0:0:0:
192,192,19520,1,0,0:0:0:0:
320,192,19520,1,0,0:0:0:0:
64,192,19627,1,0,0:0:0:0:
192,192,19734,1,0,0:0:0:0:
448,192,19734,1,0,0:0:0:0:
320,192,19841,1,0,0:0:0:0:
192,192,19948,1,0,0:0:0:0:
64,192,19948,1,0,0:0:0:0:
320,192,20056,1,0,0:0:0:0:
448,192,20163,1,0,0:0:0:0:
192,192,20163,1,0,0:0:0:0:
320,192,20377,128,0,20591:0:0:0:0:
448,192,20404,128,0,20591:0:0:0:0:
192,192,20591,128,0,20806:0:0:0:0:
64,192,20618,128,0,20806:0:0:0:0:
448,192,21020,128,0,21556:0:0:0:0:
320,192,21020,128,0,21234:0:0:0:0:
192,192,21234,128,0,21556:0:0:0:0:
320,192,21448,128,0,21770:0:0:0:0:
64,192,21556,128,0,21770:0:0:0:0:
448,192,21770,128,0,21984:0:0:0:0:
192,192,21770,128,0,21877:0:0:0:0:
64,192,21877,128,0,21984:0:0:0:0:
320,192,21877,128,0,21984:0:0:0:0:
192,192,22306,128,0,22413:0:0:0:0:
320,192,22413,128,0,22520:0:0:0:0:
64,192,22520,128,0,22627:0:0:0:0:
448,192,22627,128,0,22734:0:0:0:0:
192,192,22734,1,0,0:0:0:0:
320,192,22734,1,0,0:0:0:0:
64,192,22841,1,0,0:0:0:0:
448,192,22948,1,0,0:0:0:0:
320,192,22948,1,0,0:0:0:0:
192,192,23056,1,0,0:0:0:0:
448,192,23163,1,0,0:0:0:0:
64,192,23163,1,0,0:0:0:0:
320,192,23270,1,0,0:0:0:0:
448,192,23377,1,0,0:0:0:0:
192,192,23377,1,0,0:0:0:0:
320,192,23484,1,0,0:0:0:0:
192,192,23591,1,0,0:0:0:0:
64,192,23591,1,0,0:0:0:0:
320,192,23618,128,0,23806:0:0:0:0:
448,192,23618,128,0,23779:0:0:0:0:
64,192,23806,128,0,23913:0:0:0:0:
192,192,23806,1,0,0:0:0:0:
448,192,23913,1,0,0:0:0:0:
320,192,23913,128,0,24020:0:0:0:0:
192,192,24020,128,0,24234:0:0:0:0:
320,192,24234,128,0,24448:0:0:0:0:
448,192,24234,1,0,0:0:0:0:
64,192,24234,1,0,0:0:0:0:
192,192,24448,128,0,24663:0:0:0:0:
64,192,24475,128,0,24663:0:0:0:0:
448,192,24475,1,0,0:0:0:0:
320,192,24663,128,0,24823:0:0:0:0:
448,192,24663,128,0,24797:0:0:0:0:
192,192,24770,1,0,0:0:0:0:
64,192,24770,1,0,0:0:0:0:
320,192,24877,128,0,25091:0:0:0:0:
448,192,24877,128,0,25091:0:0:0:0:
192,192,25091,1,0,0:0:0:0:
64,192,25091,1,0,0:0:0:0:
320,192,25306,128,0,25520:0:0:0:0:
448,192,25332,128,0,25520:0:0:0:0:
64,192,25520,128,0,25654:0:0:0:0:
192,192,25520,128,0,25681:0:0:0:0:
320,192,25627,1,0,0:0:0:0:
448,192,25627,1,0,0:0:0:0:
192,192,25734,128,0,25948:0:0:0:0:
64,192,25734,128,0,25948:0:0:0:0:
320,192,25948,1,0,0:0:0:0:
448,192,25948,1,0,0:0:0:0:
64,192,26163,128,0,26698:0:0:0:0:
448,192,26163,128,0,26377:0:0:0:0:
320,192,26377,128,0,26698:0:0:0:0:
192,192,26591,128,0,26913:0:0:0:0:
448,192,26698,128,0,26913:0:0:0:0:
64,192,26913,128,0,27127:0:0:0:0:
320,192,26913,128,0,27020:0:0:0:0:
448,192,27020,128,0,27127:0:0:0:0:
192,192,27020,128,0,27127:0:0:0:0:
192,192,27448,128,0,27556:0:0:0:0:
320,192,27448,128,0,27663:0:0:0:0:
448,192,27556,128,0,27663:0:0:0:0:
192,192,27663,128,0,27877:0:0:0:0:
448,192,27770,128,0,27877:0:0:0:0:
320,192,27877,128,0,28091:0:0:0:0:
64,192,27877,128,0,28413:0:0:0:0:
448,192,28091,128,0,28413:0:0:0:0:
192,192,28306,128,0,28627:0:0:0:0:
320,192,28413,128,0,28627:0:0:0:0:
64,192,28627,128,0,28841:0:0:0:0:
448,192,28627,128,0,28734:0:0:0:0:
320,192,28734,128,0,28841:0:0:0:0:
192,192,28734,128,0,28841:0:0:0:0:
320,192,29163,128,0,29591:0:0:0:0:
192,192,29163,128,0,29591:0:0:0:0:
64,192,29163,128,0,29591:0:0:0:0:
448,192,30020,1,0,0:0:0:0:
320,192,30020,1,0,0:0:0:0:
64,192,30127,1,0,0:0:0:0:
192,192,30234,1,0,0:0:0:0:
320,192,30234,1,0,0:0:0:0:
448,192,30341,1,0,0:0:0:0:
320,192,30448,1,0,0:0:0:0:
64,192,30448,1,0,0:0:0:0:
192,192,30448,1,0,0:0:0:0:
448,192,30663,1,0,0:0:0:0:
320,192,30663,1,0,0:0:0:0:
192,192,30877,1,0,0:0:0:0:
448,192,30877,1,0,0:0:0:0:
192,192,31091,1,0,0:0:0:0:
64,192,31091,1,0,0:0:0:0:
448,192,31198,1,0,0:0:0:0:
320,192,31306,1,0,0:0:0:0:
192,192,31306,1,0,0:0:0:0:
64,192,31413,1,0,0:0:0:0:
320,192,31520,1,0,0:0:0:0:
448,192,31520,1,0,0:0:0:0:
192,192,31734,1,0,0:0:0:0:
64,192,31734,1,0,0:0:0:0:
448,192,31841,1,0,0:0:0:0:
192,192,31948,1,0,0:0:0:0:
64,192,31948,1,0,0:0:0:0:
448,192,32163,128,0,32591:0:0:0:0:
64,192,32163,1,0,0:0:0:0:
192,192,32163,1,0,0:0:0:0:
64,192,32377,128,0,32806:0:0:0:0:
320,192,32377,1,0,0:0:0:0:
192,192,32377,1,0,0:0:0:0:
320,192,32591,1,0,0:0:0:0:
192,192,32591,1,0,0:0:0:0:
448,192,32806,1,0,0:0:0:0:
320,192,32806,1,0,0:0:0:0:
64,192,32913,128,0,33020:0:0:0:0:
192,192,32913,1,0,0:0:0:0:
448,192,33020,128,0,33127:0:0:0:0:
320,192,33020,1,0,0:0:0:0:
192,192,33127,128,0,33448:0:0:0:0:
64,192,33127,1,0,0:0:0:0:
448,192,33234,1,0,0:0:0:0:
320,192,33234,128,0,33448:0:0:0:0:
64,192,33448,1,0,0:0:0:0:
448,192,33448,1,0,0:0:0:0:
64,192,33877,128,0,34091:0:0:0:0:
192,192,33877,1,0,0:0:0:0:
448,192,33984,1,0,0:0:0:0:
320,192,34091,128,0,34198:0:0:0:0:
192,192,34091,1,0,0:0:0:0:
448,192,34198,1,0,0:0:0:0:
64,192,34198,128,0,34520:0:0:0:0:
192,192,34306,1,0,0:0:0:0:
320,192,34520,128,0,34627:0:0:0:0:
448,192,34520,1,0,0:0:0:0:
64,192,34627,1,0,0:0:0:0:
192,192,34627,128,0,34734:0:0:0:0:
448,192,34734,128,0,34841:0:0:0:0:
320,192,34734,1,0,0:0:0:0:
64,192,34841,128,0,34948:0:0:0:0:
192,192,34841,1,0,0:0:0:0:
448,192,34948,128,0,35163:0:0:0:0:
320,192,35056,128,0,35163:0:0:0:0:
64,192,35163,1,0,0:0:0:0:
192,192,35163,1,0,0:0:0:0:
320,192,35591,1,0,0:0:0:0:
448,192,35591,1,0,0:0:0:0:
192,192,35734,1,0,0:0:0:0:
64,192,35734,1,0,0:0:0:0:
448,192,35877,1,0,0:0:0:0:
320,192,35877,1,0,0:0:0:0:
192,192,36020,1,0,0:0:0:0:
64,192,36020,1,0,0:0:0:0:
448,192,36341,128,0,36448:0:0:0:0:
320,192,36341,1,0,0:0:0:0:
192,192,36448,128,0,36556:0:0:0:0:
64,192,36448,1,0,0:0:0:0:
320,192,36556,128,0,36663:0:0:0:0:
448,192,36556,1,0,0:0:0:0:
64,192,36663,128,0,36877:0:0:0:0:
192,192,36770,128,0,36877:0:0:0:0:
320,192,36877,1,0,0:0:0:0:
448,192,36877,1,0,0:0:0:0:
64,192,37306,1,0,0:0:0:0:
192,192,37306,128,0,37413:0:0:0:0:
448,192,37306,1,0,0:0:0:0:
448,192,37520,128,0,37627:0:0:0:0:
320,192,37520,1,0,0:0:0:0:
64,192,37627,128,0,37734:0:0:0:0:
192,192,37627,1,0,0:0:0:0:
320,192,37734,128,0,37841:0:0:0:0:
448,192,37734,1,0,0:0:0:0:
192,192,37948,128,0,38163:0:0:0:0:
320,192,38163,1,0,0:0:0:0:
448,192,38163,1,0,0:0:0:0:
64,192,38163,1,0,0:0:0:0:
320,192,38484,1,0,0:0:0:0:
448,192,38484,1,0,0:0:0:0:
192,192,38698,1,0,0:0:0:0:
64,192,38698,1,0,0:0:0:0:
320,192,38806,1,0,0:0:0:0:
448,192,38806,1,0,0:0:0:0:
320,192,39020,1,0,0:0:0:0:
64,192,39020,1,0,0:0:0:0:
448,192,39020,1,0,0:0:0:0:
192,192,39127,1,0,0:0:0:0:
320,192,39234,1,0,0:0:0:0:
448,192,39234,1,0,0:0:0:0:
192,192,39341,1,0,0:0:0:0:
64,192,39341,1,0,0:0:0:0:
448,192,39663,1,0,0:0:0:0:
64,192,39663,1,0,0:0:0:0:
192,192,39770,1,0,0:0:0:0:
320,192,39877,1,0,0:0:0:0:
448,192,39877,1,0,0:0:0:0:
64,192,39984,1,0,0:0:0:0:
320,192,40091,1,0,0:0:0:0:
448,192,40091,1,0,0:0:0:0:
64,192,40198,1,0,0:0:0:0:
192,192,40198,1,0,0:0:0:0:
448,192,40306,1,0,0:0:0:0:
320,192,40306,1,0,0:0:0:0:
192,192,40520,1,0,0:0:0:0:
64,192,40520,1,0,0:0:0:0:
320,192,40734,1,0,0:0:0:0:
448,192,40734,1,0,0:0:0:0:
64,192,40734,1,0,0:0:0:0:
64,192,41163,1,0,0:0:0:0:
192,192,41163,1,0,0:0:0:0:
448,192,41270,1,0,0:0:0:0:
320,192,41377,1,0,0:0:0:0:
64,192,41377,1,0,0:0:0:0:
192,192,41484,1,0,0:0:0:0:
320,192,41591,1,0,0:0:0:0:
448,192,41591,1,0,0:0:0:0:
64,192,41698,1,0,0:0:0:0:
192,192,41806,1,0,0:0:0:0:
448,192,41806,1,0,0:0:0:0:
320,192,41806,1,0,0:0:0:0:
192,192,42020,1,0,0:0:0:0:
64,192,42020,1,0,0:0:0:0:
448,192,42127,1,0,0:0:0:0:
320,192,42234,1,0,0:0:0:0:
64,192,42234,1,0,0:0:0:0:
192,192,42341,1,0,0:0:0:0:
320,192,42448,1,0,0:0:0:0:
448,192,42448,1,0,0:0:0:0:
192,192,42877,128,0,43091:0:0:0:0:
64,192,43306,128,0,43520:0:0:0:0:
448,192,43306,1,0,0:0:0:0:
192,192,43413,1,0,0:0:0:0:
320,192,43520,128,0,43948:0:0:0:0:
448,192,43520,1,0,0:0:0:0:
64,192,43948,1,0,0:0:0:0:
448,192,44056,1,0,0:0:0:0:
192,192,44163,128,0,44270:0:0:0:0:
448,192,44270,128,0,44698:0:0:0:0:
64,192,44377,1,0,0:0:0:0:
320,192,44377,128,0,44698:0:0:0:0:
192,192,44484,128,0,44591:0:0:0:0:
64,192,44698,128,0,45020:0:0:0:0:
192,192,44806,128,0,45020:0:0:0:0:
448,192,45020,128,0,45341:0:0:0:0:
192,192,45127,128,0,45556:0:0:0:0:
320,192,45234,128,0,45341:0:0:0:0:
64,192,45341,128,0,45448:0:0:0:0:
448,192,45448,128,0,45877:0:0:0:0:
320,192,45556,128,0,45663:0:0:0:0:
64,192,45663,128,0,45877:0:0:0:0:
192,192,45877,1,0,0:0:0:0:
320,192,45877,1,0,0:0:0:0:
448,192,46306,128,0,46734:0:0:0:0:
320,192,46413,128,0,46734:0:0:0:0:
64,192,46627,128,0,47056:0:0:0:0:
192,192,46734,128,0,46841:0:0:0:0:
320,192,46841,128,0,46948:0:0:0:0:
192,192,46948,128,0,47056:0:0:0:0:
320,192,47056,128,0,47270:0:0:0:0:
448,192,47163,128,0,47270:0:0:0:0:
64,192,47270,128,0,47591:0:0:0:0:
192,192,47377,128,0,47484:0:0:0:0:
448,192,47484,128,0,47806:0:0:0:0:
320,192,47591,128,0,47806:0:0:0:0:
192,192,47806,128,0,47913:0:0:0:0:
320,192,47913,128,0,48127:0:0:0:0:
64,192,48020,128,0,48341:0:0:0:0:
448,192,48020,128,0,48127:0:0:0:0:
192,192,48127,128,0,48341:0:0:0:0:
448,192,48234,128,0,48448:0:0:0:0:
320,192,48341,128,0,48448:0:0:0:0:
64,192,48448,128,0,48663:0:0:0:0:
192,192,48448,128,0,48556:0:0:0:0:
448,192,48556,128,0,48770:0:0:0:0:
320,192,48663,128,0,48984:0:0:0:0:
192,192,48770,128,0,48984:0:0:0:0:
64,192,48984,128,0,49198:0:0:0:0:
192,192,49091,128,0,49198:0:0:0:0:
320,192,49198,128,0,49306:0:0:0:0:
448,192,49198,128,0,49306:0:0:0:0:
64,192,49948,128,0,50163:0:0:0:0:
192,192,50056,128,0,50163:0:0:0:0:
320,192,50163,128,0,50377:0:0:0:0:
448,192,50163,128,0,50270:0:0:0:0:
192,192,50270,128,0,50377:0:0:0:0:
448,192,50377,128,0,50591:0:0:0:0:
320,192,50484,128,0,50591:0:0:0:0:
64,192,50591,128,0,50913:0:0:0:0:
192,192,50591,128,0,50698:0:0:0:0:
448,192,50698,128,0,50913:0:0:0:0:
192,192,50913,128,0,51020:0:0:0:0:
448,192,51020,128,0,51234:0:0:0:0:
320,192,51020,128,0,51127:0:0:0:0:
64,192,51127,128,0,51341:0:0:0:0:
192,192,51234,128,0,51341:0:0:0:0:
448,192,51341,128,0,51556:0:0:0:0:
64,192,51448,128,0,51556:0:0:0:0:
192,192,51448,128,0,51663:0:0:0:0:
320,192,51556,128,0,51770:0:0:0:0:
192,192,51770,128,0,51877:0:0:0:0:
448,192,51877,128,0,52091:0:0:0:0:
320,192,51877,128,0,51984:0:0:0:0:
64,192,51984,128,0,52091:0:0:0:0:
192,192,52091,128,0,52198:0:0:0:0:
320,192,52198,128,0,52413:0:0:0:0:
64,192,52306,128,0,52627:0:0:0:0:
448,192,52306,128,0,52413:0:0:0:0:
192,192,52413,128,0,52520:0:0:0:0:
448,192,52520,128,0,52627:0:0:0:0:
192,192,52627,128,0,52841:0:0:0:0:
320,192,52734,128,0,52841:0:0:0:0:
448,192,52734,128,0,52841:0:0:0:0:
64,192,52841,128,0,53056:0:0:0:0:
320,192,52948,128,0,53056:0:0:0:0:
448,192,53056,128,0,53270:0:0:0:0:
64,192,53163,128,0,53270:0:0:0:0:
192,192,53163,128,0,53484:0:0:0:0:
320,192,53270,128,0,53484:0:0:0:0:
320,192,53591,1,0,0:0:0:0:
192,192,53591,1,0,0:0:0:0:
64,192,53591,1,0,0:0:0:0:
448,192,53806,128,0,54020:0:0:0:0:
192,192,54020,128,0,54234:0:0:0:0:
320,192,54127,128,0,54448:0:0:0:0:
448,192,54234,128,0,54448:0:0:0:0:
192,192,54448,128,0,55091:0:0:0:0:
64,192,54448,128,0,54663:0:0:0:0:
320,192,54663,128,0,54877:0:0:0:0:
448,192,54877,128,0,55520:0:0:0:0:
320,192,55091,128,0,55734:0:0:0:0:
64,192,55091,128,0,55306:0:0:0:0:
192,192,55520,128,0,55734:0:0:0:0:
192,192,55948,128,0,56377:0:0:0:0:
320,192,56163,128,0,56591:0:0:0:0:
64,192,56377,128,0,57020:0:0:0:0:
192,192,56591,128,0,57020:0:0:0:0:
448,192,57020,1,0,0:0:0:0:
320,192,57020,1,0,0:0:0:0:
192,192,57127,1,0,0:0:0:0:
64,192,57234,1,0,0:0:0:0:
320,192,57234,1,0,0:0:0:0:
448,192,57341,1,0,0:0:0:0:
64,192,57448,1,0,0:0:0:0:
192,192,57448,1,0,0:0:0:0:
320,192,57556,1,0,0:0:0:0:
448,192,57663,1,0,0:0:0:0:
192,192,57663,1,0,0:0:0:0:
64,192,57770,1,0,0:0:0:0:
448,192,57877,1,0,0:0:0:0:
320,192,57877,1,0,0:0:0:0:
192,192,58091,128,0,58306:0:0:0:0:
320,192,58198,128,0,58306:0:0:0:0:
64,192,58306,128,0,58520:0:0:0:0:
448,192,58413,128,0,58734:0:0:0:0:
192,192,58520,128,0,58627:0:0:0:0:
320,192,58627,128,0,58734:0:0:0:0:
64,192,58734,128,0,59270:0:0:0:0:
192,192,58734,128,0,58948:0:0:0:0:
320,192,58948,128,0,59270:0:0:0:0:
448,192,59163,128,0,59484:0:0:0:0:
192,192,59270,128,0,59484:0:0:0:0:
64,192,59484,128,0,59698:0:0:0:0:
320,192,59484,128,0,59591:0:0:0:0:
448,192,59591,128,0,59698:0:0:0:0:
192,192,59591,128,0,59698:0:0:0:0:
320,192,60020,128,0,60448:0:0:0:0:
448,192,60020,128,0,60448:0:0:0:0:
192,192,60448,1,0,0:0:0:0:
64,192,60448,128,0,60663:0:0:0:0:
448,192,60663,1,0,0:0:0:0:
320,192,60770,1,0,0:0:0:0:
192,192,60877,128,0,61198:0:0:0:0:
64,192,60877,1,0,0:0:0:0:
320,192,61091,128,0,61198:0:0:0:0:
448,192,61198,128,0,61413:0:0:0:0:
320,192,61306,128,0,61413:0:0:0:0:
64,192,61520,1,0,0:0:0:0:
192,192,61627,1,0,0:0:0:0:
64,192,61734,128,0,62163:0:0:0:0:
448,192,61734,1,0,0:0:0:0:
320,192,61841,1,0,0:0:0:0:
192,192,61948,128,0,62163:0:0:0:0:
448,192,61948,1,0,0:0:0:0:
448,192,62163,128,0,62377:0:0:0:0:
320,192,62163,1,0,0:0:0:0:
192,192,62270,1,0,0:0:0:0:
320,192,62377,128,0,62591:0:0:0:0:
64,192,62377,1,0,0:0:0:0:
192,192,62484,1,0,0:0:0:0:
448,192,62591,128,0,62913:0:0:0:0:
64,192,62591,1,0,0:0:0:0:
192,192,62698,1,0,0:0:0:0:
64,192,62806,128,0,63020:0:0:0:0:
320,192,62806,1,0,0:0:0:0:
192,192,62913,128,0,63020:0:0:0:0:
320,192,63020,128,0,63234:0:0:0:0:
448,192,63020,1,0,0:0:0:0:
192,192,63448,128,0,63877:0:0:0:0:
448,192,63448,1,0,0:0:0:0:
64,192,63556,1,0,0:0:0:0:
320,192,63663,128,0,63877:0:0:0:0:
448,192,63663,1,0,0:0:0:0:
64,192,63877,128,0,64091:0:0:0:0:
192,192,64091,128,0,64520:0:0:0:0:
320,192,64091,1,0,0:0:0:0:
448,192,64198,128,0,64306:0:0:0:0:
64,192,64306,128,0,64520:0:0:0:0:
448,192,64520,128,0,64948:0:0:0:0:
320,192,64520,1,0,0:0:0:0:
192,192,64627,128,0,64734:0:0:0:0:
320,192,64734,128,0,64948:0:0:0:0:
192,192,65056,128,0,65163:0:0:0:0:
448,192,65163,128,0,65591:0:0:0:0:
64,192,65163,1,0,0:0:0:0:
320,192,65270,128,0,65591:0:0:0:0:
192,192,65377,128,0,65484:0:0:0:0:
64,192,65591,128,0,65806:0:0:0:0:
192,192,65806,128,0,66020:0:0:0:0:
320,192,65913,128,0,66020:0:0:0:0:
448,192,66020,128,0,66127:0:0:0:0:
64,192,66127,128,0,66234:0:0:0:0:
192,192,66234,128,0,66448:0:0:0:0:
448,192,66341,128,0,66448:0:0:0:0:
64,192,66448,128,0,66556:0:0:0:0:
320,192,66448,128,0,66556:0:0:0:0:
192,192,66877,128,0,67306:0:0:0:0:
64,192,66984,128,0,67306:0:0:0:0:
448,192,67306,128,0,67520:0:0:0:0:
320,192,67306,128,0,67413:0:0:0:0:
320,192,67520,128,0,67734:0:0:0:0:
448,192,67627,128,0,67734:0:0:0:0:
192,192,67734,128,0,67948:0:0:0:0:
64,192,67734,128,0,68056:0:0:0:0:
448,192,67948,128,0,68056:0:0:0:0:
320,192,68056,128,0,68377:0:0:0:0:
192,192,68163,128,0,68484:0:0:0:0:
64,192,68163,128,0,68270:0:0:0:0:
448,192,68377,128,0,68698:0:0:0:0:
64,192,68484,128,0,68806:0:0:0:0:
320,192,68591,128,0,68698:0:0:0:0:
192,192,68698,128,0,68806:0:0:0:0:
320,192,68806,128,0,69020:0:0:0:0:
64,192,69020,128,0,69234:0:0:0:0:
448,192,69020,128,0,69234:0:0:0:0:
320,192,69234,128,0,69448:0:0:0:0:
192,192,69341,128,0,69448:0:0:0:0:
448,192,69448,1,0,0:0:0:0:
64,192,69448,1,0,0:0:0:0:
320,192,69556,128,0,69663:0:0:0:0:
448,192,69663,128,0,69877:0:0:0:0:
320,192,69770,128,0,69877:0:0:0:0:
64,192,69877,128,0,70091:0:0:0:0:
192,192,69877,128,0,70198:0:0:0:0:
448,192,70306,128,0,70520:0:0:0:0:
64,192,70306,1,0,0:0:0:0:
192,192,70413,1,0,0:0:0:0:
320,192,70520,1,0,0:0:0:0:
64,192,70627,128,0,70948:0:0:0:0:
192,192,70627,1,0,0:0:0:0:
320,192,70734,128,0,70948:0:0:0:0:
448,192,70734,1,0,0:0:0:0:
192,192,70841,1,0,0:0:0:0:
448,192,70948,128,0,71056:0:0:0:0:
192,192,71056,128,0,71163:0:0:0:0:
320,192,71163,128,0,71377:0:0:0:0:
64,192,71163,1,0,0:0:0:0:
192,192,71270,1,0,0:0:0:0:
64,192,71377,1,0,0:0:0:0:
448,192,71484,128,0,71591:0:0:0:0:
192,192,71591,128,0,71806:0:0:0:0:
64,192,71591,1,0,0:0:0:0:
448,192,71698,1,0,0:0:0:0:
320,192,71806,1,0,0:0:0:0:
64,192,71913,128,0,72020:0:0:0:0:
448,192,72020,128,0,72234:0:0:0:0:
192,192,72020,1,0,0:0:0:0:
320,192,72127,1,0,0:0:0:0:
64,192,72234,128,0,72341:0:0:0:0:
192,192,72234,1,0,0:0:0:0:
320,192,72341,128,0,72448:0:0:0:0:
192,192,72448,128,0,72663:0:0:0:0:
64,192,72448,1,0,0:0:0:0:
448,192,72556,1,0,0:0:0:0:
320,192,72663,1,0,0:0:0:0:
448,192,72770,128,0,72877:0:0:0:0:
64,192,72877,128,0,73091:0:0:0:0:
320,192,72877,1,0,0:0:0:0:
192,192,72984,1,0,0:0:0:0:
320,192,73091,128,0,73198:0:0:0:0:
448,192,73091,1,0,0:0:0:0:
192,192,73198,128,0,73306:0:0:0:0:
448,192,73306,128,0,73520:0:0:0:0:
320,192,73306,1,0,0:0:0:0:
64,192,73413,1,0,0:0:0:0:
192,192,73520,1,0,0:0:0:0:
64,192,73627,128,0,73734:0:0:0:0:
320,192,73734,128,0,73948:0:0:0:0:
448,192,73734,1,0,0:0:0:0:
192,192,73841,1,0,0:0:0:0:
64,192,73948,1,0,0:0:0:0:
192,192,74056,128,0,74377:0:0:0:0:
320,192,74163,128,0,74377:0:0:0:0:
448,192,74484,128,0,74591:0:0:0:0:
192,192,74591,128,0,74806:0:0:0:0:
64,192,74591,1,0,0:0:0:0:
64,192,74913,128,0,75020:0:0:0:0:
448,192,75020,128,0,75234:0:0:0:0:
320,192,75020,1,0,0:0:0:0:
64,192,76091,1,0,0:0:0:0:
448,192,76091,1,0,0:0:0:0:
320,192,76091,1,0,0:0:0:0:
192,192,76198,1,0,0:0:0:0:
448,192,76306,1,0,0:0:0:0:
64,192,76306,1,0,0:0:0:0:
320,192,76413,1,0,0:0:0:0:
192,192,76520,1,0,0:0:0:0:
64,192,76520,1,0,0:0:0:0:
448,192,76520,1,0,0:0:0:0:
64,192,76734,1,0,0:0:0:0:
192,192,76734,1,0,0:0:0:0:
448,192,76734,1,0,0:0:0:0:
320,192,76841,1,0,0:0:0:0:
192,192,76948,1,0,0:0:0:0:
64,192,76948,1,0,0:0:0:0:
448,192,77056,1,0,0:0:0:0:
64,192,77163,1,0,0:0:0:0:
320,192,77163,1,0,0:0:0:0:
192,192,77270,1,0,0:0:0:0:
320,192,77377,1,0,0:0:0:0:
448,192,77377,1,0,0:0:0:0:
448,192,77806,1,0,0:0:0:0:
64,192,77806,1,0,0:0:0:0:
192,192,77806,1,0,0:0:0:0:
320,192,77913,1,0,0:0:0:0:
448,192,78020,1,0,0:0:0:0:
64,192,78020,1,0,0:0:0:0:
320,192,78127,1,0,0:0:0:0:
192,192,78234,1,0,0:0:0:0:
64,192,78234,1,0,0:0:0:0:
448,192,78234,1,0,0:0:0:0:
64,192,78448,128,0,78663:0:0:0:0:
192,192,78448,128,0,78556:0:0:0:0:
448,192,78448,1,0,0:0:0:0:
320,192,78663,128,0,79091:0:0:0:0:
448,192,78663,1,0,0:0:0:0:
192,192,78877,128,0,79091:0:0:0:0:
64,192,78877,1,0,0:0:0:0:
448,192,79091,128,0,79306:0:0:0:0:
64,192,79091,1,0,0:0:0:0:
64,192,79306,128,0,79520:0:0:0:0:
192,192,79306,1,0,0:0:0:0:
320,192,79413,128,0,79520:0:0:0:0:
192,192,79520,128,0,79734:0:0:0:0:
448,192,79520,1,0,0:0:0:0:
320,192,79627,128,0,79734:0:0:0:0:
64,192,80163,128,0,80377:0:0:0:0:
448,192,80163,128,0,80270:0:0:0:0:
192,192,80163,1,0,0:0:0:0:
320,192,80377,128,0,80591:0:0:0:0:
192,192,80377,1,0,0:0:0:0:
192,192,80591,128,0,80806:0:0:0:0:
448,192,80591,1,0,0:0:0:0:
64,192,80698,128,0,80806:0:0:0:0:
320,192,80806,128,0,81020:0:0:0:0:
448,192,80806,1,0,0:0:0:0:
64,192,81020,128,0,81234:0:0:0:0:
192,192,81020,1,0,0:0:0:0:
448,192,81127,128,0,81341:0:0:0:0:
320,192,81234,128,0,81341:0:0:0:0:
192,192,81234,1,0,0:0:0:0:
64,192,81341,128,0,81448:0:0:0:0:
448,192,81877,1,0,0:0:0:0:
320,192,81877,1,0,0:0:0:0:
64,192,81877,1,0,0:0:0:0:
192,192,81984,1,0,0:0:0:0:
448,192,82091,1,0,0:0:0:0:
64,192,82091,1,0,0:0:0:0:
320,192,82198,1,0,0:0:0:0:
192,192,82306,1,0,0:0:0:0:
64,192,82306,1,0,0:0:0:0:
320,192,82413,1,0,0:0:0:0:
448,192,82413,1,0,0:0:0:0:
320,192,82734,1,0,0:0:0:0:
192,192,82734,1,0,0:0:0:0:
64,192,82734,128,0,82948:0:0:0:0:
320,192,82948,128,0,83377:0:0:0:0:
192,192,83163,128,0,83377:0:0:0:0:
64,192,83163,1,0,0:0:0:0:
448,192,83377,128,0,83591:0:0:0:0:
64,192,83484,128,0,83591:0:0:0:0:
320,192,83591,128,0,83806:0:0:0:0:
192,192,83591,1,0,0:0:0:0:
192,192,83806,128,0,84020:0:0:0:0:
448,192,83913,128,0,84127:0:0:0:0:
64,192,84020,128,0,84234:0:0:0:0:
320,192,84020,1,0,0:0:0:0:
192,192,84127,128,0,84234:0:0:0:0:
320,192,84234,128,0,84448:0:0:0:0:
192,192,84341,128,0,84663:0:0:0:0:
64,192,84448,128,0,84663:0:0:0:0:
448,192,84448,1,0,0:0:0:0:
448,192,84663,128,0,84984:0:0:0:0:
320,192,84770,128,0,84877:0:0:0:0:
192,192,84877,128,0,85198:0:0:0:0:
64,192,84877,1,0,0:0:0:0:
320,192,84984,128,0,85198:0:0:0:0:
448,192,85198,128,0,85413:0:0:0:0:
192,192,85306,1,0,0:0:0:0:
64,192,85306,1,0,0:0:0:0:
320,192,85413,128,0,85734:0:0:0:0:
64,192,85520,128,0,85627:0:0:0:0:
192,192,85627,128,0,85734:0:0:0:0:
448,192,85734,128,0,85841:0:0:0:0:
64,192,85734,1,0,0:0:0:0:
192,192,85948,1,0,0:0:0:0:
64,192,85948,1,0,0:0:0:0:
192,192,86056,1,0,0:0:0:0:
448,192,86163,1,0,0:0:0:0:
320,192,86163,1,0,0:0:0:0:
320,192,86270,1,0,0:0:0:0:
64,192,86377,1,0,0:0:0:0:
448,192,86377,1,0,0:0:0:0:
192,192,86484,1,0,0:0:0:0:
448,192,86591,1,0,0:0:0:0:
320,192,86591,1,0,0:0:0:0:
64,192,86806,1,0,0:0:0:0:
448,192,86806,1,0,0:0:0:0:
320,192,86806,1,0,0:0:0:0:
192,192,87020,1,0,0:0:0:0:
320,192,87020,1,0,0:0:0:0:
448,192,87234,1,0,0:0:0:0:
64,192,87234,1,0,0:0:0:0:
320,192,87234,1,0,0:0:0:0:
192,192,87341,1,0,0:0:0:0:
64,192,87448,1,0,0:0:0:0:
448,192,87448,1,0,0:0:0:0:
320,192,87556,1,0,0:0:0:0:
448,192,87663,1,0,0:0:0:0:
192,192,87663,1,0,0:0:0:0:
64,192,87663,1,0,0:0:0:0:
64,192,88091,1,0,0:0:0:0:
320,192,88091,1,0,0:0:0:0:
192,192,88198,1,0,0:0:0:0:
320,192,88306,1,0,0:0:0:0:
448,192,88306,1,0,0:0:0:0:
192,192,88413,1,0,0:0:0:0:
64,192,88413,1,0,0:0:0:0:
448,192,88520,1,0,0:0:0:0:
64,192,88627,1,0,0:0:0:0:
448,192,88734,1,0,0:0:0:0:
320,192,88734,1,0,0:0:0:0:
192,192,88841,1,0,0:0:0:0:
64,192,88841,1,0,0:0:0:0:
192,192,89163,128,0,89377:0:0:0:0:
448,192,89591,128,0,89806:0:0:0:0:
64,192,89591,128,0,89698:0:0:0:0:
192,192,89591,128,0,89698:0:0:0:0:
320,192,89698,128,0,89806:0:0:0:0:
192,192,89806,128,0,90127:0:0:0:0:
64,192,89913,128,0,90020:0:0:0:0:
320,192,89913,128,0,90127:0:0:0:0:
448,192,90127,128,0,90448:0:0:0:0:
320,192,90234,128,0,90556:0:0:0:0:
64,192,90234,128,0,90341:0:0:0:0:
64,192,90448,128,0,90663:0:0:0:0:
192,192,90448,128,0,90556:0:0:0:0:
448,192,90556,128,0,90663:0:0:0:0:
192,192,90663,128,0,90770:0:0:0:0:
320,192,90770,128,0,90984:0:0:0:0:
448,192,90770,128,0,90877:0:0:0:0:
192,192,91091,128,0,91520:0:0:0:0:
64,192,91091,128,0,91198:0:0:0:0:
448,192,91198,128,0,91306:0:0:0:0:
64,192,91306,128,0,91520:0:0:0:0:
320,192,91306,128,0,91413:0:0:0:0:
448,192,91520,128,0,91841:0:0:0:0:
192,192,91627,1,0,0:0:0:0:
64,192,91627,1,0,0:0:0:0:
320,192,91734,128,0,91841:0:0:0:0:
64,192,91841,128,0,92056:0:0:0:0:
320,192,91948,1,0,0:0:0:0:
448,192,91948,1,0,0:0:0:0:
192,192,92056,128,0,92270:0:0:0:0:
448,192,92163,128,0,92270:0:0:0:0:
320,192,92163,128,0,92377:0:0:0:0:
64,192,92270,128,0,92377:0:0:0:0:
448,192,92377,128,0,92484:0:0:0:0:
320,192,92484,128,0,92806:0:0:0:0:
64,192,92484,128,0,92591:0:0:0:0:
448,192,92698,128,0,92913:0:0:0:0:
64,192,92806,128,0,93020:0:0:0:0:
192,192,92806,128,0,92913:0:0:0:0:
320,192,92913,128,0,93020:0:0:0:0:
192,192,93020,128,0,93234:0:0:0:0:
448,192,93020,128,0,93127:0:0:0:0:
192,192,93448,1,0,0:0:0:0:
64,192,93448,1,0,0:0:0:0:
448,192,93448,1,0,0:0:0:0:
448,192,93877,128,0,94091:0:0:0:0:
64,192,93877,128,0,93984:0:0:0:0:
192,192,93984,128,0,94198:0:0:0:0:
320,192,94091,128,0,94198:0:0:0:0:
64,192,94198,128,0,94413:0:0:0:0:
448,192,94198,128,0,94413:0:0:0:0:
320,192,94413,128,0,94734:0:0:0:0:
64,192,94520,1,0,0:0:0:0:
192,192,94520,1,0,0:0:0:0:
448,192,94627,128,0,94734:0:0:0:0:
192,192,94734,128,0,94948:0:0:0:0:
64,192,94734,128,0,94948:0:0:0:0:
448,192,95056,1,0,0:0:0:0:
320,192,95056,1,0,0:0:0:0:
64,192,95377,1,0,0:0:0:0:
192,192,95377,1,0,0:0:0:0:
448,192,95377,1,0,0:0:0:0:
320,192,95484,1,0,0:0:0:0:
64,192,95591,1,0,0:0:0:0:
192,192,95591,1,0,0:0:0:0:
448,192,95698,1,0,0:0:0:0:
320,192,95806,1,0,0:0:0:0:
64,192,95806,1,0,0:0:0:0:
192,192,95913,1,0,0:0:0:0:
320,192,96020,1,0,0:0:0:0:
448,192,96020,1,0,0:0:0:0:
64,192,96020,1,0,0:0:0:0:
448,192,96234,128,0,96448:0:0:0:0:
320,192,96341,128,0,96448:0:0:0:0:
64,192,96448,128,0,96556:0:0:0:0:
192,192,96448,128,0,96663:0:0:0:0:
320,192,96556,128,0,96663:0:0:0:0:
448,192,96663,128,0,96877:0:0:0:0:
320,192,96770,128,0,96877:0:0:0:0:
64,192,96877,128,0,97091:0:0:0:0:
192,192,96877,128,0,96984:0:0:0:0:
448,192,96984,128,0,97198:0:0:0:0:
320,192,97091,128,0,97198:0:0:0:0:
192,192,97198,128,0,97413:0:0:0:0:
448,192,97306,128,0,97413:0:0:0:0:
64,192,97413,128,0,97520:0:0:0:0:
320,192,97520,128,0,97734:0:0:0:0:
192,192,97627,128,0,97734:0:0:0:0:
448,192,97734,1,0,0:0:0:0:
320,192,97841,1,0,0:0:0:0:
448,192,97948,128,0,98163:0:0:0:0:
64,192,97948,1,0,0:0:0:0:
320,192,98056,128,0,98163:0:0:0:0:
64,192,98163,128,0,98270:0:0:0:0:
192,192,98163,128,0,98377:0:0:0:0:
320,192,98270,128,0,98377:0:0:0:0:
64,192,98377,128,0,98591:0:0:0:0:
320,192,98484,128,0,98591:0:0:0:0:
192,192,98591,128,0,98806:0:0:0:0:
448,192,98591,128,0,98698:0:0:0:0:
320,192,98698,128,0,98913:0:0:0:0:
64,192,98806,128,0,98913:0:0:0:0:
192,192,98913,128,0,99020:0:0:0:0:
448,192,99020,128,0,99127:0:0:0:0:
320,192,99020,128,0,99234:0:0:0:0:
64,192,99127,128,0,99234:0:0:0:0:
192,192,99234,128,0,99448:0:0:0:0:
320,192,99341,128,0,99448:0:0:0:0:
64,192,99448,1,0,0:0:0:0:
448,192,99556,1,0,0:0:0:0:
64,192,99663,1,0,0:0:0:0:
192,192,99770,1,0,0:0:0:0:
448,192,99877,128,0,100091:0:0:0:0:
64,192,99877,1,0,0:0:0:0:
320,192,99877,128,0,99984:0:0:0:0:
192,192,100091,128,0,100306:0:0:0:0:
320,192,100198,128,0,100306:0:0:0:0:
448,192,100306,128,0,100413:0:0:0:0:
64,192,100306,128,0,100520:0:0:0:0:
192,192,100413,128,0,100520:0:0:0:0:
320,192,100520,128,0,100734:0:0:0:0:
64,192,100627,128,0,100734:0:0:0:0:
448,192,100734,128,0,100948:0:0:0:0:
192,192,100734,128,0,100841:0:0:0:0:
64,192,100948,128,0,101163:0:0:0:0:
192,192,100948,1,0,0:0:0:0:
320,192,100948,128,0,101056:0:0:0:0:
192,192,101163,1,0,0:0:0:0:
320,192,101163,128,0,101377:0:0:0:0:
448,192,101163,128,0,101270:0:0:0:0:
192,192,101377,128,0,101806:0:0:0:0:
64,192,101377,128,0,101591:0:0:0:0:
448,192,101377,1,0,0:0:0:0:
320,192,101591,1,0,0:0:0:0:
448,192,101806,128,0,102020:0:0:0:0:
320,192,101806,1,0,0:0:0:0:
64,192,101806,1,0,0:0:0:0:
64,192,102020,1,0,0:0:0:0:
192,192,102020,1,0,0:0:0:0:
192,192,102234,128,0,102448:0:0:0:0:
320,192,102234,128,0,102341:0:0:0:0:
64,192,102234,1,0,0:0:0:0:
448,192,102448,128,0,102663:0:0:0:0:
320,192,102448,128,0,102556:0:0:0:0:
64,192,102448,1,0,0:0:0:0:
192,192,102663,128,0,102877:0:0:0:0:
64,192,102663,128,0,102770:0:0:0:0:
320,192,102663,1,0,0:0:0:0:
320,192,102877,128,0,103306:0:0:0:0:
448,192,102877,128,0,103306:0:0:0:0:
64,192,102877,1,0,0:0:0:0:
192,192,103306,1,0,0:0:0:0:
64,192,103306,1,0,0:0:0:0:
320,192,103413,1,0,0:0:0:0:
448,192,103520,1,0,0:0:0:0:
64,192,103520,1,0,0:0:0:0:
192,192,103627,1,0,0:0:0:0:
320,192,103734,1,0,0:0:0:0:
448,192,103734,1,0,0:0:0:0:
448,192,103948,1,0,0:0:0:0:
320,192,103948,1,0,0:0:0:0:
64,192,103948,1,0,0:0:0:0:
192,192,104056,1,0,0:0:0:0:
448,192,104163,1,0,0:0:0:0:
320,192,104163,1,0,0:0:0:0:
64,192,104377,1,0,0:0:0:0:
448,192,104377,1,0,0:0:0:0:
192,192,104377,1,0,0:0:0:0:
320,192,104484,1,0,0:0:0:0:
64,192,104591,1,0,0:0:0:0:
448,192,104591,1,0,0:0:0:0:
64,192,105020,1,0,0:0:0:0:
192,192,105020,1,0,0:0:0:0:
320,192,105047,1,0,0:0:0:0:
448,192,105073,1,0,0:0:0:0:
448,192,106734,128,0,107056:0:0:0:0:
320,192,106761,128,0,107029:0:0:0:0:
192,192,107270,128,0,107484:0:0:0:0:
64,192,107270,1,0,0:0:0:0:
448,192,107270,1,0,0:0:0:0:
320,192,107484,128,0,107698:0:0:0:0:
64,192,107698,128,0,107913:0:0:0:0:
448,192,107806,128,0,107913:0:0:0:0:
192,192,107806,1,0,0:0:0:0:
320,192,107913,128,0,108127:0:0:0:0:
192,192,108020,128,0,108127:0:0:0:0:
448,192,108127,128,0,108448:0:0:0:0:
320,192,108234,128,0,108448:0:0:0:0:
64,192,108234,1,0,0:0:0:0:
192,192,108448,128,0,108663:0:0:0:0:
448,192,108556,128,0,108663:0:0:0:0:
320,192,108663,128,0,108877:0:0:0:0:
64,192,108663,1,0,0:0:0:0:
192,192,108770,128,0,108877:0:0:0:0:
192,192,109520,1,0,0:0:0:0:
64,192,109520,1,0,0:0:0:0:
448,192,109734,1,0,0:0:0:0:
320,192,109734,1,0,0:0:0:0:
64,192,109841,1,0,0:0:0:0:
192,192,109841,1,0,0:0:0:0:
448,192,109948,1,0,0:0:0:0:
320,192,109948,1,0,0:0:0:0:
320,192,110163,1,0,0:0:0:0:
448,192,110163,1,0,0:0:0:0:
64,192,110189,1,0,0:0:0:0:
192,192,110216,1,0,0:0:0:0:
448,192,110591,1,0,0:0:0:0:
64,192,110806,1,0,0:0:0:0:
64,192,111020,1,0,0:0:0:0:
192,192,111127,1,0,0:0:0:0:
448,192,111234,1,0,0:0:0:0:
320,192,111341,1,0,0:0:0:0:
64,192,111448,1,0,0:0:0:0:
192,192,111448,1,0,0:0:0:0:
448,192,111877,1,0,0:0:0:0:
320,192,111877,1,0,0:0:0:0:
64,192,113163,128,0,113591:0:0:0:0:
448,192,113163,128,0,113591:0:0:0:0:
192,192,113591,1,0,0:0:0:0:
320,192,113591,128,0,113806:0:0:0:0:
192,192,113806,1,0,0:0:0:0:
320,192,113913,1,0,0:0:0:0:
192,192,114020,128,0,114341:0:0:0:0:
64,192,114020,1,0,0:0:0:0:
320,192,114234,128,0,114341:0:0:0:0:
448,192,114341,128,0,114556:0:0:0:0:
64,192,114448,128,0,114556:0:0:0:0:
320,192,114663,1,0,0:0:0:0:
192,192,114770,1,0,0:0:0:0:
448,192,114877,128,0,115306:0:0:0:0:
64,192,114877,1,0,0:0:0:0:
320,192,114984,1,0,0:0:0:0:
64,192,115091,128,0,115306:0:0:0:0:
192,192,115091,1,0,0:0:0:0:
320,192,115306,128,0,115520:0:0:0:0:
192,192,115306,1,0,0:0:0:0:
64,192,115413,1,0,0:0:0:0:
448,192,115520,128,0,115734:0:0:0:0:
192,192,115520,1,0,0:0:0:0:
320,192,115627,1,0,0:0:0:0:
192,192,115734,128,0,116056:0:0:0:0:
64,192,115734,1,0,0:0:0:0:
320,192,115841,1,0,0:0:0:0:
64,192,115948,128,0,116163:0:0:0:0:
448,192,115948,1,0,0:0:0:0:
320,192,116056,128,0,116163:0:0:0:0:
192,192,116163,128,0,116377:0:0:0:0:
448,192,116163,1,0,0:0:0:0:
320,192,116591,128,0,117020:0:0:0:0:
448,192,116591,1,0,0:0:0:0:
64,192,116698,1,0,0:0:0:0:
192,192,116806,128,0,117020:0:0:0:0:
448,192,116806,1,0,0:0:0:0:
448,192,117020,128,0,117234:0:0:0:0:
192,192,117234,128,0,117663:0:0:0:0:
64,192,117234,1,0,0:0:0:0:
448,192,117341,128,0,117448:0:0:0:0:
320,192,117448,128,0,117663:0:0:0:0:
448,192,117663,128,0,118091:0:0:0:0:
64,192,117663,1,0,0:0:0:0:
320,192,117770,128,0,117877:0:0:0:0:
64,192,117877,128,0,118091:0:0:0:0:
320,192,118198,128,0,118306:0:0:0:0:
192,192,118306,128,0,118734:0:0:0:0:
64,192,118306,1,0,0:0:0:0:
320,192,118413,128,0,118734:0:0:0:0:
64,192,118520,128,0,118627:0:0:0:0:
448,192,118734,128,0,118948:0:0:0:0:
64,192,118948,128,0,119163:0:0:0:0:
192,192,119056,128,0,119163:0:0:0:0:
448,192,119163,128,0,119270:0:0:0:0:
320,192,119270,128,0,119377:0:0:0:0:
64,192,119377,128,0,119591:0:0:0:0:
192,192,119484,128,0,119591:0:0:0:0:
448,192,119591,128,0,119698:0:0:0:0:
320,192,119591,128,0,119698:0:0:0:0:
320,192,120020,128,0,120448:0:0:0:0:
448,192,120127,128,0,120448:0:0:0:0:
64,192,120448,128,0,120663:0:0:0:0:
192,192,120448,128,0,120556:0:0:0:0:
448,192,120663,128,0,120877:0:0:0:0:
320,192,120770,128,0,120877:0:0:0:0:
192,192,120877,128,0,121091:0:0:0:0:
64,192,120877,128,0,121198:0:0:0:0:
320,192,121091,128,0,121198:0:0:0:0:
448,192,121198,128,0,121520:0:0:0:0:
192,192,121306,128,0,121627:0:0:0:0:
64,192,121306,128,0,121413:0:0:0:0:
320,192,121520,128,0,121841:0:0:0:0:
64,192,121627,128,0,121948:0:0:0:0:
448,192,121734,128,0,121841:0:0:0:0:
192,192,121841,128,0,121948:0:0:0:0:
448,192,121948,128,0,122163:0:0:0:0:
64,192,122163,128,0,122377:0:0:0:0:
192,192,122163,128,0,122377:0:0:0:0:
448,192,122377,128,0,122591:0:0:0:0:
320,192,122484,128,0,122591:0:0:0:0:
192,192,122591,1,0,0:0:0:0:
64,192,122591,1,0,0:0:0:0:
320,192,122698,128,0,122806:0:0:0:0:
448,192,122806,128,0,123020:0:0:0:0:
320,192,122913,128,0,123020:0:0:0:0:
64,192,123020,128,0,123234:0:0:0:0:
192,192,123020,128,0,123341:0:0:0:0:
64,192,123448,128,0,123663:0:0:0:0:
192,192,123448,1,0,0:0:0:0:
320,192,123556,1,0,0:0:0:0:
448,192,123663,1,0,0:0:0:0:
192,192,123770,128,0,124091:0:0:0:0:
64,192,123770,1,0,0:0:0:0:
320,192,123877,128,0,124091:0:0:0:0:
448,192,123877,1,0,0:0:0:0:
64,192,123984,1,0,0:0:0:0:
64,192,124091,128,0,124198:0:0:0:0:
192,192,124198,128,0,124306:0:0:0:0:
320,192,124306,128,0,124520:0:0:0:0:
448,192,124306,1,0,0:0:0:0:
192,192,124413,1,0,0:0:0:0:
64,192,124520,1,0,0:0:0:0:
320,192,124627,128,0,124734:0:0:0:0:
192,192,124734,128,0,124948:0:0:0:0:
64,192,124734,1,0,0:0:0:0:
448,192,124841,1,0,0:0:0:0:
64,192,124948,1,0,0:0:0:0:
320,192,125056,128,0,125163:0:0:0:0:
64,192,125163,128,0,125377:0:0:0:0:
448,192,125163,1,0,0:0:0:0:
192,192,125270,1,0,0:0:0:0:
448,192,125377,128,0,125484:0:0:0:0:
320,192,125377,1,0,0:0:0:0:
192,192,125484,128,0,125591:0:0:0:0:
320,192,125591,128,0,125806:0:0:0:0:
448,192,125591,1,0,0:0:0:0:
64,192,125698,1,0,0:0:0:0:
448,192,125806,1,0,0:0:0:0:
192,192,125913,128,0,126020:0:0:0:0:
64,192,126020,128,0,126234:0:0:0:0:
448,192,126020,1,0,0:0:0:0:
320,192,126127,1,0,0:0:0:0:
448,192,126234,128,0,126341:0:0:0:0:
192,192,126234,1,0,0:0:0:0:
192,192,126341,128,0,126448:0:0:0:0:
320,192,126448,128,0,126663:0:0:0:0:
448,192,126448,1,0,0:0:0:0:
64,192,126556,1,0,0:0:0:0:
192,192,126663,1,0,0:0:0:0:
320,192,126770,128,0,126877:0:0:0:0:
448,192,126770,1,0,0:0:0:0:
64,192,126877,128,0,127306:0:0:0:0:
192,192,126877,128,0,127306:0:0:0:0:
448,192,127306,128,0,127520:0:0:0:0:
320,192,127306,1,0,0:0:0:0:
64,192,127520,1,0,0:0:0:0:
192,192,127627,1,0,0:0:0:0:
448,192,127734,1,0,0:0:0:0:
320,192,127734,128,0,128056:0:0:0:0:
192,192,127948,128,0,128056:0:0:0:0:
64,192,128056,128,0,128270:0:0:0:0:
192,192,128163,128,0,128270:0:0:0:0:
448,192,128377,1,0,0:0:0:0:
320,192,128484,1,0,0:0:0:0:
64,192,128591,1,0,0:0:0:0:
448,192,128591,128,0,129020:0:0:0:0:
192,192,128698,1,0,0:0:0:0:
64,192,128806,1,0,0:0:0:0:
320,192,128806,128,0,129020:0:0:0:0:
192,192,129020,1,0,0:0:0:0:
64,192,129020,128,0,129234:0:0:0:0:
320,192,129127,1,0,0:0:0:0:
448,192,129234,1,0,0:0:0:0:
192,192,129234,128,0,129448:0:0:0:0:
320,192,129341,1,0,0:0:0:0:
448,192,129448,1,0,0:0:0:0:
64,192,129448,128,0,129770:0:0:0:0:
320,192,129556,1,0,0:0:0:0:
192,192,129663,1,0,0:0:0:0:
448,192,129663,128,0,129877:0:0:0:0:
320,192,129770,128,0,129877:0:0:0:0:
64,192,129877,1,0,0:0:0:0:
192,192,129877,128,0,130091:0:0:0:0:
64,192,130306,1,0,0:0:0:0:
320,192,130306,128,0,130734:0:0:0:0:
448,192,130413,1,0,0:0:0:0:
64,192,130520,1,0,0:0:0:0:
192,192,130520,128,0,130734:0:0:0:0:
448,192,130734,128,0,130948:0:0:0:0:
192,192,130948,1,0,0:0:0:0:
320,192,130948,128,0,131377:0:0:0:0:
64,192,131056,128,0,131163:0:0:0:0:
448,192,131163,128,0,131377:0:0:0:0:
192,192,131377,1,0,0:0:0:0:
64,192,131377,128,0,131806:0:0:0:0:
320,192,131484,128,0,131591:0:0:0:0:
192,192,131591,128,0,131806:0:0:0:0:
320,192,131913,128,0,132020:0:0:0:0:
448,192,132020,1,0,0:0:0:0:
64,192,132020,128,0,132448:0:0:0:0:
192,192,132127,128,0,132448:0:0:0:0:
320,192,132234,128,0,132341:0:0:0:0:
448,192,132448,128,0,132663:0:0:0:0:
320,192,132663,128,0,132877:0:0:0:0:
192,192,132770,128,0,132877:0:0:0:0:
64,192,132877,128,0,132984:0:0:0:0:
192,192,132984,128,0,133091:0:0:0:0:
448,192,133091,128,0,133306:0:0:0:0:
320,192,133198,128,0,133306:0:0:0:0:
192,192,133306,128,0,133413:0:0:0:0:
64,192,133306,128,0,133413:0:0:0:0:
320,192,133734,128,0,134163:0:0:0:0:
448,192,133841,128,0,134163:0:0:0:0:
64,192,134163,128,0,134270:0:0:0:0:
320,192,134270,128,0,134377:0:0:0:0:
192,192,134484,128,0,134698:0:0:0:0:
64,192,134484,128,0,134591:0:0:0:0:
448,192,134591,128,0,134913:0:0:0:0:
320,192,134591,128,0,134806:0:0:0:0:
64,192,134806,128,0,134913:0:0:0:0:
192,192,134913,128,0,135234:0:0:0:0:
448,192,135020,128,0,135127:0:0:0:0:
320,192,135020,128,0,135341:0:0:0:0:
64,192,135234,128,0,135556:0:0:0:0:
448,192,135341,128,0,135663:0:0:0:0:
192,192,135448,128,0,135556:0:0:0:0:
320,192,135556,128,0,135663:0:0:0:0:
192,192,135663,128,0,135877:0:0:0:0:
64,192,135877,128,0,136091:0:0:0:0:
448,192,135877,128,0,136091:0:0:0:0:
192,192,136091,128,0,136306:0:0:0:0:
320,192,136198,128,0,136306:0:0:0:0:
448,192,136306,1,0,0:0:0:0:
64,192,136306,1,0,0:0:0:0:
192,192,136413,128,0,136520:0:0:0:0:
64,192,136520,128,0,136734:0:0:0:0:
192,192,136627,128,0,136734:0:0:0:0:
320,192,136734,128,0,137056:0:0:0:0:
448,192,136734,128,0,136948:0:0:0:0:
448,192,137163,1,0,0:0:0:0:
64,192,137163,128,0,137377:0:0:0:0:
320,192,137270,1,0,0:0:0:0:
192,192,137377,1,0,0:0:0:0:
320,192,137484,1,0,0:0:0:0:
448,192,137484,128,0,137806:0:0:0:0:
64,192,137591,1,0,0:0:0:0:
192,192,137591,128,0,137806:0:0:0:0:
320,192,137698,1,0,0:0:0:0:
64,192,137806,128,0,137913:0:0:0:0:
320,192,137913,128,0,138020:0:0:0:0:
448,192,138020,1,0,0:0:0:0:
192,192,138020,128,0,138234:0:0:0:0:
320,192,138127,1,0,0:0:0:0:
448,192,138234,1,0,0:0:0:0:
64,192,138341,128,0,138448:0:0:0:0:
448,192,138448,1,0,0:0:0:0:
320,192,138448,128,0,138663:0:0:0:0:
64,192,138556,1,0,0:0:0:0:
192,192,138663,1,0,0:0:0:0:
448,192,138770,128,0,138877:0:0:0:0:
320,192,138877,1,0,0:0:0:0:
64,192,138877,128,0,139091:0:0:0:0:
192,192,138984,1,0,0:0:0:0:
320,192,139091,1,0,0:0:0:0:
448,192,139091,128,0,139198:0:0:0:0:
192,192,139198,128,0,139306:0:0:0:0:
448,192,139306,1,0,0:0:0:0:
320,192,139306,128,0,139520:0:0:0:0:
64,192,139413,1,0,0:0:0:0:
192,192,139520,1,0,0:0:0:0:
64,192,139627,128,0,139734:0:0:0:0:
192,192,139734,1,0,0:0:0:0:
448,192,139734,128,0,139948:0:0:0:0:
320,192,139841,1,0,0:0:0:0:
64,192,139948,1,0,0:0:0:0:
192,192,139948,128,0,140056:0:0:0:0:
320,192,140056,128,0,140163:0:0:0:0:
192,192,140163,1,0,0:0:0:0:
64,192,140163,128,0,140377:0:0:0:0:
448,192,140270,1,0,0:0:0:0:
320,192,140377,1,0,0:0:0:0:
192,192,140591,1,0,0:0:0:0:
64,192,140591,1,0,0:0:0:0:
448,192,140591,128,0,140913:0:0:0:0:
320,192,140913,128,0,141020:0:0:0:0:
192,192,141020,128,0,141234:0:0:0:0:
64,192,141020,1,0,0:0:0:0:
448,192,141020,1,0,0:0:0:0:
448,192,141234,1,0,0:0:0:0:
320,192,141341,1,0,0:0:0:0:
448,192,141448,128,0,141663:0:0:0:0:
64,192,141448,1,0,0:0:0:0:
192,192,141877,128,0,142091:0:0:0:0:
448,192,141877,1,0,0:0:0:0:
64,192,141877,1,0,0:0:0:0:
448,192,142306,1,0,0:0:0:0:
192,192,142520,1,0,0:0:0:0:
64,192,142520,1,0,0:0:0:0:
320,192,142734,1,0,0:0:0:0:
448,192,142734,1,0,0:0:0:0:
64,192,142734,1,0,0:0:0:0:
192,192,142841,1,0,0:0:0:0:
448,192,142948,1,0,0:0:0:0:
64,192,142948,1,0,0:0:0:0:
192,192,143056,1,0,0:0:0:0:
448,192,143163,1,0,0:0:0:0:
320,192,143163,1,0,0:0:0:0:
64,192,143377,1,0,0:0:0:0:
192,192,143377,1,0,0:0:0:0:
448,192,143484,1,0,0:0:0:0:
320,192,143484,1,0,0:0:0:0:
192,192,143591,1,0,0:0:0:0:
320,192,143698,1,0,0:0:0:0:
64,192,143806,1,0,0:0:0:0:
448,192,143913,1,0,0:0:0:0:
192,192,144020,1,0,0:0:0:0:
64,192,144020,1,0,0:0:0:0:
320,192,144127,1,0,0:0:0:0:
192,192,144234,1,0,0:0:0:0:
448,192,144341,1,0,0:0:0:0:
64,192,144448,1,0,0:0:0:0:
192,192,144448,1,0,0:0:0:0:
320,192,144556,1,0,0:0:0:0:
448,192,144663,1,0,0:0:0:0:
64,192,144770,1,0,0:0:0:0:
192,192,144877,1,0,0:0:0:0:
448,192,144877,1,0,0:0:0:0:
64,192,144984,1,0,0:0:0:0:
320,192,145091,1,0,0:0:0:0:
448,192,145091,1,0,0:0:0:0:
192,192,145306,1,0,0:0:0:0:
320,192,145306,1,0,0:0:0:0:
192,192,145520,1,0,0:0:0:0:
64,192,145520,1,0,0:0:0:0:
448,192,145520,1,0,0:0:0:0:
320,192,145734,1,0,0:0:0:0:
448,192,145734,1,0,0:0:0:0:
64,192,145948,128,0,146163:0:0:0:0:
448,192,146163,128,0,146377:0:0:0:0:
320,192,146377,128,0,146484:0:0:0:0:
192,192,146484,128,0,146591:0:0:0:0:
64,192,146591,128,0,147020:0:0:0:0:
448,192,147020,1,0,0:0:0:0:
320,192,147020,1,0,0:0:0:0:
64,192,147448,128,0,147770:0:0:0:0:
320,192,147448,1,0,0:0:0:0:
448,192,147448,1,0,0:0:0:0:
448,192,147663,1,0,0:0:0:0:
192,192,147770,128,0,147877:0:0:0:0:
448,192,147877,128,0,148091:0:0:0:0:
320,192,147877,1,0,0:0:0:0:
64,192,147877,1,0,0:0:0:0:
448,192,148306,128,0,148520:0:0:0:0:
320,192,148306,1,0,0:0:0:0:
192,192,148734,128,0,148948:0:0:0:0:
64,192,148734,1,0,0:0:0:0:
448,192,149163,1,0,0:0:0:0:
192,192,149377,1,0,0:0:0:0:
64,192,149377,1,0,0:0:0:0:
448,192,149377,1,0,0:0:0:0:
320,192,149484,1,0,0:0:0:0:
192,192,149591,1,0,0:0:0:0:
64,192,149591,1,0,0:0:0:0:
448,192,149698,1,0,0:0:0:0:
192,192,149806,1,0,0:0:0:0:
320,192,149913,1,0,0:0:0:0:
64,192,150020,1,0,0:0:0:0:
192,192,150020,1,0,0:0:0:0:
448,192,150234,1,0,0:0:0:0:
320,192,150234,1,0,0:0:0:0:
192,192,150341,1,0,0:0:0:0:
64,192,150448,1,0,0:0:0:0:
448,192,150556,1,0,0:0:0:0:
320,192,150663,1,0,0:0:0:0:
192,192,150663,1,0,0:0:0:0:
64,192,150770,1,0,0:0:0:0:
448,192,150877,1,0,0:0:0:0:
192,192,150877,1,0,0:0:0:0:
320,192,150877,1,0,0:0:0:0:
64,192,151306,128,0,151520:0:0:0:0:
320,192,151413,128,0,151520:0:0:0:0:
192,192,151520,128,0,151734:0:0:0:0:
320,192,151627,128,0,151841:0:0:0:0:
448,192,151734,128,0,151841:0:0:0:0:
64,192,152163,128,0,152484:0:0:0:0:
192,192,152270,128,0,152377:0:0:0:0:
320,192,152377,128,0,152484:0:0:0:0:
448,192,152591,128,0,152645:0:0:0:0:
192,192,152591,128,0,152645:0:0:0:0:
64,192,153020,128,0,153234:0:0:0:0:
320,192,153127,128,0,153234:0:0:0:0:
192,192,153234,128,0,153448:0:0:0:0:
448,192,153341,128,0,153663:0:0:0:0:
320,192,153448,128,0,153663:0:0:0:0:
64,192,153663,128,0,153877:0:0:0:0:
192,192,153770,128,0,153877:0:0:0:0:
448,192,153877,128,0,153984:0:0:0:0:
320,192,153877,128,0,153984:0:0:0:0:
320,192,154306,128,0,156448:0:0:0:0:
192,192,154306,128,0,156448:0:0:0:0:
448,192,154306,128,0,156448:0:0:0:0:
64,192,154306,128,0,156448:0:0:0:0:
448,192,156609,1,0,0:0:0:0:
192,192,156609,1,0,0:0:0:0:
64,192,156609,1,0,0:0:0:0:
320,192,156609,1,0,0:0:0:0:
