osu file format v14

[General]
AudioFilename: audio.mp3
AudioLeadIn: 0
PreviewTime: 69172
Countdown: 0
SampleSet: Normal
StackLeniency: 0.7
Mode: 0
LetterboxInBreaks: 0
WidescreenStoryboard: 1

[Editor]
DistanceSpacing: 1.4
BeatDivisor: 4
GridSize: 4
TimelineZoom: 1.1

[Metadata]
Title:All I Need are Things I Like
TitleUnicode:すきなことだけでいいです
Artist:PinocchioP
ArtistUnicode:ピノキオピー
Creator:tutuhaha
Version:Insane
Source:
Tags:vocaloid hatsune miku HabiHolic
BeatmapID:1636244
BeatmapSetID:525070

[Difficulty]
HPDrainRate:6
CircleSize:3.8
OverallDifficulty:6
ApproachRate:8.8
SliderMultiplier:1.7
SliderTickRate:1

[Events]
//Background and Video events
0,0,"bgbg.jpg",0,0
//Break Periods
2,103780,110008
2,172980,187151
2,201694,207722
//Storyboard Layer 0 (Background)
//Storyboard Layer 1 (Fail)
//Storyboard Layer 2 (Pass)
//Storyboard Layer 3 (Foreground)
//Storyboard Sound Samples

[TimingPoints]
7780,428.571428571429,4,3,1,65,1,0
28351,-111.111111111111,4,3,1,60,0,0
69494,-100,4,3,1,70,0,1
96922,-100,4,3,1,70,0,0
110637,-111.111111111111,4,2,1,70,0,0
115780,-111.111111111111,4,3,1,70,0,0
117494,-111.111111111111,4,3,1,60,0,0
144922,-100,4,3,1,70,0,1
172351,-100,4,3,1,70,0,0
187780,-100,4,1,1,35,0,0
191208,-100,4,1,1,45,0,0
208351,-100,4,3,1,65,0,0
215208,-100,4,3,1,70,0,1
242637,-100,4,3,1,70,0,0

[Colours]
Combo1 : 255,192,0
Combo2 : 105,180,180
Combo3 : 242,24,57
Combo4 : 0,128,255

[HitObjects]
392,72,7779,5,0,0:0:0:0:
332,152,8208,1,2,0:2:0:0:
408,220,8637,1,0,0:0:0:0:
348,300,9065,1,2,0:2:0:0:
40,236,9494,5,0,0:0:0:0:
140,212,9922,1,2,0:2:0:0:
236,184,10351,1,0,0:0:0:0:
332,152,10780,1,2,0:2:0:0:
244,336,11208,5,0,0:0:0:0:
188,252,11422,1,0,0:0:0:0:
88,276,11637,1,2,0:2:0:0:
32,192,11851,1,0,0:0:0:0:
88,104,12065,5,0,0:0:0:0:
32,20,12280,1,0,0:0:0:0:
108,136,12494,1,2,0:2:0:0:
200,88,12708,1,0,0:0:0:0:
256,272,12922,5,0,0:0:0:0:
256,272,13030,1,0,0:0:0:0:
256,272,13137,1,0,0:0:0:0:
256,272,13244,1,0,0:0:0:0:
256,272,13351,1,0,0:0:0:0:
256,272,13458,1,0,0:0:0:0:
256,272,13565,1,0,0:0:0:0:
256,272,13672,1,0,0:0:0:0:
256,272,13780,6,0,L|264:304,8,21.25,0|0|0|0|0|0|0|0|0,0:0|0:0|0:0|0:0|0:0|0:0|0:0|0:0|0:0,0:0:0:0:
256,272,14637,5,0,0:0:0:0:
320,108,14851,1,0,0:0:0:0:
80,148,15065,2,0,P|132:172|192:172,1,85,6|0,0:2|0:0,0:0:0:0:
148,88,15387,1,0,0:0:0:0:
148,88,15494,2,0,L|156:8,1,42.5,0|0,0:0|0:0,0:0:0:0:
232,64,15708,2,0,L|227:106,1,42.5,0|0,0:0|0:0,0:0:0:0:
260,200,15922,2,0,P|208:188|160:200,1,85,6|0,0:2|0:0,0:0:0:0:
84,264,16244,1,0,0:0:0:0:
84,264,16351,6,0,L|152:264,1,42.5,0|0,0:0|0:0,0:0:0:0:
176,340,16565,2,0,L|133:340,1,42.5,0|0,0:0|0:0,0:0:0:0:
208,264,16780,2,0,P|228:220|216:156,1,85,6|0,0:2|0:0,0:0:0:0:
176,120,17101,1,0,0:0:0:0:
176,120,17208,2,0,L|116:116,1,42.5,0|0,0:0|0:0,0:0:0:0:
137,38,17422,2,0,L|180:36,1,42.5
248,84,17637,1,6,0:2:0:0:
300,60,17744,1,0,0:0:0:0:
360,56,17851,1,0,0:0:0:0:
416,76,17958,1,0,0:0:0:0:
372,152,18065,6,0,P|372:172|380:196,2,42.5,0|0|0,0:0|0:0|0:0,0:0:0:0:
372,152,18494,6,0,P|328:160|252:148,1,85,6|0,0:2|0:0,0:0:0:0:
224,108,18815,1,0,0:0:0:0:
224,108,18922,2,0,P|208:72|188:52,1,42.5,0|0,0:0|0:0,0:0:0:0:
124,76,19137,2,0,P|140:112|160:132,1,42.5,0|0,0:0|0:0,0:0:0:0:
272,24,19351,2,0,L|328:24,1,42.5,6|0,0:2|0:0,0:0:0:0:
304,104,19565,2,0,L|360:104,1,42.5,0|0,0:0|0:0,0:0:0:0:
392,36,19780,5,0,0:0:0:0:
344,232,19994,1,6,0:2:0:0:
184,92,20208,2,0,P|240:96|296:80,1,85,0|6,0:0|0:2,0:0:0:0:
152,16,20530,1,0,0:0:0:0:
184,92,20637,2,0,L|160:144,1,42.5,6|0,0:2|0:0,0:0:0:0:
228,180,20851,2,0,L|204:232,1,42.5,6|0,0:2|0:0,0:0:0:0:
128,216,21065,2,0,L|104:268,1,42.5,6|0,0:2|0:0,0:0:0:0:
172,304,21280,2,0,L|148:356,1,42.5,4|0,0:0|0:0,0:0:0:0:
248,288,21494,6,0,P|296:280|352:292,1,85,0|0,0:0|0:0,0:0:0:0:
464,168,21922,2,0,P|420:200|380:200,1,85,6|0,0:2|0:0,0:0:0:0:
348,132,22244,1,0,0:0:0:0:
492,92,22351,2,0,L|504:184,1,85,0|0,0:0|0:0,0:0:0:0:
308,148,22780,2,0,L|297:63,1,85,6|0,0:2|0:0,0:0:0:0:
228,24,23101,1,0,0:0:0:0:
120,120,23208,6,0,L|52:128,1,42.5,0|0,0:0|0:0,0:0:0:0:
156,188,23422,2,0,L|198:183,1,42.5,0|0,0:0|0:0,0:0:0:0:
100,76,23637,2,0,L|32:84,1,42.5,6|0,0:2|0:0,0:0:0:0:
176,32,23851,2,0,L|218:27,1,42.5,0|0,0:0|0:0,0:0:0:0:
164,136,24065,6,0,L|156:220,1,85,0|0,0:0|0:0,0:0:0:0:
180,240,24494,6,0,L|188:176,1,42.5,6|0,0:2|0:0,0:0:0:0:
192,116,24708,1,0,0:0:0:0:
252,292,24922,6,0,P|304:300|356:332,1,85,0|0,0:0|0:0,0:0:0:0:
160,360,25351,2,0,L|48:356,1,85,6|0,0:2|0:0,0:0:0:0:
40,284,25672,1,0,0:0:0:0:
194,351,25780,2,0,P|234:323|258:275,1,85,0|0,0:0|0:0,0:0:0:0:
140,112,26208,2,0,P|124:168|128:208,1,85,6|0,0:2|0:0,0:0:0:0:
128,276,26530,1,0,0:0:0:0:
212,172,26637,6,0,L|268:176,1,42.5,6|0,0:2|0:0,0:0:0:0:
288,100,26851,2,0,L|344:104,1,42.5,2|0,0:2|0:0,0:0:0:0:
372,172,27065,2,0,L|428:176,1,42.5,6|0,0:2|0:0,0:0:0:0:
448,100,27280,2,0,L|504:104,1,42.5,2|0,0:2|0:0,0:0:0:0:
480,256,27494,6,0,L|437:252,3,42.5,6|2|2|2,0:2|0:2|0:2|0:2,0:0:0:0:
452,336,27922,6,0,L|420:332,4,21.25,4|0|0|0|0,0:0|0:0|0:0|0:0|0:0,0:0:0:0:
432,156,28351,6,0,P|396:108|420:20,1,152.999995330811,0|4,0:0|0:0,0:0:0:0:
480,168,28994,1,0,0:0:0:0:
364,160,29208,2,0,L|196:156,1,152.999995330811,0|4,0:0|0:0,0:0:0:0:
96,152,29851,1,0,0:0:0:0:
272,248,30065,6,0,P|280:288|272:324,2,76.4999976654053,0|0|4,0:0|0:0|0:0,0:0:0:0:
248,128,30708,1,0,0:0:0:0:
176,224,30922,2,0,P|168:312|200:368,1,152.999995330811,0|4,0:0|0:0,0:0:0:0:
276,280,31565,1,0,0:0:0:0:
164,296,31780,6,0,L|-4:312,1,152.999995330811,0|4,0:0|0:0,0:0:0:0:
124,208,32422,1,0,0:0:0:0:
156,320,32637,2,0,L|308:305,1,152.999995330811,0|4,0:0|0:0,0:0:0:0:
420,288,33280,1,0,0:0:0:0:
304,268,33494,6,0,P|300:232|320:184,1,76.4999976654053,0|0,0:0|0:0,0:0:0:0:
352,88,33922,1,4,0:0:0:0:
240,108,34137,1,0,0:0:0:0:
392,176,34351,2,0,P|416:248|368:332,1,152.999995330811,0|4,0:0|0:0,0:0:0:0:
387,315,35208,6,0,L|492:320,1,76.4999976654053,0|0,0:0|0:0,0:0:0:0:
292,376,35637,2,0,L|215:373,1,76.4999976654053,4|0,0:0|0:0,0:0:0:0:
164,312,35958,1,0,0:0:0:0:
164,312,36065,2,0,P|184:272|188:220,1,76.4999976654053,0|0,0:0|0:0,0:0:0:0:
144,136,36494,1,4,0:0:0:0:
92,236,36708,1,0,0:0:0:0:
228,164,36922,6,0,L|304:172,1,76.4999976654053,0|0,0:0|0:0,0:0:0:0:
440,100,37351,2,0,L|364:92,1,76.4999976654053,4|0,0:0|0:0,0:0:0:0:
304,172,37672,1,0,0:0:0:0:
304,172,37780,2,0,P|329:206|316:320,1,152.999995330811,0|4,0:0|0:0,0:0:0:0:
228,376,38422,1,0,0:0:0:0:
372,292,38637,6,0,L|448:300,1,76.4999976654053,0|0,0:0|0:0,0:0:0:0:
336,176,39065,2,0,L|260:168,1,76.4999976654053,4|0,0:0|0:0,0:0:0:0:
180,160,39387,1,0,0:0:0:0:
180,160,39494,1,0,0:0:0:0:
276,68,39708,1,0,0:0:0:0:
224,240,39922,1,4,0:0:0:0:
100,136,40137,1,0,0:0:0:0:
272,161,40351,6,0,B|316:184|316:184|344:216,1,76.4999976654053
380,268,40672,1,0,0:0:0:0:
380,268,40780,2,0,B|456:264|456:264|508:229,1,114.749996498108,4|0,0:0|0:0,0:0:0:0:
476,164,41208,2,0,P|436:136|432:56,1,114.749996498108,4|0,0:0|0:0,0:0:0:0:
476,12,41637,1,4,0:0:0:0:
476,164,41851,1,0,0:0:0:0:
256,80,42065,6,0,L|424:84,1,152.999995330811,0|4,0:0|0:0,0:0:0:0:
280,168,42708,1,0,0:0:0:0:
244,40,42922,2,0,L|332:44,1,76.4999976654053,0|0,0:0|0:0,0:0:0:0:
440,156,43351,2,0,P|420:96|468:16,1,152.999995330811,4|0,0:0|0:0,0:0:0:0:
492,160,43994,1,0,0:0:0:0:
388,208,44208,6,0,L|280:204,1,76.4999976654053,4|0,0:0|0:0,0:0:0:0:
196,196,44637,1,0,0:0:0:0:
272,284,44851,1,0,0:0:0:0:
236,104,45065,1,4,0:0:0:0:
328,284,45494,6,0,L|496:288,1,152.999995330811,0|4,0:0|0:0,0:0:0:0:
316,200,46137,1,0,0:0:0:0:
328,312,46351,2,0,L|428:316,1,76.4999976654053
484,228,46780,2,0,P|456:288|500:380,1,152.999995330811,4|0,0:0|0:0,0:0:0:0:
484,228,47422,5,0,0:0:0:0:
376,192,47637,2,0,P|384:148|368:104,1,76.4999976654053,4|0,0:0|0:0,0:0:0:0:
292,40,48065,1,0,0:0:0:0:
292,40,48172,2,0,B|380:36|380:36|432:12,1,114.749996498108,0|4,0:0|0:0,0:0:0:0:
200,48,48708,1,0,0:0:0:0:
300,156,48922,6,0,P|291:193|300:230,1,76.4999976654053,0|0,0:0|0:0,0:0:0:0:
332,304,49244,1,0,0:0:0:0:
332,304,49351,2,0,P|280:288|228:304,1,76.4999976654053,4|0,0:0|0:0,0:0:0:0:
156,340,49780,2,0,L|52:340,2,76.4999976654053,0|0|4,0:0|0:0|0:0,0:0:0:0:
264,204,50422,1,0,0:0:0:0:
208,304,50637,6,0,L|116:304,1,76.4999976654053,0|0,0:0|0:0,0:0:0:0:
20,192,51065,2,0,L|112:192,1,76.4999976654053,4|0,0:0|0:0,0:0:0:0:
160,144,51387,1,0,0:0:0:0:
160,144,51494,2,0,P|148:96|156:56,2,76.4999976654053,0|0|4,0:0|0:0|0:0,0:0:0:0:
240,228,52137,1,0,0:0:0:0:
232,52,52351,6,0,L|136:52,1,76.4999976654053,0|0,0:0|0:0,0:0:0:0:
280,152,52780,2,0,L|356:152,1,76.4999976654053,4|0,0:0|0:0,0:0:0:0:
404,88,53101,1,0,0:0:0:0:
404,88,53208,1,0,0:0:0:0:
368,236,53422,1,0,0:0:0:0:
488,136,53637,1,4,0:0:0:0:
316,64,53851,1,0,0:0:0:0:
392,240,54065,6,0,P|448:236|508:280,1,114.749996498108
336,304,54494,2,0,P|312:268|328:188,1,114.749996498108,4|0,0:0|0:0,0:0:0:0:
456,176,54922,2,0,P|480:212|464:292,1,114.749996498108,0|0,0:0|0:0,0:0:0:0:
336,304,55351,2,0,P|292:320|256:388,1,114.749996498108,4|0,0:0|0:0,0:0:0:0:
340,384,55780,5,0,0:0:0:0:
320,208,55994,2,0,B|300:112|300:112|244:64,1,152.999995330811,0|0,0:0|0:0,0:0:0:0:
212,256,56637,1,0,0:0:0:0:
328,232,56851,2,0,L|392:220,1,38.2499988327027
444,208,57065,1,4,0:0:0:0:
212,256,57280,1,0,0:0:0:0:
356,320,57494,5,0,0:0:0:0:
336,140,57708,2,0,B|328:40|328:40|356:-8,1,152.999995330811,0|0,0:0|0:0,0:0:0:0:
456,148,58351,1,0,0:0:0:0:
340,160,58565,2,0,L|276:168,2,38.2499988327027,4|0|4,0:0|0:0|0:0,0:0:0:0:
456,148,58994,1,0,0:0:0:0:
336,64,59208,5,0,0:0:0:0:
360,256,59422,2,0,P|412:288|420:384,1,152.999995330811,0|0,0:0|0:0,0:0:0:0:
312,348,60065,2,0,P|276:324|260:264,1,76.4999976654053,0|0,0:0|0:0,0:0:0:0:
200,164,60494,2,0,P|208:206|177:260,1,76.4999976654053,4|0,0:0|0:0,0:0:0:0:
112,312,60922,5,0,0:0:0:0:
198,237,61137,1,0,0:0:0:0:
200,352,61351,1,0,0:0:0:0:
52,256,61565,1,0,0:0:0:0:
268,292,61780,2,0,P|312:300|344:336,1,76.4999976654053,0|4,0:0|0:0,0:0:0:0:
404,280,62101,1,0,0:0:0:0:
404,280,62208,2,0,P|404:228|424:204,1,76.4999976654053,4|0,0:0|0:0,0:0:0:0:
480,352,62637,5,0,0:0:0:0:
268,340,62851,2,0,B|160:328|160:328|108:344,1,152.999995330811,0|0,0:0|0:0,0:0:0:0:
288,300,63494,2,0,L|376:308,1,76.4999976654053,0|0,0:0|0:0,0:0:0:0:
444,316,63815,1,0,0:0:0:0:
444,316,63922,1,4,0:0:0:0:
268,340,64137,1,0,0:0:0:0:
328,212,64351,5,0,0:0:0:0:
380,364,64565,2,0,P|416:308|508:292,1,152.999995330811,0|0,0:0|0:0,0:0:0:0:
292,308,65208,2,0,L|204:300,1,76.4999976654053,0|4,0:0|0:0,0:0:0:0:
136,292,65530,1,0,0:0:0:0:
136,292,65637,1,4,0:0:0:0:
256,184,65851,1,0,0:0:0:0:
328,364,66065,6,0,L|336:284,1,76.4999976654053,0|0,0:0|0:0,0:0:0:0:
208,224,66494,2,0,L|216:144,1,76.4999976654053,4|0,0:0|0:0,0:0:0:0:
404,48,66922,2,0,L|396:124,1,76.4999976654053,0|0,0:0|0:0,0:0:0:0:
240,168,67351,2,0,L|232:244,1,76.4999976654053,4|0,0:0|0:0,0:0:0:0:
360,312,67780,5,0,0:0:0:0:
192,348,67994,1,0,0:0:0:0:
320,212,68208,1,4,0:0:0:0:
296,356,68422,1,0,0:0:0:0:
124,268,68637,2,0,L|104:212,2,38.2499988327027,0|0|0,0:0|0:0|0:0,0:0:0:0:
188,128,69065,5,0,0:0:0:0:
192,124,69172,1,0,0:0:0:0:
196,120,69280,1,0,0:0:0:0:
200,116,69387,1,0,0:0:0:0:
204,112,69494,6,0,L|264:108,1,42.5,4|0,0:1|0:0,0:0:0:0:
318,190,69708,2,0,L|276:188,1,42.5,0|0,0:0|0:0,0:0:0:0:
344,108,69922,1,4,0:0:0:0:
392,144,70030,1,0,0:0:0:0:
420,196,70137,1,0,0:0:0:0:
432,256,70244,1,0,0:0:0:0:
436,148,70351,6,0,P|456:108|504:68,1,85
318,190,70780,2,0,L|314:302,1,85,4|0,0:0|0:0,0:0:0:0:
312,360,71101,1,0,0:0:0:0:
232,328,71208,6,0,P|216:288|220:260,1,42.5,0|0,0:0|0:0,0:0:0:0:
196,160,71422,2,0,P|184:208|144:240,1,85,0|4,0:0|0:0,0:0:0:0:
116,140,71744,1,0,0:0:0:0:
196,160,71851,2,0,L|280:176,1,85,0|0,0:0|0:0,0:0:0:0:
364,192,72172,5,0,0:0:0:0:
336,112,72280,2,0,P|328:96|324:48,1,42.5,0|0,0:0|0:0,0:0:0:0:
376,8,72494,1,4,0:0:0:0:
364,192,72708,1,0,0:0:0:0:
180,80,72922,6,0,L|116:84,1,42.5,0|0,0:0|0:0,0:0:0:0:
104,160,73137,2,0,L|40:156,1,42.5,0|0,0:0|0:0,0:0:0:0:
120,240,73351,1,4,0:0:0:0:
176,264,73458,1,0,0:0:0:0:
232,288,73565,1,0,0:0:0:0:
288,312,73672,1,0,0:0:0:0:
216,232,73780,6,0,P|208:196|240:128,1,85
276,336,74208,2,0,P|216:332|160:340,1,85,4|0,0:0|0:0,0:0:0:0:
108,352,74530,1,0,0:0:0:0:
136,272,74637,6,0,P|140:232|136:208,1,42.5,0|0,0:0|0:0,0:0:0:0:
148,120,74851,2,0,P|180:164|228:188,1,85,0|4,0:0|0:0,0:0:0:0:
200,56,75172,1,0,0:0:0:0:
128,104,75280,2,0,L|8:108,1,85,0|0,0:0|0:0,0:0:0:0:
16,188,75601,5,0,0:0:0:0:
100,184,75708,2,0,L|160:180,1,42.5,0|0,0:0|0:0,0:0:0:0:
228,172,75922,1,4,0:0:0:0:
256,340,76137,1,0,0:0:0:0:
280,44,76351,6,0,L|228:36,1,42.5,0|0,0:0|0:0,0:0:0:0:
340,104,76565,2,0,L|392:96,1,42.5,0|0,0:0|0:0,0:0:0:0:
272,68,76780,2,0,L|220:60,1,42.5,4|0,0:0|0:0,0:0:0:0:
332,128,76994,2,0,L|384:120,1,42.5,0|0,0:0|0:0,0:0:0:0:
456,108,77208,5,0,0:0:0:0:
232,144,77422,1,0,0:0:0:0:
367,36,77637,2,0,L|375:148,1,85,4|0,0:0|0:0,0:0:0:0:
368,284,78065,6,0,L|312:272,1,42.5,0|0,0:0|0:0,0:0:0:0:
236,184,78280,2,0,L|277:192,1,42.5,0|0,0:0|0:0,0:0:0:0:
356,296,78494,2,0,L|303:272,1,42.5,4|0,0:0|0:0,0:0:0:0:
247,171,78708,2,0,L|285:188,1,42.5,0|0,0:0|0:0,0:0:0:0:
380,216,78922,5,0,0:0:0:0:
228,284,79137,1,0,0:0:0:0:
232,88,79351,2,0,L|212:24,1,42.5,4|0,0:0|0:0,0:0:0:0:
144,92,79565,2,0,L|124:28,1,42.5,0|0,0:0|0:0,0:0:0:0:
276,87,79780,5,0,0:0:0:0:
344,220,79994,1,0,0:0:0:0:
380,48,80208,2,0,P|380:92|412:156,1,85,4|0,0:0|0:0,0:0:0:0:
472,160,80530,1,0,0:0:0:0:
456,32,80637,6,0,L|392:16,1,42.5,0|0,0:0|0:0,0:0:0:0:
284,48,80851,2,0,L|325:58,1,42.5,0|0,0:0|0:0,0:0:0:0:
192,28,81065,2,0,P|168:80|108:108,1,85,4|0,0:0|0:0,0:0:0:0:
68,64,81387,1,0,0:0:0:0:
240,152,81494,6,0,L|240:224,1,42.5,8|0,0:0|0:0,0:0:0:0:
272,64,81708,2,0,L|272:21,1,42.5,0|0,0:0|0:0,0:0:0:0:
160,176,81922,2,0,L|96:184,1,42.5,4|0,0:0|0:0,0:0:0:0:
0,96,82137,2,0,P|52:108|108:96,1,85,0|4,0:0|0:0,0:0:0:0:
128,32,82458,5,0,0:0:0:0:
0,40,82565,2,0,L|0:108,1,42.5,0|0,0:0|0:0,0:0:0:0:
88,220,82780,1,4,0:0:0:0:
124,172,82887,1,0,0:0:0:0:
156,120,82994,1,0,0:0:0:0:
176,64,83101,1,0,0:0:0:0:
36,96,83208,6,0,P|28:128|16:152,1,42.5,4|0,0:1|0:0,0:0:0:0:
116,56,83422,2,0,P|124:32|144:12,1,42.5,0|0,0:0|0:0,0:0:0:0:
72,128,83637,2,0,P|43:144|18:153,1,42.5,4|0,0:0|0:0,0:0:0:0:
156,156,83851,2,0,P|178:144|206:144,1,42.5,0|0,0:0|0:0,0:0:0:0:
288,236,84065,6,0,L|176:228,1,85,0|0,0:0|0:0,0:0:0:0:
344,108,84494,2,0,L|408:112,1,42.5,4|0,0:0|0:0,0:0:0:0:
460,64,84708,1,0,0:0:0:0:
460,148,84815,1,0,0:0:0:0:
368,76,84922,6,0,L|325:73,1,42.5,0|0,0:0|0:0,0:0:0:0:
276,144,85137,2,0,L|233:141,1,42.5,0|0,0:0|0:0,0:0:0:0:
180,224,85351,2,0,P|192:172|172:120,1,85,4|0,0:0|0:0,0:0:0:0:
116,92,85672,1,0,0:0:0:0:
96,244,85780,6,0,L|148:240,1,42.5,0|0,0:0|0:0,0:0:0:0:
184,312,85994,2,0,L|236:308,1,42.5,0|0,0:0|0:0,0:0:0:0:
292,224,86208,2,0,P|276:276|280:324,1,85,4|0,0:0|0:0,0:0:0:0:
312,80,86637,6,0,L|304:32,1,42.5,0|0,0:0|0:0,0:0:0:0:
392,84,86851,2,0,L|400:36,1,42.5,0|0,0:0|0:0,0:0:0:0:
476,112,87065,1,4,0:0:0:0:
464,172,87172,1,0,0:0:0:0:
452,232,87280,1,0,0:0:0:0:
436,288,87387,1,0,0:0:0:0:
364,204,87494,6,0,L|384:100,1,85
456,328,87922,2,0,L|460:388,2,42.5,4|0|0,0:0|0:0|0:0,0:0:0:0:
452,244,88244,1,0,0:0:0:0:
448,160,88351,6,0,P|452:120|472:96,1,42.5,0|0,0:0|0:0,0:0:0:0:
344,80,88565,2,0,P|392:64|420:20,1,85,0|4,0:0|0:0,0:0:0:0:
272,20,88887,1,0,0:0:0:0:
304,100,88994,2,0,L|328:164,1,42.5,0|0,0:0|0:0,0:0:0:0:
248,188,89208,6,0,P|216:176|192:176,1,42.5,0|0,0:0|0:0,0:0:0:0:
256,244,89422,2,0,P|224:258|207:275,1,42.5,0|0,0:0|0:0,0:0:0:0:
304,264,89637,2,0,P|296:312|316:368,1,85,4|0,0:0|0:0,0:0:0:0:
456,212,90065,6,0,P|428:200|400:200,1,42.5,0|0,0:0|0:0,0:0:0:0:
328,163,90280,2,0,P|346:152|360:136,1,42.5,0|0,0:0|0:0,0:0:0:0:
435,78,90494,2,0,P|436:100|444:120,2,42.5,4|0|0,0:0|0:0|0:0,0:0:0:0:
392,8,90815,1,0,0:0:0:0:
275,143,90922,6,0,L|371:135,1,85,0|0,0:0|0:0,0:0:0:0:
324,296,91351,2,0,L|240:304,1,85,4|0,0:0|0:0,0:0:0:0:
156,312,91672,1,0,0:0:0:0:
92,252,91780,6,0,L|96:200,1,42.5,0|0,0:0|0:0,0:0:0:0:
214,161,91994,2,0,L|176:180,1,42.5,0|0,0:0|0:0,0:0:0:0:
76,99,92208,2,0,L|112:124,2,42.5,4|0|0,0:0|0:0|0:0,0:0:0:0:
8,48,92530,1,0,0:0:0:0:
24,200,92637,6,0,P|56:176|112:152,1,85,0|0,0:0|0:0,0:0:0:0:
208,312,93065,2,0,L|196:372,1,42.5,4|0,0:0|0:0,0:0:0:0:
304,312,93280,2,0,L|316:372,1,42.5,0|0,0:0|0:0,0:0:0:0:
256,232,93494,6,0,P|216:208|192:156,2,85,0|0|4,0:0|0:0|0:0,0:0:0:0:
360,36,94137,2,0,L|420:36,1,42.5,0|0,0:0|0:0,0:0:0:0:
352,132,94351,2,0,L|300:120,1,42.5,0|0,0:0|0:0,0:0:0:0:
204,60,94565,2,0,L|245:69,1,42.5,0|0,0:0|0:0,0:0:0:0:
352,160,94780,2,0,B|288:144|288:144|244:152,1,85,4|0,0:0|0:0,0:0:0:0:
204,200,95101,1,0,0:0:0:0:
245,69,95208,6,0,P|264:40|272:12,1,42.5,4|0,0:1|0:0,0:0:0:0:
152,84,95422,2,0,P|160:103|173:120,1,42.5,0|0,0:0|0:0,0:0:0:0:
68,116,95637,2,0,P|48:96|8:88,1,42.5,4|0,0:0|0:0,0:0:0:0:
84,212,95851,2,0,P|116:200|144:180,1,42.5,0|0,0:0|0:0,0:0:0:0:
220,136,96065,5,4,0:0:0:0:
264,100,96172,1,0,0:0:0:0:
320,84,96280,1,0,0:0:0:0:
380,84,96387,1,0,0:0:0:0:
456,132,96494,2,0,L|468:164,8,21.25,4|0|0|0|0|0|0|0|0,0:0|0:0|0:0|0:0|0:0|0:0|0:0|0:0|0:0,0:0:0:0:
324,300,97244,5,0,0:0:0:0:
212,72,97565,1,0,0:0:0:0:
212,72,97994,1,0,0:0:0:0:
376,108,98208,1,4,0:0:0:0:
252,224,98422,1,0,0:0:0:0:
304,36,98637,5,0,0:0:0:0:
360,284,98958,1,0,0:0:0:0:
476,56,99280,1,0,0:0:0:0:
476,56,99708,1,0,0:0:0:0:
336,156,99922,1,4,0:0:0:0:
200,52,100137,1,0,0:0:0:0:
424,128,100351,5,0,0:0:0:0:
292,344,100672,1,0,0:0:0:0:
104,172,100994,1,0,0:0:0:0:
104,172,101422,1,0,0:0:0:0:
76,340,101637,1,4,0:0:0:0:
212,236,101851,1,0,0:0:0:0:
16,196,102065,5,0,0:0:0:0:
16,196,102280,1,0,0:0:0:0:
136,76,102494,1,0,0:0:0:0:
136,76,102708,1,0,0:0:0:0:
212,288,102922,1,0,0:0:0:0:
212,288,103137,1,0,0:0:0:0:
256,56,103351,1,0,0:0:0:0:
80,172,103565,5,0,0:0:0:0:
232,308,110637,6,0,L|152:304,1,76.4999976654053,2|0,0:0|0:0,0:0:0:0:
264,216,111065,2,0,L|340:219,1,76.4999976654053,8|0,0:0|0:0,0:0:0:0:
448,92,111494,2,0,P|436:168|464:264,1,152.999995330811,2|8,0:0|0:0,0:0:0:0:
496,348,112137,1,0,0:0:0:0:
408,224,112351,6,0,L|331:220,1,76.4999976654053,2|0,0:0|0:0,0:0:0:0:
248,300,112780,2,0,L|171:296,1,76.4999976654053,8|0,0:0|0:0,0:0:0:0:
24,204,113208,2,0,P|104:192|176:160,1,152.999995330811,2|8,0:0|0:0,0:0:0:0:
216,60,113851,1,0,0:0:0:0:
200,244,114065,6,0,L|192:340,2,76.4999976654053,2|0|8,0:0|0:0|0:0,0:0:0:0:
288,168,114708,1,0,0:0:0:0:
336,272,114922,2,0,L|329:348,1,76.4999976654053,2|0,0:0|0:0,0:0:0:0:
420,192,115351,1,8,0:0:0:0:
288,168,115565,1,0,0:0:0:0:
332,324,115780,5,0,0:0:0:0:
332,324,115994,1,0,0:0:0:0:
240,256,116208,1,0,0:0:0:0:
240,256,116422,1,0,0:0:0:0:
428,192,116637,1,0,0:0:0:0:
428,192,116851,1,0,0:0:0:0:
304,72,117065,6,0,L|308:48,7,19.1249994163513,0|0|0|0|0|0|0|0,0:0|0:0|0:0|0:0|0:0|0:0|0:0|0:0,0:0:0:0:
304,72,117494,6,0,P|264:64|140:68,1,152.999995330811,0|4,0:0|0:0,0:0:0:0:
48,116,118137,1,0,0:0:0:0:
216,144,118351,2,0,P|212:228|224:304,1,152.999995330811,0|4,0:0|0:0,0:0:0:0:
316,364,118994,1,0,0:0:0:0:
316,204,119208,6,0,P|368:204|420:208,2,76.4999976654053,0|0|4,0:0|0:0|0:0,0:0:0:0:
216,260,119851,1,0,0:0:0:0:
324,108,120065,2,0,P|264:112|152:96,1,152.999995330811,0|4,0:0|0:0,0:0:0:0:
80,32,120708,1,0,0:0:0:0:
144,180,120922,6,0,P|144:220|140:268,1,76.4999976654053,0|0,0:0|0:0,0:0:0:0:
272,260,121351,2,0,P|272:300|276:348,1,76.4999976654053,4|0,0:0|0:0,0:0:0:0:
368,172,121780,2,0,P|376:100|412:16,1,152.999995330811,0|4,0:0|0:0,0:0:0:0:
476,220,122422,1,0,0:0:0:0:
364,196,122637,6,0,P|308:192|256:196,1,76.4999976654053,0|0,0:0|0:0,0:0:0:0:
260,332,123065,2,0,P|204:336|152:332,1,76.4999976654053,4|0,0:0|0:0,0:0:0:0:
96,260,123494,1,0,0:0:0:0:
96,260,123922,1,4,0:0:0:0:
40,160,124137,1,0,0:0:0:0:
156,164,124351,6,0,P|196:140|224:104,1,76.4999976654053,0|0,0:0|0:0,0:0:0:0:
320,32,124780,2,0,L|232:32,1,76.4999976654053,4|0,0:0|0:0,0:0:0:0:
164,20,125101,1,0,0:0:0:0:
164,20,125208,2,0,P|140:56|96:88,1,76.4999976654053,0|0,0:0|0:0,0:0:0:0:
8,116,125637,1,4,0:0:0:0:
112,168,125851,1,0,0:0:0:0:
88,16,126065,6,0,L|84:112,1,76.4999976654053,0|0,0:0|0:0,0:0:0:0:
200,204,126494,2,0,L|203:127,1,76.4999976654053,4|0,0:0|0:0,0:0:0:0:
244,60,126815,1,0,0:0:0:0:
244,60,126922,2,0,P|320:60|388:8,1,152.999995330811,0|4,0:0|0:0,0:0:0:0:
168,20,127565,1,0,0:0:0:0:
203,127,127780,1,0,0:0:0:0:
203,127,129494,6,0,L|112:136,1,76.4999976654053,4|0,0:0|0:0,0:0:0:0:
176,240,129922,2,0,L|85:249,1,76.4999976654053,4|0,0:0|0:0,0:0:0:0:
272,216,130351,2,0,L|363:225,1,76.4999976654053,4|0,0:0|0:0,0:0:0:0:
299,329,130780,2,0,L|390:338,1,76.4999976654053,4|0,0:0|0:0,0:0:0:0:
464,168,131208,5,0,0:0:0:0:
380,244,131422,2,0,P|352:196|372:100,1,152.999995330811,0|0,0:0|0:0,0:0:0:0:
464,168,132065,1,0,0:0:0:0:
376,272,132280,2,0,L|276:280,1,76.4999976654053,0|4,0:0|0:0,0:0:0:0:
184,292,132708,1,0,0:0:0:0:
244,196,132922,5,0,0:0:0:0:
312,336,133137,2,0,P|344:264|420:240,1,152.999995330811,0|0,0:0|0:0,0:0:0:0:
432,352,133780,1,0,0:0:0:0:
280,344,133994,2,0,L|224:340,2,38.2499988327027,4|0|4,0:0|0:0|0:0,0:0:0:0:
396,348,134422,1,0,0:0:0:0:
228,260,134637,6,0,L|320:268,2,76.4999976654053,0|0|0,0:0|0:0|0:0,0:0:0:0:
124,304,135280,1,0,0:0:0:0:
68,204,135494,2,0,P|68:160|80:112,1,76.4999976654053,0|0,0:0|0:0,0:0:0:0:
164,56,135922,1,4,0:0:0:0:
56,12,136137,1,0,0:0:0:0:
96,136,136351,6,0,B|160:148|160:148|184:168,1,76.4999976654053,0|0,0:0|0:0,0:0:0:0:
280,244,136780,2,0,B|272:252|272:252|208:264,1,76.4999976654053,0|0,0:0|0:0,0:0:0:0:
296,148,137208,1,0,0:0:0:0:
384,252,137422,2,0,L|380:304,2,38.2499988327027,4|0|4,0:0|0:0|0:0,0:0:0:0:
404,140,137851,1,0,0:0:0:0:
280,244,138065,5,0,0:0:0:0:
296,148,138280,2,0,B|312:40|312:40|292:0,1,152.999995330811,0|0,0:0|0:0,0:0:0:0:
196,60,138922,1,0,0:0:0:0:
324,148,139137,2,0,L|376:152,2,38.2499988327027,0|0|4,0:0|0:0|0:0,0:0:0:0:
208,144,139565,1,0,0:0:0:0:
360,248,139780,5,0,0:0:0:0:
244,252,139994,2,0,P|188:276|168:372,1,152.999995330811,0|0,0:0|0:0,0:0:0:0:
360,248,140637,1,0,0:0:0:0:
252,208,140851,2,0,L|220:176,2,38.2499988327027,0|0|4,0:0|0:0|0:0,0:0:0:0:
284,320,141280,1,0,0:0:0:0:
408,224,141494,5,2,0:0:0:0:
192,336,141922,1,4,0:0:0:0:
292,132,142351,1,8,0:0:0:0:
388,340,142780,1,2,0:0:0:0:
192,224,143208,6,0,L|96:208,1,76.4999976654053,8|0,0:0|0:0,0:0:0:0:
160,104,143637,2,0,L|76:64,1,76.4999976654053,4|0,0:0|0:0,0:0:0:0:
116,211,144065,1,4,0:0:0:0:
256,92,144280,1,0,0:0:0:0:
324,256,144494,5,4,0:0:0:0:
320,260,144601,1,0,0:0:0:0:
316,264,144708,1,0,0:0:0:0:
312,268,144815,1,0,0:0:0:0:
308,272,144922,6,0,L|248:276,1,42.5,4|0,0:1|0:0,0:0:0:0:
194,194,145137,2,0,L|236:196,1,42.5,0|0,0:0|0:0,0:0:0:0:
168,276,145351,1,4,0:0:0:0:
120,240,145458,1,0,0:0:0:0:
92,188,145565,1,0,0:0:0:0:
80,128,145672,1,0,0:0:0:0:
76,235,145780,6,0,P|57:274|27:304,1,85
194,194,146208,2,0,L|198:82,1,85,4|0,0:0|0:0,0:0:0:0:
200,24,146530,1,0,0:0:0:0:
280,56,146637,6,0,P|296:96|292:124,1,42.5,0|0,0:0|0:0,0:0:0:0:
316,224,146851,2,0,P|328:176|368:144,1,85,0|4,0:0|0:0,0:0:0:0:
396,244,147172,1,0,0:0:0:0:
316,224,147280,2,0,L|232:208,1,85,0|0,0:0|0:0,0:0:0:0:
148,192,147601,5,0,0:0:0:0:
176,272,147708,2,0,P|184:288|188:336,1,42.5,0|0,0:0|0:0,0:0:0:0:
136,376,147922,1,4,0:0:0:0:
148,192,148137,1,0,0:0:0:0:
332,304,148351,6,0,L|396:300,1,42.5,0|0,0:0|0:0,0:0:0:0:
408,224,148565,2,0,L|472:228,1,42.5,0|0,0:0|0:0,0:0:0:0:
392,144,148780,1,4,0:0:0:0:
336,120,148887,1,0,0:0:0:0:
280,96,148994,1,0,0:0:0:0:
224,72,149101,1,0,0:0:0:0:
296,152,149208,6,0,P|304:188|272:256,1,85
236,48,149637,2,0,P|296:52|352:44,1,85,4|0,0:0|0:0,0:0:0:0:
404,32,149958,1,0,0:0:0:0:
376,112,150065,6,0,P|372:152|376:176,1,42.5,0|0,0:0|0:0,0:0:0:0:
364,264,150280,2,0,P|332:220|284:196,1,85,0|4,0:0|0:0,0:0:0:0:
312,328,150601,1,0,0:0:0:0:
384,280,150708,2,0,L|504:276,1,85,0|0,0:0|0:0,0:0:0:0:
496,196,151030,5,0,0:0:0:0:
412,200,151137,2,0,L|352:204,1,42.5,0|0,0:0|0:0,0:0:0:0:
284,212,151351,1,4,0:0:0:0:
256,44,151565,1,0,0:0:0:0:
232,340,151780,6,0,L|284:348,1,42.5,0|0,0:0|0:0,0:0:0:0:
172,280,151994,2,0,L|120:288,1,42.5,0|0,0:0|0:0,0:0:0:0:
240,316,152208,2,0,L|292:324,1,42.5,4|0,0:0|0:0,0:0:0:0:
180,256,152422,2,0,L|128:264,1,42.5,0|0,0:0|0:0,0:0:0:0:
56,276,152637,5,0,0:0:0:0:
280,240,152851,1,0,0:0:0:0:
145,348,153065,2,0,L|137:236,1,85,4|0,0:0|0:0,0:0:0:0:
144,100,153494,6,0,L|200:112,1,42.5,0|0,0:0|0:0,0:0:0:0:
276,200,153708,2,0,L|235:192,1,42.5,0|0,0:0|0:0,0:0:0:0:
156,88,153922,2,0,L|209:112,1,42.5,4|0,0:0|0:0,0:0:0:0:
265,213,154137,2,0,L|227:196,1,42.5,0|0,0:0|0:0,0:0:0:0:
132,168,154351,5,0,0:0:0:0:
284,100,154565,1,0,0:0:0:0:
280,296,154780,2,0,L|300:360,1,42.5,4|0,0:0|0:0,0:0:0:0:
368,292,154994,2,0,L|388:356,1,42.5,0|0,0:0|0:0,0:0:0:0:
236,297,155208,5,0,0:0:0:0:
168,164,155422,1,0,0:0:0:0:
132,336,155637,2,0,P|132:292|100:228,1,85,4|0,0:0|0:0,0:0:0:0:
40,224,155958,1,0,0:0:0:0:
56,352,156065,5,0,0:0:0:0:
116,344,156172,1,0,0:0:0:0:
176,348,156280,1,0,0:0:0:0:
232,368,156387,1,0,0:0:0:0:
320,356,156494,2,0,P|344:304|404:276,1,85,4|0,0:0|0:0,0:0:0:0:
444,320,156815,1,0,0:0:0:0:
272,232,156922,6,0,L|272:160,1,42.5,8|0,0:0|0:0,0:0:0:0:
240,320,157137,2,0,L|240:363,1,42.5,0|0,0:0|0:0,0:0:0:0:
352,208,157351,2,0,L|416:200,1,42.5,4|0,0:0|0:0,0:0:0:0:
512,288,157565,2,0,P|460:276|404:288,1,85,0|4,0:0|0:0,0:0:0:0:
384,352,157887,5,0,0:0:0:0:
512,344,157994,2,0,L|512:276,1,42.5,0|0,0:0|0:0,0:0:0:0:
424,164,158208,1,4,0:0:0:0:
388,212,158315,1,0,0:0:0:0:
356,264,158422,1,0,0:0:0:0:
336,320,158529,1,0,0:0:0:0:
476,288,158636,6,0,P|484:256|496:232,1,42.5,4|0,0:1|0:0,0:0:0:0:
396,328,158851,2,0,P|388:352|368:372,1,42.5,0|0,0:0|0:0,0:0:0:0:
440,256,159065,2,0,P|469:240|494:231,1,42.5,4|0,0:0|0:0,0:0:0:0:
356,228,159280,2,0,P|334:240|306:240,1,42.5,0|0,0:0|0:0,0:0:0:0:
224,148,159494,6,0,L|336:156,1,85,0|0,0:0|0:0,0:0:0:0:
160,264,159922,2,0,L|75:257,1,85,4|0,0:0|0:0,0:0:0:0:
28,184,160244,1,0,0:0:0:0:
144,308,160351,6,0,L|187:311,1,42.5,0|0,0:0|0:0,0:0:0:0:
236,240,160565,2,0,L|279:243,1,42.5,0|0,0:0|0:0,0:0:0:0:
332,160,160780,1,4,0:0:0:0:
364,240,160887,2,0,P|352:292|372:344,1,85,0|0,0:0|0:0,0:0:0:0:
408,152,161208,6,0,L|356:156,1,42.5,0|0,0:0|0:0,0:0:0:0:
328,72,161422,2,0,L|276:76,1,42.5,0|0,0:0|0:0,0:0:0:0:
220,160,161637,2,0,P|236:108|232:60,1,85,4|0,0:0|0:0,0:0:0:0:
200,304,162065,6,0,L|208:352,1,42.5,0|0,0:0|0:0,0:0:0:0:
120,300,162280,2,0,L|112:348,1,42.5,0|0,0:0|0:0,0:0:0:0:
36,272,162494,1,4,0:0:0:0:
48,212,162601,1,0,0:0:0:0:
60,152,162709,1,0,0:0:0:0:
76,96,162816,1,0,0:0:0:0:
148,180,162923,6,0,L|128:284,1,85
56,56,163351,2,0,L|52:-4,2,42.5,4|0|0,0:0|0:0|0:0,0:0:0:0:
60,140,163672,1,0,0:0:0:0:
64,224,163780,6,0,P|60:264|40:288,1,42.5,0|0,0:0|0:0,0:0:0:0:
168,304,163994,2,0,P|136:312|104:336,1,42.5,0|0,0:0|0:0,0:0:0:0:
220,380,164208,2,0,L|196:280,1,85,4|0,0:0|0:0,0:0:0:0:
119,156,164637,6,0,P|140:153|160:144,1,42.5,0|0,0:0|0:0,0:0:0:0:
288,160,164851,2,0,P|267:156|247:147,1,42.5,0|0,0:0|0:0,0:0:0:0:
200,36,165065,2,0,P|208:84|188:140,1,85,4|0,0:0|0:0,0:0:0:0:
24,176,165494,6,0,P|52:188|80:188,1,42.5,0|0,0:0|0:0,0:0:0:0:
152,225,165708,2,0,P|134:236|120:252,1,42.5,0|0,0:0|0:0,0:0:0:0:
45,310,165922,2,0,P|44:288|36:268,2,42.5,4|0|0,0:0|0:0|0:0,0:0:0:0:
88,380,166244,1,0,0:0:0:0:
205,245,166351,6,0,L|109:253,1,85,0|0,0:0|0:0,0:0:0:0:
188,88,166780,2,0,L|272:80,1,85,4|0,0:0|0:0,0:0:0:0:
356,72,167101,1,0,0:0:0:0:
420,132,167208,6,0,L|416:184,1,42.5,0|0,0:0|0:0,0:0:0:0:
298,223,167422,2,0,L|336:204,1,42.5,0|0,0:0|0:0,0:0:0:0:
436,285,167637,2,0,L|400:260,2,42.5,4|0|0,0:0|0:0|0:0,0:0:0:0:
504,336,167958,1,0,0:0:0:0:
488,184,168065,6,0,P|456:208|400:232,1,85,0|0,0:0|0:0,0:0:0:0:
304,72,168494,2,0,L|316:12,1,42.5,4|0,0:0|0:0,0:0:0:0:
208,72,168708,2,0,L|196:12,1,42.5,0|0,0:0|0:0,0:0:0:0:
256,152,168922,6,0,P|296:176|320:228,2,85,0|0|4,0:0|0:0|0:0,0:0:0:0:
152,348,169565,2,0,L|92:348,1,42.5,0|0,0:0|0:0,0:0:0:0:
160,252,169780,2,0,L|212:264,1,42.5,4|0,0:0|0:0,0:0:0:0:
308,324,169994,2,0,L|267:315,1,42.5,0|0,0:0|0:0,0:0:0:0:
160,224,170208,2,0,B|224:240|224:240|268:232,1,85,4|0,0:0|0:0,0:0:0:0:
308,184,170530,1,0,0:0:0:0:
267,315,170637,6,0,P|248:344|240:372,1,42.5,4|0,0:1|0:0,0:0:0:0:
360,300,170851,2,0,P|352:281|339:264,1,42.5,0|0,0:0|0:0,0:0:0:0:
444,268,171065,2,0,P|464:288|504:296,1,42.5,4|0,0:0|0:0,0:0:0:0:
428,172,171280,2,0,P|396:184|368:204,1,42.5,0|0,0:0|0:0,0:0:0:0:
272,292,171494,6,0,L|244:228,1,42.5,4|0,0:0|0:0,0:0:0:0:
164,296,171708,2,0,L|136:232,1,42.5,0|0,0:0|0:0,0:0:0:0:
56,304,171922,2,0,L|44:272,8,21.25,4|0|0|0|0|0|0|0|0,0:0|0:0|0:0|0:0|0:0|0:0|0:0|0:0|0:0,0:0:0:0:
56,304,172780,5,4,0:1:0:0:
112,280,187780,5,2,0:2:0:0:
324,136,188208,1,0,0:0:0:0:
80,64,188637,1,0,0:0:0:0:
220,276,189065,1,0,0:0:0:0:
316,40,189494,5,2,0:2:0:0:
220,276,189922,1,0,0:0:0:0:
68,28,190351,2,0,B|80:132|80:132|68:208,1,170,0|0,0:0|0:0,0:0:0:0:
280,340,191208,5,2,0:2:0:0:
24,352,191637,1,0,0:0:0:0:
188,160,192065,1,0,0:0:0:0:
348,360,192494,1,0,0:0:0:0:
356,104,192922,6,0,B|472:100|472:100|540:64,2,170,2|0|0,0:2|0:0|0:0,0:0:0:0:
112,28,194208,1,0,0:0:0:0:
68,280,194637,6,0,B|68:224|68:224|40:176,2,85,2|0|0,0:2|0:0|0:0,0:0:0:0:
172,352,195280,1,0,0:0:0:0:
176,224,195494,2,0,B|176:168|176:168|204:120,2,85,0|0|0,0:0|0:0|0:0,0:0:0:0:
172,352,196137,1,0,0:0:0:0:
280,284,196351,6,0,L|392:308,1,85,2|0,0:2|0:0,0:0:0:0:
471,193,196780,2,0,L|388:176,1,85,0|0,0:0|0:0,0:0:0:0:
228,352,197208,1,0,0:0:0:0:
228,352,197422,1,0,0:0:0:0:
200,228,197637,1,0,0:0:0:0:
172,104,197851,1,0,0:0:0:0:
32,340,198065,6,0,L|100:336,1,42.5,2|0,0:2|0:0,0:0:0:0:
112,260,198280,2,0,L|180:256,1,42.5,0|0,0:0|0:0,0:0:0:0:
216,316,198494,2,0,L|284:312,1,42.5,0|0,0:0|0:0,0:0:0:0:
296,236,198708,2,0,L|364:232,1,42.5,0|0,0:0|0:0,0:0:0:0:
460,176,198922,6,0,L|392:172,1,42.5,0|0,0:0|0:0,0:0:0:0:
380,96,199137,2,0,L|312:92,1,42.5,0|0,0:0|0:0,0:0:0:0:
276,152,199351,2,0,L|208:148,1,42.5,0|0,0:0|0:0,0:0:0:0:
196,72,199565,2,0,L|128:68,1,42.5,0|0,0:0|0:0,0:0:0:0:
68,64,199780,6,0,L|52:32,15,21.25,2|0|0|0|0|0|0|0|0|0|0|0|0|0|0|0,0:2|0:0|0:0|0:0|0:0|0:0|0:0|0:0|0:0|0:0|0:0|0:0|0:0|0:0|0:0|0:0,0:0:0:0:
72,152,200637,6,0,L|68:176,24,14.1666666666667,0|0|0|0|0|0|0|0|0|0|0|0|0|0|0|0|4|0|0|0|0|0|0|0|0,0:0|0:0|0:0|0:0|0:0|0:0|0:0|0:0|0:0|0:0|0:0|0:0|0:0|0:0|0:0|0:0|0:1|0:0|0:0|0:0|0:0|0:0|0:0|0:0|0:0,0:0:0:0:
256,196,208351,5,0,0:0:0:0:
256,196,208780,1,4,0:0:0:0:
256,196,209208,1,0,0:0:0:0:
256,196,209637,1,4,0:0:0:0:
256,344,210065,5,0,0:0:0:0:
256,344,210494,1,4,0:0:0:0:
256,344,210922,1,0,0:0:0:0:
256,344,211351,1,4,0:0:0:0:
256,108,211780,5,0,0:0:0:0:
188,216,211994,1,0,0:0:0:0:
316,216,212208,1,4,0:0:0:0:
256,108,212422,1,0,0:0:0:0:
256,108,212530,1,0,0:0:0:0:
256,108,212637,6,0,L|180:96,1,42.5,0|0,0:0|0:0,0:0:0:0:
256,24,212851,2,0,L|332:12,1,42.5,0|0,0:0|0:0,0:0:0:0:
380,4,213065,1,4,0:0:0:0:
256,208,213280,1,0,0:0:0:0:
256,208,213387,1,0,0:0:0:0:
204,276,213494,6,0,P|180:248|172:216,1,42.5,4|0,0:1|0:0,0:0:0:0:
160,116,213708,2,0,P|184:144|192:176,1,42.5
177,243,213922,2,0,L|108:240,1,42.5,0|0,0:0|0:0,0:0:0:0:
48,240,214137,1,0,0:0:0:0:
320,356,214351,5,4,0:0:0:0:
232,152,214565,1,0,0:0:0:0:
92,360,214780,2,0,L|148:352,1,42.5,4|0,0:0|0:0,0:0:0:0:
188,264,214994,2,0,L|244:256,1,42.5,0|0,0:0|0:0,0:0:0:0:
332,344,215208,6,0,P|316:308|320:284,1,42.5,4|0,0:1|0:0,0:0:0:0:
416,252,215422,2,0,L|392:308,1,42.5,0|0,0:0|0:0,0:0:0:0:
352,184,215637,2,0,L|328:240,2,42.5,4|0|0,0:0|0:0|0:0,0:0:0:0:
388,108,215958,1,0,0:0:0:0:
416,28,216065,6,0,P|460:68|472:124,1,85,0|0,0:0|0:0,0:0:0:0:
480,276,216494,2,0,L|372:264,1,85,4|0,0:0|0:0,0:0:0:0:
316,232,216815,1,0,0:0:0:0:
240,272,216922,6,0,L|224:332,1,42.5,0|0,0:0|0:0,0:0:0:0:
244,192,217137,2,0,P|240:144|268:88,1,85,0|4,0:0|0:0,0:0:0:0:
332,80,217458,1,0,0:0:0:0:
336,164,217565,2,0,L|428:176,1,85,0|0,0:0|0:0,0:0:0:0:
468,256,217887,5,0,0:0:0:0:
452,200,217994,1,0,0:0:0:0:
448,140,218101,1,0,0:0:0:0:
468,84,218208,1,4,0:0:0:0:
316,168,218422,1,0,0:0:0:0:
232,20,218637,6,0,L|196:68,1,42.5,0|0,0:0|0:0,0:0:0:0:
98,74,218851,2,0,L|124:40,1,42.5,0|0,0:0|0:0,0:0:0:0:
164,120,219065,2,0,L|128:168,1,42.5,4|0,0:0|0:0,0:0:0:0:
30,174,219280,2,0,L|55:140,1,42.5,0|0,0:0|0:0,0:0:0:0:
92,228,219494,6,0,P|112:276|96:340,1,85,0|0,0:0|0:0,0:0:0:0:
220,160,219922,2,0,P|248:112|292:96,1,85,4|0,0:0|0:0,0:0:0:0:
360,92,220244,1,0,0:0:0:0:
400,16,220351,6,0,P|364:8|324:12,1,42.5,0|0,0:0|0:0,0:0:0:0:
388,104,220565,2,0,P|408:152|400:208,1,85,0|4,0:0|0:0,0:0:0:0:
400,268,220887,1,0,0:0:0:0:
424,188,220994,2,0,P|372:188|340:208,1,85
312,280,221315,5,0,0:0:0:0:
260,308,221422,1,0,0:0:0:0:
200,316,221530,1,0,0:0:0:0:
144,300,221637,1,4,0:0:0:0:
48,192,221851,1,0,0:0:0:0:
184,32,222065,6,0,L|176:92,1,42.5,0|0,0:0|0:0,0:0:0:0:
264,28,222280,2,0,L|272:88,1,42.5,0|0,0:0|0:0,0:0:0:0:
356,28,222494,2,0,L|348:88,1,42.5,4|0,0:0|0:0,0:0:0:0:
436,24,222708,2,0,L|444:84,1,42.5,0|0,0:0|0:0,0:0:0:0:
452,148,222922,5,0,0:0:0:0:
280,224,223137,1,0,0:0:0:0:
368,96,223351,2,0,P|352:48|308:8,1,85,4|0,0:0|0:0,0:0:0:0:
120,64,223780,6,0,L|180:68,1,42.5,0|0,0:0|0:0,0:0:0:0:
139,155,223994,2,0,L|99:141,1,42.5,0|0,0:0|0:0,0:0:0:0:
80,231,224208,2,0,L|140:235,1,42.5,4|0,0:0|0:0,0:0:0:0:
99,322,224422,2,0,L|59:308,1,42.5,0|0,0:0|0:0,0:0:0:0:
184,296,224637,5,0,0:0:0:0:
256,152,224851,1,0,0:0:0:0:
96,228,225065,2,0,L|53:224,1,42.5,4|0,0:0|0:0,0:0:0:0:
85,140,225280,2,0,L|128:144,1,42.5,0|0,0:0|0:0,0:0:0:0:
180,212,225494,5,0,0:0:0:0:
260,36,225708,1,0,0:0:0:0:
336,240,225922,1,4,0:0:0:0:
192,108,226137,2,0,P|180:88|180:60,1,42.5,0|0,0:0|0:0,0:0:0:0:
328,88,226351,5,0,0:0:0:0:
304,144,226458,1,0,0:0:0:0:
264,188,226565,1,0,0:0:0:0:
208,204,226672,1,0,0:0:0:0:
148,196,226780,1,4,0:0:0:0:
228,60,226994,2,0,P|224:32|240:-12,1,42.5
336,132,227208,6,0,L|268:140,1,42.5,8|0,0:0|0:0,0:0:0:0:
400,40,227422,2,0,L|442:35,1,42.5,0|0,0:0|0:0,0:0:0:0:
424,144,227637,2,0,P|420:176|424:200,1,42.5,4|0,0:0|0:0,0:0:0:0:
312,48,227851,2,0,P|268:24|200:16,1,85,0|4,0:0|0:0,0:0:0:0:
168,68,228172,5,0,0:0:0:0:
84,72,228280,2,0,P|68:44|60:12,1,42.5,0|0,0:0|0:0,0:0:0:0:
168,96,228494,2,0,L|156:160,1,42.5,4|0,0:0|0:0,0:0:0:0:
252,132,228708,2,0,L|240:196,1,42.5,0|0,0:0|0:0,0:0:0:0:
184,268,228922,6,0,P|180:252|180:212,2,42.5,4|0|0,0:1|0:0|0:0,0:0:0:0:
244,328,229244,1,0,0:0:0:0:
304,268,229351,2,0,P|308:252|308:212,2,42.5,4|0|0,0:0|0:0|0:0,0:0:0:0:
244,328,229672,1,0,0:0:0:0:
328,352,229780,6,0,P|392:344|444:360,1,85,0|0,0:0|0:0,0:0:0:0:
472,160,230208,2,0,L|404:152,2,42.5,4|0|0,0:0|0:0|0:0,0:0:0:0:
472,76,230530,1,0,0:0:0:0:
372,44,230637,6,0,P|380:88|396:108,2,42.5,0|0|0,0:0|0:0|0:0,0:0:0:0:
288,40,230958,1,0,0:0:0:0:
296,124,231065,2,0,P|272:168|224:192,1,85,4|0,0:0|0:0,0:0:0:0:
164,156,231387,1,0,0:0:0:0:
143,71,231494,5,0,0:0:0:0:
88,92,231601,1,0,0:0:0:0:
60,144,231708,1,0,0:0:0:0:
60,204,231815,1,0,0:0:0:0:
108,276,231922,2,0,P|116:324|96:388,1,85,4|0,0:0|0:0,0:0:0:0:
288,216,232351,6,0,P|320:200|360:200,2,42.5,0|0|0,0:0|0:0|0:0,0:0:0:0:
228,276,232672,1,0,0:0:0:0:
336,288,232780,2,0,L|318:326,1,42.5,4|0,0:0|0:0,0:0:0:0:
420,300,232994,2,0,L|437:261,1,42.5,0|0,0:0|0:0,0:0:0:0:
364,120,233208,6,0,L|380:228,1,85,0|0,0:0|0:0,0:0:0:0:
408,40,233637,2,0,P|392:32|340:28,1,42.5,4|0,0:0|0:0,0:0:0:0:
292,64,233851,2,0,L|256:112,1,42.5,0|0,0:0|0:0,0:0:0:0:
156,76,234065,6,0,P|180:68|200:48,1,42.5,0|0,0:0|0:0,0:0:0:0:
68,24,234280,2,0,L|72:132,1,85,0|4,0:0|0:0,0:0:0:0:
80,192,234601,1,0,0:0:0:0:
92,276,234708,2,0,P|72:316|72:340,1,42.5,0|0,0:0|0:0,0:0:0:0:
160,224,234922,5,0,0:0:0:0:
112,188,235030,1,0,0:0:0:0:
68,148,235137,1,0,0:0:0:0:
24,108,235244,1,0,0:0:0:0:
104,40,235351,2,0,L|112:148,1,85,4|0,0:0|0:0,0:0:0:0:
272,288,235780,6,0,P|284:260|304:232,1,42.5,0|0,0:0|0:0,0:0:0:0:
245,141,235994,2,0,P|264:152|284:160,1,42.5,0|0,0:0|0:0,0:0:0:0:
402,200,236208,2,0,L|360:200,2,42.5,4|0|0,0:0|0:0|0:0,0:0:0:0:
468,144,236530,1,0,0:0:0:0:
436,224,236637,6,0,P|420:292|424:328,1,85,0|0,0:0|0:0,0:0:0:0:
372,120,237065,2,0,P|384:72|376:20,1,85,4|0,0:0|0:0,0:0:0:0:
200,116,237494,6,0,L|220:176,1,42.5,0|0,0:0|0:0,0:0:0:0:
98,212,237708,2,0,L|112:172,1,42.5,0|0,0:0|0:0,0:0:0:0:
192,252,237922,2,0,P|208:264|256:280,2,42.5,4|0|0,0:0|0:0|0:0,0:0:0:0:
213,156,238244,1,0,0:0:0:0:
176,268,238351,6,0,P|216:304|268:312,1,85,0|0,0:0|0:0,0:0:0:0:
364,96,238780,2,0,L|424:76,1,42.5,4|0,0:0|0:0,0:0:0:0:
424,164,238994,2,0,L|484:144,1,42.5,0|0,0:0|0:0,0:0:0:0:
488,68,239208,5,0,0:0:0:0:
392,264,239422,1,0,0:0:0:0:
264,112,239637,1,4,0:0:0:0:
400,32,239851,2,0,L|392:88,1,42.5,0|0,0:0|0:0,0:0:0:0:
336,192,240065,6,0,L|342:149,2,42.5,4|0|0,0:0|0:0|0:0,0:0:0:0:
324,276,240387,1,0,0:0:0:0:
324,276,240494,1,4,0:0:0:0:
144,136,240708,2,0,L|132:80,1,42.5,0|0,0:0|0:0,0:0:0:0:
76,36,240922,6,0,P|68:48|48:96,1,42.5,4|0,0:1|0:0,0:0:0:0:
40,200,241137,2,0,P|64:168|72:140,1,42.5,0|0,0:0|0:0,0:0:0:0:
176,68,241351,2,0,L|248:80,1,42.5,4|0,0:0|0:0,0:0:0:0:
304,176,241565,2,0,L|258:177,1,42.5
352,60,241780,5,4,0:0:0:0:
352,60,241887,1,0,0:0:0:0:
352,60,241994,1,0,0:0:0:0:
352,60,242101,1,0,0:0:0:0:
352,60,242208,6,0,L|360:92,8,21.25,4|0|0|0|0|0|0|0|4,0:0|0:0|0:0|0:0|0:0|0:0|0:0|0:0|0:1,0:0:0:0:
184,36,242851,5,0,0:0:0:0:
252,200,243065,2,0,P|272:136|268:100,1,85,4|0,0:0|0:0,0:0:0:0:
188,128,243387,1,0,0:0:0:0:
144,200,243494,6,0,P|148:252|172:296,1,85,0|0,0:0|0:0,0:0:0:0:
416,312,243922,2,0,L|360:308,1,42.5,4|0,0:0|0:0,0:0:0:0:
316,372,244137,2,0,L|260:368,1,42.5,0|0,0:0|0:0,0:0:0:0:
352,288,244351,6,0,P|340:244|352:184,1,85,0|0,0:0|0:0,0:0:0:0:
400,140,244672,1,0,0:0:0:0:
272,152,244780,2,0,P|272:88|252:40,1,85,4|0,0:0|0:0,0:0:0:0:
184,44,245101,1,0,0:0:0:0:
148,180,245208,6,0,L|216:172,1,42.5,0|0,0:0|0:0,0:0:0:0:
212,256,245422,2,0,L|280:248,1,42.5,0|0,0:0|0:0,0:0:0:0:
328,168,245637,1,4,0:0:0:0:
312,112,245744,1,0,0:0:0:0:
268,72,245851,1,0,0:0:0:0:
212,52,245958,1,0,0:0:0:0:
176,136,246065,5,0,0:0:0:0:
336,16,246280,1,0,0:0:0:0:
384,240,246494,2,0,P|408:284|412:344,1,85,4|0,0:0|0:0,0:0:0:0:
332,340,246815,1,0,0:0:0:0:
268,284,246922,6,0,L|256:236,1,42.5,0|0,0:0|0:0,0:0:0:0:
176,260,247137,2,0,L|186:301,1,42.5,0|0,0:0|0:0,0:0:0:0:
260,208,247351,2,0,P|256:160|276:104,1,85,4|0,0:0|0:0,0:0:0:0:
312,52,247672,1,0,0:0:0:0:
168,80,247780,6,0,L|92:96,1,42.5,0|0,0:0|0:0,0:0:0:0:
72,180,247994,2,0,L|113:171,1,42.5,0|0,0:0|0:0,0:0:0:0:
256,212,248208,2,0,P|196:220|168:240,1,85,4|0,0:0|0:0,0:0:0:0:
140,312,248530,1,0,0:0:0:0:
228,336,248637,6,0,L|284:344,1,42.5,4|0,0:0|0:0,0:0:0:0:
336,272,248851,2,0,L|392:280,1,42.5,4|0,0:0|0:0,0:0:0:0:
228,192,249065,2,0,L|284:200,1,42.5,4|0,0:0|0:0,0:0:0:0:
336,128,249280,2,0,L|392:136,1,42.5,4|0,0:0|0:0,0:0:0:0:
496,196,249494,6,0,P|464:144|460:92,1,85,0|0,0:0|0:0,0:0:0:0:
448,36,249815,1,0,0:0:0:0:
378,134,249922,2,0,P|324:104|294:61,1,85,4|0,0:0|0:0,0:0:0:0:
255,20,250244,1,0,0:0:0:0:
248,144,250351,6,0,P|186:145|139:123,1,85,0|0,0:0|0:0,0:0:0:0:
84,106,250672,1,0,0:0:0:0:
164,224,250780,2,0,P|112:255|59:260,1,85,4|0,0:0|0:0,0:0:0:0:
2,273,251101,1,0,0:0:0:0:
108,344,251208,6,0,L|128:256,1,85,0|0,0:0|0:0,0:0:0:0:
298,157,251637,2,0,L|288:216,1,42.5,4|0,0:0|0:0,0:0:0:0:
220,244,251851,2,0,L|209:302,1,42.5,0|0,0:0|0:0,0:0:0:0:
240,368,252065,5,0,0:0:0:0:
204,156,252280,1,0,0:0:0:0:
352,308,252494,2,0,L|404:320,1,42.5,4|0,0:0|0:0,0:0:0:0:
493,265,252708,2,0,L|452:256,1,42.5,0|0,0:0|0:0,0:0:0:0:
352,200,252922,6,0,P|332:256|284:292,1,85,0|0,0:0|0:0,0:0:0:0:
232,300,253244,1,0,0:0:0:0:
96,208,253351,2,0,P|148:200|196:212,1,85,4|0,0:0|0:0,0:0:0:0:
244,264,253672,1,0,0:0:0:0:
236,136,253780,6,0,B|228:80|228:80|232:36,1,85,0|0,0:0|0:0,0:0:0:0:
304,8,254101,1,0,0:0:0:0:
352,164,254208,2,0,B|330:216|330:216|305:252,1,85,4|0,0:0|0:0,0:0:0:0:
229,240,254530,1,0,0:0:0:0:
100,320,254637,6,0,L|144:288,1,42.5,0|0,0:0|0:0,0:0:0:0:
84,224,254851,2,0,L|138:218,1,42.5,0|0,0:0|0:0,0:0:0:0:
108,128,255065,2,0,L|157:150,1,42.5,4|0,0:0|0:0,0:0:0:0:
176,56,255280,2,0,L|208:100,1,42.5,0|0,0:0|0:0,0:0:0:0:
256,216,255494,5,4,0:0:0:0:
256,216,255601,1,0,0:0:0:0:
256,216,255708,1,0,0:0:0:0:
256,216,255815,1,0,0:0:0:0:
280,252,255922,6,0,L|336:256,4,42.5,4|0|0|0|0,0:0|0:0|0:0|0:0|0:0,0:0:0:0:
