osu file format v14

[General]
AudioFilename: audio.ogg
AudioLeadIn: 0
PreviewTime: 68869
Countdown: 0
SampleSet: Soft
StackLeniency: 0.7
Mode: 3
LetterboxInBreaks: 0
SpecialStyle: 0
WidescreenStoryboard: 1

[Editor]
DistanceSpacing: 1.5
BeatDivisor: 8
GridSize: 4
TimelineZoom: 3

[Metadata]
Title:All I Need Are Things I Like
TitleUnicode:すきなことだけでいいです
Artist:PinocchioP
ArtistUnicode:ピノキオピー
Creator:fvrex
Version:I only need what I like
Source:
Tags:xtrippin famoss vocaloid hatsune miku suki na koto dake de ii desu pop japanese electronic j-pop jpop rice chordjack human 初音ミク マジカルミライ 2019 best album 2009-2020 寿 kotobuki expo 2021 online live arrangement crypton future media umaa u/m/a/a ビクターエンタテインメント victor entertainment ボーカロイド ボカロ
BeatmapID:3080332
BeatmapSetID:1503565

[Difficulty]
HPDrainRate:8
CircleSize:4
OverallDifficulty:8
ApproachRate:5
SliderMultiplier:1.4
SliderTickRate:1

[Events]
//Background and Video events
0,0,"56697889_p0.jpg",0,0
//Break Periods
//Storyboard Layer 0 (Background)
//Storyboard Layer 1 (Fail)
//Storyboard Layer 2 (Pass)
//Storyboard Layer 3 (Foreground)
//Storyboard Layer 4 (Overlay)
//Storyboard Sound Samples

[TimingPoints]
7611,428.571428571429,4,2,1,40,1,0
11039,-100,4,2,1,50,0,0
14468,-100,4,2,1,60,0,0
69325,-100,4,2,1,60,0,1
103611,-100,4,2,1,40,0,0
110468,-100,4,2,1,50,0,0
115611,-100,4,2,1,60,0,0
144753,-100,4,2,1,60,0,1
173896,-100,4,2,1,40,0,0
185896,-100,4,2,1,50,0,0
194468,-100,4,2,1,60,0,0
201432,-100,4,2,1,40,0,0
208182,-100,4,2,1,50,0,0
215039,-100,4,2,1,60,0,1
256182,-100,4,2,1,40,0,0

[HitObjects]
64,192,7610,5,2,0:0:0:0:
448,192,7610,1,0,0:0:0:0:
192,192,7718,1,0,0:0:0:0:
320,192,7825,1,0,0:0:0:0:
64,192,7932,1,0,0:0:0:0:
192,192,8039,1,2,0:0:0:0:
448,192,8039,1,0,0:0:0:0:
320,192,8146,1,0,0:0:0:0:
192,192,8253,1,0,0:0:0:0:
64,192,8360,1,0,0:0:0:0:
320,192,8468,1,2,0:0:0:0:
448,192,8468,1,0,0:0:0:0:
192,192,8575,1,0,0:0:0:0:
320,192,8682,1,0,0:0:0:0:
448,192,8789,1,0,0:0:0:0:
64,192,8896,1,2,0:0:0:0:
192,192,8896,1,0,0:0:0:0:
320,192,9003,1,0,0:0:0:0:
192,192,9110,1,0,0:0:0:0:
64,192,9325,1,2,0:0:0:0:
448,192,9325,1,0,0:0:0:0:
64,192,9432,1,0,0:0:0:0:
64,192,9646,1,0,0:0:0:0:
192,192,9753,1,2,0:0:0:0:
448,192,9753,1,0,0:0:0:0:
320,192,9861,1,0,0:0:0:0:
64,192,9968,1,0,0:0:0:0:
64,192,10182,1,2,0:0:0:0:
448,192,10182,1,0,0:0:0:0:
64,192,10289,1,0,0:0:0:0:
64,192,10503,1,0,0:0:0:0:
192,192,10611,1,2,0:0:0:0:
448,192,10611,1,0,0:0:0:0:
320,192,10718,1,0,0:0:0:0:
64,192,10825,1,0,0:0:0:0:
320,192,11039,1,2,0:0:0:0:
448,192,11039,1,0,0:0:0:0:
192,192,11146,1,0,0:0:0:0:
64,192,11253,1,2,0:0:0:0:
448,192,11253,1,0,0:0:0:0:
320,192,11361,1,0,0:0:0:0:
64,192,11468,1,2,0:0:0:0:
192,192,11468,1,0,0:0:0:0:
320,192,11575,1,0,0:0:0:0:
64,192,11682,1,2,0:0:0:0:
448,192,11682,1,0,0:0:0:0:
192,192,11789,1,0,0:0:0:0:
320,192,11896,1,2,0:0:0:0:
448,192,11896,1,0,0:0:0:0:
192,192,12003,1,0,0:0:0:0:
64,192,12111,1,2,0:0:0:0:
448,192,12111,1,0,0:0:0:0:
320,192,12218,1,0,0:0:0:0:
64,192,12325,1,2,0:0:0:0:
192,192,12325,1,0,0:0:0:0:
448,192,12432,1,0,0:0:0:0:
64,192,12539,1,2,0:0:0:0:
320,192,12539,1,0,0:0:0:0:
192,192,12646,1,0,0:0:0:0:
320,192,12753,1,2,0:0:0:0:
448,192,12753,1,0,0:0:0:0:
320,192,12861,1,2,0:0:0:0:
448,192,12861,1,0,0:0:0:0:
64,192,12968,1,2,0:0:0:0:
192,192,12968,1,0,0:0:0:0:
320,192,13075,1,2,0:0:0:0:
448,192,13075,1,0,0:0:0:0:
64,192,13182,1,2,0:0:0:0:
192,192,13182,1,0,0:0:0:0:
192,192,13289,1,2,0:0:0:0:
320,192,13289,1,0,0:0:0:0:
64,192,13396,1,2,0:0:0:0:
448,192,13396,1,0,0:0:0:0:
192,192,13503,1,2,0:0:0:0:
320,192,13503,1,0,0:0:0:0:
320,192,13611,1,2,0:0:0:0:
448,192,13611,1,0,0:0:0:0:
64,192,13664,1,2,0:0:0:0:
192,192,13718,1,2,0:0:0:0:
320,192,13771,1,2,0:0:0:0:
448,192,13825,1,2,0:0:0:0:
64,192,13878,1,2,0:0:0:0:
192,192,13932,1,2,0:0:0:0:
320,192,13986,1,2,0:0:0:0:
64,192,14039,1,0,0:0:0:100:LR3_SSXFG.wav
448,192,14039,1,0,0:0:0:0:
192,192,14111,1,0,0:0:0:0:
320,192,14182,1,0,0:0:0:0:
64,192,14253,1,0,0:0:0:0:
192,192,14468,1,2,0:0:0:0:
320,192,14468,1,4,0:0:0:0:
448,192,14468,1,0,0:0:0:0:
64,192,14575,1,0,0:0:0:0:
448,192,14682,1,0,0:0:0:0:
192,192,14789,1,0,0:0:0:0:
64,192,14896,1,2,0:0:0:0:
320,192,14896,1,8,0:0:0:0:
448,192,14896,1,0,0:0:0:0:
192,192,15003,1,0,0:0:0:0:
320,192,15111,1,0,0:0:0:0:
64,192,15218,1,0,0:0:0:0:
320,192,15325,1,2,0:0:0:0:
448,192,15325,1,0,0:0:0:0:
192,192,15378,1,0,0:0:0:0:
320,192,15432,1,8,0:0:0:0:
448,192,15539,1,0,0:0:0:0:
64,192,15646,1,0,0:0:0:0:
192,192,15753,1,2,0:0:0:0:
320,192,15753,1,8,0:0:0:0:
448,192,15753,1,0,0:0:0:0:
64,192,15861,1,0,0:0:0:0:
320,192,15968,1,8,0:0:0:0:
448,192,15968,1,0,0:0:0:0:
320,192,16075,1,8,0:0:0:0:
448,192,16075,1,0,0:0:0:0:
64,192,16182,1,2,0:0:0:0:
192,192,16182,1,0,0:0:0:0:
448,192,16289,1,0,0:0:0:0:
192,192,16396,1,0,0:0:0:0:
320,192,16503,1,0,0:0:0:0:
64,192,16611,1,2,0:0:0:0:
192,192,16611,1,8,0:0:0:0:
448,192,16611,1,0,0:0:0:0:
320,192,16718,1,0,0:0:0:0:
64,192,16825,1,0,0:0:0:0:
192,192,16932,1,0,0:0:0:0:
320,192,17039,1,2,0:0:0:0:
448,192,17039,1,0,0:0:0:0:
64,192,17093,1,0,0:0:0:0:
448,192,17146,1,8,0:0:0:0:
320,192,17253,1,0,0:0:0:0:
192,192,17361,1,0,0:0:0:0:
64,192,17468,1,2,0:0:0:0:
320,192,17468,1,8,0:0:0:0:
448,192,17468,1,0,0:0:0:0:
192,192,17575,1,0,0:0:0:0:
64,192,17682,1,0,0:0:0:0:
448,192,17682,1,0,0:0:0:0:
64,192,17789,1,0,0:0:0:0:
448,192,17789,1,0,0:0:0:0:
192,192,17896,1,2,0:0:0:0:
320,192,17896,1,0,0:0:0:0:
448,192,18003,1,0,0:0:0:0:
192,192,18111,1,0,0:0:0:0:
320,192,18218,1,0,0:0:0:0:
64,192,18325,1,2,0:0:0:0:
192,192,18325,1,8,0:0:0:0:
448,192,18325,1,0,0:0:0:0:
320,192,18432,1,0,0:0:0:0:
64,192,18539,1,0,0:0:0:0:
192,192,18646,1,0,0:0:0:0:
320,192,18753,1,2,0:0:0:0:
448,192,18753,1,0,0:0:0:0:
64,192,18807,1,0,0:0:0:0:
448,192,18861,1,8,0:0:0:0:
192,192,18968,1,0,0:0:0:0:
320,192,19075,1,0,0:0:0:0:
64,192,19182,1,2,0:0:0:0:
192,192,19182,1,8,0:0:0:0:
448,192,19182,1,0,0:0:0:0:
320,192,19289,1,0,0:0:0:0:
64,192,19396,1,8,0:0:0:0:
448,192,19396,1,0,0:0:0:0:
192,192,19503,1,0,0:0:0:0:
320,192,19611,1,2,0:0:0:0:
448,192,19611,1,0,0:0:0:0:
64,192,19718,1,0,0:0:0:0:
192,192,19825,1,8,0:0:0:0:
320,192,19825,1,0,0:0:0:0:
448,192,19932,1,0,0:0:0:0:
64,192,20039,1,2,0:0:0:0:
192,192,20039,1,0,0:0:0:0:
320,192,20146,1,8,0:0:0:0:
448,192,20146,1,0,0:0:0:0:
192,192,20253,1,0,0:0:0:0:
64,192,20361,1,0,0:0:0:0:
192,192,20468,1,2,0:0:0:0:
320,192,20468,1,8,0:0:0:0:
448,192,20468,1,0,0:0:0:0:
448,192,20575,1,0,0:0:0:0:
64,192,20682,1,8,0:0:0:0:
192,192,20682,1,0,0:0:0:0:
192,192,20789,1,0,0:0:0:0:
64,192,20896,1,2,0:0:0:0:
320,192,20896,1,8,0:0:0:0:
448,192,20896,1,0,0:0:0:0:
320,192,21003,1,8,0:0:0:0:
448,192,21003,1,0,0:0:0:0:
64,192,21111,1,8,0:0:0:0:
192,192,21111,1,0,0:0:0:0:
64,192,21218,1,8,0:0:0:0:
192,192,21218,1,0,0:0:0:0:
64,192,21325,1,2,0:0:0:0:
448,192,21325,1,0,0:0:0:0:
320,192,21432,1,0,0:0:0:0:
192,192,21539,128,0,21646:0:0:0:0:
448,192,21646,1,0,0:0:0:0:
64,192,21753,1,8,0:0:0:0:
192,192,21753,1,2,0:0:0:0:
320,192,21753,1,0,0:0:0:0:
448,192,21861,1,0,0:0:0:0:
192,192,21968,128,0,22075:0:0:0:0:
320,192,22075,1,0,0:0:0:0:
64,192,22182,1,2,0:0:0:0:
192,192,22182,1,0,0:0:0:0:
320,192,22289,1,8,0:0:0:0:
448,192,22289,1,0,0:0:0:0:
192,192,22396,128,0,22503:0:0:0:0:
448,192,22503,1,0,0:0:0:0:
64,192,22611,1,8,0:0:0:0:
192,192,22611,1,2,0:0:0:0:
320,192,22611,1,0,0:0:0:0:
448,192,22718,1,0,0:0:0:0:
64,192,22825,1,8,0:0:0:0:
192,192,22825,1,0,0:0:0:0:
64,192,22932,1,8,0:0:0:0:
192,192,22932,1,0,0:0:0:0:
320,192,23039,1,2,0:0:0:0:
448,192,23039,1,0,0:0:0:0:
64,192,23146,1,0,0:0:0:0:
192,192,23253,128,0,23361:0:0:0:0:
448,192,23361,1,0,0:0:0:0:
64,192,23468,1,8,0:0:0:0:
192,192,23468,1,2,0:0:0:0:
320,192,23468,1,0,0:0:0:0:
448,192,23575,1,0,0:0:0:0:
192,192,23682,128,0,23789:0:0:0:0:
320,192,23789,1,0,0:0:0:0:
64,192,23896,1,2,0:0:0:0:
192,192,23896,1,0,0:0:0:0:
320,192,24003,1,8,0:0:0:0:
448,192,24003,1,0,0:0:0:0:
64,192,24111,128,0,24218:0:0:0:0:
192,192,24325,128,8,24432:0:0:0:0:
320,192,24325,1,2,0:0:0:0:
448,192,24325,1,0,0:0:0:0:
64,192,24432,1,0,0:0:0:0:
320,192,24539,128,0,24646:0:0:0:0:
448,192,24539,1,0,0:0:0:0:
192,192,24646,1,0,0:0:0:0:
64,192,24753,1,2,0:0:0:0:
320,192,24753,1,8,0:0:0:0:
448,192,24753,1,0,0:0:0:0:
192,192,24861,1,0,0:0:0:0:
320,192,24968,1,0,0:0:0:0:
448,192,24968,1,0,0:0:0:0:
64,192,25075,1,0,0:0:0:0:
192,192,25182,1,8,0:0:0:0:
320,192,25182,1,2,0:0:0:0:
448,192,25182,1,0,0:0:0:0:
64,192,25289,1,0,0:0:0:0:
192,192,25396,1,0,0:0:0:0:
448,192,25396,1,0,0:0:0:0:
320,192,25503,1,0,0:0:0:0:
64,192,25611,1,2,0:0:0:0:
192,192,25611,1,8,0:0:0:0:
448,192,25611,1,0,0:0:0:0:
320,192,25718,1,0,0:0:0:0:
64,192,25825,1,0,0:0:0:0:
192,192,25825,1,0,0:0:0:0:
448,192,25932,1,0,0:0:0:0:
64,192,26039,1,8,0:0:0:0:
192,192,26039,1,2,0:0:0:0:
320,192,26039,1,0,0:0:0:0:
448,192,26146,1,0,0:0:0:0:
64,192,26253,1,0,0:0:0:0:
320,192,26253,1,0,0:0:0:0:
192,192,26361,1,0,0:0:0:0:
64,192,26468,1,2,0:0:0:0:
320,192,26468,1,8,0:0:0:0:
448,192,26468,1,0,0:0:0:0:
448,192,26575,1,0,0:0:0:0:
64,192,26682,1,2,0:0:0:0:
192,192,26682,1,8,0:0:0:0:
320,192,26682,1,0,0:0:0:0:
64,192,26789,1,0,0:0:0:0:
192,192,26896,1,2,0:0:0:0:
320,192,26896,1,8,0:0:0:0:
448,192,26896,1,0,0:0:0:0:
448,192,27003,1,0,0:0:0:0:
64,192,27111,1,2,0:0:0:0:
192,192,27111,1,8,0:0:0:0:
320,192,27111,1,0,0:0:0:0:
192,192,27218,1,0,0:0:0:0:
320,192,27325,1,8,0:0:0:0:
448,192,27325,1,2,0:0:0:0:
320,192,27432,1,8,0:0:0:0:
448,192,27432,1,2,0:0:0:0:
64,192,27539,1,8,0:0:0:0:
192,192,27539,1,2,0:0:0:0:
64,192,27646,1,2,0:0:0:0:
192,192,27646,1,8,0:0:0:0:
320,192,27753,1,8,0:0:0:0:
448,192,27753,1,2,0:0:0:0:
64,192,27807,1,2,0:0:0:0:
192,192,27861,1,10,0:0:0:0:
320,192,27914,1,2,0:0:0:0:
64,192,27968,1,2,0:0:0:0:
448,192,27968,1,0,0:0:0:0:
320,192,28182,1,2,0:0:0:0:
448,192,28182,1,0,0:0:0:0:
192,192,28396,1,0,0:0:0:0:
64,192,28611,1,8,0:0:0:0:
320,192,28611,1,0,0:0:0:0:
448,192,28611,1,0,0:0:0:0:
64,192,28825,1,2,0:0:0:0:
448,192,28825,1,0,0:0:0:0:
192,192,29039,1,0,0:0:0:0:
320,192,29253,1,2,0:0:0:0:
448,192,29253,1,0,0:0:0:0:
64,192,29468,1,8,0:0:0:0:
192,192,29468,1,0,0:0:0:0:
448,192,29468,1,0,0:0:0:0:
64,192,29682,1,0,0:0:0:0:
320,192,29896,1,2,0:0:0:0:
448,192,29896,1,0,0:0:0:0:
320,192,30111,1,0,0:0:0:0:
64,192,30325,1,8,0:0:0:0:
192,192,30325,1,0,0:0:0:0:
448,192,30325,1,0,0:0:0:0:
64,192,30539,1,2,0:0:0:0:
192,192,30539,1,0,0:0:0:0:
320,192,30753,1,0,0:0:0:0:
192,192,30968,1,2,0:0:0:0:
448,192,30968,1,0,0:0:0:0:
64,192,31182,1,8,0:0:0:0:
320,192,31182,1,0,0:0:0:0:
448,192,31182,1,0,0:0:0:0:
192,192,31396,1,0,0:0:0:0:
320,192,31611,1,2,0:0:0:0:
448,192,31611,1,0,0:0:0:0:
448,192,31825,1,0,0:0:0:0:
64,192,32039,1,8,0:0:0:0:
192,192,32039,1,0,0:0:0:0:
320,192,32039,1,0,0:0:0:0:
64,192,32253,1,2,0:0:0:0:
448,192,32253,1,0,0:0:0:0:
320,192,32468,1,0,0:0:0:0:
64,192,32682,1,2,0:0:0:0:
192,192,32682,1,0,0:0:0:0:
192,192,32896,1,8,0:0:0:0:
320,192,32896,1,0,0:0:0:0:
448,192,32896,1,0,0:0:0:0:
64,192,33111,1,0,0:0:0:0:
320,192,33325,1,2,0:0:0:0:
448,192,33325,1,0,0:0:0:0:
192,192,33539,1,0,0:0:0:0:
64,192,33753,1,8,0:0:0:0:
320,192,33753,1,0,0:0:0:0:
448,192,33753,1,0,0:0:0:0:
64,192,33968,1,2,0:0:0:0:
448,192,33968,1,0,0:0:0:0:
320,192,34182,1,2,0:0:0:0:
448,192,34182,1,0,0:0:0:0:
64,192,34289,1,0,0:0:0:0:
192,192,34289,1,0,0:0:0:0:
320,192,34396,1,0,0:0:0:0:
64,192,34611,1,8,0:0:0:0:
320,192,34611,1,2,0:0:0:0:
448,192,34611,1,0,0:0:0:0:
64,192,34825,1,8,0:0:0:0:
448,192,34825,1,0,0:0:0:0:
320,192,34878,1,0,0:0:0:0:
192,192,34932,1,8,0:0:0:0:
64,192,34986,1,0,0:0:0:0:
320,192,35039,1,2,0:0:0:0:
448,192,35039,1,0,0:0:0:0:
192,192,35253,1,0,0:0:0:0:
320,192,35361,1,0,0:0:0:0:
64,192,35468,1,8,0:0:0:0:
192,192,35468,1,0,0:0:0:0:
448,192,35468,1,0,0:0:0:0:
320,192,35575,1,0,0:0:0:0:
64,192,35682,1,2,0:0:0:0:
448,192,35682,1,0,0:0:0:0:
192,192,35789,1,0,0:0:0:0:
320,192,35896,1,0,0:0:0:0:
64,192,36003,1,8,0:0:0:0:
448,192,36003,1,0,0:0:0:0:
192,192,36111,1,2,0:0:0:0:
320,192,36111,1,0,0:0:0:0:
64,192,36218,1,0,0:0:0:0:
192,192,36325,1,8,0:0:0:0:
320,192,36325,1,0,0:0:0:0:
448,192,36325,1,0,0:0:0:0:
64,192,36432,1,0,0:0:0:0:
320,192,36539,1,8,0:0:0:0:
448,192,36539,1,0,0:0:0:0:
64,192,36593,1,0,0:0:0:0:
192,192,36646,1,8,0:0:0:0:
448,192,36700,1,0,0:0:0:0:
64,192,36753,1,2,0:0:0:0:
320,192,36753,1,0,0:0:0:0:
448,192,36968,1,0,0:0:0:0:
320,192,37075,1,0,0:0:0:0:
64,192,37182,1,8,0:0:0:0:
192,192,37182,1,0,0:0:0:0:
448,192,37182,1,0,0:0:0:0:
320,192,37289,1,0,0:0:0:0:
64,192,37396,1,2,0:0:0:0:
448,192,37396,1,0,0:0:0:0:
192,192,37503,1,0,0:0:0:0:
320,192,37611,1,0,0:0:0:0:
64,192,37718,1,8,0:0:0:0:
192,192,37718,1,0,0:0:0:0:
320,192,37825,1,2,0:0:0:0:
448,192,37825,1,0,0:0:0:0:
192,192,37932,1,0,0:0:0:0:
64,192,38039,1,8,0:0:0:0:
320,192,38039,1,0,0:0:0:0:
448,192,38039,1,0,0:0:0:0:
64,192,38253,1,8,0:0:0:0:
448,192,38253,1,0,0:0:0:0:
192,192,38307,1,0,0:0:0:0:
320,192,38361,1,8,0:0:0:0:
448,192,38414,1,0,0:0:0:0:
64,192,38468,1,2,0:0:0:0:
192,192,38468,1,0,0:0:0:0:
192,192,38682,1,0,0:0:0:0:
64,192,38896,1,8,0:0:0:0:
320,192,38896,1,0,0:0:0:0:
448,192,38896,1,0,0:0:0:0:
192,192,39003,1,0,0:0:0:0:
320,192,39111,1,2,0:0:0:0:
448,192,39111,1,0,0:0:0:0:
192,192,39218,1,0,0:0:0:0:
64,192,39325,1,0,0:0:0:0:
320,192,39432,1,8,0:0:0:0:
448,192,39432,1,0,0:0:0:0:
64,192,39539,1,2,0:0:0:0:
192,192,39539,1,0,0:0:0:0:
320,192,39646,1,0,0:0:0:0:
64,192,39753,1,8,0:0:0:0:
192,192,39753,1,0,0:0:0:0:
448,192,39753,1,0,0:0:0:0:
64,192,39968,1,2,0:0:0:0:
448,192,39968,1,0,0:0:0:0:
320,192,40021,1,0,0:0:0:0:
192,192,40075,1,0,0:0:0:0:
64,192,40128,1,0,0:0:0:0:
320,192,40182,1,2,0:0:0:0:
448,192,40182,1,0,0:0:0:0:
64,192,40396,1,8,0:0:0:0:
320,192,40396,1,0,0:0:0:0:
448,192,40503,1,0,0:0:0:0:
64,192,40611,1,8,0:0:0:0:
192,192,40611,1,2,0:0:0:0:
320,192,40718,1,8,0:0:0:0:
448,192,40718,1,0,0:0:0:0:
64,192,40825,1,8,0:0:0:0:
192,192,40932,1,0,0:0:0:0:
64,192,41039,1,2,0:0:0:0:
320,192,41039,1,8,0:0:0:0:
448,192,41039,1,0,0:0:0:0:
192,192,41146,1,0,0:0:0:0:
448,192,41253,1,8,0:0:0:0:
64,192,41361,1,8,0:0:0:0:
192,192,41361,1,0,0:0:0:0:
64,192,41468,1,2,0:0:0:0:
192,192,41468,1,8,0:0:0:0:
448,192,41468,1,0,0:0:0:0:
320,192,41575,1,0,0:0:0:0:
64,192,41682,1,8,0:0:0:0:
448,192,41682,1,0,0:0:0:0:
192,192,41789,1,0,0:0:0:0:
320,192,41896,1,2,0:0:0:0:
448,192,41896,1,0,0:0:0:0:
192,192,42111,1,0,0:0:0:0:
64,192,42325,1,8,0:0:0:0:
320,192,42325,1,0,0:0:0:0:
448,192,42325,1,0,0:0:0:0:
64,192,42539,1,2,0:0:0:0:
448,192,42539,1,0,0:0:0:0:
192,192,42753,1,0,0:0:0:0:
320,192,42968,1,2,0:0:0:0:
448,192,42968,1,0,0:0:0:0:
64,192,43182,1,8,0:0:0:0:
192,192,43182,1,0,0:0:0:0:
448,192,43182,1,0,0:0:0:0:
64,192,43396,1,0,0:0:0:0:
320,192,43611,1,2,0:0:0:0:
448,192,43611,1,0,0:0:0:0:
320,192,43825,1,0,0:0:0:0:
64,192,44039,1,8,0:0:0:0:
192,192,44039,1,0,0:0:0:0:
448,192,44039,1,0,0:0:0:0:
64,192,44253,1,2,0:0:0:0:
192,192,44253,1,0,0:0:0:0:
320,192,44468,1,0,0:0:0:0:
192,192,44682,1,2,0:0:0:0:
448,192,44682,1,0,0:0:0:0:
64,192,44896,1,8,0:0:0:0:
320,192,44896,1,0,0:0:0:0:
448,192,44896,1,0,0:0:0:0:
192,192,45111,1,0,0:0:0:0:
320,192,45325,1,2,0:0:0:0:
448,192,45325,1,0,0:0:0:0:
448,192,45539,1,0,0:0:0:0:
64,192,45753,1,8,0:0:0:0:
192,192,45753,1,0,0:0:0:0:
320,192,45753,1,0,0:0:0:0:
64,192,45968,1,2,0:0:0:0:
448,192,45968,1,0,0:0:0:0:
320,192,46182,1,0,0:0:0:0:
64,192,46396,1,2,0:0:0:0:
192,192,46396,1,0,0:0:0:0:
192,192,46611,1,8,0:0:0:0:
320,192,46611,1,0,0:0:0:0:
448,192,46611,1,0,0:0:0:0:
64,192,46825,1,0,0:0:0:0:
320,192,47039,1,2,0:0:0:0:
448,192,47039,1,0,0:0:0:0:
192,192,47253,1,0,0:0:0:0:
64,192,47468,1,8,0:0:0:0:
320,192,47468,1,0,0:0:0:0:
448,192,47468,1,0,0:0:0:0:
64,192,47682,1,2,0:0:0:0:
448,192,47682,1,0,0:0:0:0:
320,192,47896,1,2,0:0:0:0:
64,192,48003,1,0,0:0:0:0:
192,192,48003,1,0,0:0:0:0:
320,192,48111,1,0,0:0:0:0:
448,192,48111,1,0,0:0:0:0:
64,192,48325,1,8,0:0:0:0:
320,192,48325,1,2,0:0:0:0:
448,192,48325,1,0,0:0:0:0:
64,192,48539,1,8,0:0:0:0:
448,192,48539,1,0,0:0:0:0:
320,192,48593,1,0,0:0:0:0:
192,192,48646,1,8,0:0:0:0:
64,192,48700,1,0,0:0:0:0:
320,192,48753,1,2,0:0:0:0:
448,192,48753,1,0,0:0:0:0:
192,192,48968,1,0,0:0:0:0:
320,192,49075,1,0,0:0:0:0:
64,192,49182,1,8,0:0:0:0:
192,192,49182,1,0,0:0:0:0:
448,192,49182,1,0,0:0:0:0:
320,192,49289,1,0,0:0:0:0:
64,192,49396,1,2,0:0:0:0:
448,192,49396,1,0,0:0:0:0:
192,192,49503,1,0,0:0:0:0:
320,192,49611,1,0,0:0:0:0:
64,192,49718,1,8,0:0:0:0:
448,192,49718,1,0,0:0:0:0:
192,192,49825,1,2,0:0:0:0:
320,192,49825,1,0,0:0:0:0:
64,192,49932,1,0,0:0:0:0:
192,192,50039,1,8,0:0:0:0:
320,192,50039,1,0,0:0:0:0:
448,192,50039,1,0,0:0:0:0:
64,192,50146,1,0,0:0:0:0:
192,192,50253,1,8,0:0:0:0:
448,192,50253,1,0,0:0:0:0:
64,192,50307,1,0,0:0:0:0:
320,192,50361,1,8,0:0:0:0:
448,192,50414,1,0,0:0:0:0:
64,192,50468,1,2,0:0:0:0:
192,192,50468,1,0,0:0:0:0:
448,192,50682,1,0,0:0:0:0:
320,192,50789,1,0,0:0:0:0:
64,192,50896,1,8,0:0:0:0:
192,192,50896,1,0,0:0:0:0:
448,192,50896,1,0,0:0:0:0:
320,192,51003,1,0,0:0:0:0:
64,192,51111,1,2,0:0:0:0:
448,192,51111,1,0,0:0:0:0:
192,192,51218,1,0,0:0:0:0:
320,192,51325,1,0,0:0:0:0:
64,192,51432,1,8,0:0:0:0:
192,192,51432,1,0,0:0:0:0:
320,192,51539,1,2,0:0:0:0:
448,192,51539,1,0,0:0:0:0:
192,192,51646,1,0,0:0:0:0:
64,192,51753,1,8,0:0:0:0:
320,192,51753,1,0,0:0:0:0:
448,192,51753,1,0,0:0:0:0:
64,192,51968,1,8,0:0:0:0:
448,192,51968,1,0,0:0:0:0:
192,192,52021,1,0,0:0:0:0:
320,192,52075,1,8,0:0:0:0:
448,192,52128,1,0,0:0:0:0:
64,192,52182,1,2,0:0:0:0:
192,192,52182,1,0,0:0:0:0:
192,192,52396,1,0,0:0:0:0:
64,192,52611,1,8,0:0:0:0:
320,192,52611,1,0,0:0:0:0:
448,192,52611,1,0,0:0:0:0:
192,192,52718,1,0,0:0:0:0:
320,192,52825,1,2,0:0:0:0:
448,192,52825,1,0,0:0:0:0:
192,192,52932,1,0,0:0:0:0:
64,192,53039,1,0,0:0:0:0:
320,192,53146,1,8,0:0:0:0:
448,192,53146,1,0,0:0:0:0:
64,192,53253,1,2,0:0:0:0:
192,192,53253,1,0,0:0:0:0:
320,192,53361,1,0,0:0:0:0:
64,192,53468,1,8,0:0:0:0:
192,192,53468,1,0,0:0:0:0:
448,192,53468,1,0,0:0:0:0:
320,192,53682,1,2,0:0:0:0:
448,192,53682,1,8,0:0:0:0:
64,192,53789,1,8,0:0:0:0:
192,192,53789,1,0,0:0:0:0:
64,192,53896,1,2,0:0:0:0:
320,192,53896,1,4,0:0:0:0:
448,192,53896,1,0,0:0:0:0:
192,192,54111,1,0,0:0:0:0:
320,192,54111,1,0,0:0:0:0:
64,192,54325,1,8,0:0:0:0:
192,192,54325,1,2,0:0:0:0:
448,192,54325,1,4,0:0:0:0:
320,192,54432,1,0,0:0:0:0:
64,192,54539,1,0,0:0:0:0:
448,192,54646,1,0,0:0:0:0:
64,192,54753,1,2,0:0:0:0:
192,192,54753,1,8,0:0:0:0:
320,192,54753,1,4,0:0:0:0:
448,192,54861,1,0,0:0:0:0:
192,192,54968,1,0,0:0:0:0:
320,192,54968,1,0,0:0:0:0:
64,192,55182,1,2,0:0:0:0:
192,192,55182,1,8,0:0:0:0:
448,192,55182,1,4,0:0:0:0:
320,192,55289,1,0,0:0:0:0:
64,192,55396,1,0,0:0:0:0:
448,192,55396,1,0,0:0:0:0:
192,192,55503,1,0,0:0:0:0:
320,192,55611,1,2,0:0:0:0:
448,192,55611,1,0,0:0:0:0:
192,192,55825,1,0,0:0:0:0:
64,192,55932,1,0,0:0:0:0:
448,192,55932,1,0,0:0:0:0:
320,192,56146,1,0,0:0:0:0:
64,192,56253,1,2,0:0:0:0:
192,192,56253,1,0,0:0:0:0:
448,192,56468,1,0,0:0:0:0:
192,192,56682,1,0,0:0:0:0:
320,192,56789,1,0,0:0:0:0:
448,192,56789,1,0,0:0:0:0:
64,192,56896,1,2,0:0:0:0:
192,192,56896,1,8,0:0:0:0:
448,192,57003,1,0,0:0:0:0:
320,192,57111,1,0,0:0:0:0:
320,192,57325,1,2,0:0:0:0:
448,192,57325,1,0,0:0:0:0:
192,192,57539,1,0,0:0:0:0:
64,192,57646,1,0,0:0:0:0:
448,192,57646,1,0,0:0:0:0:
320,192,57861,1,0,0:0:0:0:
64,192,57968,1,2,0:0:0:0:
192,192,57968,1,0,0:0:0:0:
448,192,58182,1,0,0:0:0:0:
64,192,58396,1,8,0:0:0:0:
192,192,58396,1,0,0:0:0:0:
64,192,58503,1,8,0:0:0:0:
192,192,58503,1,0,0:0:0:0:
320,192,58611,1,2,0:0:0:0:
448,192,58611,1,8,0:0:0:0:
64,192,58825,1,0,0:0:0:0:
192,192,59039,1,2,0:0:0:0:
448,192,59039,1,0,0:0:0:0:
320,192,59253,1,0,0:0:0:0:
64,192,59361,1,0,0:0:0:0:
192,192,59361,1,0,0:0:0:0:
320,192,59575,1,0,0:0:0:0:
192,192,59682,1,2,0:0:0:0:
448,192,59682,1,0,0:0:0:0:
64,192,59896,1,0,0:0:0:0:
320,192,60111,1,0,0:0:0:0:
64,192,60218,1,0,0:0:0:0:
192,192,60218,1,0,0:0:0:0:
320,192,60325,1,8,0:0:0:0:
448,192,60325,1,2,0:0:0:0:
192,192,60432,1,0,0:0:0:0:
448,192,60539,1,0,0:0:0:0:
64,192,60753,1,2,0:0:0:0:
320,192,60753,1,0,0:0:0:0:
192,192,60968,1,0,0:0:0:0:
320,192,61075,1,0,0:0:0:0:
448,192,61075,1,0,0:0:0:0:
64,192,61182,1,0,0:0:0:0:
192,192,61289,1,0,0:0:0:0:
64,192,61396,1,2,0:0:0:0:
320,192,61396,1,0,0:0:0:0:
320,192,61611,1,0,0:0:0:0:
448,192,61611,1,0,0:0:0:0:
64,192,61825,1,8,0:0:0:0:
192,192,61825,1,0,0:0:0:0:
64,192,61932,1,8,0:0:0:0:
192,192,61932,1,0,0:0:0:0:
320,192,62039,1,8,0:0:0:0:
448,192,62039,1,2,0:0:0:0:
192,192,62253,1,0,0:0:0:0:
320,192,62361,1,0,0:0:0:0:
64,192,62468,1,2,0:0:0:0:
192,192,62468,1,0,0:0:0:0:
320,192,62682,1,0,0:0:0:0:
192,192,62789,1,0,0:0:0:0:
448,192,62789,1,0,0:0:0:0:
64,192,63003,1,0,0:0:0:0:
320,192,63111,1,2,0:0:0:0:
448,192,63111,1,0,0:0:0:0:
192,192,63325,1,0,0:0:0:0:
64,192,63539,1,0,0:0:0:0:
320,192,63646,1,0,0:0:0:0:
448,192,63646,1,0,0:0:0:0:
64,192,63753,1,2,0:0:0:0:
192,192,63753,1,8,0:0:0:0:
448,192,63861,1,0,0:0:0:0:
320,192,63968,1,0,0:0:0:0:
64,192,64182,1,2,0:0:0:0:
448,192,64182,1,0,0:0:0:0:
192,192,64396,1,0,0:0:0:0:
320,192,64503,1,0,0:0:0:0:
448,192,64503,1,0,0:0:0:0:
192,192,64718,1,0,0:0:0:0:
64,192,64825,1,2,0:0:0:0:
448,192,64825,1,0,0:0:0:0:
320,192,65039,1,0,0:0:0:0:
64,192,65253,1,8,0:0:0:0:
192,192,65253,1,0,0:0:0:0:
64,192,65361,1,8,0:0:0:0:
192,192,65361,1,0,0:0:0:0:
320,192,65468,1,2,0:0:0:0:
448,192,65468,1,8,0:0:0:0:
64,192,65682,1,0,0:0:0:0:
448,192,65682,1,0,0:0:0:0:
64,192,65896,1,2,0:0:0:0:
320,192,65896,1,4,0:0:0:0:
448,192,65896,1,0,0:0:0:0:
320,192,66111,1,0,0:0:0:0:
64,192,66325,1,8,0:0:0:0:
192,192,66325,1,0,0:0:0:0:
192,192,66539,1,0,0:0:0:0:
320,192,66646,1,0,0:0:0:0:
64,192,66753,1,4,0:0:0:0:
192,192,66753,1,2,0:0:0:0:
448,192,66753,1,0,0:0:0:0:
64,192,66968,1,0,0:0:0:0:
320,192,67182,1,8,0:0:0:0:
448,192,67182,1,0,0:0:0:0:
192,192,67396,1,0,0:0:0:0:
320,192,67503,1,0,0:0:0:0:
64,192,67611,1,2,0:0:0:0:
192,192,67611,1,4,0:0:0:0:
448,192,67611,1,0,0:0:0:0:
192,192,67825,1,2,0:0:0:0:
448,192,67825,1,0,0:0:0:0:
64,192,68039,1,8,0:0:0:0:
320,192,68039,1,2,0:0:0:0:
448,192,68039,1,4,0:0:0:0:
64,192,68253,1,2,0:0:0:0:
320,192,68253,1,0,0:0:0:0:
192,192,68468,1,8,0:0:0:0:
320,192,68468,1,4,0:0:0:0:
448,192,68468,1,2,0:0:0:0:
64,192,68896,1,0,0:0:0:20:psy.wav
448,192,68896,1,0,0:0:0:0:
192,192,69003,1,0,0:0:0:20:psy.wav
320,192,69111,1,0,0:0:0:20:psy.wav
192,192,69218,1,0,0:0:0:20:psy.wav
64,192,69325,1,4,0:0:0:0:
320,192,69325,1,2,0:0:0:0:
448,192,69325,1,0,0:0:0:0:
192,192,69432,1,0,0:0:0:0:
448,192,69432,1,0,0:0:0:0:
64,192,69539,1,0,0:0:0:0:
192,192,69539,1,0,0:0:0:0:
320,192,69646,1,0,0:0:0:0:
448,192,69646,1,0,0:0:0:0:
64,192,69753,1,8,0:0:0:0:
192,192,69753,1,2,0:0:0:0:
320,192,69753,1,0,0:0:0:0:
192,192,69861,1,0,0:0:0:0:
64,192,69968,1,0,0:0:0:0:
320,192,69968,1,0,0:0:0:0:
320,192,70075,1,0,0:0:0:0:
448,192,70075,1,0,0:0:0:0:
64,192,70182,1,2,0:0:0:0:
448,192,70182,1,0,0:0:0:0:
320,192,70289,1,0,0:0:0:0:
64,192,70396,1,0,0:0:0:0:
192,192,70396,1,0,0:0:0:0:
192,192,70503,1,0,0:0:0:0:
64,192,70611,1,8,0:0:0:0:
320,192,70611,1,2,0:0:0:0:
448,192,70611,1,0,0:0:0:0:
192,192,70718,1,0,0:0:0:0:
320,192,70718,1,0,0:0:0:0:
64,192,70825,1,0,0:0:0:0:
320,192,70932,1,0,0:0:0:0:
448,192,70932,1,0,0:0:0:0:
192,192,71039,1,2,0:0:0:0:
320,192,71039,1,0,0:0:0:0:
192,192,71146,1,0,0:0:0:0:
320,192,71146,1,0,0:0:0:0:
64,192,71253,1,0,0:0:0:0:
448,192,71253,1,0,0:0:0:0:
192,192,71361,1,0,0:0:0:0:
64,192,71468,1,8,0:0:0:0:
320,192,71468,1,2,0:0:0:0:
448,192,71468,1,0,0:0:0:0:
320,192,71575,1,0,0:0:0:0:
448,192,71575,1,0,0:0:0:0:
64,192,71682,1,0,0:0:0:0:
192,192,71682,1,0,0:0:0:0:
320,192,71789,1,0,0:0:0:0:
192,192,71896,1,2,0:0:0:0:
448,192,71896,1,0,0:0:0:0:
64,192,72003,1,0,0:0:0:0:
448,192,72003,1,0,0:0:0:0:
64,192,72111,1,0,0:0:0:0:
192,192,72111,1,0,0:0:0:0:
320,192,72218,1,0,0:0:0:0:
64,192,72325,1,8,0:0:0:0:
192,192,72325,1,2,0:0:0:0:
448,192,72325,1,0,0:0:0:0:
320,192,72432,1,0,0:0:0:0:
64,192,72539,1,0,0:0:0:0:
192,192,72539,1,0,0:0:0:0:
192,192,72646,1,0,0:0:0:0:
320,192,72753,1,2,0:0:0:0:
448,192,72753,1,0,0:0:0:0:
64,192,72861,1,0,0:0:0:0:
448,192,72861,1,0,0:0:0:0:
64,192,72968,1,0,0:0:0:0:
192,192,72968,1,0,0:0:0:0:
320,192,73075,1,0,0:0:0:0:
448,192,73075,1,0,0:0:0:0:
64,192,73182,1,8,0:0:0:0:
192,192,73182,1,2,0:0:0:0:
320,192,73182,1,0,0:0:0:0:
192,192,73289,1,0,0:0:0:0:
64,192,73396,1,0,0:0:0:0:
320,192,73396,1,0,0:0:0:0:
320,192,73503,1,0,0:0:0:0:
448,192,73503,1,0,0:0:0:0:
64,192,73611,1,2,0:0:0:0:
448,192,73611,1,0,0:0:0:0:
320,192,73718,1,0,0:0:0:0:
64,192,73825,1,0,0:0:0:0:
192,192,73825,1,0,0:0:0:0:
192,192,73932,1,0,0:0:0:0:
64,192,74039,1,8,0:0:0:0:
320,192,74039,1,2,0:0:0:0:
448,192,74039,1,0,0:0:0:0:
192,192,74146,1,0,0:0:0:0:
320,192,74146,1,0,0:0:0:0:
64,192,74253,1,0,0:0:0:0:
320,192,74361,1,0,0:0:0:0:
448,192,74361,1,0,0:0:0:0:
64,192,74468,1,2,0:0:0:0:
192,192,74468,1,0,0:0:0:0:
64,192,74575,1,0,0:0:0:0:
192,192,74575,1,0,0:0:0:0:
64,192,74682,1,0,0:0:0:0:
448,192,74682,1,0,0:0:0:0:
192,192,74789,1,0,0:0:0:0:
64,192,74896,1,2,0:0:0:0:
320,192,74896,1,8,0:0:0:0:
448,192,74896,1,0,0:0:0:0:
320,192,75003,1,0,0:0:0:0:
448,192,75003,1,0,0:0:0:0:
64,192,75111,1,0,0:0:0:0:
192,192,75111,1,0,0:0:0:0:
320,192,75218,1,0,0:0:0:0:
192,192,75325,1,2,0:0:0:0:
448,192,75325,1,0,0:0:0:0:
64,192,75432,1,0,0:0:0:0:
320,192,75432,1,0,0:0:0:0:
64,192,75539,1,0,0:0:0:0:
192,192,75539,1,0,0:0:0:0:
320,192,75646,1,0,0:0:0:0:
64,192,75753,1,8,0:0:0:0:
192,192,75753,1,2,0:0:0:0:
448,192,75753,1,0,0:0:0:0:
320,192,75861,1,0,0:0:0:0:
448,192,75861,1,0,0:0:0:0:
64,192,75968,1,0,0:0:0:0:
192,192,75968,1,0,0:0:0:0:
192,192,76075,1,0,0:0:0:0:
320,192,76182,1,2,0:0:0:0:
448,192,76182,1,0,0:0:0:0:
64,192,76289,1,0,0:0:0:0:
448,192,76289,1,0,0:0:0:0:
64,192,76396,1,0,0:0:0:0:
192,192,76396,1,0,0:0:0:0:
320,192,76503,1,0,0:0:0:0:
448,192,76503,1,0,0:0:0:0:
64,192,76611,1,2,0:0:0:0:
192,192,76611,1,8,0:0:0:0:
320,192,76611,1,0,0:0:0:0:
192,192,76718,1,0,0:0:0:0:
64,192,76825,1,0,0:0:0:0:
320,192,76825,1,0,0:0:0:0:
320,192,76932,1,0,0:0:0:0:
448,192,76932,1,0,0:0:0:0:
64,192,77039,1,2,0:0:0:0:
448,192,77039,1,0,0:0:0:0:
320,192,77146,1,0,0:0:0:0:
64,192,77253,1,0,0:0:0:0:
192,192,77253,1,0,0:0:0:0:
192,192,77361,1,0,0:0:0:0:
64,192,77468,1,2,0:0:0:0:
320,192,77468,1,8,0:0:0:0:
448,192,77468,1,0,0:0:0:0:
64,192,77575,1,0,0:0:0:0:
192,192,77575,1,0,0:0:0:0:
320,192,77682,1,0,0:0:0:0:
64,192,77789,1,0,0:0:0:0:
192,192,77789,1,0,0:0:0:0:
64,192,77896,1,2,0:0:0:0:
448,192,77896,1,0,0:0:0:0:
64,192,78003,1,0,0:0:0:0:
320,192,78003,1,0,0:0:0:0:
192,192,78111,1,0,0:0:0:0:
448,192,78111,1,0,0:0:0:0:
320,192,78218,1,0,0:0:0:0:
448,192,78218,1,0,0:0:0:0:
64,192,78325,1,2,0:0:0:0:
192,192,78325,1,8,0:0:0:0:
320,192,78325,1,0,0:0:0:0:
192,192,78432,1,0,0:0:0:0:
64,192,78539,1,0,0:0:0:0:
320,192,78539,1,0,0:0:0:0:
320,192,78646,1,0,0:0:0:0:
448,192,78646,1,0,0:0:0:0:
64,192,78753,1,2,0:0:0:0:
448,192,78753,1,0,0:0:0:0:
320,192,78861,1,0,0:0:0:0:
64,192,78968,1,0,0:0:0:0:
192,192,78968,1,0,0:0:0:0:
192,192,79075,1,0,0:0:0:0:
64,192,79182,1,2,0:0:0:0:
320,192,79182,1,8,0:0:0:0:
448,192,79182,1,0,0:0:0:0:
192,192,79289,1,0,0:0:0:0:
320,192,79396,1,0,0:0:0:0:
448,192,79396,1,0,0:0:0:0:
192,192,79503,1,0,0:0:0:0:
64,192,79611,1,2,0:0:0:0:
448,192,79611,1,0,0:0:0:0:
320,192,79718,1,0,0:0:0:0:
64,192,79825,1,0,0:0:0:0:
448,192,79825,1,0,0:0:0:0:
192,192,79932,1,0,0:0:0:0:
64,192,80039,1,2,0:0:0:0:
320,192,80039,1,8,0:0:0:0:
448,192,80039,1,0,0:0:0:0:
192,192,80146,1,0,0:0:0:0:
320,192,80253,1,0,0:0:0:0:
448,192,80253,1,0,0:0:0:0:
192,192,80361,1,0,0:0:0:0:
320,192,80361,1,0,0:0:0:0:
64,192,80468,1,2,0:0:0:0:
448,192,80468,1,0,0:0:0:0:
320,192,80575,1,0,0:0:0:0:
448,192,80575,1,0,0:0:0:0:
64,192,80682,1,0,0:0:0:0:
320,192,80682,1,0,0:0:0:0:
64,192,80789,1,0,0:0:0:0:
192,192,80789,1,0,0:0:0:0:
192,192,80896,1,2,0:0:0:0:
320,192,80896,1,8,0:0:0:0:
448,192,80896,1,0,0:0:0:0:
64,192,81003,1,0,0:0:0:0:
320,192,81111,1,0,0:0:0:0:
448,192,81111,1,0,0:0:0:0:
320,192,81218,1,0,0:0:0:0:
448,192,81218,1,0,0:0:0:0:
64,192,81325,1,2,0:0:0:0:
192,192,81325,1,0,0:0:0:0:
448,192,81325,1,0,0:0:0:0:
64,192,81432,1,0,0:0:0:70:tom01.wav
192,192,81432,1,0,0:0:0:0:
192,192,81539,1,0,0:0:0:70:tom02.wav
448,192,81539,1,0,0:0:0:0:
320,192,81646,1,0,0:0:0:70:tom01.wav
448,192,81646,1,0,0:0:0:0:
64,192,81753,1,2,0:0:0:0:
192,192,81753,1,0,0:0:0:70:tom02.wav
448,192,81753,1,0,0:0:0:0:
64,192,81861,1,0,0:0:0:0:
192,192,81861,1,0,0:0:0:0:
192,192,81968,1,0,0:0:0:70:tom01.wav
448,192,81968,1,0,0:0:0:0:
320,192,82075,1,0,0:0:0:70:tom03.wav
64,192,82182,1,2,0:0:0:0:
192,192,82182,1,0,0:0:0:70:tom02.wav
448,192,82182,1,0,0:0:0:0:
192,192,82289,1,0,0:0:0:70:tom03.wav
320,192,82289,1,0,0:0:0:0:
320,192,82396,1,0,0:0:0:70:tom01.wav
448,192,82396,1,0,0:0:0:0:
64,192,82503,1,0,0:0:0:70:tom02.wav
192,192,82503,1,0,0:0:0:0:
64,192,82611,1,2,0:0:0:0:
320,192,82611,1,8,0:0:0:0:
448,192,82611,1,0,0:0:0:0:
192,192,82718,1,8,0:0:0:0:
64,192,82825,1,8,0:0:0:0:
448,192,82825,1,0,0:0:0:0:
192,192,82932,1,8,0:0:0:0:
64,192,83039,1,2,0:0:0:0:
320,192,83039,1,4,0:0:0:0:
448,192,83039,1,0,0:0:0:0:
192,192,83146,1,0,0:0:0:0:
448,192,83146,1,0,0:0:0:0:
64,192,83253,1,0,0:0:0:0:
192,192,83253,1,0,0:0:0:0:
320,192,83361,1,0,0:0:0:0:
448,192,83361,1,0,0:0:0:0:
64,192,83468,1,2,0:0:0:0:
192,192,83468,1,8,0:0:0:0:
320,192,83468,1,0,0:0:0:0:
192,192,83575,1,0,0:0:0:0:
64,192,83682,1,0,0:0:0:0:
320,192,83682,1,0,0:0:0:0:
320,192,83789,1,0,0:0:0:0:
448,192,83789,1,0,0:0:0:0:
64,192,83896,1,2,0:0:0:0:
448,192,83896,1,0,0:0:0:0:
320,192,84003,1,0,0:0:0:0:
64,192,84111,1,0,0:0:0:0:
192,192,84111,1,0,0:0:0:0:
192,192,84218,1,0,0:0:0:0:
64,192,84325,1,2,0:0:0:0:
320,192,84325,1,8,0:0:0:0:
448,192,84325,1,0,0:0:0:0:
64,192,84432,1,0,0:0:0:0:
192,192,84432,1,0,0:0:0:0:
64,192,84539,1,0,0:0:0:0:
192,192,84539,1,0,0:0:0:0:
320,192,84646,1,0,0:0:0:0:
448,192,84646,1,0,0:0:0:0:
192,192,84753,1,2,0:0:0:0:
320,192,84753,1,0,0:0:0:0:
192,192,84861,1,0,0:0:0:0:
320,192,84861,1,0,0:0:0:0:
64,192,84968,1,0,0:0:0:0:
448,192,84968,1,0,0:0:0:0:
192,192,85075,1,0,0:0:0:0:
64,192,85182,1,2,0:0:0:0:
320,192,85182,1,8,0:0:0:0:
448,192,85182,1,0,0:0:0:0:
448,192,85289,1,0,0:0:0:0:
64,192,85396,1,0,0:0:0:0:
192,192,85396,1,0,0:0:0:0:
192,192,85503,1,0,0:0:0:0:
320,192,85503,1,0,0:0:0:0:
192,192,85611,1,2,0:0:0:0:
448,192,85611,1,0,0:0:0:0:
64,192,85718,1,0,0:0:0:0:
448,192,85718,1,0,0:0:0:0:
64,192,85825,1,0,0:0:0:0:
192,192,85825,1,0,0:0:0:0:
320,192,85932,1,0,0:0:0:0:
64,192,86039,1,2,0:0:0:0:
192,192,86039,1,8,0:0:0:0:
448,192,86039,1,0,0:0:0:0:
320,192,86146,1,0,0:0:0:0:
64,192,86253,1,0,0:0:0:0:
192,192,86253,1,0,0:0:0:0:
192,192,86361,1,0,0:0:0:0:
320,192,86468,1,2,0:0:0:0:
448,192,86468,1,0,0:0:0:0:
64,192,86575,1,0,0:0:0:0:
448,192,86575,1,0,0:0:0:0:
64,192,86682,1,0,0:0:0:0:
192,192,86682,1,0,0:0:0:0:
320,192,86789,1,0,0:0:0:0:
448,192,86789,1,0,0:0:0:0:
64,192,86896,1,2,0:0:0:0:
192,192,86896,1,8,0:0:0:0:
320,192,86896,1,0,0:0:0:0:
192,192,87003,1,0,0:0:0:0:
64,192,87111,1,0,0:0:0:0:
320,192,87111,1,0,0:0:0:0:
320,192,87218,1,0,0:0:0:0:
448,192,87218,1,0,0:0:0:0:
64,192,87325,1,2,0:0:0:0:
448,192,87325,1,0,0:0:0:0:
320,192,87432,1,0,0:0:0:0:
64,192,87539,1,0,0:0:0:0:
192,192,87539,1,0,0:0:0:0:
192,192,87646,1,0,0:0:0:0:
64,192,87753,1,2,0:0:0:0:
320,192,87753,1,8,0:0:0:0:
448,192,87753,1,0,0:0:0:0:
64,192,87861,1,0,0:0:0:0:
192,192,87861,1,0,0:0:0:0:
64,192,87968,1,0,0:0:0:0:
192,192,87968,1,0,0:0:0:0:
320,192,88075,1,0,0:0:0:0:
448,192,88075,1,0,0:0:0:0:
192,192,88182,1,2,0:0:0:0:
320,192,88182,1,0,0:0:0:0:
192,192,88289,1,0,0:0:0:0:
320,192,88289,1,0,0:0:0:0:
64,192,88396,1,0,0:0:0:0:
448,192,88396,1,0,0:0:0:0:
192,192,88503,1,0,0:0:0:0:
64,192,88611,1,8,0:0:0:0:
320,192,88611,1,2,0:0:0:0:
448,192,88611,1,0,0:0:0:0:
320,192,88718,1,0,0:0:0:0:
448,192,88718,1,0,0:0:0:0:
64,192,88825,1,0,0:0:0:0:
192,192,88825,1,0,0:0:0:0:
320,192,88932,1,0,0:0:0:0:
448,192,88932,1,0,0:0:0:0:
192,192,89039,1,2,0:0:0:0:
448,192,89039,1,0,0:0:0:0:
64,192,89146,1,0,0:0:0:0:
320,192,89146,1,0,0:0:0:0:
64,192,89253,1,0,0:0:0:0:
192,192,89253,1,0,0:0:0:0:
320,192,89361,1,0,0:0:0:0:
64,192,89468,1,2,0:0:0:0:
192,192,89468,1,8,0:0:0:0:
448,192,89468,1,0,0:0:0:0:
320,192,89575,1,0,0:0:0:0:
448,192,89575,1,0,0:0:0:0:
64,192,89682,1,0,0:0:0:0:
192,192,89682,1,0,0:0:0:0:
192,192,89789,1,0,0:0:0:0:
320,192,89896,1,2,0:0:0:0:
448,192,89896,1,0,0:0:0:0:
64,192,90003,1,0,0:0:0:0:
448,192,90003,1,0,0:0:0:0:
64,192,90111,1,0,0:0:0:0:
192,192,90111,1,0,0:0:0:0:
320,192,90218,1,0,0:0:0:0:
448,192,90218,1,0,0:0:0:0:
64,192,90325,1,8,0:0:0:0:
192,192,90325,1,2,0:0:0:0:
320,192,90325,1,0,0:0:0:0:
192,192,90432,1,0,0:0:0:0:
64,192,90539,1,0,0:0:0:0:
320,192,90539,1,0,0:0:0:0:
320,192,90646,1,0,0:0:0:0:
448,192,90646,1,0,0:0:0:0:
64,192,90753,1,2,0:0:0:0:
448,192,90753,1,0,0:0:0:0:
320,192,90861,1,0,0:0:0:0:
64,192,90968,1,0,0:0:0:0:
192,192,90968,1,0,0:0:0:0:
192,192,91075,1,0,0:0:0:0:
64,192,91182,1,8,0:0:0:0:
320,192,91182,1,2,0:0:0:0:
448,192,91182,1,0,0:0:0:0:
64,192,91289,1,0,0:0:0:0:
192,192,91289,1,0,0:0:0:0:
320,192,91396,1,0,0:0:0:0:
64,192,91503,1,0,0:0:0:0:
192,192,91503,1,0,0:0:0:0:
64,192,91611,1,2,0:0:0:0:
448,192,91611,1,0,0:0:0:0:
320,192,91718,1,0,0:0:0:0:
448,192,91718,1,0,0:0:0:0:
64,192,91825,1,0,0:0:0:0:
192,192,91825,1,0,0:0:0:0:
192,192,91932,1,0,0:0:0:0:
448,192,91932,1,0,0:0:0:0:
64,192,92039,1,8,0:0:0:0:
192,192,92039,1,2,0:0:0:0:
320,192,92039,1,0,0:0:0:0:
64,192,92146,1,0,0:0:0:0:
448,192,92146,1,0,0:0:0:0:
192,192,92253,1,0,0:0:0:0:
320,192,92253,1,0,0:0:0:0:
320,192,92361,1,0,0:0:0:0:
448,192,92361,1,0,0:0:0:0:
64,192,92468,1,2,0:0:0:0:
448,192,92468,1,0,0:0:0:0:
320,192,92575,1,0,0:0:0:0:
64,192,92682,1,0,0:0:0:0:
192,192,92682,1,0,0:0:0:0:
192,192,92789,1,0,0:0:0:0:
64,192,92896,1,8,0:0:0:0:
320,192,92896,1,2,0:0:0:0:
448,192,92896,1,0,0:0:0:0:
192,192,93003,1,0,0:0:0:0:
320,192,93111,1,0,0:0:0:0:
448,192,93111,1,0,0:0:0:0:
192,192,93218,1,0,0:0:0:0:
64,192,93325,1,2,0:0:0:0:
320,192,93325,1,8,0:0:0:0:
448,192,93325,1,0,0:0:0:0:
192,192,93432,1,0,0:0:0:0:
64,192,93539,1,0,0:0:0:0:
448,192,93539,1,0,0:0:0:0:
192,192,93646,1,0,0:0:0:0:
64,192,93753,1,8,0:0:0:0:
320,192,93753,1,2,0:0:0:0:
448,192,93753,1,0,0:0:0:0:
192,192,93861,1,0,0:0:0:0:
320,192,93968,1,0,0:0:0:0:
448,192,93968,1,0,0:0:0:0:
192,192,94075,1,0,0:0:0:0:
320,192,94075,1,0,0:0:0:0:
64,192,94182,1,2,0:0:0:0:
192,192,94182,1,8,0:0:0:0:
448,192,94182,1,0,0:0:0:0:
320,192,94289,1,0,0:0:0:0:
448,192,94289,1,0,0:0:0:0:
64,192,94396,1,0,0:0:0:0:
320,192,94396,1,0,0:0:0:0:
64,192,94503,1,0,0:0:0:0:
192,192,94503,1,0,0:0:0:0:
192,192,94611,1,8,0:0:0:0:
320,192,94611,1,2,0:0:0:0:
448,192,94611,1,0,0:0:0:0:
64,192,94718,1,0,0:0:0:0:
320,192,94825,1,0,0:0:0:0:
448,192,94825,1,0,0:0:0:0:
320,192,94932,1,0,0:0:0:0:
448,192,94932,1,0,0:0:0:0:
64,192,95039,1,2,0:0:0:0:
192,192,95039,1,8,0:0:0:0:
448,192,95039,1,0,0:0:0:0:
64,192,95146,1,0,0:0:0:0:
192,192,95146,1,0,0:0:0:0:
192,192,95253,1,2,0:0:0:0:
320,192,95253,1,8,0:0:0:0:
448,192,95253,1,0,0:0:0:0:
320,192,95361,1,0,0:0:0:0:
448,192,95361,1,0,0:0:0:0:
64,192,95468,1,2,0:0:0:0:
192,192,95468,1,8,0:0:0:0:
448,192,95468,1,0,0:0:0:0:
320,192,95575,1,0,0:0:0:0:
64,192,95682,1,2,0:0:0:0:
192,192,95682,1,8,0:0:0:0:
448,192,95682,1,0,0:0:0:0:
320,192,95789,1,0,0:0:0:0:
448,192,95789,1,0,0:0:0:0:
64,192,95896,1,2,0:0:0:0:
192,192,95896,1,8,0:0:0:0:
448,192,95896,1,0,0:0:0:0:
64,192,96003,1,2,0:0:0:0:
192,192,96003,1,0,0:0:0:0:
320,192,96111,1,2,0:0:0:0:
448,192,96111,1,8,0:0:0:0:
64,192,96218,1,2,0:0:0:0:
448,192,96218,1,0,0:0:0:0:
64,192,96325,1,2,0:0:0:0:
192,192,96325,1,8,0:0:0:0:
448,192,96378,1,2,0:0:0:0:
320,192,96432,1,2,0:0:0:0:
192,192,96486,1,2,0:0:0:0:
448,192,96539,1,10,0:0:0:0:
64,192,96593,1,2,0:0:0:0:
192,192,96646,1,2,0:0:0:0:
320,192,96700,1,2,0:0:0:0:
64,192,96753,1,2,0:0:0:0:
448,192,96753,1,4,0:0:0:0:
320,192,96861,1,0,0:0:0:0:
192,192,96968,1,0,0:0:0:0:
64,192,97075,1,2,0:0:0:0:
448,192,97075,1,0,0:0:0:0:
320,192,97182,1,0,0:0:0:0:
448,192,97289,1,0,0:0:0:0:
64,192,97396,1,2,0:0:0:0:
192,192,97396,1,0,0:0:0:0:
320,192,97503,1,0,0:0:0:0:
192,192,97611,1,0,0:0:0:0:
64,192,97718,1,0,0:0:0:0:
320,192,97825,1,2,0:0:0:0:
448,192,97825,1,0,0:0:0:0:
192,192,97932,1,0,0:0:0:0:
64,192,98039,1,8,0:0:0:0:
320,192,98039,1,0,0:0:0:0:
448,192,98039,1,0,0:0:0:0:
192,192,98146,1,0,0:0:0:0:
64,192,98253,1,0,0:0:0:0:
448,192,98253,1,0,0:0:0:0:
320,192,98361,1,0,0:0:0:0:
64,192,98468,1,2,0:0:0:0:
192,192,98468,1,0,0:0:0:0:
448,192,98575,1,0,0:0:0:0:
320,192,98682,1,0,0:0:0:0:
64,192,98789,1,2,0:0:0:0:
192,192,98789,1,0,0:0:0:0:
448,192,98896,1,0,0:0:0:0:
64,192,99003,1,0,0:0:0:0:
192,192,99111,1,2,0:0:0:0:
320,192,99111,1,0,0:0:0:0:
448,192,99218,1,0,0:0:0:0:
64,192,99325,1,0,0:0:0:0:
320,192,99432,1,0,0:0:0:0:
64,192,99539,1,2,0:0:0:0:
192,192,99539,1,0,0:0:0:0:
448,192,99646,1,0,0:0:0:0:
64,192,99753,1,8,0:0:0:0:
192,192,99753,1,0,0:0:0:0:
320,192,99753,1,0,0:0:0:0:
448,192,99861,1,0,0:0:0:0:
192,192,99968,1,0,0:0:0:0:
320,192,99968,1,0,0:0:0:0:
64,192,100075,1,0,0:0:0:0:
320,192,100182,1,2,0:0:0:0:
448,192,100182,1,0,0:0:0:0:
64,192,100289,1,0,0:0:0:0:
192,192,100396,1,0,0:0:0:0:
320,192,100503,1,2,0:0:0:0:
448,192,100503,1,0,0:0:0:0:
64,192,100611,1,0,0:0:0:0:
448,192,100718,1,0,0:0:0:0:
64,192,100825,1,2,0:0:0:0:
192,192,100825,1,0,0:0:0:0:
320,192,100932,1,0,0:0:0:0:
448,192,101039,1,0,0:0:0:0:
192,192,101146,1,0,0:0:0:0:
64,192,101253,1,2,0:0:0:0:
320,192,101253,1,0,0:0:0:0:
448,192,101361,1,0,0:0:0:0:
64,192,101468,1,8,0:0:0:0:
192,192,101468,1,0,0:0:0:0:
320,192,101468,1,0,0:0:0:0:
448,192,101575,1,0,0:0:0:0:
64,192,101682,1,0,0:0:0:0:
192,192,101682,1,0,0:0:0:0:
320,192,101789,1,0,0:0:0:0:
448,192,101789,1,0,0:0:0:0:
64,192,101896,1,2,0:0:0:0:
192,192,101896,1,0,0:0:0:0:
448,192,102003,1,0,0:0:0:0:
192,192,102111,1,2,0:0:0:0:
320,192,102111,1,0,0:0:0:0:
192,192,102325,1,2,0:0:0:0:
448,192,102325,1,0,0:0:0:0:
320,192,102432,1,0,0:0:0:0:
64,192,102539,1,2,0:0:0:0:
448,192,102539,1,0,0:0:0:0:
64,192,102753,1,2,0:0:0:0:
448,192,102753,1,0,0:0:0:0:
192,192,102861,1,0,0:0:0:0:
64,192,102968,1,2,0:0:0:0:
320,192,102968,1,0,0:0:0:0:
64,192,103182,1,8,0:0:0:0:
448,192,103182,1,2,0:0:0:0:
320,192,103289,1,0,0:0:0:0:
64,192,103396,1,2,0:0:0:0:
192,192,103396,1,0,0:0:0:0:
448,192,103611,1,2,0:0:0:0:
448,192,104039,1,2,0:0:0:0:
448,192,104468,1,2,0:0:0:0:
448,192,104896,1,2,0:0:0:0:
192,192,105325,1,2,0:0:0:0:
192,192,105753,1,2,0:0:0:0:
192,192,106182,1,2,0:0:0:0:
192,192,106611,1,2,0:0:0:0:
320,192,107039,1,2,0:0:0:0:
320,192,107468,1,2,0:0:0:0:
320,192,107896,1,2,0:0:0:0:
320,192,108325,1,2,0:0:0:0:
64,192,108753,1,2,0:0:0:0:
64,192,109182,1,2,0:0:0:0:
64,192,109611,1,2,0:0:0:0:
64,192,110039,1,2,0:0:0:0:
192,192,110468,1,2,0:0:0:0:
448,192,110468,1,0,0:0:0:0:
320,192,110575,1,0,0:0:0:0:
64,192,110682,1,0,0:0:0:0:
192,192,110789,1,0,0:0:0:0:
320,192,110896,1,2,0:0:0:0:
448,192,110896,1,0,0:0:0:0:
64,192,111003,1,0,0:0:0:0:
192,192,111003,1,0,0:0:0:0:
448,192,111111,1,0,0:0:0:0:
192,192,111218,1,0,0:0:0:0:
320,192,111325,1,2,0:0:0:0:
64,192,111432,1,0,0:0:0:0:
192,192,111539,1,0,0:0:0:0:
448,192,111646,1,0,0:0:0:0:
64,192,111753,1,2,0:0:0:0:
320,192,111753,1,0,0:0:0:0:
192,192,111861,1,0,0:0:0:0:
448,192,111861,1,0,0:0:0:0:
320,192,111968,1,0,0:0:0:0:
64,192,112075,1,0,0:0:0:0:
192,192,112182,1,2,0:0:0:0:
448,192,112182,1,0,0:0:0:0:
320,192,112289,1,0,0:0:0:0:
192,192,112396,1,0,0:0:0:0:
64,192,112503,1,0,0:0:0:0:
320,192,112611,1,2,0:0:0:0:
448,192,112611,1,0,0:0:0:0:
64,192,112718,1,0,0:0:0:0:
192,192,112718,1,0,0:0:0:0:
320,192,112825,1,0,0:0:0:0:
448,192,112932,1,0,0:0:0:0:
64,192,113039,1,2,0:0:0:0:
192,192,113146,1,0,0:0:0:0:
320,192,113253,1,0,0:0:0:0:
448,192,113361,1,0,0:0:0:0:
64,192,113468,1,2,0:0:0:0:
192,192,113468,1,0,0:0:0:0:
320,192,113575,1,0,0:0:0:0:
448,192,113575,1,0,0:0:0:0:
64,192,113682,1,0,0:0:0:0:
320,192,113789,1,0,0:0:0:0:
192,192,113896,1,2,0:0:0:0:
448,192,113896,1,0,0:0:0:0:
64,192,114003,1,0,0:0:0:0:
320,192,114111,1,0,0:0:0:0:
192,192,114218,1,0,0:0:0:0:
64,192,114325,1,2,0:0:0:0:
448,192,114325,1,0,0:0:0:0:
192,192,114432,1,0,0:0:0:0:
320,192,114432,1,0,0:0:0:0:
64,192,114539,1,0,0:0:0:0:
320,192,114646,1,0,0:0:0:0:
448,192,114753,1,2,0:0:0:0:
64,192,114861,1,0,0:0:0:0:
192,192,114968,1,0,0:0:0:0:
448,192,115075,1,0,0:0:0:0:
64,192,115182,1,2,0:0:0:0:
320,192,115182,1,0,0:0:0:0:
192,192,115289,1,0,0:0:0:0:
448,192,115289,1,0,0:0:0:0:
320,192,115396,1,0,0:0:0:0:
64,192,115503,1,0,0:0:0:0:
192,192,115611,1,2,0:0:0:0:
320,192,115611,1,0,0:0:0:0:
448,192,115611,1,0,0:0:0:0:
320,192,115825,1,2,0:0:0:0:
448,192,115825,1,0,0:0:0:0:
64,192,116039,1,2,0:0:0:0:
192,192,116039,1,0,0:0:0:0:
448,192,116039,1,0,0:0:0:0:
64,192,116253,1,2,0:0:0:0:
192,192,116253,1,0,0:0:0:0:
64,192,116468,1,2,0:0:0:0:
320,192,116468,1,0,0:0:0:0:
448,192,116468,1,0,0:0:0:0:
320,192,116682,1,2,0:0:0:0:
448,192,116682,1,0,0:0:0:0:
320,192,116789,1,0,0:0:0:0:
448,192,116789,1,0,0:0:0:0:
64,192,116896,1,2,0:0:0:0:
192,192,116896,1,0,0:0:0:0:
448,192,116950,1,2,0:0:0:0:
320,192,117003,1,2,0:0:0:0:
192,192,117057,1,2,0:0:0:0:
64,192,117111,1,2,0:0:0:0:
448,192,117164,1,2,0:0:0:0:
320,192,117218,1,2,0:0:0:0:
192,192,117271,1,2,0:0:0:0:
64,192,117325,1,4,0:0:0:0:
448,192,117325,1,2,0:0:0:0:
192,192,117539,1,0,0:0:0:0:
64,192,117753,1,8,0:0:0:0:
320,192,117753,1,0,0:0:0:0:
448,192,117753,1,0,0:0:0:0:
64,192,117968,1,2,0:0:0:0:
448,192,117968,1,0,0:0:0:0:
192,192,118182,1,0,0:0:0:0:
320,192,118396,1,2,0:0:0:0:
448,192,118396,1,0,0:0:0:0:
64,192,118611,1,8,0:0:0:0:
192,192,118611,1,0,0:0:0:0:
448,192,118611,1,0,0:0:0:0:
64,192,118825,1,0,0:0:0:0:
320,192,119039,1,2,0:0:0:0:
448,192,119039,1,0,0:0:0:0:
320,192,119253,1,0,0:0:0:0:
64,192,119468,1,8,0:0:0:0:
192,192,119468,1,0,0:0:0:0:
448,192,119468,1,0,0:0:0:0:
64,192,119682,1,2,0:0:0:0:
192,192,119682,1,0,0:0:0:0:
320,192,119896,1,0,0:0:0:0:
192,192,120111,1,2,0:0:0:0:
448,192,120111,1,0,0:0:0:0:
64,192,120325,1,8,0:0:0:0:
320,192,120325,1,0,0:0:0:0:
448,192,120325,1,0,0:0:0:0:
192,192,120539,1,0,0:0:0:0:
320,192,120753,1,2,0:0:0:0:
448,192,120753,1,0,0:0:0:0:
448,192,120968,1,0,0:0:0:0:
64,192,121182,1,8,0:0:0:0:
192,192,121182,1,0,0:0:0:0:
320,192,121182,1,0,0:0:0:0:
64,192,121396,1,2,0:0:0:0:
448,192,121396,1,0,0:0:0:0:
320,192,121611,1,0,0:0:0:0:
64,192,121825,1,2,0:0:0:0:
192,192,121825,1,0,0:0:0:0:
192,192,122039,1,8,0:0:0:0:
320,192,122039,1,0,0:0:0:0:
448,192,122039,1,0,0:0:0:0:
64,192,122253,1,0,0:0:0:0:
320,192,122468,1,2,0:0:0:0:
448,192,122468,1,0,0:0:0:0:
192,192,122682,1,0,0:0:0:0:
64,192,122896,1,8,0:0:0:0:
320,192,122896,1,0,0:0:0:0:
448,192,122896,1,0,0:0:0:0:
64,192,123111,1,2,0:0:0:0:
448,192,123111,1,0,0:0:0:0:
320,192,123325,1,0,0:0:0:0:
64,192,123432,1,8,0:0:0:0:
192,192,123432,1,0,0:0:0:0:
320,192,123539,1,2,0:0:0:0:
448,192,123539,1,0,0:0:0:0:
64,192,123753,1,2,0:0:0:0:
320,192,123753,1,8,0:0:0:0:
448,192,123753,1,0,0:0:0:0:
64,192,123968,1,8,0:0:0:0:
192,192,123968,1,0,0:0:0:0:
64,192,124075,1,8,0:0:0:0:
192,192,124075,1,0,0:0:0:0:
320,192,124182,1,2,0:0:0:0:
448,192,124182,1,0,0:0:0:0:
192,192,124396,1,0,0:0:0:0:
320,192,124503,1,0,0:0:0:0:
64,192,124611,1,8,0:0:0:0:
192,192,124611,1,0,0:0:0:0:
448,192,124611,1,0,0:0:0:0:
320,192,124718,1,0,0:0:0:0:
64,192,124825,1,2,0:0:0:0:
448,192,124825,1,0,0:0:0:0:
192,192,124932,1,0,0:0:0:0:
320,192,125039,1,0,0:0:0:0:
64,192,125146,1,8,0:0:0:0:
448,192,125146,1,0,0:0:0:0:
192,192,125253,1,2,0:0:0:0:
320,192,125253,1,0,0:0:0:0:
64,192,125361,1,0,0:0:0:0:
192,192,125468,1,8,0:0:0:0:
320,192,125468,1,0,0:0:0:0:
448,192,125468,1,0,0:0:0:0:
64,192,125575,1,0,0:0:0:0:
320,192,125682,1,8,0:0:0:0:
448,192,125682,1,0,0:0:0:0:
320,192,125789,1,8,0:0:0:0:
448,192,125789,1,0,0:0:0:0:
64,192,125896,1,2,0:0:0:0:
192,192,125896,1,0,0:0:0:0:
448,192,126111,1,0,0:0:0:0:
320,192,126218,1,0,0:0:0:0:
64,192,126325,1,8,0:0:0:0:
192,192,126325,1,0,0:0:0:0:
448,192,126325,1,0,0:0:0:0:
320,192,126432,1,0,0:0:0:0:
64,192,126539,1,2,0:0:0:0:
448,192,126539,1,0,0:0:0:0:
192,192,126646,1,0,0:0:0:0:
320,192,126753,1,0,0:0:0:0:
64,192,126861,1,8,0:0:0:0:
192,192,126861,1,0,0:0:0:0:
320,192,126968,1,2,0:0:0:0:
448,192,126968,1,0,0:0:0:0:
192,192,127075,1,0,0:0:0:0:
64,192,127182,1,8,0:0:0:0:
320,192,127182,1,0,0:0:0:0:
448,192,127182,1,0,0:0:0:0:
192,192,127289,1,0,0:0:0:0:
320,192,127396,1,8,0:0:0:0:
448,192,127396,1,0,0:0:0:0:
320,192,127503,1,8,0:0:0:0:
448,192,127503,1,0,0:0:0:0:
64,192,127611,1,2,0:0:0:0:
192,192,127611,1,4,0:0:0:0:
448,192,127611,1,0,0:0:0:0:
192,192,127825,1,0,0:0:0:0:
320,192,128039,1,0,0:0:0:0:
320,192,128253,1,0,0:0:0:0:
64,192,128468,1,0,0:0:0:0:
64,192,128682,1,0,0:0:0:0:
448,192,128896,1,0,0:0:0:0:
320,192,129111,1,0,0:0:0:0:
192,192,129218,1,0,0:0:0:0:
64,192,129325,1,4,0:0:0:0:
320,192,129325,1,2,0:0:0:0:
448,192,129325,1,0,0:0:0:0:
192,192,129432,1,0,0:0:0:0:
64,192,129539,1,0,0:0:0:0:
320,192,129539,1,0,0:0:0:0:
448,192,129646,1,0,0:0:0:0:
64,192,129753,1,10,0:0:0:0:
192,192,129753,1,4,0:0:0:0:
320,192,129861,1,0,0:0:0:0:
64,192,129968,1,0,0:0:0:0:
448,192,129968,1,0,0:0:0:0:
192,192,130075,1,0,0:0:0:0:
64,192,130182,1,8,0:0:0:0:
320,192,130182,1,4,0:0:0:0:
448,192,130182,1,2,0:0:0:0:
192,192,130289,1,0,0:0:0:0:
64,192,130396,1,0,0:0:0:0:
448,192,130396,1,0,0:0:0:0:
320,192,130503,1,0,0:0:0:0:
64,192,130611,1,8,0:0:0:0:
192,192,130611,1,2,0:0:0:0:
448,192,130611,1,4,0:0:0:0:
320,192,130718,1,0,0:0:0:0:
64,192,130825,1,0,0:0:0:0:
448,192,130825,1,0,0:0:0:0:
192,192,130932,1,0,0:0:0:0:
320,192,131039,1,2,0:0:0:0:
448,192,131039,1,0,0:0:0:0:
192,192,131253,1,0,0:0:0:0:
64,192,131361,1,0,0:0:0:0:
448,192,131361,1,0,0:0:0:0:
320,192,131575,1,0,0:0:0:0:
64,192,131682,1,2,0:0:0:0:
192,192,131682,1,0,0:0:0:0:
448,192,131896,1,0,0:0:0:0:
192,192,132111,1,0,0:0:0:0:
320,192,132218,1,0,0:0:0:0:
448,192,132218,1,0,0:0:0:0:
64,192,132325,1,2,0:0:0:0:
192,192,132325,1,8,0:0:0:0:
448,192,132432,1,0,0:0:0:0:
320,192,132539,1,0,0:0:0:0:
320,192,132753,1,2,0:0:0:0:
448,192,132753,1,0,0:0:0:0:
192,192,132968,1,0,0:0:0:0:
64,192,133075,1,0,0:0:0:0:
448,192,133075,1,0,0:0:0:0:
320,192,133289,1,0,0:0:0:0:
64,192,133396,1,2,0:0:0:0:
192,192,133396,1,0,0:0:0:0:
448,192,133611,1,0,0:0:0:0:
64,192,133825,1,8,0:0:0:0:
192,192,133825,1,0,0:0:0:0:
64,192,133932,1,8,0:0:0:0:
192,192,133932,1,0,0:0:0:0:
320,192,134039,1,2,0:0:0:0:
448,192,134039,1,8,0:0:0:0:
64,192,134253,1,0,0:0:0:0:
192,192,134468,1,2,0:0:0:0:
448,192,134468,1,0,0:0:0:0:
320,192,134682,1,0,0:0:0:0:
64,192,134789,1,0,0:0:0:0:
192,192,134789,1,0,0:0:0:0:
320,192,135003,1,0,0:0:0:0:
192,192,135111,1,2,0:0:0:0:
448,192,135111,1,0,0:0:0:0:
64,192,135325,1,0,0:0:0:0:
320,192,135539,1,0,0:0:0:0:
64,192,135646,1,0,0:0:0:0:
192,192,135646,1,0,0:0:0:0:
320,192,135753,1,8,0:0:0:0:
448,192,135753,1,2,0:0:0:0:
192,192,135861,1,0,0:0:0:0:
448,192,135968,1,0,0:0:0:0:
64,192,136182,1,2,0:0:0:0:
320,192,136182,1,0,0:0:0:0:
192,192,136396,1,0,0:0:0:0:
320,192,136503,1,0,0:0:0:0:
448,192,136503,1,0,0:0:0:0:
64,192,136611,1,0,0:0:0:0:
192,192,136718,1,0,0:0:0:0:
64,192,136825,1,2,0:0:0:0:
320,192,136825,1,0,0:0:0:0:
448,192,137039,1,0,0:0:0:0:
64,192,137253,1,8,0:0:0:0:
192,192,137253,1,0,0:0:0:0:
64,192,137361,1,8,0:0:0:0:
192,192,137361,1,0,0:0:0:0:
320,192,137468,1,8,0:0:0:0:
448,192,137468,1,2,0:0:0:0:
192,192,137682,1,0,0:0:0:0:
320,192,137789,1,0,0:0:0:0:
64,192,137896,1,2,0:0:0:0:
192,192,137896,1,0,0:0:0:0:
320,192,138111,1,0,0:0:0:0:
192,192,138218,1,0,0:0:0:0:
448,192,138218,1,0,0:0:0:0:
64,192,138432,1,0,0:0:0:0:
320,192,138539,1,2,0:0:0:0:
448,192,138539,1,0,0:0:0:0:
192,192,138753,1,0,0:0:0:0:
64,192,138968,1,0,0:0:0:0:
320,192,139075,1,0,0:0:0:0:
448,192,139075,1,0,0:0:0:0:
64,192,139182,1,2,0:0:0:0:
192,192,139182,1,8,0:0:0:0:
448,192,139289,1,0,0:0:0:0:
320,192,139396,1,0,0:0:0:0:
64,192,139611,1,2,0:0:0:0:
448,192,139611,1,0,0:0:0:0:
192,192,139825,1,0,0:0:0:0:
320,192,139932,1,0,0:0:0:0:
448,192,139932,1,0,0:0:0:0:
192,192,140146,1,0,0:0:0:0:
64,192,140253,1,2,0:0:0:0:
448,192,140253,1,0,0:0:0:0:
320,192,140468,1,0,0:0:0:0:
64,192,140682,1,8,0:0:0:0:
192,192,140682,1,0,0:0:0:0:
64,192,140789,1,8,0:0:0:0:
192,192,140789,1,0,0:0:0:0:
320,192,140896,1,2,0:0:0:0:
448,192,140896,1,8,0:0:0:0:
64,192,141111,1,0,0:0:0:0:
448,192,141111,1,0,0:0:0:0:
64,192,141325,1,2,0:0:0:0:
320,192,141325,1,4,0:0:0:0:
448,192,141325,1,0,0:0:0:0:
320,192,141539,1,0,0:0:0:0:
64,192,141753,1,8,0:0:0:0:
192,192,141753,1,0,0:0:0:0:
192,192,141968,1,0,0:0:0:0:
320,192,142075,1,0,0:0:0:0:
64,192,142182,1,4,0:0:0:0:
192,192,142182,1,2,0:0:0:0:
448,192,142182,1,0,0:0:0:0:
64,192,142396,1,0,0:0:0:0:
320,192,142611,1,8,0:0:0:0:
448,192,142611,1,0,0:0:0:0:
192,192,142825,1,0,0:0:0:0:
320,192,142932,1,0,0:0:0:0:
64,192,143039,1,2,0:0:0:0:
192,192,143039,1,4,0:0:0:0:
448,192,143039,1,0,0:0:0:0:
448,192,143253,1,0,0:0:0:0:
192,192,143361,1,0,0:0:0:0:
64,192,143468,1,8,0:0:0:0:
320,192,143468,1,2,0:0:0:0:
448,192,143468,1,4,0:0:0:0:
64,192,143682,1,0,0:0:0:0:
192,192,143789,1,0,0:0:0:0:
320,192,143896,1,12,0:0:0:0:
448,192,143896,1,2,0:0:0:0:
64,192,144003,1,2,0:0:0:0:
192,192,144003,1,0,0:0:0:0:
320,192,144111,1,10,0:0:0:0:
448,192,144111,1,4,0:0:0:0:
64,192,144218,1,2,0:0:0:0:
192,192,144218,1,0,0:0:0:0:
320,192,144325,1,2,0:0:0:0:
448,192,144325,1,0,0:0:0:0:
64,192,144396,1,0,0:0:0:0:
320,192,144468,1,0,0:0:0:0:
192,192,144539,1,2,0:0:0:0:
448,192,144611,1,0,0:0:0:0:
192,192,144682,1,0,0:0:0:0:
64,192,144753,1,4,0:0:0:0:
320,192,144753,1,2,0:0:0:0:
448,192,144753,1,0,0:0:0:0:
192,192,144861,1,0,0:0:0:0:
448,192,144861,1,0,0:0:0:0:
64,192,144968,1,0,0:0:0:0:
192,192,144968,1,0,0:0:0:0:
320,192,145075,1,0,0:0:0:0:
448,192,145075,1,0,0:0:0:0:
64,192,145182,1,8,0:0:0:0:
192,192,145182,1,2,0:0:0:0:
320,192,145182,1,0,0:0:0:0:
192,192,145289,1,0,0:0:0:0:
64,192,145396,1,0,0:0:0:0:
320,192,145396,1,0,0:0:0:0:
320,192,145503,1,0,0:0:0:0:
448,192,145503,1,0,0:0:0:0:
64,192,145611,1,2,0:0:0:0:
448,192,145611,1,0,0:0:0:0:
320,192,145718,1,0,0:0:0:0:
64,192,145825,1,0,0:0:0:0:
192,192,145825,1,0,0:0:0:0:
192,192,145932,1,0,0:0:0:0:
64,192,146039,1,8,0:0:0:0:
320,192,146039,1,2,0:0:0:0:
448,192,146039,1,0,0:0:0:0:
192,192,146146,1,0,0:0:0:0:
320,192,146146,1,0,0:0:0:0:
64,192,146253,1,0,0:0:0:0:
320,192,146361,1,0,0:0:0:0:
448,192,146361,1,0,0:0:0:0:
192,192,146468,1,2,0:0:0:0:
320,192,146468,1,0,0:0:0:0:
192,192,146575,1,0,0:0:0:0:
320,192,146575,1,0,0:0:0:0:
64,192,146682,1,0,0:0:0:0:
448,192,146682,1,0,0:0:0:0:
192,192,146789,1,0,0:0:0:0:
64,192,146896,1,8,0:0:0:0:
320,192,146896,1,2,0:0:0:0:
448,192,146896,1,0,0:0:0:0:
320,192,147003,1,0,0:0:0:0:
448,192,147003,1,0,0:0:0:0:
64,192,147111,1,0,0:0:0:0:
192,192,147111,1,0,0:0:0:0:
320,192,147218,1,0,0:0:0:0:
192,192,147325,1,2,0:0:0:0:
448,192,147325,1,0,0:0:0:0:
64,192,147432,1,0,0:0:0:0:
448,192,147432,1,0,0:0:0:0:
64,192,147539,1,0,0:0:0:0:
192,192,147539,1,0,0:0:0:0:
320,192,147646,1,0,0:0:0:0:
64,192,147753,1,8,0:0:0:0:
192,192,147753,1,2,0:0:0:0:
448,192,147753,1,0,0:0:0:0:
320,192,147861,1,0,0:0:0:0:
64,192,147968,1,0,0:0:0:0:
192,192,147968,1,0,0:0:0:0:
192,192,148075,1,0,0:0:0:0:
320,192,148182,1,2,0:0:0:0:
448,192,148182,1,0,0:0:0:0:
64,192,148289,1,0,0:0:0:0:
448,192,148289,1,0,0:0:0:0:
64,192,148396,1,0,0:0:0:0:
192,192,148396,1,0,0:0:0:0:
320,192,148503,1,0,0:0:0:0:
448,192,148503,1,0,0:0:0:0:
64,192,148611,1,8,0:0:0:0:
192,192,148611,1,2,0:0:0:0:
320,192,148611,1,0,0:0:0:0:
192,192,148718,1,0,0:0:0:0:
64,192,148825,1,0,0:0:0:0:
320,192,148825,1,0,0:0:0:0:
320,192,148932,1,0,0:0:0:0:
448,192,148932,1,0,0:0:0:0:
64,192,149039,1,2,0:0:0:0:
448,192,149039,1,0,0:0:0:0:
320,192,149146,1,0,0:0:0:0:
64,192,149253,1,0,0:0:0:0:
192,192,149253,1,0,0:0:0:0:
192,192,149361,1,0,0:0:0:0:
64,192,149468,1,8,0:0:0:0:
320,192,149468,1,2,0:0:0:0:
448,192,149468,1,0,0:0:0:0:
192,192,149575,1,0,0:0:0:0:
320,192,149575,1,0,0:0:0:0:
64,192,149682,1,0,0:0:0:0:
320,192,149789,1,0,0:0:0:0:
448,192,149789,1,0,0:0:0:0:
64,192,149896,1,2,0:0:0:0:
192,192,149896,1,0,0:0:0:0:
64,192,150003,1,0,0:0:0:0:
192,192,150003,1,0,0:0:0:0:
64,192,150111,1,0,0:0:0:0:
448,192,150111,1,0,0:0:0:0:
192,192,150218,1,0,0:0:0:0:
64,192,150325,1,2,0:0:0:0:
320,192,150325,1,8,0:0:0:0:
448,192,150325,1,0,0:0:0:0:
320,192,150432,1,0,0:0:0:0:
448,192,150432,1,0,0:0:0:0:
64,192,150539,1,0,0:0:0:0:
192,192,150539,1,0,0:0:0:0:
320,192,150646,1,0,0:0:0:0:
192,192,150753,1,2,0:0:0:0:
448,192,150753,1,0,0:0:0:0:
64,192,150861,1,0,0:0:0:0:
320,192,150861,1,0,0:0:0:0:
64,192,150968,1,0,0:0:0:0:
192,192,150968,1,0,0:0:0:0:
320,192,151075,1,0,0:0:0:0:
64,192,151182,1,8,0:0:0:0:
192,192,151182,1,2,0:0:0:0:
448,192,151182,1,0,0:0:0:0:
320,192,151289,1,0,0:0:0:0:
64,192,151396,1,0,0:0:0:0:
192,192,151396,1,0,0:0:0:0:
192,192,151503,1,0,0:0:0:0:
320,192,151611,1,2,0:0:0:0:
448,192,151611,1,0,0:0:0:0:
64,192,151718,1,0,0:0:0:0:
448,192,151718,1,0,0:0:0:0:
64,192,151825,1,0,0:0:0:0:
192,192,151825,1,0,0:0:0:0:
320,192,151932,1,0,0:0:0:0:
448,192,151932,1,0,0:0:0:0:
64,192,152039,1,2,0:0:0:0:
192,192,152039,1,8,0:0:0:0:
320,192,152039,1,0,0:0:0:0:
192,192,152146,1,0,0:0:0:0:
64,192,152253,1,0,0:0:0:0:
320,192,152253,1,0,0:0:0:0:
320,192,152361,1,0,0:0:0:0:
448,192,152361,1,0,0:0:0:0:
64,192,152468,1,2,0:0:0:0:
448,192,152468,1,0,0:0:0:0:
320,192,152575,1,0,0:0:0:0:
64,192,152682,1,0,0:0:0:0:
192,192,152682,1,0,0:0:0:0:
192,192,152789,1,0,0:0:0:0:
64,192,152896,1,2,0:0:0:0:
320,192,152896,1,8,0:0:0:0:
448,192,152896,1,0,0:0:0:0:
64,192,153003,1,0,0:0:0:0:
192,192,153003,1,0,0:0:0:0:
320,192,153111,1,0,0:0:0:0:
64,192,153218,1,0,0:0:0:0:
192,192,153218,1,0,0:0:0:0:
64,192,153325,1,2,0:0:0:0:
448,192,153325,1,0,0:0:0:0:
320,192,153432,1,0,0:0:0:0:
448,192,153432,1,0,0:0:0:0:
64,192,153539,1,0,0:0:0:0:
192,192,153539,1,0,0:0:0:0:
320,192,153646,1,0,0:0:0:0:
448,192,153646,1,0,0:0:0:0:
64,192,153753,1,2,0:0:0:0:
192,192,153753,1,8,0:0:0:0:
320,192,153753,1,0,0:0:0:0:
192,192,153861,1,0,0:0:0:0:
64,192,153968,1,0,0:0:0:0:
320,192,153968,1,0,0:0:0:0:
320,192,154075,1,0,0:0:0:0:
448,192,154075,1,0,0:0:0:0:
64,192,154182,1,2,0:0:0:0:
448,192,154182,1,0,0:0:0:0:
320,192,154289,1,0,0:0:0:0:
64,192,154396,1,0,0:0:0:0:
192,192,154396,1,0,0:0:0:0:
192,192,154503,1,0,0:0:0:0:
64,192,154611,1,2,0:0:0:0:
320,192,154611,1,8,0:0:0:0:
448,192,154611,1,0,0:0:0:0:
192,192,154718,1,0,0:0:0:0:
64,192,154825,1,0,0:0:0:0:
448,192,154825,1,0,0:0:0:0:
320,192,154932,1,0,0:0:0:0:
64,192,155039,1,2,0:0:0:0:
448,192,155039,1,0,0:0:0:0:
320,192,155146,1,0,0:0:0:0:
64,192,155253,1,0,0:0:0:0:
448,192,155253,1,0,0:0:0:0:
192,192,155361,1,0,0:0:0:0:
64,192,155468,1,2,0:0:0:0:
320,192,155468,1,8,0:0:0:0:
448,192,155468,1,0,0:0:0:0:
192,192,155575,1,0,0:0:0:0:
320,192,155682,1,0,0:0:0:0:
448,192,155682,1,0,0:0:0:0:
192,192,155789,1,0,0:0:0:0:
320,192,155789,1,0,0:0:0:0:
64,192,155896,1,2,0:0:0:0:
448,192,155896,1,0,0:0:0:0:
320,192,156003,1,0,0:0:0:0:
448,192,156003,1,0,0:0:0:0:
64,192,156111,1,0,0:0:0:0:
320,192,156111,1,0,0:0:0:0:
64,192,156218,1,0,0:0:0:0:
192,192,156218,1,0,0:0:0:0:
192,192,156325,1,2,0:0:0:0:
320,192,156325,1,8,0:0:0:0:
448,192,156325,1,0,0:0:0:0:
64,192,156432,1,0,0:0:0:0:
320,192,156539,1,0,0:0:0:0:
448,192,156539,1,0,0:0:0:0:
320,192,156646,1,0,0:0:0:0:
448,192,156646,1,0,0:0:0:0:
64,192,156753,1,2,0:0:0:0:
192,192,156753,1,0,0:0:0:0:
448,192,156753,1,0,0:0:0:0:
64,192,156861,1,0,0:0:0:70:tom01.wav
192,192,156861,1,0,0:0:0:0:
192,192,156968,1,0,0:0:0:70:tom02.wav
448,192,156968,1,0,0:0:0:0:
320,192,157075,1,0,0:0:0:70:tom01.wav
448,192,157075,1,0,0:0:0:0:
64,192,157182,1,2,0:0:0:0:
192,192,157182,1,0,0:0:0:70:tom02.wav
448,192,157182,1,0,0:0:0:0:
64,192,157289,1,0,0:0:0:0:
192,192,157289,1,0,0:0:0:0:
192,192,157396,1,0,0:0:0:70:tom01.wav
448,192,157396,1,0,0:0:0:0:
320,192,157503,1,0,0:0:0:70:tom03.wav
64,192,157611,1,2,0:0:0:0:
192,192,157611,1,0,0:0:0:70:tom02.wav
448,192,157611,1,0,0:0:0:0:
192,192,157718,1,0,0:0:0:70:tom03.wav
320,192,157718,1,0,0:0:0:0:
320,192,157825,1,0,0:0:0:70:tom01.wav
448,192,157825,1,0,0:0:0:0:
64,192,157932,1,0,0:0:0:70:tom02.wav
192,192,157932,1,0,0:0:0:0:
64,192,158039,1,2,0:0:0:0:
320,192,158039,1,8,0:0:0:0:
448,192,158039,1,0,0:0:0:0:
192,192,158146,1,8,0:0:0:0:
64,192,158253,1,8,0:0:0:0:
448,192,158253,1,0,0:0:0:0:
192,192,158361,1,8,0:0:0:0:
64,192,158468,1,2,0:0:0:0:
320,192,158468,1,4,0:0:0:0:
448,192,158468,1,0,0:0:0:0:
192,192,158575,1,0,0:0:0:0:
448,192,158575,1,0,0:0:0:0:
64,192,158682,1,0,0:0:0:0:
192,192,158682,1,0,0:0:0:0:
320,192,158789,1,0,0:0:0:0:
448,192,158789,1,0,0:0:0:0:
64,192,158896,1,2,0:0:0:0:
192,192,158896,1,8,0:0:0:0:
320,192,158896,1,0,0:0:0:0:
192,192,159003,1,0,0:0:0:0:
64,192,159111,1,0,0:0:0:0:
320,192,159111,1,0,0:0:0:0:
320,192,159218,1,0,0:0:0:0:
448,192,159218,1,0,0:0:0:0:
64,192,159325,1,2,0:0:0:0:
448,192,159325,1,0,0:0:0:0:
320,192,159432,1,0,0:0:0:0:
64,192,159539,1,0,0:0:0:0:
192,192,159539,1,0,0:0:0:0:
192,192,159646,1,0,0:0:0:0:
64,192,159753,1,2,0:0:0:0:
320,192,159753,1,8,0:0:0:0:
448,192,159753,1,0,0:0:0:0:
192,192,159861,1,0,0:0:0:0:
320,192,159861,1,0,0:0:0:0:
64,192,159968,1,0,0:0:0:0:
192,192,159968,1,0,0:0:0:0:
320,192,160075,1,0,0:0:0:0:
448,192,160075,1,0,0:0:0:0:
64,192,160182,1,2,0:0:0:0:
192,192,160182,1,0,0:0:0:0:
64,192,160289,1,0,0:0:0:0:
192,192,160289,1,0,0:0:0:0:
64,192,160396,1,0,0:0:0:0:
448,192,160396,1,0,0:0:0:0:
192,192,160503,1,0,0:0:0:0:
320,192,160503,1,0,0:0:0:0:
64,192,160611,1,2,0:0:0:0:
320,192,160611,1,8,0:0:0:0:
448,192,160611,1,0,0:0:0:0:
320,192,160718,1,0,0:0:0:0:
448,192,160718,1,0,0:0:0:0:
64,192,160825,1,0,0:0:0:0:
192,192,160932,1,0,0:0:0:0:
320,192,160932,1,0,0:0:0:0:
192,192,161039,1,2,0:0:0:0:
448,192,161039,1,0,0:0:0:0:
64,192,161146,1,0,0:0:0:0:
448,192,161146,1,0,0:0:0:0:
64,192,161253,1,0,0:0:0:0:
192,192,161253,1,0,0:0:0:0:
320,192,161361,1,0,0:0:0:0:
64,192,161468,1,2,0:0:0:0:
192,192,161468,1,8,0:0:0:0:
448,192,161468,1,0,0:0:0:0:
320,192,161575,1,0,0:0:0:0:
64,192,161682,1,0,0:0:0:0:
192,192,161682,1,0,0:0:0:0:
192,192,161789,1,0,0:0:0:0:
320,192,161896,1,2,0:0:0:0:
448,192,161896,1,0,0:0:0:0:
64,192,162003,1,0,0:0:0:0:
448,192,162003,1,0,0:0:0:0:
64,192,162111,1,0,0:0:0:0:
192,192,162111,1,0,0:0:0:0:
320,192,162218,1,0,0:0:0:0:
448,192,162218,1,0,0:0:0:0:
64,192,162325,1,2,0:0:0:0:
192,192,162325,1,8,0:0:0:0:
320,192,162325,1,0,0:0:0:0:
192,192,162432,1,0,0:0:0:0:
64,192,162539,1,0,0:0:0:0:
320,192,162539,1,0,0:0:0:0:
320,192,162646,1,0,0:0:0:0:
448,192,162646,1,0,0:0:0:0:
64,192,162753,1,2,0:0:0:0:
448,192,162753,1,0,0:0:0:0:
320,192,162861,1,0,0:0:0:0:
64,192,162968,1,0,0:0:0:0:
192,192,162968,1,0,0:0:0:0:
192,192,163075,1,0,0:0:0:0:
64,192,163182,1,2,0:0:0:0:
320,192,163182,1,8,0:0:0:0:
448,192,163182,1,0,0:0:0:0:
192,192,163289,1,0,0:0:0:0:
320,192,163289,1,0,0:0:0:0:
64,192,163396,1,0,0:0:0:0:
192,192,163396,1,0,0:0:0:0:
320,192,163503,1,0,0:0:0:0:
448,192,163503,1,0,0:0:0:0:
192,192,163611,1,2,0:0:0:0:
320,192,163611,1,0,0:0:0:0:
192,192,163718,1,0,0:0:0:0:
320,192,163718,1,0,0:0:0:0:
64,192,163825,1,0,0:0:0:0:
448,192,163825,1,0,0:0:0:0:
192,192,163932,1,0,0:0:0:0:
320,192,163932,1,0,0:0:0:0:
64,192,164039,1,8,0:0:0:0:
320,192,164039,1,2,0:0:0:0:
448,192,164039,1,0,0:0:0:0:
448,192,164146,1,0,0:0:0:0:
64,192,164253,1,0,0:0:0:0:
192,192,164253,1,0,0:0:0:0:
192,192,164361,1,0,0:0:0:0:
320,192,164468,1,2,0:0:0:0:
448,192,164468,1,0,0:0:0:0:
64,192,164575,1,0,0:0:0:0:
320,192,164575,1,0,0:0:0:0:
64,192,164682,1,0,0:0:0:0:
192,192,164682,1,0,0:0:0:0:
320,192,164789,1,0,0:0:0:0:
64,192,164896,1,2,0:0:0:0:
192,192,164896,1,8,0:0:0:0:
448,192,164896,1,0,0:0:0:0:
320,192,165003,1,0,0:0:0:0:
448,192,165003,1,0,0:0:0:0:
64,192,165111,1,0,0:0:0:0:
192,192,165111,1,0,0:0:0:0:
192,192,165218,1,0,0:0:0:0:
320,192,165325,1,2,0:0:0:0:
448,192,165325,1,0,0:0:0:0:
64,192,165432,1,0,0:0:0:0:
448,192,165432,1,0,0:0:0:0:
64,192,165539,1,0,0:0:0:0:
192,192,165539,1,0,0:0:0:0:
320,192,165646,1,0,0:0:0:0:
448,192,165646,1,0,0:0:0:0:
64,192,165753,1,8,0:0:0:0:
192,192,165753,1,2,0:0:0:0:
320,192,165753,1,0,0:0:0:0:
192,192,165861,1,0,0:0:0:0:
64,192,165968,1,0,0:0:0:0:
320,192,165968,1,0,0:0:0:0:
320,192,166075,1,0,0:0:0:0:
448,192,166075,1,0,0:0:0:0:
64,192,166182,1,2,0:0:0:0:
448,192,166182,1,0,0:0:0:0:
320,192,166289,1,0,0:0:0:0:
64,192,166396,1,0,0:0:0:0:
192,192,166396,1,0,0:0:0:0:
192,192,166503,1,0,0:0:0:0:
64,192,166611,1,8,0:0:0:0:
320,192,166611,1,2,0:0:0:0:
448,192,166611,1,0,0:0:0:0:
64,192,166718,1,0,0:0:0:0:
192,192,166718,1,0,0:0:0:0:
320,192,166825,1,0,0:0:0:0:
64,192,166932,1,0,0:0:0:0:
192,192,166932,1,0,0:0:0:0:
64,192,167039,1,2,0:0:0:0:
448,192,167039,1,0,0:0:0:0:
320,192,167146,1,0,0:0:0:0:
448,192,167146,1,0,0:0:0:0:
64,192,167253,1,0,0:0:0:0:
192,192,167253,1,0,0:0:0:0:
192,192,167361,1,0,0:0:0:0:
448,192,167361,1,0,0:0:0:0:
64,192,167468,1,8,0:0:0:0:
192,192,167468,1,2,0:0:0:0:
320,192,167468,1,0,0:0:0:0:
64,192,167575,1,0,0:0:0:0:
448,192,167575,1,0,0:0:0:0:
192,192,167682,1,0,0:0:0:0:
320,192,167682,1,0,0:0:0:0:
320,192,167789,1,0,0:0:0:0:
448,192,167789,1,0,0:0:0:0:
64,192,167896,1,2,0:0:0:0:
448,192,167896,1,0,0:0:0:0:
320,192,168003,1,0,0:0:0:0:
64,192,168111,1,0,0:0:0:0:
192,192,168111,1,0,0:0:0:0:
192,192,168218,1,0,0:0:0:0:
64,192,168325,1,8,0:0:0:0:
320,192,168325,1,2,0:0:0:0:
448,192,168325,1,0,0:0:0:0:
192,192,168432,1,0,0:0:0:0:
64,192,168539,1,0,0:0:0:0:
448,192,168539,1,0,0:0:0:0:
320,192,168646,1,0,0:0:0:0:
64,192,168753,1,2,0:0:0:0:
192,192,168753,1,8,0:0:0:0:
448,192,168753,1,0,0:0:0:0:
320,192,168861,1,0,0:0:0:0:
64,192,168968,1,0,0:0:0:0:
448,192,168968,1,0,0:0:0:0:
192,192,169075,1,0,0:0:0:0:
64,192,169182,1,8,0:0:0:0:
320,192,169182,1,2,0:0:0:0:
448,192,169182,1,0,0:0:0:0:
192,192,169289,1,0,0:0:0:0:
320,192,169396,1,0,0:0:0:0:
448,192,169396,1,0,0:0:0:0:
192,192,169503,1,0,0:0:0:0:
320,192,169503,1,0,0:0:0:0:
64,192,169611,1,2,0:0:0:0:
192,192,169611,1,8,0:0:0:0:
448,192,169611,1,0,0:0:0:0:
448,192,169718,1,0,0:0:0:0:
64,192,169825,1,0,0:0:0:0:
320,192,169825,1,0,0:0:0:0:
64,192,169932,1,0,0:0:0:0:
192,192,169932,1,0,0:0:0:0:
192,192,170039,1,8,0:0:0:0:
320,192,170039,1,2,0:0:0:0:
448,192,170039,1,0,0:0:0:0:
64,192,170146,1,0,0:0:0:0:
320,192,170253,1,0,0:0:0:0:
448,192,170253,1,0,0:0:0:0:
320,192,170361,1,0,0:0:0:0:
448,192,170361,1,0,0:0:0:0:
64,192,170468,1,2,0:0:0:0:
192,192,170468,1,8,0:0:0:0:
448,192,170468,1,0,0:0:0:0:
64,192,170575,1,0,0:0:0:0:
192,192,170575,1,0,0:0:0:0:
192,192,170682,1,2,0:0:0:0:
320,192,170682,1,8,0:0:0:0:
448,192,170682,1,0,0:0:0:0:
320,192,170789,1,0,0:0:0:0:
448,192,170789,1,0,0:0:0:0:
64,192,170896,1,2,0:0:0:0:
192,192,170896,1,8,0:0:0:0:
448,192,170896,1,0,0:0:0:0:
320,192,171003,1,0,0:0:0:0:
64,192,171111,1,2,0:0:0:0:
192,192,171111,1,8,0:0:0:0:
448,192,171111,1,0,0:0:0:0:
320,192,171218,1,0,0:0:0:0:
448,192,171218,1,0,0:0:0:0:
64,192,171325,1,2,0:0:0:0:
192,192,171325,1,8,0:0:0:0:
448,192,171325,1,0,0:0:0:0:
64,192,171432,1,2,0:0:0:0:
192,192,171432,1,0,0:0:0:0:
320,192,171539,1,2,0:0:0:0:
448,192,171539,1,8,0:0:0:0:
192,192,171646,1,2,0:0:0:0:
320,192,171646,1,0,0:0:0:0:
64,192,171753,1,2,0:0:0:0:
192,192,171753,1,8,0:0:0:0:
448,192,171807,1,2,0:0:0:0:
320,192,171861,1,2,0:0:0:0:
192,192,171914,1,2,0:0:0:0:
448,192,171968,1,10,0:0:0:0:
64,192,172021,1,2,0:0:0:0:
192,192,172075,1,2,0:0:0:0:
320,192,172128,1,2,0:0:0:0:
448,192,172182,1,0,0:0:0:0:
64,192,172611,1,2,0:0:0:0:
320,192,172611,1,4,0:0:0:0:
448,192,172611,1,0,0:0:0:0:
64,192,173896,1,0,0:0:0:0:
448,192,173896,1,0,0:0:0:0:
320,192,174003,1,0,0:0:0:0:
192,192,174111,1,0,0:0:0:0:
64,192,174218,1,0,0:0:0:0:
320,192,174325,1,0,0:0:0:0:
192,192,174432,1,0,0:0:0:0:
320,192,174539,1,0,0:0:0:0:
448,192,174646,1,0,0:0:0:0:
64,192,174753,1,0,0:0:0:0:
320,192,174861,1,0,0:0:0:0:
192,192,174968,1,0,0:0:0:0:
64,192,175075,1,0,0:0:0:0:
448,192,175182,1,0,0:0:0:0:
320,192,175289,1,0,0:0:0:0:
192,192,175396,1,0,0:0:0:0:
64,192,175503,1,0,0:0:0:0:
320,192,175611,1,0,0:0:0:0:
448,192,175611,1,0,0:0:0:0:
192,192,175718,1,0,0:0:0:0:
64,192,175825,1,0,0:0:0:0:
320,192,175932,1,0,0:0:0:0:
64,192,176039,1,0,0:0:0:0:
448,192,176039,1,0,0:0:0:0:
192,192,176146,1,0,0:0:0:0:
320,192,176253,1,0,0:0:0:0:
448,192,176253,1,0,0:0:0:0:
64,192,176361,1,0,0:0:0:0:
192,192,176361,1,0,0:0:0:0:
320,192,176468,1,0,0:0:0:0:
448,192,176468,1,0,0:0:0:0:
320,192,176575,1,0,0:0:0:0:
64,192,176682,1,0,0:0:0:0:
192,192,176682,1,0,0:0:0:0:
192,192,176789,1,0,0:0:0:0:
320,192,176896,1,0,0:0:0:0:
448,192,176896,1,0,0:0:0:0:
64,192,177325,1,0,0:0:0:0:
448,192,177325,1,0,0:0:0:0:
192,192,177432,1,0,0:0:0:0:
448,192,177539,1,0,0:0:0:0:
320,192,177646,1,0,0:0:0:0:
64,192,177753,1,0,0:0:0:0:
192,192,177753,1,0,0:0:0:0:
448,192,177861,1,0,0:0:0:0:
64,192,177968,1,0,0:0:0:0:
192,192,177968,1,0,0:0:0:0:
320,192,178075,1,0,0:0:0:0:
192,192,178182,1,0,0:0:0:0:
448,192,178236,1,0,0:0:0:0:
64,192,178289,1,0,0:0:0:0:
320,192,178343,1,0,0:0:0:0:
448,192,178396,1,0,0:0:0:0:
192,192,178503,1,0,0:0:0:0:
64,192,178611,1,0,0:0:0:0:
448,192,178611,1,0,0:0:0:0:
320,192,178718,1,0,0:0:0:0:
64,192,178825,1,0,0:0:0:0:
320,192,178932,1,0,0:0:0:0:
192,192,179039,1,0,0:0:0:0:
448,192,179039,1,0,0:0:0:0:
64,192,179146,1,0,0:0:0:0:
320,192,179253,1,0,0:0:0:0:
192,192,179361,1,0,0:0:0:0:
320,192,179468,1,0,0:0:0:0:
448,192,179468,1,0,0:0:0:0:
64,192,179575,1,0,0:0:0:0:
192,192,179682,1,0,0:0:0:0:
448,192,179682,1,0,0:0:0:0:
320,192,179789,1,0,0:0:0:0:
448,192,179896,1,0,0:0:0:0:
64,192,179950,1,0,0:0:0:0:
192,192,180003,1,0,0:0:0:0:
448,192,180057,1,0,0:0:0:0:
64,192,180111,1,0,0:0:0:0:
320,192,180218,1,0,0:0:0:0:
192,192,180325,1,0,0:0:0:0:
64,192,180432,1,0,0:0:0:0:
320,192,180539,1,0,0:0:0:0:
192,192,180646,1,0,0:0:0:0:
64,192,180753,1,0,0:0:0:0:
448,192,180753,1,0,0:0:0:0:
448,192,180861,1,0,0:0:0:0:
192,192,180968,1,0,0:0:0:0:
320,192,180968,1,0,0:0:0:0:
64,192,181075,1,0,0:0:0:0:
64,192,181182,1,0,0:0:0:0:
448,192,181182,1,0,0:0:0:0:
320,192,181289,1,0,0:0:0:0:
64,192,181396,1,0,0:0:0:0:
192,192,181396,1,0,0:0:0:0:
448,192,181503,1,0,0:0:0:0:
64,192,181611,1,0,0:0:0:0:
320,192,181611,1,0,0:0:0:0:
192,192,181718,1,0,0:0:0:0:
320,192,181825,1,0,0:0:0:0:
448,192,181825,1,0,0:0:0:0:
320,192,181932,1,0,0:0:0:0:
64,192,182039,1,0,0:0:0:0:
320,192,182146,1,0,0:0:0:0:
192,192,182253,1,0,0:0:0:0:
64,192,182361,1,0,0:0:0:0:
320,192,182468,1,0,0:0:0:0:
448,192,182468,1,0,0:0:0:0:
192,192,182575,1,0,0:0:0:0:
64,192,182682,1,0,0:0:0:0:
320,192,182789,1,0,0:0:0:0:
64,192,182896,1,0,0:0:0:0:
448,192,182896,1,0,0:0:0:0:
192,192,183003,1,0,0:0:0:0:
320,192,183111,1,0,0:0:0:0:
448,192,183111,1,0,0:0:0:0:
64,192,183218,1,0,0:0:0:0:
192,192,183218,1,0,0:0:0:0:
320,192,183325,1,0,0:0:0:0:
448,192,183325,1,0,0:0:0:0:
320,192,183432,1,0,0:0:0:0:
64,192,183539,1,0,0:0:0:0:
192,192,183539,1,0,0:0:0:0:
192,192,183646,1,0,0:0:0:0:
320,192,183753,1,0,0:0:0:0:
448,192,183753,1,0,0:0:0:0:
64,192,184182,1,0,0:0:0:0:
448,192,184182,1,0,0:0:0:0:
64,192,184289,1,0,0:0:0:0:
192,192,184396,1,0,0:0:0:0:
320,192,184396,1,0,0:0:0:0:
448,192,184503,1,0,0:0:0:0:
64,192,184611,1,0,0:0:0:0:
448,192,184611,1,0,0:0:0:0:
192,192,184718,1,0,0:0:0:0:
320,192,184825,1,0,0:0:0:0:
448,192,184825,1,0,0:0:0:0:
192,192,184932,1,0,0:0:0:0:
320,192,185039,1,0,0:0:0:0:
448,192,185039,1,0,0:0:0:0:
64,192,185093,1,0,0:0:0:0:
192,192,185146,1,0,0:0:0:0:
320,192,185200,1,0,0:0:0:0:
64,192,185253,1,0,0:0:0:0:
448,192,185253,1,0,0:0:0:0:
448,192,185361,1,0,0:0:0:0:
64,192,185468,1,0,0:0:0:0:
448,192,185575,1,0,0:0:0:0:
320,192,185682,1,0,0:0:0:0:
192,192,185789,1,0,0:0:0:0:
320,192,185896,1,0,0:0:0:50:electronic32.wav
448,192,185896,1,0,0:0:0:0:
192,192,186003,1,0,0:0:0:0:
64,192,186111,1,0,0:0:0:0:
320,192,186218,1,0,0:0:0:0:
64,192,186325,1,0,0:0:0:50:electronic32.wav
448,192,186325,1,0,0:0:0:0:
192,192,186432,1,0,0:0:0:0:
320,192,186539,1,0,0:0:0:0:
448,192,186539,1,0,0:0:0:0:
64,192,186646,1,0,0:0:0:0:
192,192,186646,1,0,0:0:0:0:
320,192,186753,1,0,0:0:0:50:electronic32.wav
448,192,186753,1,0,0:0:0:0:
64,192,186861,1,0,0:0:0:0:
192,192,186968,1,0,0:0:0:0:
320,192,186968,1,0,0:0:0:0:
64,192,187075,1,0,0:0:0:0:
192,192,187182,1,0,0:0:0:50:electronic32.wav
448,192,187182,1,0,0:0:0:0:
320,192,187289,1,0,0:0:0:0:
64,192,187396,1,0,0:0:0:0:
448,192,187396,1,0,0:0:0:0:
192,192,187503,1,0,0:0:0:0:
320,192,187503,1,0,0:0:0:0:
64,192,187611,1,0,0:0:0:50:electronic32.wav
448,192,187611,1,0,0:0:0:0:
320,192,187825,1,0,0:0:0:0:
64,192,188039,1,0,0:0:0:50:electronic32.wav
192,192,188039,1,0,0:0:0:0:
448,192,188253,1,0,0:0:0:0:
192,192,188468,1,0,0:0:0:50:electronic32.wav
448,192,188468,1,0,0:0:0:0:
64,192,188682,1,0,0:0:0:0:
320,192,188896,1,0,0:0:0:50:electronic32.wav
448,192,188896,1,0,0:0:0:0:
320,192,189111,1,0,0:0:0:0:
64,192,189325,1,0,0:0:0:50:electronic32.wav
192,192,189325,1,0,0:0:0:0:
448,192,189432,1,0,0:0:0:0:
448,192,189539,1,0,0:0:0:0:
192,192,189753,1,0,0:0:0:50:electronic32.wav
448,192,189753,1,0,0:0:0:0:
192,192,189968,1,0,0:0:0:0:
320,192,190182,1,0,0:0:0:50:electronic32.wav
448,192,190182,1,0,0:0:0:0:
64,192,190611,1,0,0:0:0:50:electronic32.wav
192,192,190611,1,0,0:0:0:0:
64,192,191039,1,0,0:0:0:50:electronic32.wav
448,192,191039,1,0,0:0:0:0:
320,192,191253,1,0,0:0:0:0:
64,192,191468,1,0,0:0:0:50:electronic32.wav
192,192,191468,1,0,0:0:0:0:
64,192,191682,1,0,0:0:0:0:
320,192,191896,1,0,0:0:0:50:electronic32.wav
448,192,191896,1,0,0:0:0:0:
192,192,192111,1,0,0:0:0:0:
64,192,192325,1,0,0:0:0:50:electronic32.wav
448,192,192325,1,0,0:0:0:0:
448,192,192539,1,0,0:0:0:0:
192,192,192753,1,0,0:0:0:50:electronic32.wav
320,192,192753,1,0,0:0:0:0:
192,192,192968,1,0,0:0:0:0:
64,192,193182,1,0,0:0:0:50:electronic32.wav
448,192,193182,1,0,0:0:0:0:
320,192,193396,1,0,0:0:0:0:
64,192,193611,1,0,0:0:0:50:electronic32.wav
192,192,193611,1,0,0:0:0:0:
320,192,194039,1,0,0:0:0:50:electronic32.wav
448,192,194039,1,0,0:0:0:0:
64,192,194468,1,0,0:0:0:50:electronic32.wav
192,192,194468,1,0,0:0:0:0:
448,192,194468,1,0,0:0:0:0:
320,192,194682,1,0,0:0:0:50:electronic32.wav
448,192,194682,1,0,0:0:0:0:
64,192,194896,1,0,0:0:0:50:electronic32.wav
192,192,194896,1,0,0:0:0:0:
64,192,195111,1,0,0:0:0:50:electronic32.wav
192,192,195111,1,0,0:0:0:0:
192,192,195325,1,0,0:0:0:50:electronic32.wav
448,192,195325,1,0,0:0:0:0:
320,192,195539,1,0,0:0:0:50:electronic32.wav
448,192,195539,1,0,0:0:0:0:
64,192,195753,1,0,0:0:0:50:electronic32.wav
192,192,195753,1,0,0:0:0:0:
320,192,195968,1,0,0:0:0:50:electronic32.wav
448,192,195968,1,0,0:0:0:0:
64,192,196182,1,0,0:0:0:50:electronic32.wav
320,192,196182,1,0,0:0:0:0:
448,192,196182,1,0,0:0:0:0:
192,192,196396,1,0,0:0:0:50:electronic32.wav
320,192,196396,1,0,0:0:0:0:
64,192,196611,1,0,0:0:0:50:electronic32.wav
192,192,196611,1,0,0:0:0:0:
320,192,196825,1,0,0:0:0:50:electronic32.wav
448,192,196825,1,0,0:0:0:0:
192,192,197039,1,0,0:0:0:50:electronic32.wav
448,192,197039,1,0,0:0:0:0:
64,192,197253,1,0,0:0:0:50:electronic32.wav
320,192,197253,1,0,0:0:0:0:
64,192,197468,1,0,0:0:0:50:electronic32.wav
192,192,197468,1,0,0:0:0:0:
320,192,197682,1,0,0:0:0:50:electronic32.wav
448,192,197682,1,0,0:0:0:0:
64,192,197896,1,0,0:0:0:50:electronic32.wav
320,192,197896,1,0,0:0:0:0:
448,192,197896,1,0,0:0:0:0:
192,192,198003,1,0,0:0:0:50:electronic32.wav
320,192,198111,1,0,0:0:0:50:electronic32.wav
448,192,198111,1,0,0:0:0:0:
192,192,198218,1,0,0:0:0:50:electronic32.wav
64,192,198325,1,0,0:0:0:50:electronic32.wav
320,192,198325,1,0,0:0:0:0:
448,192,198432,1,0,0:0:0:50:electronic32.wav
64,192,198539,1,0,0:0:0:50:electronic32.wav
192,192,198539,1,0,0:0:0:0:
320,192,198646,1,0,0:0:0:50:electronic32.wav
192,192,198753,1,0,0:0:0:50:electronic32.wav
448,192,198753,1,0,0:0:0:0:
64,192,198861,1,0,0:0:0:50:electronic32.wav
320,192,198968,1,0,0:0:0:50:electronic32.wav
448,192,198968,1,0,0:0:0:0:
192,192,199075,1,0,0:0:0:50:electronic32.wav
64,192,199182,1,0,0:0:0:50:electronic32.wav
320,192,199182,1,0,0:0:0:0:
448,192,199289,1,0,0:0:0:50:electronic32.wav
64,192,199396,1,0,0:0:0:50:electronic32.wav
192,192,199396,1,0,0:0:0:0:
320,192,199503,1,0,0:0:0:50:electronic32.wav
64,192,199611,1,0,0:0:0:50:electronic32.wav
448,192,199611,1,0,0:0:0:0:
192,192,199682,1,0,0:0:0:0:
320,192,199753,1,0,0:0:0:0:
448,192,199825,1,0,0:0:0:50:electronic32.wav
64,192,199896,1,0,0:0:0:0:
192,192,199968,1,0,0:0:0:0:
320,192,200039,1,0,0:0:0:50:electronic32.wav
448,192,200111,1,0,0:0:0:0:
64,192,200182,1,0,0:0:0:0:
192,192,200253,1,0,0:0:0:50:electronic32.wav
448,192,200325,1,0,0:0:0:0:
320,192,200396,1,0,0:0:0:0:
192,192,200468,1,0,0:0:0:50:electronic32.wav
64,192,200521,1,0,0:0:0:50:electronic32.wav
448,192,200575,1,0,0:0:0:50:electronic32.wav
320,192,200628,1,0,0:0:0:50:electronic32.wav
192,192,200682,1,0,0:0:0:50:electronic32.wav
64,192,200736,1,0,0:0:0:50:electronic32.wav
448,192,200789,1,0,0:0:0:50:electronic32.wav
320,192,200843,1,0,0:0:0:50:electronic32.wav
192,192,200896,1,0,0:0:0:50:electronic32.wav
64,192,200950,1,0,0:0:0:50:electronic32.wav
448,192,201003,1,0,0:0:0:50:electronic32.wav
320,192,201057,1,0,0:0:0:50:electronic32.wav
192,192,201111,1,0,0:0:0:50:electronic32.wav
64,192,201164,1,0,0:0:0:50:electronic32.wav
448,192,201218,1,0,0:0:0:50:electronic32.wav
320,192,201271,1,0,0:0:0:50:electronic32.wav
64,192,201325,1,2,0:0:0:0:
192,192,201325,1,4,0:0:0:0:
64,192,201432,1,0,0:0:0:0:
320,192,201539,1,0,0:0:0:0:
448,192,201646,1,0,0:0:0:0:
448,192,201753,1,0,0:0:0:0:
64,192,201861,1,0,0:0:0:0:
448,192,201968,1,0,0:0:0:0:
320,192,202075,1,0,0:0:0:0:
64,192,202182,1,0,0:0:0:0:
192,192,202182,1,0,0:0:0:0:
320,192,202396,1,0,0:0:0:0:
448,192,202396,1,0,0:0:0:0:
64,192,203039,1,0,0:0:0:0:
192,192,203146,1,0,0:0:0:0:
448,192,203253,1,0,0:0:0:0:
320,192,203361,1,0,0:0:0:0:
192,192,203468,1,0,0:0:0:0:
64,192,203575,1,0,0:0:0:0:
320,192,203682,1,0,0:0:0:0:
192,192,203789,1,0,0:0:0:0:
64,192,203896,1,0,0:0:0:0:
448,192,203896,1,0,0:0:0:0:
192,192,204111,1,0,0:0:0:0:
320,192,204111,1,0,0:0:0:0:
448,192,204753,1,0,0:0:0:0:
448,192,204861,1,0,0:0:0:0:
64,192,204968,1,0,0:0:0:0:
320,192,205075,1,0,0:0:0:0:
320,192,205182,1,0,0:0:0:0:
192,192,205289,1,0,0:0:0:0:
64,192,205396,1,0,0:0:0:0:
320,192,205503,1,0,0:0:0:0:
192,192,205611,1,0,0:0:0:0:
448,192,205611,1,0,0:0:0:0:
64,192,205825,1,0,0:0:0:0:
320,192,205825,1,0,0:0:0:0:
64,192,206468,1,0,0:0:0:0:
192,192,206575,1,0,0:0:0:0:
320,192,206682,1,0,0:0:0:0:
64,192,206789,1,0,0:0:0:0:
448,192,206896,1,0,0:0:0:0:
320,192,207003,1,0,0:0:0:0:
192,192,207111,1,0,0:0:0:0:
64,192,207218,1,0,0:0:0:0:
320,192,207325,1,0,0:0:0:0:
448,192,207325,1,0,0:0:0:0:
64,192,207539,1,0,0:0:0:0:
192,192,207539,1,0,0:0:0:0:
64,192,208182,1,2,0:0:0:0:
320,192,208182,1,4,0:0:0:0:
448,192,208182,1,0,0:0:0:0:
64,192,208289,1,0,0:0:0:0:
448,192,208396,1,0,0:0:0:0:
192,192,208503,1,0,0:0:0:0:
64,192,208611,1,2,0:0:0:0:
192,192,208611,1,8,0:0:0:0:
448,192,208718,1,0,0:0:0:0:
320,192,208825,1,0,0:0:0:0:
64,192,208932,1,0,0:0:0:0:
192,192,209039,1,2,0:0:0:0:
448,192,209039,1,0,0:0:0:0:
320,192,209146,1,8,0:0:0:0:
64,192,209253,1,0,0:0:0:0:
192,192,209253,1,0,0:0:0:0:
64,192,209468,1,2,0:0:0:0:
448,192,209468,1,8,0:0:0:0:
320,192,209575,1,0,0:0:0:0:
320,192,209789,1,8,0:0:0:0:
64,192,209896,1,2,0:0:0:0:
192,192,209896,1,0,0:0:0:0:
192,192,210003,1,0,0:0:0:0:
320,192,210111,1,0,0:0:0:0:
448,192,210218,1,0,0:0:0:0:
64,192,210325,1,2,0:0:0:0:
448,192,210325,1,8,0:0:0:0:
320,192,210432,1,0,0:0:0:0:
64,192,210539,1,0,0:0:0:0:
448,192,210646,1,0,0:0:0:0:
64,192,210753,1,2,0:0:0:0:
192,192,210753,1,0,0:0:0:0:
320,192,210861,1,8,0:0:0:0:
448,192,210861,1,0,0:0:0:0:
192,192,210968,1,0,0:0:0:0:
64,192,211182,1,2,0:0:0:0:
320,192,211182,1,8,0:0:0:0:
448,192,211289,1,0,0:0:0:0:
192,192,211503,1,8,0:0:0:0:
320,192,211611,1,2,0:0:0:0:
448,192,211611,1,0,0:0:0:0:
192,192,211825,1,0,0:0:0:0:
320,192,211932,1,0,0:0:0:0:
64,192,212039,1,2,0:0:0:0:
448,192,212039,1,8,0:0:0:0:
320,192,212253,1,0,0:0:0:0:
320,192,212361,1,0,0:0:0:0:
64,192,212468,1,2,0:0:0:0:
192,192,212468,1,0,0:0:0:0:
64,192,212575,1,8,0:0:0:0:
448,192,212575,1,0,0:0:0:0:
320,192,212682,1,0,0:0:0:0:
320,192,212789,1,0,0:0:0:0:
64,192,212896,1,2,0:0:0:0:
192,192,212896,1,8,0:0:0:0:
448,192,212896,1,0,0:0:0:0:
320,192,213111,1,8,0:0:0:0:
448,192,213111,1,0,0:0:0:0:
64,192,213218,1,8,0:0:0:0:
192,192,213218,1,0,0:0:0:0:
64,192,213325,1,2,0:0:0:0:
320,192,213325,1,4,0:0:0:0:
448,192,213325,1,0,0:0:0:0:
320,192,213432,1,0,0:0:0:70:tom01.wav
64,192,213539,1,0,0:0:0:70:tom02.wav
64,192,213646,1,0,0:0:0:70:tom01.wav
448,192,213753,1,0,0:0:0:70:tom02.wav
448,192,213861,1,0,0:0:0:70:tom01.wav
192,192,213968,1,0,0:0:0:70:tom02.wav
192,192,214075,1,0,0:0:0:70:tom01.wav
64,192,214182,1,2,0:0:0:0:
320,192,214182,1,4,0:0:0:0:
448,192,214182,1,0,0:0:0:0:
192,192,214289,1,0,0:0:0:70:tom01.wav
320,192,214396,1,2,0:0:0:0:
448,192,214396,1,4,0:0:0:0:
64,192,214503,1,0,0:0:0:70:tom01.wav
192,192,214611,1,0,0:0:0:100:LR3_SFX_QPF.wav
448,192,214611,1,0,0:0:0:0:
448,192,214718,1,0,0:0:0:0:
64,192,214825,1,0,0:0:0:50:LR3_DS FXWe.wav
192,192,214896,1,0,0:0:0:0:
320,192,214968,1,0,0:0:0:0:
64,192,215039,1,2,0:0:0:0:
192,192,215039,1,4,0:0:0:0:
448,192,215039,1,0,0:0:0:0:
64,192,215146,1,0,0:0:0:0:
320,192,215146,1,0,0:0:0:0:
320,192,215253,1,0,0:0:0:0:
448,192,215253,1,0,0:0:0:0:
64,192,215361,1,0,0:0:0:0:
192,192,215361,1,0,0:0:0:0:
192,192,215468,1,2,0:0:0:0:
320,192,215468,1,8,0:0:0:0:
448,192,215468,1,0,0:0:0:0:
320,192,215575,1,0,0:0:0:0:
192,192,215682,1,0,0:0:0:0:
448,192,215682,1,0,0:0:0:0:
64,192,215789,1,0,0:0:0:0:
192,192,215789,1,0,0:0:0:0:
64,192,215896,1,2,0:0:0:0:
448,192,215896,1,0,0:0:0:0:
192,192,216003,1,0,0:0:0:0:
320,192,216111,1,0,0:0:0:0:
448,192,216111,1,0,0:0:0:0:
320,192,216218,1,0,0:0:0:0:
64,192,216325,1,2,0:0:0:0:
192,192,216325,1,8,0:0:0:0:
448,192,216325,1,0,0:0:0:0:
192,192,216432,1,0,0:0:0:0:
320,192,216432,1,0,0:0:0:0:
448,192,216539,1,0,0:0:0:0:
64,192,216646,1,0,0:0:0:0:
192,192,216646,1,0,0:0:0:0:
192,192,216753,1,2,0:0:0:0:
320,192,216753,1,0,0:0:0:0:
192,192,216861,1,0,0:0:0:0:
320,192,216861,1,0,0:0:0:0:
64,192,216968,1,0,0:0:0:0:
448,192,216968,1,0,0:0:0:0:
320,192,217075,1,0,0:0:0:0:
64,192,217182,1,2,0:0:0:0:
192,192,217182,1,8,0:0:0:0:
448,192,217182,1,0,0:0:0:0:
64,192,217289,1,0,0:0:0:0:
192,192,217289,1,0,0:0:0:0:
320,192,217396,1,0,0:0:0:0:
448,192,217396,1,0,0:0:0:0:
192,192,217503,1,0,0:0:0:0:
64,192,217611,1,2,0:0:0:0:
320,192,217611,1,0,0:0:0:0:
64,192,217718,1,0,0:0:0:0:
448,192,217718,1,0,0:0:0:0:
320,192,217825,1,0,0:0:0:0:
448,192,217825,1,0,0:0:0:0:
64,192,217932,1,0,0:0:0:0:
192,192,217932,1,0,0:0:0:0:
64,192,218039,1,2,0:0:0:0:
320,192,218039,1,8,0:0:0:0:
448,192,218039,1,0,0:0:0:0:
192,192,218146,1,0,0:0:0:0:
320,192,218253,1,0,0:0:0:0:
448,192,218253,1,0,0:0:0:0:
320,192,218361,1,0,0:0:0:0:
64,192,218468,1,2,0:0:0:0:
192,192,218468,1,0,0:0:0:0:
64,192,218575,1,0,0:0:0:0:
448,192,218575,1,0,0:0:0:0:
320,192,218682,1,0,0:0:0:0:
448,192,218682,1,0,0:0:0:0:
64,192,218789,1,0,0:0:0:0:
192,192,218789,1,0,0:0:0:0:
192,192,218896,1,2,0:0:0:0:
320,192,218896,1,8,0:0:0:0:
448,192,218896,1,0,0:0:0:0:
320,192,219003,1,0,0:0:0:0:
192,192,219111,1,0,0:0:0:0:
448,192,219111,1,0,0:0:0:0:
64,192,219218,1,0,0:0:0:0:
192,192,219218,1,0,0:0:0:0:
64,192,219325,1,2,0:0:0:0:
448,192,219325,1,0,0:0:0:0:
192,192,219432,1,0,0:0:0:0:
320,192,219539,1,0,0:0:0:0:
448,192,219539,1,0,0:0:0:0:
320,192,219646,1,0,0:0:0:0:
64,192,219753,1,2,0:0:0:0:
192,192,219753,1,8,0:0:0:0:
448,192,219753,1,0,0:0:0:0:
192,192,219861,1,0,0:0:0:0:
320,192,219861,1,0,0:0:0:0:
448,192,219968,1,0,0:0:0:0:
64,192,220075,1,0,0:0:0:0:
192,192,220075,1,0,0:0:0:0:
320,192,220182,1,2,0:0:0:0:
448,192,220182,1,0,0:0:0:0:
320,192,220289,1,0,0:0:0:0:
448,192,220289,1,0,0:0:0:0:
64,192,220396,1,0,0:0:0:0:
448,192,220396,1,0,0:0:0:0:
320,192,220503,1,0,0:0:0:0:
64,192,220611,1,8,0:0:0:0:
192,192,220611,1,2,0:0:0:0:
448,192,220611,1,0,0:0:0:0:
64,192,220718,1,0,0:0:0:0:
192,192,220718,1,0,0:0:0:0:
320,192,220825,1,0,0:0:0:0:
448,192,220825,1,0,0:0:0:0:
192,192,220932,1,0,0:0:0:0:
64,192,221039,1,2,0:0:0:0:
320,192,221039,1,0,0:0:0:0:
192,192,221146,1,0,0:0:0:0:
448,192,221146,1,0,0:0:0:0:
320,192,221253,1,0,0:0:0:0:
448,192,221253,1,0,0:0:0:0:
64,192,221361,1,0,0:0:0:0:
192,192,221361,1,0,0:0:0:0:
64,192,221468,1,2,0:0:0:0:
320,192,221468,1,8,0:0:0:0:
448,192,221468,1,0,0:0:0:0:
192,192,221575,1,0,0:0:0:0:
320,192,221682,1,0,0:0:0:0:
448,192,221682,1,0,0:0:0:0:
320,192,221789,1,0,0:0:0:0:
64,192,221896,1,2,0:0:0:0:
192,192,221896,1,0,0:0:0:0:
64,192,222003,1,0,0:0:0:0:
448,192,222003,1,0,0:0:0:0:
320,192,222111,1,0,0:0:0:0:
448,192,222111,1,0,0:0:0:0:
64,192,222218,1,0,0:0:0:0:
192,192,222218,1,0,0:0:0:0:
192,192,222325,1,8,0:0:0:0:
320,192,222325,1,2,0:0:0:0:
448,192,222325,1,0,0:0:0:0:
320,192,222432,1,0,0:0:0:0:
192,192,222539,1,0,0:0:0:0:
448,192,222539,1,0,0:0:0:0:
64,192,222646,1,0,0:0:0:0:
192,192,222646,1,0,0:0:0:0:
64,192,222753,1,2,0:0:0:0:
448,192,222753,1,0,0:0:0:0:
192,192,222861,1,0,0:0:0:0:
320,192,222968,1,0,0:0:0:0:
448,192,222968,1,0,0:0:0:0:
320,192,223075,1,0,0:0:0:0:
64,192,223182,1,8,0:0:0:0:
192,192,223182,1,2,0:0:0:0:
448,192,223182,1,0,0:0:0:0:
320,192,223289,1,0,0:0:0:0:
448,192,223289,1,0,0:0:0:0:
192,192,223396,1,0,0:0:0:0:
320,192,223503,1,0,0:0:0:0:
448,192,223503,1,0,0:0:0:0:
64,192,223611,1,2,0:0:0:0:
448,192,223611,1,0,0:0:0:0:
64,192,223718,1,0,0:0:0:0:
320,192,223718,1,0,0:0:0:0:
320,192,223825,1,0,0:0:0:0:
448,192,223825,1,0,0:0:0:0:
64,192,223932,1,0,0:0:0:0:
192,192,223932,1,0,0:0:0:0:
192,192,224039,1,8,0:0:0:0:
320,192,224039,1,2,0:0:0:0:
448,192,224039,1,0,0:0:0:0:
320,192,224146,1,0,0:0:0:0:
192,192,224253,1,0,0:0:0:0:
448,192,224253,1,0,0:0:0:0:
64,192,224361,1,0,0:0:0:0:
192,192,224361,1,0,0:0:0:0:
64,192,224468,1,2,0:0:0:0:
448,192,224468,1,0,0:0:0:0:
192,192,224575,1,0,0:0:0:0:
320,192,224682,1,0,0:0:0:0:
448,192,224682,1,0,0:0:0:0:
320,192,224789,1,0,0:0:0:0:
64,192,224896,1,8,0:0:0:0:
192,192,224896,1,2,0:0:0:0:
448,192,224896,1,0,0:0:0:0:
320,192,225003,1,0,0:0:0:0:
64,192,225111,1,0,0:0:0:0:
448,192,225111,1,0,0:0:0:0:
192,192,225218,1,0,0:0:0:0:
64,192,225325,1,2,0:0:0:0:
448,192,225325,1,0,0:0:0:0:
192,192,225432,1,0,0:0:0:0:
64,192,225539,1,0,0:0:0:0:
448,192,225539,1,0,0:0:0:0:
320,192,225646,1,0,0:0:0:0:
64,192,225753,1,8,0:0:0:0:
192,192,225753,1,2,0:0:0:0:
448,192,225753,1,0,0:0:0:0:
320,192,225861,1,0,0:0:0:0:
64,192,225968,1,0,0:0:0:0:
192,192,225968,1,0,0:0:0:0:
192,192,226075,1,0,0:0:0:0:
320,192,226075,1,0,0:0:0:0:
64,192,226182,1,2,0:0:0:0:
448,192,226182,1,0,0:0:0:0:
64,192,226289,1,0,0:0:0:0:
192,192,226289,1,0,0:0:0:0:
192,192,226396,1,0,0:0:0:0:
448,192,226396,1,0,0:0:0:0:
320,192,226503,1,0,0:0:0:0:
448,192,226503,1,0,0:0:0:0:
64,192,226611,1,8,0:0:0:0:
192,192,226611,1,2,0:0:0:0:
320,192,226611,1,0,0:0:0:0:
448,192,226718,1,0,0:0:0:0:
64,192,226825,1,0,0:0:0:0:
192,192,226825,1,0,0:0:0:0:
64,192,226932,1,0,0:0:0:0:
192,192,226932,1,0,0:0:0:0:
64,192,227039,1,2,0:0:0:0:
320,192,227039,1,0,0:0:0:0:
448,192,227039,1,0,0:0:0:0:
320,192,227146,1,0,0:0:0:70:tom01.wav
448,192,227146,1,0,0:0:0:0:
64,192,227253,1,0,0:0:0:70:tom02.wav
320,192,227253,1,0,0:0:0:0:
64,192,227361,1,0,0:0:0:70:tom01.wav
192,192,227361,1,0,0:0:0:0:
64,192,227468,1,2,0:0:0:0:
320,192,227468,1,0,0:0:0:70:tom02.wav
448,192,227468,1,0,0:0:0:0:
320,192,227575,1,0,0:0:0:0:
448,192,227575,1,0,0:0:0:0:
64,192,227682,1,0,0:0:0:70:tom01.wav
320,192,227682,1,0,0:0:0:0:
192,192,227789,1,0,0:0:0:70:tom03.wav
64,192,227896,1,2,0:0:0:0:
320,192,227896,1,0,0:0:0:70:tom02.wav
448,192,227896,1,0,0:0:0:0:
192,192,228003,1,0,0:0:0:70:tom03.wav
320,192,228003,1,0,0:0:0:0:
64,192,228111,1,2,0:0:0:0:
192,192,228111,1,0,0:0:0:70:tom01.wav
320,192,228218,1,0,0:0:0:70:tom02.wav
64,192,228325,1,8,0:0:0:0:
192,192,228325,1,0,0:0:0:0:
448,192,228325,1,0,0:0:0:0:
320,192,228432,1,8,0:0:0:0:
64,192,228539,1,8,0:0:0:0:
448,192,228539,1,0,0:0:0:0:
320,192,228646,1,8,0:0:0:0:
64,192,228753,1,4,0:0:0:0:
192,192,228753,1,2,0:0:0:0:
448,192,228753,1,0,0:0:0:0:
64,192,228861,1,0,0:0:0:0:
320,192,228861,1,0,0:0:0:0:
320,192,228968,1,0,0:0:0:0:
448,192,228968,1,0,0:0:0:0:
64,192,229075,1,0,0:0:0:0:
192,192,229075,1,0,0:0:0:0:
192,192,229182,1,8,0:0:0:0:
320,192,229182,1,2,0:0:0:0:
448,192,229182,1,0,0:0:0:0:
320,192,229289,1,0,0:0:0:0:
192,192,229396,1,0,0:0:0:0:
448,192,229396,1,0,0:0:0:0:
64,192,229503,1,0,0:0:0:0:
192,192,229503,1,0,0:0:0:0:
64,192,229611,1,2,0:0:0:0:
448,192,229611,1,0,0:0:0:0:
192,192,229718,1,0,0:0:0:0:
320,192,229825,1,0,0:0:0:0:
448,192,229825,1,0,0:0:0:0:
320,192,229932,1,0,0:0:0:0:
64,192,230039,1,8,0:0:0:0:
192,192,230039,1,2,0:0:0:0:
448,192,230039,1,0,0:0:0:0:
192,192,230146,1,0,0:0:0:0:
320,192,230146,1,0,0:0:0:0:
320,192,230253,1,0,0:0:0:0:
448,192,230253,1,0,0:0:0:0:
64,192,230361,1,0,0:0:0:0:
192,192,230361,1,0,0:0:0:0:
192,192,230468,1,2,0:0:0:0:
320,192,230468,1,0,0:0:0:0:
192,192,230575,1,0,0:0:0:0:
320,192,230575,1,0,0:0:0:0:
64,192,230682,1,0,0:0:0:0:
448,192,230682,1,0,0:0:0:0:
320,192,230789,1,0,0:0:0:0:
64,192,230896,1,8,0:0:0:0:
192,192,230896,1,2,0:0:0:0:
448,192,230896,1,0,0:0:0:0:
64,192,231003,1,0,0:0:0:0:
320,192,231111,1,0,0:0:0:0:
448,192,231111,1,0,0:0:0:0:
192,192,231218,1,0,0:0:0:0:
320,192,231218,1,0,0:0:0:0:
64,192,231325,1,2,0:0:0:0:
320,192,231325,1,0,0:0:0:0:
64,192,231432,1,0,0:0:0:0:
448,192,231432,1,0,0:0:0:0:
320,192,231539,1,0,0:0:0:0:
448,192,231539,1,0,0:0:0:0:
64,192,231646,1,0,0:0:0:0:
192,192,231646,1,0,0:0:0:0:
64,192,231753,1,8,0:0:0:0:
320,192,231753,1,2,0:0:0:0:
448,192,231753,1,0,0:0:0:0:
192,192,231861,1,0,0:0:0:0:
320,192,231968,1,0,0:0:0:0:
448,192,231968,1,0,0:0:0:0:
320,192,232075,1,0,0:0:0:0:
64,192,232182,1,2,0:0:0:0:
192,192,232182,1,0,0:0:0:0:
64,192,232289,1,0,0:0:0:0:
448,192,232289,1,0,0:0:0:0:
320,192,232396,1,0,0:0:0:0:
448,192,232396,1,0,0:0:0:0:
64,192,232503,1,0,0:0:0:0:
192,192,232503,1,0,0:0:0:0:
192,192,232611,1,8,0:0:0:0:
320,192,232611,1,2,0:0:0:0:
448,192,232611,1,0,0:0:0:0:
320,192,232718,1,0,0:0:0:0:
192,192,232825,1,0,0:0:0:0:
448,192,232825,1,0,0:0:0:0:
64,192,232932,1,0,0:0:0:0:
192,192,232932,1,0,0:0:0:0:
64,192,233039,1,2,0:0:0:0:
448,192,233039,1,0,0:0:0:0:
192,192,233146,1,0,0:0:0:0:
320,192,233253,1,0,0:0:0:0:
448,192,233253,1,0,0:0:0:0:
320,192,233361,1,0,0:0:0:0:
64,192,233468,1,8,0:0:0:0:
192,192,233468,1,2,0:0:0:0:
448,192,233468,1,0,0:0:0:0:
192,192,233575,1,0,0:0:0:0:
320,192,233575,1,0,0:0:0:0:
320,192,233682,1,0,0:0:0:0:
448,192,233682,1,0,0:0:0:0:
64,192,233789,1,0,0:0:0:0:
320,192,233896,1,2,0:0:0:0:
448,192,233896,1,0,0:0:0:0:
320,192,234003,1,0,0:0:0:0:
448,192,234003,1,0,0:0:0:0:
64,192,234111,1,0,0:0:0:0:
448,192,234111,1,0,0:0:0:0:
320,192,234218,1,0,0:0:0:0:
64,192,234325,1,2,0:0:0:0:
192,192,234325,1,8,0:0:0:0:
448,192,234325,1,0,0:0:0:0:
64,192,234432,1,0,0:0:0:0:
192,192,234432,1,0,0:0:0:0:
320,192,234539,1,0,0:0:0:0:
448,192,234539,1,0,0:0:0:0:
64,192,234646,1,0,0:0:0:0:
192,192,234646,1,0,0:0:0:0:
64,192,234753,1,2,0:0:0:0:
320,192,234753,1,0,0:0:0:0:
192,192,234861,1,0,0:0:0:0:
448,192,234861,1,0,0:0:0:0:
320,192,234968,1,0,0:0:0:0:
448,192,234968,1,0,0:0:0:0:
64,192,235075,1,0,0:0:0:0:
192,192,235075,1,0,0:0:0:0:
64,192,235182,1,8,0:0:0:0:
320,192,235182,1,2,0:0:0:0:
448,192,235182,1,0,0:0:0:0:
192,192,235289,1,0,0:0:0:0:
320,192,235396,1,0,0:0:0:0:
448,192,235396,1,0,0:0:0:0:
320,192,235503,1,0,0:0:0:0:
64,192,235611,1,2,0:0:0:0:
192,192,235611,1,0,0:0:0:0:
64,192,235718,1,0,0:0:0:0:
448,192,235718,1,0,0:0:0:0:
320,192,235825,1,0,0:0:0:0:
448,192,235825,1,0,0:0:0:0:
64,192,235932,1,0,0:0:0:0:
192,192,235932,1,0,0:0:0:0:
192,192,236039,1,2,0:0:0:0:
320,192,236039,1,8,0:0:0:0:
448,192,236039,1,0,0:0:0:0:
320,192,236146,1,0,0:0:0:0:
192,192,236253,1,0,0:0:0:0:
448,192,236253,1,0,0:0:0:0:
64,192,236361,1,0,0:0:0:0:
192,192,236361,1,0,0:0:0:0:
64,192,236468,1,2,0:0:0:0:
448,192,236468,1,0,0:0:0:0:
192,192,236575,1,0,0:0:0:0:
320,192,236682,1,0,0:0:0:0:
448,192,236682,1,0,0:0:0:0:
320,192,236789,1,0,0:0:0:0:
64,192,236896,1,2,0:0:0:0:
192,192,236896,1,8,0:0:0:0:
448,192,236896,1,0,0:0:0:0:
320,192,237003,1,0,0:0:0:0:
448,192,237003,1,0,0:0:0:0:
192,192,237111,1,0,0:0:0:0:
320,192,237218,1,0,0:0:0:0:
448,192,237218,1,0,0:0:0:0:
64,192,237325,1,2,0:0:0:0:
448,192,237325,1,0,0:0:0:0:
64,192,237432,1,0,0:0:0:0:
192,192,237432,1,0,0:0:0:0:
320,192,237539,1,0,0:0:0:0:
448,192,237539,1,0,0:0:0:0:
64,192,237646,1,0,0:0:0:0:
320,192,237646,1,0,0:0:0:0:
192,192,237753,1,2,0:0:0:0:
320,192,237753,1,8,0:0:0:0:
448,192,237753,1,0,0:0:0:0:
64,192,237861,1,0,0:0:0:0:
448,192,237861,1,0,0:0:0:0:
192,192,237968,1,0,0:0:0:0:
320,192,237968,1,0,0:0:0:0:
64,192,238075,1,0,0:0:0:0:
192,192,238075,1,0,0:0:0:0:
64,192,238182,1,2,0:0:0:0:
448,192,238182,1,0,0:0:0:0:
192,192,238289,1,0,0:0:0:0:
320,192,238396,1,0,0:0:0:0:
448,192,238396,1,0,0:0:0:0:
320,192,238503,1,0,0:0:0:0:
64,192,238611,1,2,0:0:0:0:
192,192,238611,1,8,0:0:0:0:
448,192,238611,1,0,0:0:0:0:
320,192,238718,1,0,0:0:0:0:
64,192,238825,1,0,0:0:0:0:
448,192,238825,1,0,0:0:0:0:
192,192,238932,1,0,0:0:0:0:
64,192,239039,1,8,0:0:0:0:
320,192,239039,1,2,0:0:0:0:
448,192,239039,1,0,0:0:0:0:
192,192,239146,1,0,0:0:0:0:
64,192,239253,1,0,0:0:0:0:
448,192,239253,1,0,0:0:0:0:
320,192,239361,1,0,0:0:0:0:
64,192,239468,1,2,0:0:0:0:
192,192,239468,1,8,0:0:0:0:
448,192,239468,1,0,0:0:0:0:
320,192,239575,1,0,0:0:0:0:
64,192,239682,1,0,0:0:0:0:
192,192,239682,1,0,0:0:0:0:
192,192,239789,1,0,0:0:0:0:
320,192,239789,1,0,0:0:0:0:
64,192,239896,1,8,0:0:0:0:
320,192,239896,1,2,0:0:0:0:
448,192,239896,1,0,0:0:0:0:
64,192,240003,1,0,0:0:0:0:
192,192,240003,1,0,0:0:0:0:
192,192,240111,1,0,0:0:0:0:
448,192,240111,1,0,0:0:0:0:
320,192,240218,1,0,0:0:0:0:
448,192,240218,1,0,0:0:0:0:
64,192,240325,1,2,0:0:0:0:
192,192,240325,1,8,0:0:0:0:
320,192,240325,1,0,0:0:0:0:
448,192,240432,1,0,0:0:0:0:
64,192,240539,1,0,0:0:0:0:
192,192,240539,1,0,0:0:0:0:
64,192,240646,1,0,0:0:0:0:
192,192,240646,1,0,0:0:0:0:
64,192,240753,1,8,0:0:0:0:
320,192,240753,1,2,0:0:0:0:
448,192,240753,1,0,0:0:0:0:
320,192,240861,1,0,0:0:0:0:
448,192,240861,1,0,0:0:0:0:
64,192,240968,1,8,0:0:0:0:
192,192,240968,1,2,0:0:0:0:
320,192,240968,1,0,0:0:0:0:
64,192,241075,1,0,0:0:0:0:
192,192,241075,1,0,0:0:0:0:
64,192,241182,1,8,0:0:0:0:
320,192,241182,1,2,0:0:0:0:
448,192,241182,1,0,0:0:0:0:
192,192,241289,1,0,0:0:0:0:
64,192,241396,1,8,0:0:0:0:
320,192,241396,1,2,0:0:0:0:
448,192,241396,1,0,0:0:0:0:
64,192,241503,1,0,0:0:0:0:
192,192,241503,1,0,0:0:0:0:
64,192,241611,1,8,0:0:0:0:
320,192,241611,1,2,0:0:0:0:
448,192,241611,1,0,0:0:0:0:
320,192,241718,1,2,0:0:0:0:
448,192,241718,1,0,0:0:0:0:
64,192,241825,1,8,0:0:0:0:
192,192,241825,1,2,0:0:0:0:
192,192,241932,1,2,0:0:0:0:
320,192,241932,1,0,0:0:0:0:
320,192,242039,1,8,0:0:0:0:
448,192,242039,1,2,0:0:0:0:
64,192,242093,1,2,0:0:0:0:
192,192,242146,1,2,0:0:0:0:
320,192,242200,1,2,0:0:0:0:
64,192,242253,1,10,0:0:0:0:
448,192,242307,1,2,0:0:0:0:
320,192,242361,1,2,0:0:0:0:
192,192,242414,1,2,0:0:0:0:
64,192,242468,1,4,0:0:0:0:
448,192,242468,1,2,0:0:0:0:
192,192,242575,1,0,0:0:0:0:
320,192,242682,128,0,242789:0:0:0:0:
64,192,242789,1,0,0:0:0:0:
192,192,242896,1,8,0:0:0:0:
320,192,242896,1,2,0:0:0:0:
448,192,242896,1,0,0:0:0:0:
64,192,243003,1,0,0:0:0:0:
320,192,243111,128,0,243218:0:0:0:0:
192,192,243218,1,0,0:0:0:0:
320,192,243325,1,2,0:0:0:0:
448,192,243325,1,0,0:0:0:0:
192,192,243378,1,0,0:0:0:0:
64,192,243432,1,8,0:0:0:0:
320,192,243539,128,0,243646:0:0:0:0:
192,192,243646,1,0,0:0:0:0:
64,192,243753,1,8,0:0:0:0:
320,192,243753,1,2,0:0:0:0:
448,192,243753,1,0,0:0:0:0:
192,192,243861,1,0,0:0:0:0:
320,192,243968,1,8,0:0:0:0:
448,192,243968,1,0,0:0:0:0:
320,192,244075,1,8,0:0:0:0:
448,192,244075,1,0,0:0:0:0:
64,192,244182,1,2,0:0:0:0:
192,192,244182,1,0,0:0:0:0:
448,192,244289,1,0,0:0:0:0:
320,192,244396,128,0,244503:0:0:0:0:
64,192,244503,1,0,0:0:0:0:
192,192,244611,1,8,0:0:0:0:
320,192,244611,1,2,0:0:0:0:
448,192,244611,1,0,0:0:0:0:
64,192,244718,1,0,0:0:0:0:
320,192,244825,128,0,244932:0:0:0:0:
448,192,244932,1,0,0:0:0:0:
64,192,245039,1,2,0:0:0:0:
192,192,245039,1,0,0:0:0:0:
448,192,245093,1,0,0:0:0:0:
320,192,245146,1,8,0:0:0:0:
192,192,245253,128,0,245361:0:0:0:0:
64,192,245361,1,0,0:0:0:0:
192,192,245468,128,8,245575:0:0:0:0:
320,192,245468,1,2,0:0:0:0:
448,192,245468,1,0,0:0:0:0:
64,192,245575,1,0,0:0:0:0:
320,192,245682,128,0,245789:0:0:0:0:
448,192,245682,1,0,0:0:0:0:
192,192,245789,1,0,0:0:0:0:
64,192,245896,1,2,0:0:0:0:
448,192,245896,1,0,0:0:0:0:
192,192,246003,1,0,0:0:0:0:
320,192,246111,128,0,246218:0:0:0:0:
64,192,246218,1,0,0:0:0:0:
192,192,246325,1,8,0:0:0:0:
320,192,246325,1,2,0:0:0:0:
448,192,246325,1,0,0:0:0:0:
64,192,246432,1,0,0:0:0:0:
320,192,246539,128,0,246646:0:0:0:0:
192,192,246646,1,0,0:0:0:0:
320,192,246753,1,2,0:0:0:0:
448,192,246753,1,0,0:0:0:0:
192,192,246807,1,0,0:0:0:0:
64,192,246861,1,8,0:0:0:0:
320,192,246968,128,0,247075:0:0:0:0:
192,192,247075,1,0,0:0:0:0:
64,192,247182,1,8,0:0:0:0:
320,192,247182,1,2,0:0:0:0:
448,192,247182,1,0,0:0:0:0:
192,192,247289,1,0,0:0:0:0:
320,192,247396,1,8,0:0:0:0:
448,192,247396,1,0,0:0:0:0:
320,192,247503,1,8,0:0:0:0:
448,192,247503,1,0,0:0:0:0:
64,192,247611,1,2,0:0:0:0:
192,192,247611,1,0,0:0:0:0:
448,192,247718,1,0,0:0:0:0:
320,192,247825,128,0,247932:0:0:0:0:
64,192,247932,1,0,0:0:0:0:
192,192,248039,1,2,0:0:0:0:
320,192,248039,1,8,0:0:0:0:
448,192,248039,1,0,0:0:0:0:
64,192,248146,1,0,0:0:0:0:
320,192,248253,128,0,248361:0:0:0:0:
448,192,248361,1,0,0:0:0:0:
64,192,248468,1,8,0:0:0:0:
192,192,248468,1,2,0:0:0:0:
448,192,248521,1,0,0:0:0:0:
320,192,248575,1,0,0:0:0:0:
192,192,248682,128,8,248789:0:0:0:0:
64,192,248789,1,0,0:0:0:0:
192,192,248896,128,8,249003:0:0:0:0:
320,192,248896,1,2,0:0:0:0:
448,192,248896,1,0,0:0:0:0:
64,192,249003,1,0,0:0:0:0:
320,192,249111,128,0,249218:0:0:0:0:
448,192,249111,1,0,0:0:0:0:
192,192,249218,1,0,0:0:0:0:
64,192,249325,1,2,0:0:0:0:
448,192,249325,1,0,0:0:0:0:
192,192,249432,1,0,0:0:0:0:
320,192,249539,128,0,249646:0:0:0:0:
64,192,249646,1,0,0:0:0:0:
192,192,249753,1,2,0:0:0:0:
320,192,249753,1,8,0:0:0:0:
448,192,249753,1,0,0:0:0:0:
64,192,249861,1,0,0:0:0:0:
320,192,249968,128,0,250075:0:0:0:0:
192,192,250075,1,0,0:0:0:0:
320,192,250182,1,2,0:0:0:0:
448,192,250182,1,0,0:0:0:0:
64,192,250289,1,8,0:0:0:0:
192,192,250289,1,0,0:0:0:0:
320,192,250396,128,0,250503:0:0:0:0:
192,192,250503,1,0,0:0:0:0:
64,192,250611,1,2,0:0:0:0:
320,192,250611,1,8,0:0:0:0:
448,192,250611,1,0,0:0:0:0:
192,192,250718,1,0,0:0:0:0:
320,192,250825,1,8,0:0:0:0:
448,192,250825,1,0,0:0:0:0:
320,192,250932,1,8,0:0:0:0:
448,192,250932,1,0,0:0:0:0:
64,192,251039,1,2,0:0:0:0:
192,192,251039,1,0,0:0:0:0:
448,192,251146,1,0,0:0:0:0:
320,192,251253,128,0,251361:0:0:0:0:
64,192,251361,1,0,0:0:0:0:
192,192,251468,1,2,0:0:0:0:
320,192,251468,1,8,0:0:0:0:
448,192,251468,1,0,0:0:0:0:
64,192,251575,1,0,0:0:0:0:
320,192,251682,128,0,251789:0:0:0:0:
448,192,251789,1,0,0:0:0:0:
64,192,251896,1,2,0:0:0:0:
192,192,251896,1,0,0:0:0:0:
320,192,252003,1,8,0:0:0:0:
448,192,252003,1,0,0:0:0:0:
192,192,252111,128,0,252218:0:0:0:0:
192,192,252325,128,2,252432:0:0:0:0:
320,192,252325,1,8,0:0:0:0:
448,192,252325,1,0,0:0:0:0:
64,192,252432,1,0,0:0:0:0:
320,192,252539,128,0,252646:0:0:0:0:
448,192,252539,1,0,0:0:0:0:
192,192,252646,1,0,0:0:0:0:
64,192,252753,1,8,0:0:0:0:
320,192,252753,1,2,0:0:0:0:
448,192,252753,1,0,0:0:0:0:
192,192,252861,1,0,0:0:0:0:
320,192,252968,1,0,0:0:0:0:
448,192,252968,1,0,0:0:0:0:
64,192,253075,1,0,0:0:0:0:
192,192,253182,1,2,0:0:0:0:
320,192,253182,1,8,0:0:0:0:
448,192,253182,1,0,0:0:0:0:
64,192,253289,1,0,0:0:0:0:
192,192,253396,1,0,0:0:0:0:
448,192,253396,1,0,0:0:0:0:
320,192,253503,1,0,0:0:0:0:
64,192,253611,1,8,0:0:0:0:
192,192,253611,1,2,0:0:0:0:
448,192,253611,1,0,0:0:0:0:
320,192,253718,1,0,0:0:0:0:
64,192,253825,1,0,0:0:0:0:
192,192,253825,1,0,0:0:0:0:
448,192,253932,1,0,0:0:0:0:
64,192,254039,1,2,0:0:0:0:
192,192,254039,1,8,0:0:0:0:
320,192,254039,1,0,0:0:0:0:
448,192,254146,1,0,0:0:0:0:
64,192,254253,1,0,0:0:0:0:
320,192,254253,1,0,0:0:0:0:
192,192,254361,1,0,0:0:0:0:
64,192,254468,1,8,0:0:0:0:
320,192,254468,1,2,0:0:0:0:
448,192,254468,1,0,0:0:0:0:
448,192,254575,1,0,0:0:0:0:
64,192,254682,1,0,0:0:0:0:
192,192,254682,1,0,0:0:0:0:
320,192,254682,1,0,0:0:0:0:
64,192,254789,1,0,0:0:0:0:
192,192,254896,1,8,0:0:0:0:
320,192,254896,1,2,0:0:0:0:
448,192,254896,1,0,0:0:0:0:
320,192,255003,1,0,0:0:0:0:
64,192,255111,1,0,0:0:0:0:
192,192,255111,1,0,0:0:0:0:
448,192,255111,1,0,0:0:0:0:
192,192,255218,1,0,0:0:0:0:
320,192,255325,1,2,0:0:0:0:
448,192,255325,1,8,0:0:0:0:
320,192,255432,1,0,0:0:0:0:
448,192,255432,1,0,0:0:0:0:
64,192,255539,1,2,0:0:0:0:
192,192,255539,1,8,0:0:0:0:
64,192,255646,1,0,0:0:0:0:
192,192,255646,1,0,0:0:0:0:
320,192,255753,1,2,0:0:0:0:
448,192,255753,1,8,0:0:0:0:
192,192,255861,1,2,0:0:0:0:
320,192,255861,1,0,0:0:0:0:
64,192,255968,1,8,0:0:0:0:
192,192,255968,1,2,0:0:0:0:
64,192,256075,1,2,0:0:0:0:
448,192,256075,1,0,0:0:0:0:
320,192,256182,1,2,0:0:0:0:
448,192,256182,1,4,0:0:0:0:
192,192,256289,1,0,0:0:0:0:
64,192,256396,1,0,0:0:0:0:
192,192,256503,1,0,0:0:0:0:
320,192,256611,1,0,0:0:0:0:
448,192,256718,1,0,0:0:0:0:
192,192,256825,1,0,0:0:0:0:
64,192,256932,1,0,0:0:0:0:
448,192,257039,1,0,0:0:0:0:
64,192,257093,1,0,0:0:0:0:
448,192,257146,1,0,0:0:0:0:
320,192,257200,1,0,0:0:0:0:
192,192,257253,1,0,0:0:0:0:
320,192,257361,1,0,0:0:0:0:
64,192,257468,1,0,0:0:0:0:
192,192,257575,1,0,0:0:0:0:
320,192,257682,1,0,0:0:0:0:
448,192,257789,1,0,0:0:0:0:
64,192,257896,1,0,0:0:0:0:
320,192,257896,1,0,0:0:0:0:
192,192,258003,1,0,0:0:0:0:
448,192,258111,1,0,0:0:0:0:
320,192,258218,1,0,0:0:0:0:
192,192,258325,1,0,0:0:0:0:
64,192,258432,1,0,0:0:0:0:
320,192,258539,1,0,0:0:0:0:
64,192,258646,1,0,0:0:0:0:
192,192,258753,1,0,0:0:0:0:
320,192,258807,1,0,0:0:0:0:
192,192,258861,1,0,0:0:0:0:
64,192,258914,1,0,0:0:0:0:
448,192,258968,1,0,0:0:0:0:
320,192,259075,1,0,0:0:0:0:
64,192,259182,1,0,0:0:0:0:
192,192,259289,1,0,0:0:0:0:
448,192,259396,1,0,0:0:0:0:
320,192,259503,1,0,0:0:0:0:
64,192,259611,1,0,0:0:0:0:
192,192,259611,1,0,0:0:0:0:
320,192,259718,1,0,0:0:0:0:
192,192,259825,1,0,0:0:0:0:
64,192,259932,1,0,0:0:0:0:
320,192,260039,1,0,0:0:0:0:
448,192,260146,1,0,0:0:0:0:
192,192,260253,1,0,0:0:0:0:
64,192,260361,1,0,0:0:0:0:
448,192,260468,1,0,0:0:0:0:
64,192,260521,1,0,0:0:0:0:
448,192,260575,1,0,0:0:0:0:
320,192,260628,1,0,0:0:0:0:
192,192,260682,1,0,0:0:0:0:
320,192,260789,1,0,0:0:0:0:
64,192,260896,1,0,0:0:0:0:
192,192,261003,1,0,0:0:0:0:
320,192,261111,1,0,0:0:0:0:
448,192,261218,1,0,0:0:0:0:
64,192,261325,1,0,0:0:0:0:
320,192,261325,1,0,0:0:0:0:
192,192,261432,1,0,0:0:0:0:
448,192,261539,1,0,0:0:0:0:
320,192,261646,1,0,0:0:0:0:
192,192,261753,1,0,0:0:0:0:
64,192,261861,1,0,0:0:0:0:
320,192,261968,1,0,0:0:0:0:
64,192,262075,1,0,0:0:0:0:
192,192,262182,1,0,0:0:0:0:
320,192,262236,1,0,0:0:0:0:
192,192,262289,1,0,0:0:0:0:
64,192,262343,1,0,0:0:0:0:
448,192,262396,1,0,0:0:0:0:
320,192,262503,1,0,0:0:0:0:
64,192,262611,1,0,0:0:0:0:
192,192,262718,1,0,0:0:0:0:
448,192,262825,1,0,0:0:0:0:
320,192,262932,1,0,0:0:0:0:
64,192,263039,1,0,0:0:0:0:
192,192,263039,1,0,0:0:0:0:
320,192,263146,1,0,0:0:0:0:
192,192,263253,1,0,0:0:0:0:
64,192,263361,1,0,0:0:0:0:
320,192,263468,1,0,0:0:0:0:
448,192,263575,1,0,0:0:0:0:
192,192,263682,1,0,0:0:0:0:
64,192,263789,1,0,0:0:0:0:
448,192,263896,1,0,0:0:0:0:
64,192,263950,1,0,0:0:0:0:
448,192,264003,1,0,0:0:0:0:
320,192,264057,1,0,0:0:0:0:
192,192,264111,1,0,0:0:0:0:
320,192,264218,1,0,0:0:0:0:
64,192,264325,1,0,0:0:0:0:
192,192,264432,1,0,0:0:0:0:
320,192,264539,1,0,0:0:0:0:
448,192,264646,1,0,0:0:0:0:
64,192,264753,1,0,0:0:0:0:
320,192,264753,1,0,0:0:0:0:
192,192,264861,1,0,0:0:0:0:
448,192,264968,1,0,0:0:0:0:
320,192,265075,1,0,0:0:0:0:
192,192,265182,1,0,0:0:0:0:
64,192,265289,1,0,0:0:0:0:
320,192,265396,1,0,0:0:0:0:
64,192,265503,1,0,0:0:0:0:
192,192,265611,1,0,0:0:0:0:
320,192,265664,1,0,0:0:0:0:
192,192,265718,1,0,0:0:0:0:
64,192,265771,1,0,0:0:0:0:
448,192,265825,1,0,0:0:0:0:
320,192,265932,1,0,0:0:0:0:
64,192,266039,1,0,0:0:0:0:
192,192,266146,1,0,0:0:0:0:
448,192,266253,1,0,0:0:0:0:
320,192,266361,1,0,0:0:0:0:
64,192,266468,1,0,0:0:0:0:
192,192,266468,1,0,0:0:0:0:
320,192,266575,1,0,0:0:0:0:
192,192,266682,1,0,0:0:0:0:
64,192,266789,1,0,0:0:0:0:
320,192,266896,1,0,0:0:0:0:
448,192,267003,1,0,0:0:0:0:
192,192,267111,1,0,0:0:0:0:
64,192,267218,1,0,0:0:0:0:
448,192,267325,1,0,0:0:0:0:
64,192,267378,1,0,0:0:0:0:
448,192,267432,1,0,0:0:0:0:
320,192,267486,1,0,0:0:0:0:
192,192,267539,1,0,0:0:0:0:
320,192,267646,1,0,0:0:0:0:
64,192,267753,1,0,0:0:0:0:
192,192,267861,1,0,0:0:0:0:
320,192,267968,1,0,0:0:0:0:
448,192,268075,1,0,0:0:0:0:
64,192,268182,1,0,0:0:0:0:
320,192,268182,1,0,0:0:0:0:
192,192,268289,1,0,0:0:0:0:
448,192,268396,1,0,0:0:0:0:
320,192,268503,1,0,0:0:0:0:
192,192,268611,1,0,0:0:0:0:
64,192,268718,1,0,0:0:0:0:
320,192,268825,1,0,0:0:0:0:
64,192,268932,1,0,0:0:0:0:
192,192,269039,1,0,0:0:0:0:
448,192,269039,1,0,0:0:0:0:
320,192,269093,1,0,0:0:0:0:
192,192,269146,1,0,0:0:0:0:
64,192,269200,1,0,0:0:0:0:
320,192,269253,1,0,0:0:0:0:
448,192,269253,1,0,0:0:0:0:
64,192,269361,1,0,0:0:0:0:
192,192,269361,1,0,0:0:0:0:
320,192,269468,1,0,0:0:0:0:
448,192,269468,1,0,0:0:0:0:
192,192,269575,1,0,0:0:0:0:
64,192,269682,1,0,0:0:0:0:
448,192,269789,1,0,0:0:0:0:
192,192,269869,1,0,0:0:0:0:
320,192,269923,1,0,0:0:0:0:
448,192,269977,1,0,0:0:0:0:
64,192,270030,1,0,0:0:0:0:
320,192,270146,1,0,0:0:0:0:
192,192,270218,1,0,0:0:0:0:
