osu file format v14

[General]
AudioFilename: audio.mp3
AudioLeadIn: 0
PreviewTime: 69494
Countdown: 1
SampleSet: Normal
StackLeniency: 0.7
Mode: 1
LetterboxInBreaks: 0
WidescreenStoryboard: 0

[Editor]
DistanceSpacing: 1.8
BeatDivisor: 12
GridSize: 32
TimelineZoom: 2.3

[Metadata]
Title:All I Need Are Things I Like
TitleUnicode:All I Need Are Things I Like
Artist:PinocchioP
ArtistUnicode:PinocchioP
Creator:-[ ix Ishida xi ]-
Version:-[ ix Oni xi ]-
Source:
Tags:
BeatmapID:1816112
BeatmapSetID:868937

[Difficulty]
HPDrainRate:6
CircleSize:5
OverallDifficulty:6
ApproachRate:5
SliderMultiplier:1.4
SliderTickRate:1

[Events]
//Background and Video events
0,0,"bgbg.jpg",0,0
//Break Periods
//Storyboard Layer 0 (Background)
//Storyboard Layer 1 (Fail)
//Storyboard Layer 2 (Pass)
//Storyboard Layer 3 (Foreground)
//Storyboard Sound Samples

[TimingPoints]
7780,428.571428571429,4,1,0,70,1,0
14637,-100,4,1,0,70,0,1
28351,-100,4,1,0,70,0,0
28405,-100,4,1,0,70,0,0
55887,-125,4,1,0,70,0,0
69172,-117.647058823529,4,1,0,70,0,0
69280,-111.111111111111,4,1,0,70,0,0
69387,-105.263157894737,4,1,0,70,0,0
69494,-100,4,1,0,100,0,1
70387,-100,4,1,0,70,0,1
70601,-100,4,1,0,100,0,1
73806,-100,4,1,0,70,0,1
74181,-100,4,1,0,100,0,1
75949,-100,4,1,0,70,0,1
76110,-100,4,1,0,100,0,1
77235,-100,4,1,0,70,0,1
77396,-100,4,1,0,100,0,1
84092,-100,4,1,0,70,0,1
84253,-100,4,1,0,100,0,1
87521,-100,4,1,0,70,0,1
87896,-100,4,1,0,100,0,1
89663,-100,4,1,0,70,0,1
89824,-100,4,1,0,100,0,1
90949,-100,4,1,0,70,0,1
91110,-100,4,1,0,100,0,1
96922,-100,4,1,0,100,0,0
97030,-125,4,1,0,70,0,0
102280,-121.951219512195,4,1,0,70,0,0
102494,-117.647058823529,4,1,0,70,0,0
102708,-114.942528735632,4,1,0,70,0,0
102922,-111.111111111111,4,1,0,70,0,0
103137,-108.695652173913,4,1,0,70,0,0
103351,-105.263157894737,4,1,0,70,0,0
103565,-103.092783505155,4,1,0,70,0,0
103780,-100,4,1,0,70,0,0
144547,-90.9090909090909,4,1,0,70,0,0
144601,-83.3333333333333,4,1,0,70,0,0
144655,-76.9230769230769,4,1,0,70,0,0
144708,-71.4285714285714,4,1,0,70,0,0
144762,-66.6666666666667,4,1,0,70,0,0
144815,-62.5,4,1,0,70,0,0
144869,-58.8235294117647,4,1,0,70,0,0
144922,-55.5555555555556,4,1,0,100,0,1
145815,-55.5555555555556,4,1,0,70,0,1
146029,-55.5555555555556,4,1,0,100,0,1
147887,-55.5555555555556,4,1,0,70,0,1
148280,-55.5555555555556,4,1,0,100,0,1
149234,-55.5555555555556,4,1,0,70,0,1
149609,-55.5555555555556,4,1,0,100,0,1
151377,-55.5555555555556,4,1,0,70,0,1
151538,-55.5555555555556,4,1,0,100,0,1
152663,-55.5555555555556,4,1,0,70,0,1
152824,-55.5555555555556,4,1,0,100,0,1
159520,-55.5555555555556,4,1,0,70,0,1
159681,-55.5555555555556,4,1,0,100,0,1
162949,-55.5555555555556,4,1,0,70,0,1
163324,-55.5555555555556,4,1,0,100,0,1
165091,-55.5555555555556,4,1,0,70,0,1
165252,-55.5555555555556,4,1,0,100,0,1
166377,-55.5555555555556,4,1,0,70,0,1
166538,-55.5555555555556,4,1,0,100,0,1
172780,-25,4,1,0,100,0,0
172815,-100,4,3,0,5,0,0

[HitObjects]
256,192,7780,5,0,0:0:0:0:
256,192,7887,1,0,0:0:0:0:
256,192,8101,1,0,0:0:0:0:
256,160,8208,1,0,0:0:0:0:
256,192,8315,1,8,0:0:0:0:
256,192,8422,1,0,0:0:0:0:
256,192,8637,1,0,0:0:0:0:
256,192,8744,1,0,0:0:0:0:
256,192,8958,1,0,0:0:0:0:
256,192,9065,1,0,0:0:0:0:
256,192,9172,1,8,0:0:0:0:
256,192,9280,1,0,0:0:0:0:
256,192,9494,1,0,0:0:0:0:
256,192,9601,1,0,0:0:0:0:
256,192,9815,1,0,0:0:0:0:
256,192,9922,1,0,0:0:0:0:
256,192,10030,1,8,0:0:0:0:
256,192,10137,1,0,0:0:0:0:
288,160,10351,1,0,0:0:0:0:
288,160,10458,1,0,0:0:0:0:
288,160,10672,1,0,0:0:0:0:
288,160,10780,1,0,0:0:0:0:
288,160,10887,1,8,0:0:0:0:
288,160,10994,1,0,0:0:0:0:
288,160,11208,1,0,0:0:0:0:
288,160,11422,1,0,0:0:0:0:
288,160,11530,1,0,0:0:0:0:
288,160,11637,1,0,0:0:0:0:
288,160,11744,1,8,0:0:0:0:
288,160,11851,1,0,0:0:0:0:
288,192,12065,1,0,0:0:0:0:
288,192,12172,1,0,0:0:0:0:
288,192,12280,1,0,0:0:0:0:
288,192,12387,1,0,0:0:0:0:
288,192,12494,1,0,0:0:0:0:
288,192,12601,1,8,0:0:0:0:
288,192,12708,1,0,0:0:0:0:
288,128,12922,1,0,0:0:0:0:
288,128,13030,1,0,0:0:0:0:
288,128,13137,1,0,0:0:0:0:
288,128,13244,1,0,0:0:0:0:
288,128,13351,1,0,0:0:0:0:
288,128,13458,1,0,0:0:0:0:
288,128,13565,1,0,0:0:0:0:
288,128,13672,1,0,0:0:0:0:
288,128,13780,1,0,0:0:0:0:
416,64,13833,1,0,0:0:0:0:
416,64,13887,1,0,0:0:0:0:
416,64,13940,1,0,0:0:0:0:
416,64,13994,1,0,0:0:0:0:
416,64,14047,1,0,0:0:0:0:
416,64,14101,1,0,0:0:0:0:
416,64,14155,1,0,0:0:0:0:
416,64,14208,1,8,0:0:0:0:
224,128,14637,1,12,0:0:0:0:
288,96,14851,1,0,0:0:0:0:
288,128,15065,1,8,0:0:0:0:
288,128,15172,1,0,0:0:0:0:
288,128,15280,1,0,0:0:0:0:
288,128,15387,1,8,0:0:0:0:
320,64,15494,1,8,0:0:0:0:
320,96,15547,1,8,0:0:0:0:
320,96,15601,1,0,0:0:0:0:
320,128,15655,1,0,0:0:0:0:
320,96,15708,1,0,0:0:0:0:
160,64,15815,1,8,0:0:0:0:
256,96,15922,1,8,0:0:0:0:
256,96,16030,1,0,0:0:0:0:
256,96,16137,1,8,0:0:0:0:
256,96,16244,1,0,0:0:0:0:
320,96,16351,1,8,0:0:0:0:
320,96,16458,1,0,0:0:0:0:
320,96,16565,1,0,0:0:0:0:
320,96,16672,1,8,0:0:0:0:
320,96,16780,1,0,0:0:0:0:
320,96,16887,1,0,0:0:0:0:
320,96,16994,1,8,0:0:0:0:
320,96,17101,1,0,0:0:0:0:
288,64,17208,1,8,0:0:0:0:
288,64,17262,1,8,0:0:0:0:
288,64,17315,1,0,0:0:0:0:
288,64,17369,1,0,0:0:0:0:
288,64,17422,1,8,0:0:0:0:
288,64,17530,1,0,0:0:0:0:
288,96,17637,1,0,0:0:0:0:
288,96,17744,1,8,0:0:0:0:
288,96,17851,1,8,0:0:0:0:
224,64,17958,1,0,0:0:0:0:
288,96,18065,1,8,0:0:0:0:
288,96,18172,1,8,0:0:0:0:
288,96,18280,1,0,0:0:0:0:
288,96,18387,1,0,0:0:0:0:
352,96,18494,1,8,0:0:0:0:
352,96,18601,1,0,0:0:0:0:
352,96,18708,1,0,0:0:0:0:
352,96,18815,1,8,0:0:0:0:
352,96,18922,1,8,0:0:0:0:
352,96,18976,1,8,0:0:0:0:
352,96,19030,1,0,0:0:0:0:
352,96,19083,1,0,0:0:0:0:
352,96,19137,1,0,0:0:0:0:
320,96,19244,1,8,0:0:0:0:
288,96,19351,1,8,0:0:0:0:
288,96,19458,1,0,0:0:0:0:
288,96,19565,1,8,0:0:0:0:
288,96,19672,1,0,0:0:0:0:
320,96,19780,1,8,0:0:0:0:
320,96,19887,1,0,0:0:0:0:
320,96,19994,1,0,0:0:0:0:
320,96,20101,1,8,0:0:0:0:
352,96,20208,1,0,0:0:0:0:
352,96,20315,1,8,0:0:0:0:
352,96,20422,1,8,0:0:0:0:
352,96,20530,1,0,0:0:0:0:
352,96,20637,1,0,0:0:0:0:
352,96,20690,1,0,0:0:0:0:
352,96,20744,1,8,0:0:0:0:
352,96,20797,1,8,0:0:0:0:
352,96,20851,1,8,0:0:0:0:
352,96,20958,1,0,0:0:0:0:
352,96,21065,1,0,0:0:0:0:
352,96,21172,1,8,0:0:0:0:
352,96,21280,1,8,0:0:0:0:
352,96,21387,1,0,0:0:0:0:
352,96,21494,1,12,0:0:0:0:
256,128,21601,1,0,0:0:0:0:
256,128,21708,1,8,0:0:0:0:
256,128,21815,1,0,0:0:0:0:
320,96,21922,1,8,0:0:0:0:
320,96,22030,1,0,0:0:0:0:
320,96,22137,1,0,0:0:0:0:
320,96,22244,1,8,0:0:0:0:
352,96,22351,1,12,0:0:0:0:
256,128,22458,1,0,0:0:0:0:
256,128,22565,1,8,0:0:0:0:
256,128,22672,1,0,0:0:0:0:
320,96,22779,1,8,0:0:0:0:
320,96,22887,1,0,0:0:0:0:
320,96,22994,1,0,0:0:0:0:
320,96,23101,1,8,0:0:0:0:
352,64,23208,1,12,0:0:0:0:
320,96,23422,1,0,0:0:0:0:
320,96,23530,1,8,0:0:0:0:
320,96,23637,1,12,0:0:0:0:
320,96,23744,1,0,0:0:0:0:
320,96,23958,1,0,0:0:0:0:
320,96,24065,1,12,0:0:0:0:
320,96,24280,1,0,0:0:0:0:
320,96,24494,1,12,0:0:0:0:
320,96,24601,1,8,0:0:0:0:
320,96,24708,1,8,0:0:0:0:
320,96,24815,1,0,0:0:0:0:
384,160,24922,1,12,0:0:0:0:
352,64,25030,1,0,0:0:0:0:
352,64,25137,1,0,0:0:0:0:
352,64,25244,1,8,0:0:0:0:
352,64,25351,1,8,0:0:0:0:
352,64,25458,1,0,0:0:0:0:
352,64,25565,1,0,0:0:0:0:
352,64,25672,1,8,0:0:0:0:
352,64,25780,1,12,0:0:0:0:
352,64,25887,1,0,0:0:0:0:
352,64,25994,1,0,0:0:0:0:
352,64,26101,1,8,0:0:0:0:
352,64,26208,1,8,0:0:0:0:
352,64,26315,1,0,0:0:0:0:
352,64,26422,1,0,0:0:0:0:
352,64,26530,1,8,0:0:0:0:
384,96,26637,1,12,0:0:0:0:
384,96,26744,1,0,0:0:0:0:
384,96,26851,1,8,0:0:0:0:
384,96,26958,1,0,0:0:0:0:
384,96,27065,1,12,0:0:0:0:
256,64,27172,1,0,0:0:0:0:
256,64,27280,1,0,0:0:0:0:
256,64,27387,1,8,0:0:0:0:
288,64,27494,1,12,0:0:0:0:
288,64,27601,1,12,0:0:0:0:
288,64,27708,1,12,0:0:0:0:
288,64,27815,1,12,0:0:0:0:
288,64,27922,1,0,0:0:0:0:
288,64,27976,1,0,0:0:0:0:
288,64,28030,1,0,0:0:0:0:
288,64,28083,1,0,0:0:0:0:
288,64,28137,1,0,0:0:0:0:
448,224,28351,1,4,0:0:0:0:
256,192,28780,1,8,0:0:0:0:
256,192,28994,1,0,0:0:0:0:
256,192,29422,1,0,0:0:0:0:
256,192,29637,1,8,0:0:0:0:
256,192,30065,1,0,0:0:0:0:
256,192,30280,1,0,0:0:0:0:
256,192,30494,1,8,0:0:0:0:
256,192,30708,1,0,0:0:0:0:
256,192,31137,1,0,0:0:0:0:
256,192,31351,1,8,0:0:0:0:
256,192,31780,1,0,0:0:0:0:
288,192,32208,1,8,0:0:0:0:
288,192,32422,1,0,0:0:0:0:
288,192,32851,1,0,0:0:0:0:
288,192,33065,1,8,0:0:0:0:
288,192,33494,1,0,0:0:0:0:
320,128,33922,1,8,0:0:0:0:
288,128,34137,1,0,0:0:0:0:
288,128,34351,1,0,0:0:0:0:
288,128,34458,1,8,0:0:0:0:
288,128,34780,1,0,0:0:0:0:
395,67,34994,1,8,0:0:0:0:
395,67,35030,1,8,0:0:0:0:
395,67,35065,1,8,0:0:0:0:
395,67,35101,1,8,0:0:0:0:
268,102,35137,1,8,0:0:0:0:
320,64,35208,1,0,0:0:0:0:
352,96,35422,1,0,0:0:0:0:
384,128,35637,1,8,0:0:0:0:
352,128,35851,1,0,0:0:0:0:
448,96,36172,1,8,0:0:0:0:
448,96,36208,1,8,0:0:0:0:
448,96,36243,1,8,0:0:0:0:
448,96,36279,1,0,0:0:0:0:
224,64,36494,1,8,0:0:0:0:
395,67,36708,1,8,0:0:0:0:
395,67,36744,1,8,0:0:0:0:
395,67,36779,1,8,0:0:0:0:
395,67,36815,1,8,0:0:0:0:
268,102,36851,1,8,0:0:0:0:
320,64,36922,1,0,0:0:0:0:
384,96,37137,1,0,0:0:0:0:
384,96,37190,1,0,0:0:0:0:
384,96,37244,1,0,0:0:0:0:
384,96,37297,1,0,0:0:0:0:
384,96,37351,1,8,0:0:0:0:
352,96,37565,1,0,0:0:0:0:
352,96,37780,1,0,0:0:0:0:
352,96,37887,1,8,0:0:0:0:
352,96,37940,1,8,0:0:0:0:
352,96,37994,1,0,0:0:0:0:
352,96,38208,1,8,0:0:0:0:
395,67,38422,1,8,0:0:0:0:
395,67,38458,1,8,0:0:0:0:
395,67,38493,1,8,0:0:0:0:
395,67,38529,1,8,0:0:0:0:
268,102,38565,1,8,0:0:0:0:
134,183,38637,1,0,0:0:0:0:
256,160,38851,1,0,0:0:0:0:
352,128,39065,1,8,0:0:0:0:
352,128,39280,1,0,0:0:0:0:
384,96,39387,1,8,0:0:0:0:
384,96,39494,1,0,0:0:0:0:
448,96,39601,1,8,0:0:0:0:
448,96,39637,1,8,0:0:0:0:
448,96,39672,1,8,0:0:0:0:
448,96,39708,1,0,0:0:0:0:
192,96,39922,1,8,0:0:0:0:
282,208,40030,1,0,0:0:0:0:
395,67,40137,1,8,0:0:0:0:
395,67,40173,1,8,0:0:0:0:
395,67,40208,1,8,0:0:0:0:
395,67,40244,1,8,0:0:0:0:
268,102,40280,1,8,0:0:0:0:
320,64,40351,1,0,0:0:0:0:
371,128,40458,1,0,0:0:0:0:
352,128,40565,1,8,0:0:0:0:
352,128,40672,1,8,0:0:0:0:
352,96,40780,1,0,0:0:0:0:
384,96,40887,1,8,0:0:0:0:
256,32,40994,1,0,0:0:0:0:
256,64,41101,1,0,0:0:0:0:
384,96,41208,1,8,0:0:0:0:
416,96,41262,1,8,0:0:0:0:
416,96,41315,1,8,0:0:0:0:
416,96,41422,1,0,0:0:0:0:
416,96,41530,1,8,0:0:0:0:
416,96,41637,1,0,0:0:0:0:
395,67,41851,1,8,0:0:0:0:
395,67,41887,1,8,0:0:0:0:
395,67,41922,1,8,0:0:0:0:
395,67,41958,1,8,0:0:0:0:
268,102,41994,1,8,0:0:0:0:
320,64,42065,1,0,0:0:0:0:
352,64,42280,1,0,0:0:0:0:
384,64,42494,1,8,0:0:0:0:
384,64,42708,1,0,0:0:0:0:
352,64,42922,1,8,0:0:0:0:
352,64,43030,1,8,0:0:0:0:
352,64,43137,1,0,0:0:0:0:
352,128,43351,1,8,0:0:0:0:
352,128,43780,1,0,0:0:0:0:
352,96,43994,1,0,0:0:0:0:
384,96,44208,1,8,0:0:0:0:
384,96,44422,1,0,0:0:0:0:
352,64,44637,1,0,0:0:0:0:
352,64,44744,1,8,0:0:0:0:
352,96,44851,1,0,0:0:0:0:
352,96,45065,1,8,0:0:0:0:
352,128,45494,1,0,0:0:0:0:
352,128,45922,1,8,0:0:0:0:
384,128,46137,1,0,0:0:0:0:
384,128,46565,1,0,0:0:0:0:
384,128,46780,1,8,0:0:0:0:
352,128,47208,1,0,0:0:0:0:
320,128,47637,1,8,0:0:0:0:
320,128,47851,1,0,0:0:0:0:
320,128,48065,1,0,0:0:0:0:
448,96,48172,1,8,0:0:0:0:
448,96,48208,1,8,0:0:0:0:
448,96,48243,1,8,0:0:0:0:
288,128,48280,1,0,0:0:0:0:
384,192,48494,1,8,0:0:0:0:
395,67,48708,1,8,0:0:0:0:
395,67,48744,1,8,0:0:0:0:
395,67,48779,1,8,0:0:0:0:
395,67,48815,1,8,0:0:0:0:
268,102,48851,1,8,0:0:0:0:
320,64,48922,1,0,0:0:0:0:
352,128,49351,1,8,0:0:0:0:
352,128,49565,1,0,0:0:0:0:
322,105,49672,1,8,0:0:0:0:
352,96,49780,1,0,0:0:0:0:
448,96,49887,1,8,0:0:0:0:
448,96,49923,1,8,0:0:0:0:
448,96,49958,1,8,0:0:0:0:
448,96,49994,1,0,0:0:0:0:
322,105,50101,1,0,0:0:0:0:
322,105,50208,1,8,0:0:0:0:
336,117,50315,1,0,0:0:0:0:
395,67,50422,1,8,0:0:0:0:
395,67,50458,1,8,0:0:0:0:
395,67,50493,1,8,0:0:0:0:
395,67,50529,1,8,0:0:0:0:
268,102,50565,1,8,0:0:0:0:
320,64,50636,1,0,0:0:0:0:
352,96,50851,1,8,0:0:0:0:
352,96,50958,1,0,0:0:0:0:
352,128,51065,1,8,0:0:0:0:
352,128,51280,1,0,0:0:0:0:
384,96,51494,1,0,0:0:0:0:
448,96,51601,1,8,0:0:0:0:
448,96,51637,1,8,0:0:0:0:
448,96,51672,1,8,0:0:0:0:
448,96,51708,1,0,0:0:0:0:
192,224,51922,1,8,0:0:0:0:
395,67,52137,1,8,0:0:0:0:
395,67,52173,1,8,0:0:0:0:
395,67,52208,1,8,0:0:0:0:
395,67,52244,1,8,0:0:0:0:
268,102,52280,1,8,0:0:0:0:
320,64,52351,1,0,0:0:0:0:
416,128,52565,1,0,0:0:0:0:
352,96,52672,1,0,0:0:0:0:
352,96,52780,1,8,0:0:0:0:
352,96,52887,1,8,0:0:0:0:
352,96,52994,1,0,0:0:0:0:
352,128,53101,1,8,0:0:0:0:
352,128,53208,1,0,0:0:0:0:
448,96,53315,1,8,0:0:0:0:
448,96,53351,1,8,0:0:0:0:
448,96,53386,1,8,0:0:0:0:
448,96,53422,1,0,0:0:0:0:
359,110,53530,1,0,0:0:0:0:
352,128,53637,1,8,0:0:0:0:
361,113,53744,1,0,0:0:0:0:
395,67,53851,1,8,0:0:0:0:
395,67,53887,1,8,0:0:0:0:
395,67,53922,1,8,0:0:0:0:
395,67,53958,1,8,0:0:0:0:
268,102,53994,1,8,0:0:0:0:
320,64,54065,1,0,0:0:0:0:
100,150,54172,1,0,0:0:0:0:
300,142,54280,1,8,0:0:0:0:
300,142,54333,1,8,0:0:0:0:
303,147,54387,1,8,0:0:0:0:
303,147,54440,1,8,0:0:0:0:
320,96,54494,1,0,0:0:0:0:
212,123,54601,1,0,0:0:0:0:
359,142,54708,1,8,0:0:0:0:
359,142,54762,1,8,0:0:0:0:
359,142,54815,1,8,0:0:0:0:
359,142,54869,1,8,0:0:0:0:
320,96,54922,1,0,0:0:0:0:
391,148,55030,1,0,0:0:0:0:
391,148,55137,1,8,0:0:0:0:
391,148,55190,1,8,0:0:0:0:
391,148,55244,1,8,0:0:0:0:
391,148,55297,1,8,0:0:0:0:
352,64,55351,1,0,0:0:0:0:
192,122,55458,1,8,0:0:0:0:
192,122,55512,1,8,0:0:0:0:
411,110,55565,1,8,0:0:0:0:
411,110,55672,1,8,0:0:0:0:
416,128,55780,1,0,0:0:0:0:
416,128,55994,1,0,0:0:0:0:
416,128,56101,1,8,0:0:0:0:
416,128,56315,1,0,0:0:0:0:
416,128,56422,1,8,0:0:0:0:
416,96,56637,1,0,0:0:0:0:
416,96,56744,1,8,0:0:0:0:
416,96,56851,1,0,0:0:0:0:
416,96,56958,1,0,0:0:0:0:
416,96,57065,1,8,0:0:0:0:
275,85,57137,1,0,0:0:0:0:
275,85,57172,1,0,0:0:0:0:
275,85,57208,1,0,0:0:0:0:
428,213,57280,1,8,0:0:0:0:
416,64,57494,1,0,0:0:0:0:
416,64,57708,1,0,0:0:0:0:
416,64,57815,1,8,0:0:0:0:
416,64,58030,1,0,0:0:0:0:
416,64,58137,1,8,0:0:0:0:
448,64,58351,1,0,0:0:0:0:
448,64,58458,1,0,0:0:0:0:
448,64,58565,1,8,0:0:0:0:
448,64,58672,1,8,0:0:0:0:
448,64,58780,1,8,0:0:0:0:
460,203,58994,1,0,0:0:0:0:
320,32,59208,1,0,0:0:0:0:
320,32,59422,1,0,0:0:0:0:
320,32,59530,1,8,0:0:0:0:
320,32,59744,1,0,0:0:0:0:
320,32,59851,1,8,0:0:0:0:
384,96,60065,1,0,0:0:0:0:
416,64,60172,1,0,0:0:0:0:
416,64,60280,1,0,0:0:0:0:
224,64,60387,1,0,0:0:0:0:
288,64,60494,1,8,0:0:0:0:
384,96,60922,1,0,0:0:0:0:
352,128,61137,1,0,0:0:0:0:
352,96,61244,1,8,0:0:0:0:
352,96,61458,1,0,0:0:0:0:
352,96,61565,1,8,0:0:0:0:
384,64,61780,1,0,0:0:0:0:
384,96,61887,1,0,0:0:0:0:
384,96,61994,1,8,0:0:0:0:
384,96,62101,1,8,0:0:0:0:
384,96,62208,1,8,0:0:0:0:
352,128,62422,1,8,0:0:0:0:
352,128,62530,1,8,0:0:0:0:
352,128,62637,1,0,0:0:0:0:
352,96,62851,1,0,0:0:0:0:
384,96,62958,1,8,0:0:0:0:
384,96,63172,1,0,0:0:0:0:
384,96,63280,1,8,0:0:0:0:
416,64,63494,1,0,0:0:0:0:
416,64,63601,1,8,0:0:0:0:
416,64,63708,1,0,0:0:0:0:
416,64,63815,1,0,0:0:0:0:
402,104,63922,1,8,0:0:0:0:
246,62,63994,1,0,0:0:0:0:
246,62,64030,1,0,0:0:0:0:
246,62,64065,1,0,0:0:0:0:
415,133,64137,1,8,0:0:0:0:
416,64,64351,1,0,0:0:0:0:
416,64,64565,1,0,0:0:0:0:
416,64,64672,1,8,0:0:0:0:
416,64,64887,1,0,0:0:0:0:
416,64,64994,1,8,0:0:0:0:
448,64,65208,1,0,0:0:0:0:
448,64,65315,1,0,0:0:0:0:
448,64,65422,1,8,0:0:0:0:
448,64,65530,1,8,0:0:0:0:
448,64,65637,1,8,0:0:0:0:
448,64,65851,1,0,0:0:0:0:
448,64,65958,1,8,0:0:0:0:
448,64,66065,1,4,0:0:0:0:
448,64,66280,1,0,0:0:0:0:
448,64,66387,1,0,0:0:0:0:
448,64,66494,1,8,0:0:0:0:
320,128,66708,1,8,0:0:0:0:
320,128,66815,1,8,0:0:0:0:
352,128,66922,1,4,0:0:0:0:
320,128,67137,1,0,0:0:0:0:
256,64,67244,1,0,0:0:0:0:
224,32,67351,1,8,0:0:0:0:
320,96,67565,1,8,0:0:0:0:
320,96,67672,1,8,0:0:0:0:
320,96,67780,1,4,0:0:0:0:
384,96,67994,1,0,0:0:0:0:
384,96,68208,1,12,0:0:0:0:
384,96,68422,1,0,0:0:0:0:
384,64,68637,1,12,0:0:0:0:
384,64,69065,1,0,0:0:0:0:
384,64,69172,1,0,0:0:0:0:
384,64,69280,1,0,0:0:0:0:
384,128,69387,1,0,0:0:0:0:
320,96,69494,1,12,0:0:0:0:
352,96,69601,1,8,0:0:0:0:
352,96,69708,1,8,0:0:0:0:
352,96,69815,1,0,0:0:0:0:
352,96,69922,1,8,0:0:0:0:
352,96,70030,1,0,0:0:0:0:
352,96,70137,1,0,0:0:0:0:
352,96,70244,1,8,0:0:0:0:
288,128,70351,1,8,0:0:0:0:
320,96,70405,1,8,0:0:0:0:
320,96,70458,1,0,0:0:0:0:
320,96,70512,1,0,0:0:0:0:
320,96,70565,1,0,0:0:0:0:
352,64,70672,1,8,0:0:0:0:
352,64,70780,1,8,0:0:0:0:
352,64,70887,1,0,0:0:0:0:
352,64,71101,1,0,0:0:0:0:
352,128,71208,1,8,0:0:0:0:
352,128,71315,1,8,0:0:0:0:
352,128,71422,1,0,0:0:0:0:
160,160,71530,1,8,0:0:0:0:
352,128,71637,1,8,0:0:0:0:
352,160,71744,1,8,0:0:0:0:
352,160,71851,1,0,0:0:0:0:
352,160,71958,1,8,0:0:0:0:
416,128,72065,1,8,0:0:0:0:
416,128,72172,1,8,0:0:0:0:
320,160,72280,1,8,0:0:0:0:
320,128,72387,1,0,0:0:0:0:
320,160,72494,1,8,0:0:0:0:
256,128,72708,1,0,0:0:0:0:
320,96,72922,1,12,0:0:0:0:
352,96,73029,1,8,0:0:0:0:
352,96,73136,1,8,0:0:0:0:
352,96,73243,1,0,0:0:0:0:
352,96,73350,1,8,0:0:0:0:
352,96,73458,1,0,0:0:0:0:
352,96,73565,1,0,0:0:0:0:
352,96,73672,1,8,0:0:0:0:
288,128,73779,1,8,0:0:0:0:
320,96,73833,1,8,0:0:0:0:
320,96,73886,1,0,0:0:0:0:
320,96,73940,1,0,0:0:0:0:
320,96,73993,1,0,0:0:0:0:
384,96,74047,1,0,0:0:0:0:
352,64,74100,1,8,0:0:0:0:
480,128,74155,1,8,0:0:0:0:
352,64,74208,1,8,0:0:0:0:
352,64,74315,1,0,0:0:0:0:
352,64,74529,1,0,0:0:0:0:
352,128,74636,1,8,0:0:0:0:
352,128,74743,1,8,0:0:0:0:
352,128,74850,1,0,0:0:0:0:
160,160,74958,1,8,0:0:0:0:
352,128,75065,1,8,0:0:0:0:
352,160,75172,1,8,0:0:0:0:
352,160,75279,1,0,0:0:0:0:
352,160,75386,1,8,0:0:0:0:
416,128,75493,1,8,0:0:0:0:
128,128,75547,1,8,0:0:0:0:
416,128,75600,1,0,0:0:0:0:
320,160,75708,1,8,0:0:0:0:
320,128,75815,1,0,0:0:0:0:
320,160,75922,1,8,0:0:0:0:
320,224,75976,1,8,0:0:0:0:
256,160,76030,1,0,0:0:0:0:
320,192,76083,1,0,0:0:0:0:
320,192,76137,1,8,0:0:0:0:
320,192,76244,1,0,0:0:0:0:
320,96,76351,1,12,0:0:0:0:
352,96,76458,1,8,0:0:0:0:
352,96,76565,1,8,0:0:0:0:
352,96,76672,1,0,0:0:0:0:
352,96,76779,1,8,0:0:0:0:
352,96,76887,1,0,0:0:0:0:
352,96,76994,1,0,0:0:0:0:
352,96,77101,1,8,0:0:0:0:
288,128,77208,1,8,0:0:0:0:
320,96,77262,1,8,0:0:0:0:
320,96,77315,1,0,0:0:0:0:
320,96,77369,1,0,0:0:0:0:
320,96,77422,1,0,0:0:0:0:
352,64,77529,1,8,0:0:0:0:
352,64,77637,1,8,0:0:0:0:
352,64,77744,1,0,0:0:0:0:
352,64,77958,1,0,0:0:0:0:
352,128,78065,1,12,0:0:0:0:
352,128,78172,1,8,0:0:0:0:
352,128,78279,1,0,0:0:0:0:
160,160,78387,1,8,0:0:0:0:
352,128,78494,1,8,0:0:0:0:
352,160,78601,1,0,0:0:0:0:
352,160,78708,1,0,0:0:0:0:
352,160,78815,1,8,0:0:0:0:
416,128,78922,1,8,0:0:0:0:
96,160,79137,1,0,0:0:0:0:
320,96,79351,1,0,0:0:0:0:
320,96,79458,1,8,0:0:0:0:
320,96,79565,1,8,0:0:0:0:
384,128,79672,1,0,0:0:0:0:
352,96,79780,1,12,0:0:0:0:
352,96,79887,1,8,0:0:0:0:
352,96,79994,1,0,0:0:0:0:
352,96,80101,1,0,0:0:0:0:
352,96,80208,1,12,0:0:0:0:
352,96,80315,1,8,0:0:0:0:
160,128,80422,1,0,0:0:0:0:
224,96,80530,1,0,0:0:0:0:
224,96,80637,1,12,0:0:0:0:
224,96,80744,1,8,0:0:0:0:
224,96,80851,1,0,0:0:0:0:
224,96,80958,1,0,0:0:0:0:
256,96,81065,1,12,0:0:0:0:
352,64,81280,1,0,0:0:0:0:
352,64,81387,1,8,0:0:0:0:
352,64,81494,1,12,0:0:0:0:
352,64,81601,1,0,0:0:0:0:
352,64,81708,1,0,0:0:0:0:
352,64,81815,1,8,0:0:0:0:
352,64,81922,1,12,0:0:0:0:
352,64,82030,1,0,0:0:0:0:
352,64,82137,1,0,0:0:0:0:
352,64,82244,1,8,0:0:0:0:
352,64,82351,1,12,0:0:0:0:
352,96,82458,1,0,0:0:0:0:
352,96,82565,1,0,0:0:0:0:
352,96,82672,1,8,0:0:0:0:
384,64,82780,1,8,0:0:0:0:
384,64,82833,1,8,0:0:0:0:
384,64,82887,1,8,0:0:0:0:
384,64,82994,1,8,0:0:0:0:
384,64,83101,1,8,0:0:0:0:
320,96,83208,1,12,0:0:0:0:
352,96,83315,1,0,0:0:0:0:
352,96,83422,1,0,0:0:0:0:
352,96,83529,1,0,0:0:0:0:
352,96,83636,1,8,0:0:0:0:
352,96,83744,1,0,0:0:0:0:
352,96,83851,1,0,0:0:0:0:
352,96,83958,1,8,0:0:0:0:
288,128,84065,1,8,0:0:0:0:
320,96,84119,1,8,0:0:0:0:
320,96,84172,1,0,0:0:0:0:
320,96,84226,1,0,0:0:0:0:
320,96,84279,1,0,0:0:0:0:
352,64,84386,1,8,0:0:0:0:
352,64,84494,1,8,0:0:0:0:
352,64,84601,1,0,0:0:0:0:
352,64,84815,1,0,0:0:0:0:
352,128,84922,1,8,0:0:0:0:
352,128,85029,1,8,0:0:0:0:
352,128,85136,1,0,0:0:0:0:
160,160,85244,1,8,0:0:0:0:
352,128,85351,1,8,0:0:0:0:
352,160,85458,1,8,0:0:0:0:
352,160,85565,1,0,0:0:0:0:
352,160,85672,1,8,0:0:0:0:
416,128,85779,1,8,0:0:0:0:
416,128,85886,1,8,0:0:0:0:
320,160,85994,1,8,0:0:0:0:
320,128,86101,1,0,0:0:0:0:
320,160,86208,1,8,0:0:0:0:
256,128,86422,1,0,0:0:0:0:
320,96,86636,1,12,0:0:0:0:
352,96,86743,1,8,0:0:0:0:
352,96,86850,1,8,0:0:0:0:
352,96,86957,1,0,0:0:0:0:
352,96,87064,1,8,0:0:0:0:
352,96,87172,1,0,0:0:0:0:
352,96,87279,1,0,0:0:0:0:
352,96,87386,1,8,0:0:0:0:
288,128,87493,1,8,0:0:0:0:
320,96,87547,1,8,0:0:0:0:
320,96,87600,1,0,0:0:0:0:
320,96,87654,1,0,0:0:0:0:
320,96,87707,1,0,0:0:0:0:
384,96,87761,1,0,0:0:0:0:
352,64,87814,1,8,0:0:0:0:
480,128,87869,1,8,0:0:0:0:
352,64,87922,1,8,0:0:0:0:
352,64,88029,1,0,0:0:0:0:
352,64,88243,1,0,0:0:0:0:
352,128,88350,1,8,0:0:0:0:
352,128,88457,1,8,0:0:0:0:
352,128,88564,1,0,0:0:0:0:
160,160,88672,1,8,0:0:0:0:
352,128,88779,1,8,0:0:0:0:
352,160,88886,1,8,0:0:0:0:
352,160,88993,1,0,0:0:0:0:
352,160,89100,1,8,0:0:0:0:
416,128,89207,1,8,0:0:0:0:
128,128,89261,1,8,0:0:0:0:
416,128,89314,1,0,0:0:0:0:
320,160,89422,1,8,0:0:0:0:
320,128,89529,1,0,0:0:0:0:
320,160,89636,1,8,0:0:0:0:
320,224,89690,1,8,0:0:0:0:
256,160,89744,1,0,0:0:0:0:
320,192,89797,1,0,0:0:0:0:
320,192,89851,1,8,0:0:0:0:
320,192,89958,1,0,0:0:0:0:
320,96,90065,1,12,0:0:0:0:
352,96,90172,1,8,0:0:0:0:
352,96,90279,1,8,0:0:0:0:
352,96,90386,1,0,0:0:0:0:
352,96,90493,1,8,0:0:0:0:
352,96,90601,1,0,0:0:0:0:
352,96,90708,1,0,0:0:0:0:
352,96,90815,1,8,0:0:0:0:
288,128,90922,1,8,0:0:0:0:
320,96,90976,1,8,0:0:0:0:
320,96,91029,1,0,0:0:0:0:
320,96,91083,1,0,0:0:0:0:
320,96,91136,1,0,0:0:0:0:
352,64,91243,1,8,0:0:0:0:
352,64,91351,1,8,0:0:0:0:
352,64,91458,1,0,0:0:0:0:
352,64,91672,1,0,0:0:0:0:
352,128,91779,1,12,0:0:0:0:
352,128,91886,1,8,0:0:0:0:
352,128,91993,1,0,0:0:0:0:
160,160,92101,1,8,0:0:0:0:
352,128,92208,1,8,0:0:0:0:
352,160,92315,1,0,0:0:0:0:
352,160,92422,1,0,0:0:0:0:
352,160,92529,1,8,0:0:0:0:
416,128,92636,1,8,0:0:0:0:
96,160,92851,1,0,0:0:0:0:
320,96,93065,1,0,0:0:0:0:
320,96,93172,1,8,0:0:0:0:
320,96,93279,1,8,0:0:0:0:
384,128,93386,1,0,0:0:0:0:
352,96,93494,1,12,0:0:0:0:
352,96,93601,1,8,0:0:0:0:
352,96,93708,1,0,0:0:0:0:
352,96,93815,1,0,0:0:0:0:
352,96,93922,1,12,0:0:0:0:
352,96,94029,1,8,0:0:0:0:
160,128,94136,1,0,0:0:0:0:
224,96,94244,1,0,0:0:0:0:
224,96,94351,1,12,0:0:0:0:
224,96,94458,1,8,0:0:0:0:
224,96,94565,1,0,0:0:0:0:
224,96,94672,1,0,0:0:0:0:
256,96,94779,1,12,0:0:0:0:
352,96,94886,1,0,0:0:0:0:
352,64,94994,1,0,0:0:0:0:
352,64,95101,1,8,0:0:0:0:
352,64,95208,1,12,0:0:0:0:
352,64,95315,1,0,0:0:0:0:
352,64,95422,1,4,0:0:0:0:
352,64,95529,1,8,0:0:0:0:
352,64,95636,1,12,0:0:0:0:
352,64,95744,1,0,0:0:0:0:
352,64,95851,1,4,0:0:0:0:
352,64,95958,1,8,0:0:0:0:
352,64,96065,1,12,0:0:0:0:
352,96,96172,1,0,0:0:0:0:
352,96,96279,1,4,0:0:0:0:
352,96,96386,1,8,0:0:0:0:
224,192,96494,1,0,0:0:0:0:
288,160,96547,1,0,0:0:0:0:
288,160,96601,1,0,0:0:0:0:
288,160,96655,1,0,0:0:0:0:
352,64,96708,1,8,0:0:0:0:
384,96,96762,1,8,0:0:0:0:
384,96,96815,1,8,0:0:0:0:
384,96,96869,1,8,0:0:0:0:
384,96,96922,1,4,0:0:0:0:
320,128,97244,1,0,0:0:0:0:
320,96,97565,1,0,0:0:0:0:
320,96,97994,1,0,0:0:0:0:
320,96,98208,1,8,0:0:0:0:
320,128,98422,1,0,0:0:0:0:
352,96,98637,1,0,0:0:0:0:
288,96,98958,1,0,0:0:0:0:
288,96,99280,1,0,0:0:0:0:
256,128,99708,1,0,0:0:0:0:
256,128,99922,1,8,0:0:0:0:
256,128,100351,1,0,0:0:0:0:
256,128,100672,1,0,0:0:0:0:
256,128,100994,1,0,0:0:0:0:
352,128,101208,1,8,0:0:0:0:
352,128,101262,1,8,0:0:0:0:
352,128,101315,1,8,0:0:0:0:
352,128,101369,1,8,0:0:0:0:
352,128,101422,1,0,0:0:0:0:
320,128,101530,1,8,0:0:0:0:
288,64,101637,1,8,0:0:0:0:
320,128,101851,1,8,0:0:0:0:
320,128,101958,1,0,0:0:0:0:
320,128,102065,1,4,0:0:0:0:
320,128,102280,1,0,0:0:0:0:
320,128,102494,1,4,0:0:0:0:
320,128,102708,1,0,0:0:0:0:
320,128,102922,1,4,0:0:0:0:
320,128,103137,1,0,0:0:0:0:
384,96,103351,1,12,0:0:0:0:
384,96,103565,1,8,0:0:0:0:
352,128,103780,1,0,0:0:0:0:
352,96,104208,1,0,0:0:0:0:
320,96,104637,1,0,0:0:0:0:
288,128,105065,1,0,0:0:0:0:
352,128,105280,1,8,0:0:0:0:
288,128,105494,1,0,0:0:0:0:
288,128,105922,1,0,0:0:0:0:
288,128,106351,1,0,0:0:0:0:
352,128,106565,1,8,0:0:0:0:
288,128,106780,1,0,0:0:0:0:
352,128,106994,1,8,0:0:0:0:
256,96,107208,1,0,0:0:0:0:
256,128,107637,1,0,0:0:0:0:
256,128,108065,1,0,0:0:0:0:
256,128,108494,1,0,0:0:0:0:
352,128,108708,1,8,0:0:0:0:
256,128,108922,1,0,0:0:0:0:
256,128,109351,1,0,0:0:0:0:
256,128,109780,1,0,0:0:0:0:
320,128,109994,1,8,0:0:0:0:
256,128,110208,1,0,0:0:0:0:
320,128,110422,1,8,0:0:0:0:
256,192,110637,1,0,0:0:0:0:
256,192,110744,1,0,0:0:0:0:
256,192,110958,1,0,0:0:0:0:
256,160,111065,1,0,0:0:0:0:
256,192,111172,1,8,0:0:0:0:
256,192,111279,1,0,0:0:0:0:
256,192,111494,1,0,0:0:0:0:
256,192,111601,1,0,0:0:0:0:
256,192,111815,1,0,0:0:0:0:
256,192,111922,1,0,0:0:0:0:
256,192,112029,1,8,0:0:0:0:
256,192,112137,1,0,0:0:0:0:
256,192,112351,1,0,0:0:0:0:
256,192,112458,1,0,0:0:0:0:
256,192,112672,1,0,0:0:0:0:
256,192,112779,1,0,0:0:0:0:
256,192,112887,1,8,0:0:0:0:
256,192,112994,1,0,0:0:0:0:
288,160,113208,1,0,0:0:0:0:
288,160,113315,1,0,0:0:0:0:
288,160,113529,1,0,0:0:0:0:
288,160,113637,1,0,0:0:0:0:
288,160,113744,1,8,0:0:0:0:
288,160,113851,1,0,0:0:0:0:
288,160,114065,1,0,0:0:0:0:
288,160,114279,1,0,0:0:0:0:
288,160,114387,1,0,0:0:0:0:
288,160,114494,1,0,0:0:0:0:
288,160,114601,1,8,0:0:0:0:
288,160,114708,1,0,0:0:0:0:
288,192,114922,1,0,0:0:0:0:
288,192,115029,1,0,0:0:0:0:
288,192,115137,1,0,0:0:0:0:
288,192,115244,1,0,0:0:0:0:
288,192,115351,1,0,0:0:0:0:
288,192,115458,1,8,0:0:0:0:
288,192,115565,1,0,0:0:0:0:
288,128,115779,1,0,0:0:0:0:
288,128,115887,1,0,0:0:0:0:
288,128,115994,1,0,0:0:0:0:
288,128,116101,1,0,0:0:0:0:
288,128,116208,1,0,0:0:0:0:
288,128,116315,1,0,0:0:0:0:
288,128,116422,1,0,0:0:0:0:
288,128,116529,1,0,0:0:0:0:
224,96,116637,1,8,0:0:0:0:
320,96,116744,1,8,0:0:0:0:
320,96,116851,1,0,0:0:0:0:
320,96,116958,1,0,0:0:0:0:
288,128,117065,1,8,0:0:0:0:
320,128,117101,1,8,0:0:0:0:
320,128,117137,1,8,0:0:0:0:
320,128,117172,1,8,0:0:0:0:
320,96,117280,1,8,0:0:0:0:
320,96,117315,1,8,0:0:0:0:
320,96,117351,1,8,0:0:0:0:
320,96,117387,1,8,0:0:0:0:
448,224,117494,1,4,0:0:0:0:
256,192,117923,1,8,0:0:0:0:
256,192,118137,1,0,0:0:0:0:
256,192,118565,1,0,0:0:0:0:
256,192,118780,1,8,0:0:0:0:
256,192,119208,1,0,0:0:0:0:
256,192,119423,1,0,0:0:0:0:
256,192,119637,1,8,0:0:0:0:
256,192,119851,1,0,0:0:0:0:
256,192,120280,1,0,0:0:0:0:
256,192,120494,1,8,0:0:0:0:
256,192,120923,1,0,0:0:0:0:
288,192,121351,1,8,0:0:0:0:
288,192,121565,1,0,0:0:0:0:
288,192,121994,1,0,0:0:0:0:
288,192,122208,1,8,0:0:0:0:
288,192,122637,1,0,0:0:0:0:
320,128,123065,1,8,0:0:0:0:
288,128,123280,1,0,0:0:0:0:
288,128,123494,1,0,0:0:0:0:
288,128,123601,1,8,0:0:0:0:
288,128,123923,1,0,0:0:0:0:
166,131,124137,1,8,0:0:0:0:
166,131,124172,1,8,0:0:0:0:
166,131,124208,1,8,0:0:0:0:
166,131,124244,1,8,0:0:0:0:
166,131,124280,1,8,0:0:0:0:
352,64,124351,1,0,0:0:0:0:
352,96,124565,1,0,0:0:0:0:
384,128,124780,1,8,0:0:0:0:
352,128,124994,1,0,0:0:0:0:
448,96,125315,1,8,0:0:0:0:
448,96,125351,1,8,0:0:0:0:
448,96,125386,1,8,0:0:0:0:
448,96,125422,1,0,0:0:0:0:
224,64,125637,1,8,0:0:0:0:
166,131,125851,1,8,0:0:0:0:
166,131,125886,1,8,0:0:0:0:
166,131,125922,1,8,0:0:0:0:
166,131,125958,1,8,0:0:0:0:
166,131,125994,1,8,0:0:0:0:
352,64,126065,1,0,0:0:0:0:
384,96,126280,1,0,0:0:0:0:
384,96,126333,1,0,0:0:0:0:
384,96,126387,1,0,0:0:0:0:
384,96,126440,1,0,0:0:0:0:
384,96,126494,1,8,0:0:0:0:
352,96,126708,1,0,0:0:0:0:
352,96,126923,1,0,0:0:0:0:
352,96,127030,1,8,0:0:0:0:
352,96,127083,1,8,0:0:0:0:
352,96,127137,1,0,0:0:0:0:
352,96,127351,1,8,0:0:0:0:
473,81,127458,1,0,0:0:0:0:
166,131,127565,1,8,0:0:0:0:
166,131,127600,1,8,0:0:0:0:
166,131,127636,1,8,0:0:0:0:
166,131,127672,1,8,0:0:0:0:
166,131,127708,1,8,0:0:0:0:
352,64,127779,1,0,0:0:0:0:
256,128,127994,1,0,0:0:0:0:
320,160,129494,1,0,0:0:0:0:
441,122,129601,1,0,0:0:0:0:
441,122,129708,1,8,0:0:0:0:
441,122,129762,1,8,0:0:0:0:
441,132,129815,1,8,0:0:0:0:
436,127,129869,1,8,0:0:0:0:
320,128,129922,1,0,0:0:0:0:
501,96,130030,1,0,0:0:0:0:
501,96,130137,1,8,0:0:0:0:
501,96,130190,1,8,0:0:0:0:
501,96,130244,1,8,0:0:0:0:
501,96,130297,1,8,0:0:0:0:
288,96,130351,1,0,0:0:0:0:
501,96,130458,1,0,0:0:0:0:
501,96,130565,1,8,0:0:0:0:
501,96,130619,1,8,0:0:0:0:
501,96,130672,1,8,0:0:0:0:
501,96,130726,1,8,0:0:0:0:
288,96,130780,1,0,0:0:0:0:
399,105,130887,1,8,0:0:0:0:
399,105,130940,1,8,0:0:0:0:
399,105,130994,1,8,0:0:0:0:
399,105,131101,1,8,0:0:0:0:
416,128,131208,1,0,0:0:0:0:
416,128,131422,1,0,0:0:0:0:
416,128,131529,1,8,0:0:0:0:
416,128,131743,1,0,0:0:0:0:
416,128,131850,1,8,0:0:0:0:
416,96,132065,1,0,0:0:0:0:
416,96,132172,1,8,0:0:0:0:
416,96,132279,1,0,0:0:0:0:
416,96,132386,1,0,0:0:0:0:
416,96,132493,1,8,0:0:0:0:
274,115,132565,1,0,0:0:0:0:
274,115,132601,1,0,0:0:0:0:
274,115,132637,1,0,0:0:0:0:
348,102,132708,1,8,0:0:0:0:
416,64,132922,1,0,0:0:0:0:
416,64,133136,1,0,0:0:0:0:
416,64,133243,1,8,0:0:0:0:
416,64,133458,1,0,0:0:0:0:
416,64,133565,1,8,0:0:0:0:
448,64,133779,1,0,0:0:0:0:
448,64,133886,1,0,0:0:0:0:
448,64,133993,1,8,0:0:0:0:
448,64,134100,1,8,0:0:0:0:
448,64,134208,1,8,0:0:0:0:
384,96,134422,1,0,0:0:0:0:
320,32,134636,1,0,0:0:0:0:
320,32,134850,1,0,0:0:0:0:
320,32,134958,1,8,0:0:0:0:
320,32,135172,1,0,0:0:0:0:
320,32,135279,1,8,0:0:0:0:
384,96,135493,1,0,0:0:0:0:
416,64,135600,1,0,0:0:0:0:
416,64,135708,1,0,0:0:0:0:
224,64,135815,1,0,0:0:0:0:
288,64,135922,1,8,0:0:0:0:
246,99,135994,1,0,0:0:0:0:
246,99,136030,1,0,0:0:0:0:
246,99,136065,1,0,0:0:0:0:
384,96,136137,1,8,0:0:0:0:
384,96,136350,1,0,0:0:0:0:
352,128,136565,1,0,0:0:0:0:
352,96,136672,1,8,0:0:0:0:
352,96,136886,1,0,0:0:0:0:
352,96,136993,1,8,0:0:0:0:
384,64,137208,1,0,0:0:0:0:
384,96,137315,1,0,0:0:0:0:
384,96,137422,1,8,0:0:0:0:
384,96,137529,1,8,0:0:0:0:
384,96,137636,1,8,0:0:0:0:
352,128,137850,1,8,0:0:0:0:
352,128,137958,1,8,0:0:0:0:
352,128,138065,1,0,0:0:0:0:
352,96,138279,1,0,0:0:0:0:
384,96,138386,1,8,0:0:0:0:
384,96,138600,1,0,0:0:0:0:
384,96,138708,1,8,0:0:0:0:
416,64,138922,1,0,0:0:0:0:
416,64,139029,1,8,0:0:0:0:
416,64,139136,1,0,0:0:0:0:
416,64,139243,1,0,0:0:0:0:
416,64,139351,1,8,0:0:0:0:
151,145,139422,1,0,0:0:0:0:
215,121,139458,1,0,0:0:0:0:
215,121,139494,1,0,0:0:0:0:
408,90,139565,1,8,0:0:0:0:
416,64,139779,1,0,0:0:0:0:
416,64,139993,1,0,0:0:0:0:
416,64,140100,1,8,0:0:0:0:
416,64,140315,1,0,0:0:0:0:
416,64,140422,1,8,0:0:0:0:
448,64,140636,1,0,0:0:0:0:
448,64,140743,1,0,0:0:0:0:
448,64,140850,1,8,0:0:0:0:
448,64,140958,1,8,0:0:0:0:
448,64,141065,1,8,0:0:0:0:
448,64,141279,1,0,0:0:0:0:
448,64,141386,1,8,0:0:0:0:
448,64,141493,1,4,0:0:0:0:
448,64,141708,1,0,0:0:0:0:
448,64,141815,1,0,0:0:0:0:
448,64,141922,1,8,0:0:0:0:
320,128,142136,1,8,0:0:0:0:
320,128,142243,1,8,0:0:0:0:
352,128,142351,1,4,0:0:0:0:
320,128,142565,1,0,0:0:0:0:
256,64,142672,1,0,0:0:0:0:
224,32,142779,1,8,0:0:0:0:
320,96,142993,1,8,0:0:0:0:
320,96,143100,1,8,0:0:0:0:
320,96,143208,1,4,0:0:0:0:
384,96,143422,1,0,0:0:0:0:
384,96,143636,1,12,0:0:0:0:
384,96,143850,1,0,0:0:0:0:
384,64,144065,1,12,0:0:0:0:
256,128,144172,1,0,0:0:0:0:
320,96,144280,1,0,0:0:0:0:
320,128,144387,1,0,0:0:0:0:
352,64,144494,1,0,0:0:0:0:
352,64,144547,1,0,0:0:0:0:
352,64,144601,1,0,0:0:0:0:
352,64,144655,1,0,0:0:0:0:
352,64,144708,1,0,0:0:0:0:
352,64,144762,1,0,0:0:0:0:
352,64,144815,1,0,0:0:0:0:
352,64,144869,1,0,0:0:0:0:
320,96,144922,1,12,0:0:0:0:
352,96,145029,1,0,0:0:0:0:
352,96,145136,1,0,0:0:0:0:
352,96,145243,1,0,0:0:0:0:
352,96,145350,1,8,0:0:0:0:
352,96,145458,1,0,0:0:0:0:
352,96,145565,1,0,0:0:0:0:
352,96,145672,1,8,0:0:0:0:
288,128,145779,1,8,0:0:0:0:
320,96,145833,1,8,0:0:0:0:
320,96,145886,1,0,0:0:0:0:
320,96,145940,1,0,0:0:0:0:
320,96,145993,1,0,0:0:0:0:
352,64,146100,1,8,0:0:0:0:
352,64,146208,1,8,0:0:0:0:
352,64,146315,1,0,0:0:0:0:
352,64,146529,1,0,0:0:0:0:
352,128,146637,1,12,0:0:0:0:
352,128,146743,1,8,0:0:0:0:
352,128,146850,1,0,0:0:0:0:
160,160,146958,1,8,0:0:0:0:
352,128,147065,1,8,0:0:0:0:
352,160,147172,1,8,0:0:0:0:
265,101,147226,1,8,0:0:0:0:
352,160,147279,1,0,0:0:0:0:
352,160,147386,1,8,0:0:0:0:
416,128,147493,1,8,0:0:0:0:
317,217,147547,1,8,0:0:0:0:
416,128,147600,1,8,0:0:0:0:
320,160,147708,1,8,0:0:0:0:
320,128,147815,1,0,0:0:0:0:
194,173,147922,1,8,0:0:0:0:
202,169,147976,1,8,0:0:0:0:
257,113,148030,1,8,0:0:0:0:
257,113,148083,1,8,0:0:0:0:
257,113,148137,1,0,0:0:0:0:
264,119,148190,1,0,0:0:0:0:
264,119,148244,1,0,0:0:0:0:
272,124,148297,1,0,0:0:0:0:
320,96,148350,1,12,0:0:0:0:
352,96,148457,1,8,0:0:0:0:
352,96,148564,1,8,0:0:0:0:
352,96,148671,1,0,0:0:0:0:
352,96,148778,1,8,0:0:0:0:
352,96,148886,1,0,0:0:0:0:
352,96,148993,1,0,0:0:0:0:
352,96,149100,1,8,0:0:0:0:
288,128,149207,1,8,0:0:0:0:
320,96,149261,1,8,0:0:0:0:
320,96,149314,1,0,0:0:0:0:
320,96,149368,1,0,0:0:0:0:
320,96,149421,1,0,0:0:0:0:
384,96,149475,1,0,0:0:0:0:
352,64,149528,1,8,0:0:0:0:
480,128,149583,1,8,0:0:0:0:
352,64,149636,1,8,0:0:0:0:
352,64,149743,1,0,0:0:0:0:
352,64,149957,1,0,0:0:0:0:
352,128,150064,1,12,0:0:0:0:
352,128,150171,1,8,0:0:0:0:
352,128,150278,1,0,0:0:0:0:
160,160,150386,1,8,0:0:0:0:
352,128,150493,1,8,0:0:0:0:
352,160,150600,1,8,0:0:0:0:
321,90,150655,1,8,0:0:0:0:
352,160,150707,1,0,0:0:0:0:
352,160,150814,1,8,0:0:0:0:
416,128,150921,1,8,0:0:0:0:
128,128,150975,1,8,0:0:0:0:
416,128,151028,1,0,0:0:0:0:
320,160,151136,1,8,0:0:0:0:
320,128,151243,1,0,0:0:0:0:
320,160,151350,1,8,0:0:0:0:
320,224,151404,1,8,0:0:0:0:
256,160,151458,1,0,0:0:0:0:
320,192,151511,1,0,0:0:0:0:
320,192,151565,1,8,0:0:0:0:
320,192,151672,1,0,0:0:0:0:
320,96,151779,1,12,0:0:0:0:
352,96,151886,1,8,0:0:0:0:
352,96,151993,1,8,0:0:0:0:
352,96,152100,1,0,0:0:0:0:
352,96,152207,1,8,0:0:0:0:
352,96,152315,1,0,0:0:0:0:
320,137,152369,1,0,0:0:0:0:
352,96,152422,1,0,0:0:0:0:
352,96,152529,1,8,0:0:0:0:
288,128,152636,1,8,0:0:0:0:
320,96,152690,1,8,0:0:0:0:
320,96,152743,1,0,0:0:0:0:
320,96,152797,1,0,0:0:0:0:
320,96,152850,1,0,0:0:0:0:
352,64,152957,1,8,0:0:0:0:
352,64,153065,1,8,0:0:0:0:
352,64,153172,1,0,0:0:0:0:
352,64,153386,1,0,0:0:0:0:
352,128,153493,1,12,0:0:0:0:
352,128,153600,1,8,0:0:0:0:
352,128,153707,1,0,0:0:0:0:
160,160,153815,1,8,0:0:0:0:
352,128,153922,1,8,0:0:0:0:
352,160,154029,1,0,0:0:0:0:
251,184,154083,1,0,0:0:0:0:
352,160,154136,1,0,0:0:0:0:
352,160,154243,1,8,0:0:0:0:
416,128,154350,1,8,0:0:0:0:
96,160,154565,1,0,0:0:0:0:
320,96,154779,1,0,0:0:0:0:
320,96,154886,1,8,0:0:0:0:
320,96,154993,1,8,0:0:0:0:
384,128,155100,1,0,0:0:0:0:
352,96,155208,1,12,0:0:0:0:
352,96,155315,1,8,0:0:0:0:
276,187,155369,1,8,0:0:0:0:
352,96,155422,1,0,0:0:0:0:
352,96,155529,1,0,0:0:0:0:
352,96,155636,1,12,0:0:0:0:
352,96,155743,1,8,0:0:0:0:
276,187,155797,1,8,0:0:0:0:
160,128,155850,1,0,0:0:0:0:
224,96,155958,1,0,0:0:0:0:
224,96,156065,1,12,0:0:0:0:
281,192,156119,1,8,0:0:0:0:
224,96,156172,1,8,0:0:0:0:
224,96,156279,1,0,0:0:0:0:
224,96,156386,1,0,0:0:0:0:
256,96,156493,1,12,0:0:0:0:
352,96,156600,1,0,0:0:0:0:
352,64,156708,1,0,0:0:0:0:
352,64,156815,1,8,0:0:0:0:
352,64,156922,1,12,0:0:0:0:
352,64,157029,1,0,0:0:0:0:
292,185,157083,1,0,0:0:0:0:
352,64,157136,1,0,0:0:0:0:
352,64,157243,1,8,0:0:0:0:
352,64,157350,1,12,0:0:0:0:
352,64,157458,1,0,0:0:0:0:
299,191,157512,1,0,0:0:0:0:
352,64,157565,1,0,0:0:0:0:
352,64,157672,1,8,0:0:0:0:
352,64,157779,1,12,0:0:0:0:
352,96,157886,1,0,0:0:0:0:
292,193,157940,1,0,0:0:0:0:
352,96,157993,1,0,0:0:0:0:
352,96,158100,1,8,0:0:0:0:
384,64,158208,1,8,0:0:0:0:
384,64,158261,1,8,0:0:0:0:
384,64,158315,1,8,0:0:0:0:
384,64,158422,1,8,0:0:0:0:
384,64,158529,1,8,0:0:0:0:
320,96,158636,1,12,0:0:0:0:
352,96,158743,1,0,0:0:0:0:
352,96,158850,1,0,0:0:0:0:
352,96,158957,1,0,0:0:0:0:
352,96,159064,1,8,0:0:0:0:
352,96,159172,1,0,0:0:0:0:
218,155,159226,1,0,0:0:0:0:
352,96,159279,1,0,0:0:0:0:
352,96,159386,1,8,0:0:0:0:
288,128,159493,1,8,0:0:0:0:
320,96,159547,1,8,0:0:0:0:
320,96,159600,1,0,0:0:0:0:
320,96,159654,1,0,0:0:0:0:
320,96,159707,1,0,0:0:0:0:
352,64,159814,1,8,0:0:0:0:
352,64,159922,1,8,0:0:0:0:
352,64,160029,1,0,0:0:0:0:
484,182,160083,1,0,0:0:0:0:
332,106,160137,1,0,0:0:0:0:
451,204,160190,1,0,0:0:0:0:
291,91,160244,1,8,0:0:0:0:
352,128,160350,1,12,0:0:0:0:
352,128,160457,1,8,0:0:0:0:
256,129,160512,1,8,0:0:0:0:
352,128,160564,1,0,0:0:0:0:
160,160,160672,1,8,0:0:0:0:
352,128,160779,1,8,0:0:0:0:
352,160,160886,1,8,0:0:0:0:
275,133,160940,1,8,0:0:0:0:
352,160,160993,1,0,0:0:0:0:
352,160,161100,1,8,0:0:0:0:
416,128,161207,1,8,0:0:0:0:
416,128,161314,1,8,0:0:0:0:
320,160,161422,1,8,0:0:0:0:
320,128,161529,1,0,0:0:0:0:
320,160,161636,1,8,0:0:0:0:
271,75,161690,1,8,0:0:0:0:
271,75,161744,1,8,0:0:0:0:
271,75,161797,1,8,0:0:0:0:
271,75,161851,1,0,0:0:0:0:
271,75,161905,1,0,0:0:0:0:
275,79,161958,1,0,0:0:0:0:
275,79,162012,1,0,0:0:0:0:
320,96,162064,1,12,0:0:0:0:
352,96,162171,1,8,0:0:0:0:
352,96,162278,1,8,0:0:0:0:
352,96,162385,1,0,0:0:0:0:
352,96,162492,1,8,0:0:0:0:
352,96,162600,1,0,0:0:0:0:
352,96,162707,1,0,0:0:0:0:
352,96,162814,1,8,0:0:0:0:
288,128,162921,1,8,0:0:0:0:
320,96,162975,1,8,0:0:0:0:
320,96,163028,1,0,0:0:0:0:
320,96,163082,1,0,0:0:0:0:
320,96,163135,1,0,0:0:0:0:
384,96,163189,1,0,0:0:0:0:
352,64,163242,1,8,0:0:0:0:
480,128,163297,1,8,0:0:0:0:
352,64,163350,1,8,0:0:0:0:
352,64,163457,1,0,0:0:0:0:
352,64,163671,1,0,0:0:0:0:
352,128,163778,1,12,0:0:0:0:
352,128,163885,1,8,0:0:0:0:
229,171,163940,1,8,0:0:0:0:
352,128,163992,1,0,0:0:0:0:
160,160,164100,1,8,0:0:0:0:
352,128,164207,1,8,0:0:0:0:
352,160,164314,1,8,0:0:0:0:
264,168,164369,1,8,0:0:0:0:
352,160,164421,1,0,0:0:0:0:
352,160,164528,1,8,0:0:0:0:
416,128,164635,1,8,0:0:0:0:
128,128,164689,1,8,0:0:0:0:
416,128,164742,1,0,0:0:0:0:
320,160,164850,1,8,0:0:0:0:
320,128,164957,1,0,0:0:0:0:
320,160,165064,1,8,0:0:0:0:
320,224,165118,1,8,0:0:0:0:
256,160,165172,1,0,0:0:0:0:
320,192,165225,1,0,0:0:0:0:
320,192,165279,1,8,0:0:0:0:
320,192,165386,1,0,0:0:0:0:
320,96,165493,1,12,0:0:0:0:
352,96,165600,1,8,0:0:0:0:
352,96,165707,1,8,0:0:0:0:
352,96,165814,1,0,0:0:0:0:
352,96,165921,1,8,0:0:0:0:
352,96,166029,1,0,0:0:0:0:
352,96,166136,1,0,0:0:0:0:
352,96,166243,1,8,0:0:0:0:
288,128,166350,1,8,0:0:0:0:
320,96,166404,1,8,0:0:0:0:
320,96,166457,1,0,0:0:0:0:
320,96,166511,1,0,0:0:0:0:
320,96,166564,1,0,0:0:0:0:
352,64,166671,1,8,0:0:0:0:
352,64,166779,1,8,0:0:0:0:
352,64,166886,1,0,0:0:0:0:
352,64,167100,1,0,0:0:0:0:
352,128,167207,1,12,0:0:0:0:
352,128,167314,1,8,0:0:0:0:
352,128,167421,1,0,0:0:0:0:
160,160,167529,1,8,0:0:0:0:
352,128,167636,1,8,0:0:0:0:
352,160,167743,1,0,0:0:0:0:
251,130,167797,1,0,0:0:0:0:
352,160,167850,1,0,0:0:0:0:
352,160,167957,1,8,0:0:0:0:
416,128,168064,1,8,0:0:0:0:
96,160,168279,1,0,0:0:0:0:
320,96,168493,1,0,0:0:0:0:
320,96,168600,1,8,0:0:0:0:
320,96,168707,1,8,0:0:0:0:
384,128,168814,1,0,0:0:0:0:
352,96,168922,1,12,0:0:0:0:
352,96,169029,1,8,0:0:0:0:
266,101,169083,1,8,0:0:0:0:
352,96,169136,1,0,0:0:0:0:
352,96,169243,1,0,0:0:0:0:
352,96,169350,1,12,0:0:0:0:
352,96,169457,1,8,0:0:0:0:
276,112,169512,1,8,0:0:0:0:
160,128,169564,1,0,0:0:0:0:
224,96,169672,1,0,0:0:0:0:
224,96,169779,1,12,0:0:0:0:
276,114,169833,1,8,0:0:0:0:
224,96,169886,1,8,0:0:0:0:
224,96,169993,1,0,0:0:0:0:
224,96,170100,1,0,0:0:0:0:
256,96,170207,1,12,0:0:0:0:
352,96,170314,1,0,0:0:0:0:
284,116,170369,1,0,0:0:0:0:
352,64,170422,1,0,0:0:0:0:
352,64,170529,1,8,0:0:0:0:
352,64,170636,1,12,0:0:0:0:
352,64,170743,1,0,0:0:0:0:
284,116,170797,1,0,0:0:0:0:
352,64,170850,1,4,0:0:0:0:
352,64,170957,1,8,0:0:0:0:
352,64,171064,1,12,0:0:0:0:
352,64,171172,1,0,0:0:0:0:
284,116,171226,1,0,0:0:0:0:
352,64,171279,1,4,0:0:0:0:
352,64,171386,1,8,0:0:0:0:
352,64,171493,1,12,0:0:0:0:
352,96,171600,1,0,0:0:0:0:
352,96,171707,1,4,0:0:0:0:
352,96,171814,1,8,0:0:0:0:
224,192,171922,1,0,0:0:0:0:
288,160,171975,1,0,0:0:0:0:
288,160,172029,1,0,0:0:0:0:
288,160,172083,1,0,0:0:0:0:
352,64,172136,1,8,0:0:0:0:
384,96,172190,1,8,0:0:0:0:
384,96,172243,1,8,0:0:0:0:
384,96,172297,1,8,0:0:0:0:
384,96,172351,1,0,0:0:0:0:
384,160,172780,1,12,0:0:0:0:
