osu file format v14

[General]
AudioFilename: audio.mp3
AudioLeadIn: 0
PreviewTime: 85428
Countdown: 0
SampleSet: None
StackLeniency: 0.7
Mode: 3
LetterboxInBreaks: 0
SpecialStyle: 0
WidescreenStoryboard: 0

[Editor]
DistanceSpacing: 0.8
BeatDivisor: 4
GridSize: 8
TimelineZoom: 2

[Metadata]
Title:Kusaregedou to Chokoreito
TitleUnicode:Kusaregedou to Chokoreito
Artist:Pinocchio-P/Hatsune Miku
ArtistUnicode:Pinocchio-P/Hatsune Miku
Creator:Purrinya
Version:
Source:
Tags:
BeatmapID:1072044
BeatmapSetID:503799

[Difficulty]
HPDrainRate:7
CircleSize:7
OverallDifficulty:8
ApproachRate:5
SliderMultiplier:1.6
SliderTickRate:1

[Events]
//Background and Video events
0,0,"Kusaregedou to Chokoreito.jpg",0,0
//Break Periods
//Storyboard Layer 0 (Background)
//Storyboard Layer 1 (Fail)
//Storyboard Layer 2 (Pass)
//Storyboard Layer 3 (Foreground)
//Storyboard Sound Samples

[TimingPoints]
505,230.769230769231,4,2,0,20,1,0
735,-333.333333333333,4,2,0,20,0,0
1024,-50,4,2,0,20,0,0
1197,-1000,4,2,0,20,0,0
1226,-100,4,2,0,20,0,0
1255,-1000,4,2,0,20,0,0
1283,-100,4,2,0,20,0,0
1312,-1000,4,2,0,20,0,0
1341,-100,4,2,0,20,0,0
1370,-1000,4,2,0,20,0,0
1399,-200,4,2,0,20,0,0
1428,-100,4,2,0,20,0,0
1889,-1000,4,2,0,20,0,0
1918,-100,4,2,0,20,0,0
1947,-1000,4,2,0,20,0,0
1976,-100,4,2,0,20,0,0
2005,-1000,4,2,0,20,0,0
2033,-100,4,2,0,20,0,0
2062,-1000,4,2,0,20,0,0
2091,-100,4,2,0,20,0,0
2120,-1000,4,2,0,20,0,0
2149,-100,4,2,0,20,0,0
2178,-1000,4,2,0,20,0,0
2206,-100,4,2,0,20,0,0
2235,-1000,4,2,0,20,0,0
2264,-100,4,2,0,20,0,0
2293,-1000,4,2,0,20,0,0
2322,-100,4,2,0,20,0,0
2351,-1000,4,2,0,20,0,0
2466,-66.6666666666667,4,2,0,20,0,0
2495,-133.333333333333,4,2,0,20,0,0
2524,-55.5555555555556,4,2,0,20,0,0
2553,-250,4,2,0,20,0,0
2581,-90.9090909090909,4,2,0,20,0,0
2610,-1000,4,2,0,20,0,0
2639,-62.5,4,2,0,20,0,0
2668,-133.333333333333,4,2,0,20,0,0
2697,-66.6666666666667,4,2,0,20,0,0
2726,-111.111111111111,4,2,0,20,0,0
2755,-50,4,2,0,20,0,0
2783,-1000,4,2,0,20,0,0
2812,-66.6666666666667,4,2,0,20,0,0
2841,-200,4,2,0,20,0,0
2870,-58.8235294117647,4,2,0,20,0,0
2899,-333.333333333333,4,2,0,20,0,0
2928,-71.4285714285714,4,2,0,20,0,0
2956,-142.857142857143,4,2,0,20,0,0
2985,-55.5555555555556,4,2,0,20,0,0
3014,-200,4,2,0,20,0,0
3043,-52.6315789473684,4,2,0,20,0,0
3072,-100,4,2,0,20,0,0
3101,-62.5,4,2,0,20,0,0
3130,-500,4,2,0,20,0,0
3158,-66.6666666666667,4,2,0,20,0,0
3187,-133.333333333333,4,2,0,20,0,0
3216,-100,4,2,0,20,0,0
3245,-142.857142857143,4,2,0,20,0,0
3274,-333.333333333333,4,2,0,20,0,0
3303,-100,4,2,0,20,0,0
3331,-1000,4,2,0,20,0,0
3360,-100,4,2,0,20,0,0
3389,-1000,4,2,0,20,0,0
3418,-100,4,2,0,20,0,0
3447,-1000,4,2,0,20,0,0
3476,-100,4,2,0,20,0,0
3505,-1000,4,2,0,20,0,0
3533,-100,4,2,0,20,0,0
3562,-1000,4,2,0,20,0,0
3591,-100,4,2,0,20,0,0
3620,-1000,4,2,0,20,0,0
3649,-100,4,2,0,20,0,0
3678,-1000,4,2,0,20,0,0
3706,-100,4,2,0,20,0,0
3735,-1000,4,2,0,20,0,0
3966,-50,4,2,0,20,0,0
4197,-100,4,2,0,20,0,0
10658,-33.3333333333333,4,2,0,20,0,0
10831,-1000,4,2,0,20,0,0
11005,-33.3333333333333,4,2,0,20,0,0
11178,-1000,4,2,0,20,0,0
11351,-33.3333333333333,4,2,0,20,0,0
11466,-1000,4,2,0,20,0,0
11581,-100,4,2,0,20,0,0
14351,-200,4,2,0,20,0,0
14524,-66.6666666666667,4,2,0,20,0,0
14697,-200,4,2,0,20,0,0
14985,-66.6666666666667,4,2,0,20,0,0
15158,-133.333333333333,4,2,0,20,0,0
15274,-100,4,2,0,20,0,0
22197,-1000,4,2,0,20,0,0
22226,-50,4,2,0,20,0,0
22255,-1000,4,2,0,20,0,0
22283,-50,4,2,0,20,0,0
22312,-1000,4,2,0,20,0,0
22543,-50,4,2,0,20,0,0
22601,-100,4,2,0,20,0,0
25428,-83.3333333333333,4,2,0,20,0,0
25601,-200,4,2,0,20,0,0
25658,-83.3333333333333,4,2,0,20,0,0
25831,-133.333333333333,4,2,0,20,0,0
25889,-100,4,2,0,20,0,0
32812,-333.333333333333,4,2,0,20,0,0
33389,-66.6666666666667,4,2,0,20,0,0
33418,-200,4,2,0,20,0,0
33447,-66.6666666666667,4,2,0,20,0,0
33476,-250,4,2,0,20,0,0
33505,-66.6666666666667,4,2,0,20,0,0
33533,-333.333333333333,4,2,0,20,0,0
33735,-100,4,2,0,20,0,0
36735,-500,4,2,0,20,0,0
36764,-100,4,2,0,20,0,0
36793,-333.333333333333,4,2,0,20,0,0
36822,-100,4,2,0,20,0,0
36851,-200,4,2,0,20,0,0
36966,-1000,4,2,0,20,0,0
36995,-50,4,2,0,20,0,0
37024,-1000,4,2,0,20,0,0
37053,-50,4,2,0,20,0,0
37081,-1000,4,2,0,20,0,0
37312,-50,4,2,0,20,0,0
37370,-100,4,2,0,20,0,0
39274,-66.6666666666667,4,2,0,20,0,0
39447,-333.333333333333,4,2,0,20,0,0
39505,-66.6666666666667,4,2,0,20,0,0
39678,-333.333333333333,4,2,0,20,0,0
39851,-66.6666666666667,4,2,0,20,0,0
40024,-333.333333333333,4,2,0,20,0,0
40081,-66.6666666666667,4,2,0,20,0,0
40255,-333.333333333333,4,2,0,20,0,0
40312,-66.6666666666667,4,2,0,20,0,0
40485,-333.333333333333,4,2,0,20,0,0
40658,-100,4,2,0,20,0,0
40687,-1000,4,2,0,20,0,0
40716,-100,4,2,0,20,0,0
40745,-1000,4,2,0,20,0,0
40774,-100,4,2,0,20,0,0
40803,-1000,4,2,0,20,0,0
40831,-100,4,2,0,20,0,0
40860,-1000,4,2,0,20,0,0
40889,-50,4,2,0,20,0,0
40918,-1000,4,2,0,20,0,0
40947,-50,4,2,0,20,0,0
40976,-1000,4,2,0,20,0,0
41005,-50,4,2,0,20,0,0
41033,-1000,4,2,0,20,0,0
41091,-50,4,2,0,20,0,0
41120,-100,4,2,0,20,0,0
47581,-1000,4,2,0,20,0,0
47610,-50,4,2,0,20,0,0
47639,-1000,4,2,0,20,0,0
47668,-50,4,2,0,20,0,0
47697,-1000,4,2,0,20,0,0
47726,-50,4,2,0,20,0,0
47755,-1000,4,2,0,20,0,0
47783,-50,4,2,0,20,0,0
47812,-1000,4,2,0,20,0,0
47841,-50,4,2,0,20,0,0
47870,-1000,4,2,0,20,0,0
47899,-50,4,2,0,20,0,0
47928,-1000,4,2,0,20,0,0
47956,-50,4,2,0,20,0,0
47985,-1000,4,2,0,20,0,0
48014,-50,4,2,0,20,0,0
48043,-100,4,2,0,20,0,0
59351,-333.333333333333,4,2,0,20,0,0
59380,-66.6666666666667,4,2,0,20,0,0
59408,-333.333333333333,4,2,0,20,0,0
59437,-66.6666666666667,4,2,0,20,0,0
59466,-333.333333333333,4,2,0,20,0,0
59495,-66.6666666666667,4,2,0,20,0,0
59524,-333.333333333333,4,2,0,20,0,0
59553,-66.6666666666667,4,2,0,20,0,0
59581,-100,4,2,0,20,0,0
64658,-50,4,2,0,20,0,0
64687,-333.333333333333,4,2,0,20,0,0
64716,-50,4,2,0,20,0,0
64745,-333.333333333333,4,2,0,20,0,0
64774,-50,4,2,0,20,0,0
64803,-333.333333333333,4,2,0,20,0,0
64831,-50,4,2,0,20,0,0
64860,-333.333333333333,4,2,0,20,0,0
64889,-100,4,2,0,20,0,0
66043,-200,4,2,0,20,0,0
66274,-66.6666666666667,4,2,0,20,0,0
66447,-200,4,2,0,20,0,0
66678,-66.6666666666667,4,2,0,20,0,0
66851,-200,4,2,0,20,0,0
66966,-100,4,2,0,20,0,0
68351,-50,4,2,0,20,0,0
68380,-333.333333333333,4,2,0,20,0,0
68408,-50,4,2,0,20,0,0
68437,-333.333333333333,4,2,0,20,0,0
68466,-50,4,2,0,20,0,0
68495,-333.333333333333,4,2,0,20,0,0
68524,-50,4,2,0,20,0,0
68553,-333.333333333333,4,2,0,20,0,0
68581,-100,4,2,0,20,0,0
69274,-50,4,2,0,20,0,0
69303,-333.333333333333,4,2,0,20,0,0
69331,-50,4,2,0,20,0,0
69360,-333.333333333333,4,2,0,20,0,0
69389,-50,4,2,0,20,0,0
69418,-333.333333333333,4,2,0,20,0,0
69447,-50,4,2,0,20,0,0
69476,-333.333333333333,4,2,0,20,0,0
69505,-100,4,2,0,20,0,0
69735,-200,4,2,0,20,0,0
70658,-100,4,2,0,20,0,0
70889,-83.3333333333333,4,2,0,20,0,0
70918,-142.857142857143,4,2,0,20,0,0
70947,-83.3333333333333,4,2,0,20,0,0
70976,-142.857142857143,4,2,0,20,0,0
71005,-83.3333333333333,4,2,0,20,0,0
71033,-142.857142857143,4,2,0,20,0,0
71062,-83.3333333333333,4,2,0,20,0,0
71091,-142.857142857143,4,2,0,20,0,0
71120,-83.3333333333333,4,2,0,20,0,0
71149,-166.666666666667,4,2,0,20,0,0
71178,-83.3333333333333,4,2,0,20,0,0
71206,-166.666666666667,4,2,0,20,0,0
71235,-83.3333333333333,4,2,0,20,0,0
71264,-166.666666666667,4,2,0,20,0,0
71293,-83.3333333333333,4,2,0,20,0,0
71322,-166.666666666667,4,2,0,20,0,0
71351,-76.9230769230769,4,2,0,20,0,0
71380,-166.666666666667,4,2,0,20,0,0
71408,-76.9230769230769,4,2,0,20,0,0
71437,-166.666666666667,4,2,0,20,0,0
71466,-76.9230769230769,4,2,0,20,0,0
71495,-166.666666666667,4,2,0,20,0,0
71524,-76.9230769230769,4,2,0,20,0,0
71553,-166.666666666667,4,2,0,20,0,0
71581,-100,4,2,0,20,0,0
73428,-125,4,2,0,20,0,0
73658,-142.857142857143,4,2,0,20,0,0
74120,-83.3333333333333,4,2,0,20,0,0
74149,-142.857142857143,4,2,0,20,0,0
74178,-83.3333333333333,4,2,0,20,0,0
74206,-142.857142857143,4,2,0,20,0,0
74235,-83.3333333333333,4,2,0,20,0,0
74264,-142.857142857143,4,2,0,20,0,0
74293,-83.3333333333333,4,2,0,20,0,0
74322,-142.857142857143,4,2,0,20,0,0
74351,-76.9230769230769,4,2,0,20,0,0
74380,-142.857142857143,4,2,0,20,0,0
74408,-76.9230769230769,4,2,0,20,0,0
74437,-166.666666666667,4,2,0,20,0,0
74466,-76.9230769230769,4,2,0,20,0,0
74495,-142.857142857143,4,2,0,20,0,0
74524,-76.9230769230769,4,2,0,20,0,0
74553,-166.666666666667,4,2,0,20,0,0
74581,-71.4285714285714,4,2,0,20,0,0
74610,-166.666666666667,4,2,0,20,0,0
74639,-71.4285714285714,4,2,0,20,0,0
74668,-166.666666666667,4,2,0,20,0,0
74697,-71.4285714285714,4,2,0,20,0,0
74726,-166.666666666667,4,2,0,20,0,0
74755,-71.4285714285714,4,2,0,20,0,0
74783,-166.666666666667,4,2,0,20,0,0
74812,-66.6666666666667,4,2,0,20,0,0
74841,-200,4,2,0,20,0,0
74870,-66.6666666666667,4,2,0,20,0,0
74899,-200,4,2,0,20,0,0
74928,-66.6666666666667,4,2,0,20,0,0
74956,-200,4,2,0,20,0,0
74985,-66.6666666666667,4,2,0,20,0,0
75014,-200,4,2,0,20,0,0
75043,-62.5,4,2,0,20,0,0
75072,-250,4,2,0,20,0,0
75101,-62.5,4,2,0,20,0,0
75130,-250,4,2,0,20,0,0
75158,-62.5,4,2,0,20,0,0
75187,-250,4,2,0,20,0,0
75216,-62.5,4,2,0,20,0,0
75245,-250,4,2,0,20,0,0
75274,-58.8235294117647,4,2,0,20,0,0
75303,-333.333333333333,4,2,0,20,0,0
75331,-58.8235294117647,4,2,0,20,0,0
75360,-333.333333333333,4,2,0,20,0,0
75389,-58.8235294117647,4,2,0,20,0,0
75418,-333.333333333333,4,2,0,20,0,0
75447,-58.8235294117647,4,2,0,20,0,0
75476,-333.333333333333,4,2,0,20,0,0
75505,-66.6666666666667,4,2,0,20,0,0
75533,-200,4,2,0,20,0,0
75562,-66.6666666666667,4,2,0,20,0,0
75591,-200,4,2,0,20,0,0
75620,-66.6666666666667,4,2,0,20,0,0
75649,-200,4,2,0,20,0,0
75678,-66.6666666666667,4,2,0,20,0,0
75706,-200,4,2,0,20,0,0
75735,-76.9230769230769,4,2,0,20,0,0
75764,-142.857142857143,4,2,0,20,0,0
75793,-76.9230769230769,4,2,0,20,0,0
75822,-142.857142857143,4,2,0,20,0,0
75851,-76.9230769230769,4,2,0,20,0,0
75880,-142.857142857143,4,2,0,20,0,0
75908,-76.9230769230769,4,2,0,20,0,0
75937,-142.857142857143,4,2,0,20,0,0
75966,-83.3333333333333,4,2,0,20,0,0
75995,-125,4,2,0,20,0,0
76024,-83.3333333333333,4,2,0,20,0,0
76053,-125,4,2,0,20,0,0
76081,-83.3333333333333,4,2,0,20,0,0
76110,-125,4,2,0,20,0,0
76139,-83.3333333333333,4,2,0,20,0,0
76168,-125,4,2,0,20,0,0
76197,-66.6666666666667,4,2,0,20,0,0
76370,-333.333333333333,4,2,0,20,0,0
76428,-66.6666666666667,4,2,0,20,0,0
76601,-333.333333333333,4,2,0,20,0,0
76774,-66.6666666666667,4,2,0,20,0,0
76947,-333.333333333333,4,2,0,20,0,0
77005,-66.6666666666667,4,2,0,20,0,0
77178,-333.333333333333,4,2,0,20,0,0
77235,-66.6666666666667,4,2,0,20,0,0
77408,-333.333333333333,4,2,0,20,0,0
77581,-66.6666666666667,4,2,0,20,0,0
77755,-333.333333333333,4,2,0,20,0,0
77812,-100,4,2,0,20,0,0

[HitObjects]
182,192,505,5,0,0:0:0:0:
182,192,620,1,0,0:0:0:0:
182,192,735,1,0,0:0:0:0:
256,192,735,1,0,0:0:0:0:
329,192,1024,128,0,1197:0:0:0:0:
182,192,1197,128,0,1428:0:0:0:0:
256,192,1428,128,0,1658:0:0:0:0:
402,192,1658,128,0,1889:0:0:0:0:
475,192,1889,128,0,2351:0:0:0:0:
402,192,2235,128,0,4197:0:0:0:0:
182,192,3274,128,0,3735:0:0:0:0:
256,192,3966,128,0,4197:0:0:0:0:
36,192,4197,128,0,4428:0:0:0:0:
182,192,4197,1,0,0:0:0:0:
329,192,4197,128,0,4428:0:0:0:0:
475,192,4428,1,0,0:0:0:0:
402,192,4543,1,0,0:0:0:0:
329,192,4658,1,0,0:0:0:0:
182,192,4774,1,0,0:0:0:0:
256,192,4889,128,0,5120:0:0:0:0:
475,192,4889,128,0,5120:0:0:0:0:
402,192,5120,128,0,5351:0:0:0:0:
182,192,5120,1,0,0:0:0:0:
109,192,5408,1,0,0:0:0:0:
182,192,5524,1,0,0:0:0:0:
256,192,5581,1,0,0:0:0:0:
329,192,5697,1,0,0:0:0:0:
402,192,5812,128,0,6043:0:0:0:0:
182,192,5812,128,0,6043:0:0:0:0:
109,192,6043,128,0,6274:0:0:0:0:
329,192,6043,1,0,0:0:0:0:
256,192,6158,1,0,0:0:0:0:
182,192,6274,1,0,0:0:0:0:
109,192,6389,1,0,0:0:0:0:
36,192,6505,1,0,0:0:0:0:
256,192,6620,1,0,0:0:0:0:
402,192,6735,128,0,6966:0:0:0:0:
36,192,6966,1,0,0:0:0:0:
109,192,6966,1,0,0:0:0:0:
256,192,7081,1,0,0:0:0:0:
182,192,7081,1,0,0:0:0:0:
402,192,7197,1,0,0:0:0:0:
475,192,7197,1,0,0:0:0:0:
256,192,7312,1,0,0:0:0:0:
182,192,7312,1,0,0:0:0:0:
329,192,7428,1,0,0:0:0:0:
402,192,7428,1,0,0:0:0:0:
256,192,7543,1,0,0:0:0:0:
182,192,7543,1,0,0:0:0:0:
36,192,7658,1,0,0:0:0:0:
182,192,7658,1,0,0:0:0:0:
256,192,7716,1,0,0:0:0:0:
109,192,7716,1,0,0:0:0:0:
329,192,7774,1,0,0:0:0:0:
182,192,7774,1,0,0:0:0:0:
402,192,7831,1,0,0:0:0:0:
256,192,7831,1,0,0:0:0:0:
329,192,7889,1,0,0:0:0:0:
475,192,7889,1,0,0:0:0:0:
36,192,7889,128,0,8120:0:0:0:0:
109,192,8120,1,0,0:0:0:0:
182,192,8235,1,0,0:0:0:0:
256,192,8351,1,0,0:0:0:0:
402,192,8466,1,0,0:0:0:0:
329,192,8581,128,0,8812:0:0:0:0:
109,192,8581,128,0,8812:0:0:0:0:
256,192,8812,128,0,9043:0:0:0:0:
36,192,8812,1,0,0:0:0:0:
402,192,9101,1,0,0:0:0:0:
182,192,9216,1,0,0:0:0:0:
256,192,9274,1,0,0:0:0:0:
329,192,9389,1,0,0:0:0:0:
402,192,9505,128,0,9735:0:0:0:0:
182,192,9505,128,0,9735:0:0:0:0:
256,192,9735,128,0,9966:0:0:0:0:
475,192,9735,1,0,0:0:0:0:
402,192,9851,1,0,0:0:0:0:
329,192,9966,1,0,0:0:0:0:
109,192,10081,1,0,0:0:0:0:
182,192,10197,1,0,0:0:0:0:
256,192,10312,1,0,0:0:0:0:
402,192,10428,1,0,0:0:0:0:
36,192,10428,128,0,10658:0:0:0:0:
329,192,10658,1,0,0:0:0:0:
402,192,10658,1,0,0:0:0:0:
329,192,11005,1,0,0:0:0:0:
256,192,11005,1,0,0:0:0:0:
182,192,11351,1,0,0:0:0:0:
109,192,11351,1,0,0:0:0:0:
36,192,11581,128,0,11812:0:0:0:0:
256,192,11581,1,0,0:0:0:0:
329,192,11581,128,0,11812:0:0:0:0:
109,192,11812,1,0,0:0:0:0:
402,192,11812,1,0,0:0:0:0:
475,192,11812,1,0,0:0:0:0:
182,192,11928,1,0,0:0:0:0:
256,192,12043,1,0,0:0:0:0:
475,192,12043,1,0,0:0:0:0:
402,192,12158,1,0,0:0:0:0:
329,192,12274,1,0,0:0:0:0:
36,192,12274,128,0,12505:0:0:0:0:
109,192,12274,128,0,12505:0:0:0:0:
475,192,12274,1,0,0:0:0:0:
256,192,12389,128,0,12735:0:0:0:0:
182,192,12389,128,0,12735:0:0:0:0:
402,192,12505,1,0,0:0:0:0:
329,192,12735,1,0,0:0:0:0:
475,192,12735,1,0,0:0:0:0:
36,192,12793,1,0,0:0:0:0:
109,192,12908,1,0,0:0:0:0:
182,192,12966,1,0,0:0:0:0:
256,192,13081,1,0,0:0:0:0:
329,192,13197,128,0,13428:0:0:0:0:
402,192,13197,1,0,0:0:0:0:
475,192,13197,1,0,0:0:0:0:
475,192,13428,1,0,0:0:0:0:
182,192,13428,1,0,0:0:0:0:
402,192,13543,1,0,0:0:0:0:
329,192,13658,1,0,0:0:0:0:
182,192,13658,1,0,0:0:0:0:
109,192,13658,1,0,0:0:0:0:
256,192,13774,1,0,0:0:0:0:
36,192,13889,1,0,0:0:0:0:
329,192,13889,1,0,0:0:0:0:
109,192,14005,1,0,0:0:0:0:
402,192,14120,1,0,0:0:0:0:
475,192,14120,1,0,0:0:0:0:
182,192,14120,128,0,14351:0:0:0:0:
256,192,14351,128,0,14524:0:0:0:0:
329,192,14351,128,0,14524:0:0:0:0:
402,192,14524,128,0,14697:0:0:0:0:
475,192,14524,128,0,14697:0:0:0:0:
109,192,14697,128,0,14985:0:0:0:0:
36,192,14697,128,0,14985:0:0:0:0:
182,192,14985,128,0,15158:0:0:0:0:
256,192,14985,128,0,15158:0:0:0:0:
329,192,15158,128,0,15274:0:0:0:0:
402,192,15158,128,0,15274:0:0:0:0:
36,192,15274,128,0,15505:0:0:0:0:
109,192,15274,1,0,0:0:0:0:
182,192,15505,1,0,0:0:0:0:
402,192,15505,1,0,0:0:0:0:
475,192,15505,1,0,0:0:0:0:
329,192,15620,1,0,0:0:0:0:
256,192,15735,1,0,0:0:0:0:
109,192,15735,1,0,0:0:0:0:
182,192,15851,1,0,0:0:0:0:
109,192,15966,128,0,16197:0:0:0:0:
329,192,15966,128,0,16197:0:0:0:0:
475,192,15966,1,0,0:0:0:0:
36,192,15966,1,0,0:0:0:0:
182,192,16081,128,0,16312:0:0:0:0:
402,192,16081,128,0,16312:0:0:0:0:
256,192,16197,1,0,0:0:0:0:
109,192,16428,1,0,0:0:0:0:
329,192,16428,1,0,0:0:0:0:
475,192,16428,1,0,0:0:0:0:
182,192,16485,1,0,0:0:0:0:
256,192,16601,1,0,0:0:0:0:
329,192,16658,1,0,0:0:0:0:
475,192,16658,1,0,0:0:0:0:
402,192,16774,1,0,0:0:0:0:
475,192,16889,1,0,0:0:0:0:
36,192,16889,128,0,17120:0:0:0:0:
329,192,16889,1,0,0:0:0:0:
109,192,17120,1,0,0:0:0:0:
256,192,17120,1,0,0:0:0:0:
329,192,17235,1,0,0:0:0:0:
402,192,17351,1,0,0:0:0:0:
109,192,17351,1,0,0:0:0:0:
475,192,17351,1,0,0:0:0:0:
182,192,17466,1,0,0:0:0:0:
256,192,17581,1,0,0:0:0:0:
475,192,17581,1,0,0:0:0:0:
402,192,17697,1,0,0:0:0:0:
329,192,17812,1,0,0:0:0:0:
109,192,17812,1,0,0:0:0:0:
36,192,17812,1,0,0:0:0:0:
475,192,18043,1,0,0:0:0:0:
475,192,18158,1,0,0:0:0:0:
402,192,18274,1,0,0:0:0:0:
329,192,18389,1,0,0:0:0:0:
256,192,18505,1,0,0:0:0:0:
182,192,18620,1,0,0:0:0:0:
182,192,18735,1,0,0:0:0:0:
109,192,18851,1,0,0:0:0:0:
36,192,18966,1,0,0:0:0:0:
329,192,18966,1,0,0:0:0:0:
475,192,18966,128,0,19197:0:0:0:0:
256,192,19081,1,0,0:0:0:0:
329,192,19197,1,0,0:0:0:0:
36,192,19197,1,0,0:0:0:0:
109,192,19197,1,0,0:0:0:0:
182,192,19312,1,0,0:0:0:0:
256,192,19428,1,0,0:0:0:0:
109,192,19428,1,0,0:0:0:0:
329,192,19543,1,0,0:0:0:0:
182,192,19543,1,0,0:0:0:0:
475,192,19658,1,0,0:0:0:0:
256,192,19658,1,0,0:0:0:0:
36,192,19658,1,0,0:0:0:0:
402,192,19774,1,0,0:0:0:0:
329,192,19889,1,0,0:0:0:0:
182,192,19889,1,0,0:0:0:0:
36,192,20120,1,0,0:0:0:0:
256,192,20120,1,0,0:0:0:0:
402,192,20120,1,0,0:0:0:0:
109,192,20235,1,0,0:0:0:0:
329,192,20235,1,0,0:0:0:0:
402,192,20466,1,0,0:0:0:0:
256,192,20466,1,0,0:0:0:0:
475,192,20581,1,0,0:0:0:0:
182,192,20581,1,0,0:0:0:0:
109,192,20581,128,0,20812:0:0:0:0:
36,192,20812,128,0,21043:0:0:0:0:
256,192,20812,1,0,0:0:0:0:
402,192,20812,1,0,0:0:0:0:
182,192,21043,1,0,0:0:0:0:
329,192,21043,1,0,0:0:0:0:
475,192,21043,1,0,0:0:0:0:
402,192,21158,1,0,0:0:0:0:
329,192,21274,1,0,0:0:0:0:
256,192,21389,1,0,0:0:0:0:
36,192,21389,1,0,0:0:0:0:
109,192,21505,1,0,0:0:0:0:
329,192,21505,1,0,0:0:0:0:
182,192,21505,1,0,0:0:0:0:
402,192,21620,1,0,0:0:0:0:
475,192,21735,128,0,21966:0:0:0:0:
329,192,21966,128,0,22197:0:0:0:0:
182,192,22197,128,0,22428:0:0:0:0:
36,192,22658,128,0,22889:0:0:0:0:
109,192,22658,1,0,0:0:0:0:
329,192,22658,1,0,0:0:0:0:
182,192,22889,1,0,0:0:0:0:
256,192,22889,1,0,0:0:0:0:
475,192,22889,1,0,0:0:0:0:
329,192,23005,1,0,0:0:0:0:
402,192,23120,1,0,0:0:0:0:
109,192,23235,1,0,0:0:0:0:
329,192,23235,1,0,0:0:0:0:
36,192,23351,1,0,0:0:0:0:
256,192,23351,1,0,0:0:0:0:
402,192,23351,1,0,0:0:0:0:
109,192,23466,1,0,0:0:0:0:
182,192,23581,128,0,23812:0:0:0:0:
329,192,23581,1,0,0:0:0:0:
109,192,23812,1,0,0:0:0:0:
182,192,23928,1,0,0:0:0:0:
36,192,23928,1,0,0:0:0:0:
256,192,24043,1,0,0:0:0:0:
329,192,24158,1,0,0:0:0:0:
402,192,24158,1,0,0:0:0:0:
475,192,24274,1,0,0:0:0:0:
182,192,24274,1,0,0:0:0:0:
109,192,24274,1,0,0:0:0:0:
256,192,24389,1,0,0:0:0:0:
182,192,24505,128,0,24620:0:0:0:0:
109,192,24505,128,0,24620:0:0:0:0:
329,192,24735,128,0,24851:0:0:0:0:
402,192,24735,128,0,24851:0:0:0:0:
182,192,24851,128,0,24966:0:0:0:0:
109,192,24851,128,0,24966:0:0:0:0:
256,192,24966,1,0,0:0:0:0:
329,192,25081,128,0,25197:0:0:0:0:
402,192,25081,128,0,25197:0:0:0:0:
109,192,25197,128,0,25428:0:0:0:0:
182,192,25197,128,0,25428:0:0:0:0:
256,192,25312,1,0,0:0:0:0:
329,192,25428,1,0,0:0:0:0:
402,192,25428,1,0,0:0:0:0:
475,192,25428,1,0,0:0:0:0:
256,192,25543,1,0,0:0:0:0:
182,192,25658,1,0,0:0:0:0:
109,192,25658,1,0,0:0:0:0:
36,192,25658,1,0,0:0:0:0:
329,192,25889,1,0,0:0:0:0:
402,192,25889,1,0,0:0:0:0:
475,192,25889,1,0,0:0:0:0:
36,192,26005,1,0,0:0:0:0:
475,192,26005,1,0,0:0:0:0:
109,192,26062,1,0,0:0:0:0:
402,192,26062,1,0,0:0:0:0:
182,192,26120,1,0,0:0:0:0:
256,192,26120,128,0,26351:0:0:0:0:
329,192,26120,1,0,0:0:0:0:
475,192,26351,128,0,26581:0:0:0:0:
109,192,26351,1,0,0:0:0:0:
402,192,26351,1,0,0:0:0:0:
36,192,26581,1,0,0:0:0:0:
256,192,26581,1,0,0:0:0:0:
329,192,26581,1,0,0:0:0:0:
109,192,26697,1,0,0:0:0:0:
182,192,26812,1,0,0:0:0:0:
182,192,26928,1,0,0:0:0:0:
329,192,26928,1,0,0:0:0:0:
256,192,27043,1,0,0:0:0:0:
109,192,27043,1,0,0:0:0:0:
475,192,27043,1,0,0:0:0:0:
36,192,27274,128,0,27505:0:0:0:0:
109,192,27274,1,0,0:0:0:0:
329,192,27274,1,0,0:0:0:0:
256,192,27505,1,0,0:0:0:0:
475,192,27505,1,0,0:0:0:0:
182,192,27505,1,0,0:0:0:0:
402,192,27620,1,0,0:0:0:0:
109,192,27735,1,0,0:0:0:0:
182,192,27851,1,0,0:0:0:0:
36,192,27851,1,0,0:0:0:0:
256,192,27966,1,0,0:0:0:0:
402,192,27966,1,0,0:0:0:0:
475,192,27966,1,0,0:0:0:0:
329,192,28081,1,0,0:0:0:0:
36,192,28197,128,0,28428:0:0:0:0:
402,192,28197,128,0,28428:0:0:0:0:
256,192,28197,1,0,0:0:0:0:
109,192,28428,1,0,0:0:0:0:
329,192,28428,1,0,0:0:0:0:
182,192,28428,1,0,0:0:0:0:
256,192,28543,1,0,0:0:0:0:
329,192,28658,1,0,0:0:0:0:
402,192,28774,1,0,0:0:0:0:
109,192,28774,1,0,0:0:0:0:
329,192,28889,1,0,0:0:0:0:
182,192,28889,1,0,0:0:0:0:
475,192,28889,1,0,0:0:0:0:
256,192,29005,1,0,0:0:0:0:
109,192,29120,1,0,0:0:0:0:
36,192,29120,128,0,29235:0:0:0:0:
329,192,29120,128,0,29235:0:0:0:0:
182,192,29351,1,0,0:0:0:0:
256,192,29351,128,0,29466:0:0:0:0:
402,192,29351,128,0,29466:0:0:0:0:
329,192,29581,1,0,0:0:0:0:
402,192,29581,128,0,29697:0:0:0:0:
109,192,29581,128,0,29697:0:0:0:0:
475,192,29812,1,0,0:0:0:0:
256,192,29812,128,0,29928:0:0:0:0:
182,192,29812,128,0,29928:0:0:0:0:
36,192,30043,1,0,0:0:0:0:
329,192,30043,1,0,0:0:0:0:
109,192,30158,1,0,0:0:0:0:
182,192,30274,1,0,0:0:0:0:
329,192,30274,1,0,0:0:0:0:
475,192,30274,1,0,0:0:0:0:
402,192,30389,1,0,0:0:0:0:
256,192,30505,1,0,0:0:0:0:
182,192,30620,1,0,0:0:0:0:
475,192,30620,1,0,0:0:0:0:
402,192,30735,1,0,0:0:0:0:
256,192,30735,1,0,0:0:0:0:
109,192,30735,128,0,30966:0:0:0:0:
36,192,30966,128,0,31197:0:0:0:0:
329,192,30966,1,0,0:0:0:0:
475,192,30966,1,0,0:0:0:0:
182,192,31197,1,0,0:0:0:0:
402,192,31197,1,0,0:0:0:0:
475,192,31197,1,0,0:0:0:0:
329,192,31312,1,0,0:0:0:0:
109,192,31428,1,0,0:0:0:0:
182,192,31543,1,0,0:0:0:0:
402,192,31543,1,0,0:0:0:0:
109,192,31658,1,0,0:0:0:0:
475,192,31658,1,0,0:0:0:0:
256,192,31658,1,0,0:0:0:0:
329,192,31774,1,0,0:0:0:0:
256,192,31889,128,0,32120:0:0:0:0:
256,192,32235,128,0,32812:0:0:0:0:
182,192,32812,128,0,33389:0:0:0:0:
36,192,33735,1,0,0:0:0:0:
329,192,33735,1,0,0:0:0:0:
109,192,33851,1,0,0:0:0:0:
182,192,33966,1,0,0:0:0:0:
402,192,33966,1,0,0:0:0:0:
475,192,33966,1,0,0:0:0:0:
329,192,34081,128,0,34312:0:0:0:0:
109,192,34312,1,0,0:0:0:0:
256,192,34312,1,0,0:0:0:0:
36,192,34428,1,0,0:0:0:0:
329,192,34428,1,0,0:0:0:0:
475,192,34428,1,0,0:0:0:0:
402,192,34543,1,0,0:0:0:0:
329,192,34658,1,0,0:0:0:0:
109,192,34658,1,0,0:0:0:0:
256,192,34774,1,0,0:0:0:0:
182,192,34889,1,0,0:0:0:0:
36,192,34889,1,0,0:0:0:0:
109,192,34889,1,0,0:0:0:0:
256,192,35005,1,0,0:0:0:0:
402,192,35005,1,0,0:0:0:0:
329,192,35120,1,0,0:0:0:0:
256,192,35235,1,0,0:0:0:0:
182,192,35235,1,0,0:0:0:0:
329,192,35351,1,0,0:0:0:0:
402,192,35351,1,0,0:0:0:0:
475,192,35351,1,0,0:0:0:0:
182,192,35466,1,0,0:0:0:0:
36,192,35581,128,0,35812:0:0:0:0:
256,192,35581,1,0,0:0:0:0:
109,192,35581,1,0,0:0:0:0:
182,192,35812,1,0,0:0:0:0:
329,192,35812,1,0,0:0:0:0:
402,192,35812,1,0,0:0:0:0:
256,192,35928,128,0,36158:0:0:0:0:
329,192,36158,1,0,0:0:0:0:
182,192,36158,1,0,0:0:0:0:
109,192,36274,1,0,0:0:0:0:
402,192,36274,1,0,0:0:0:0:
256,192,36274,1,0,0:0:0:0:
329,192,36389,1,0,0:0:0:0:
36,192,36505,128,0,36620:0:0:0:0:
182,192,36505,128,0,36620:0:0:0:0:
402,192,36505,128,0,36620:0:0:0:0:
109,192,36735,128,0,36851:0:0:0:0:
256,192,36735,128,0,36851:0:0:0:0:
475,192,36735,128,0,36851:0:0:0:0:
182,192,36966,128,0,37197:0:0:0:0:
329,192,36966,128,0,37197:0:0:0:0:
402,192,36966,128,0,37197:0:0:0:0:
475,192,37428,1,0,0:0:0:0:
109,192,37428,1,0,0:0:0:0:
256,192,37428,128,0,37485:0:0:0:0:
182,192,37543,1,0,0:0:0:0:
329,192,37543,1,0,0:0:0:0:
256,192,37658,1,0,0:0:0:0:
36,192,37658,1,0,0:0:0:0:
402,192,37658,128,0,37774:0:0:0:0:
109,192,37774,1,0,0:0:0:0:
329,192,37889,1,0,0:0:0:0:
182,192,37889,128,0,37947:0:0:0:0:
475,192,38005,1,0,0:0:0:0:
256,192,38005,128,0,38062:0:0:0:0:
402,192,38120,1,0,0:0:0:0:
329,192,38120,1,0,0:0:0:0:
109,192,38120,128,0,38178:0:0:0:0:
182,192,38235,128,0,38293:0:0:0:0:
36,192,38351,1,0,0:0:0:0:
475,192,38351,1,0,0:0:0:0:
256,192,38351,128,0,38408:0:0:0:0:
182,192,38466,128,0,38581:0:0:0:0:
109,192,38581,128,0,38697:0:0:0:0:
329,192,38581,1,0,0:0:0:0:
475,192,38581,1,0,0:0:0:0:
182,192,38697,128,0,38812:0:0:0:0:
402,192,38697,1,0,0:0:0:0:
109,192,38812,128,0,38928:0:0:0:0:
182,192,38928,128,0,39043:0:0:0:0:
109,192,39043,128,0,39158:0:0:0:0:
256,192,39043,128,0,39274:0:0:0:0:
402,192,39043,1,0,0:0:0:0:
182,192,39158,128,0,39274:0:0:0:0:
329,192,39158,128,0,39274:0:0:0:0:
402,192,39274,1,0,0:0:0:0:
475,192,39274,1,0,0:0:0:0:
109,192,39505,1,0,0:0:0:0:
182,192,39505,1,0,0:0:0:0:
329,192,39735,1,0,0:0:0:0:
402,192,39735,1,0,0:0:0:0:
36,192,39851,1,0,0:0:0:0:
109,192,39851,1,0,0:0:0:0:
256,192,40081,1,0,0:0:0:0:
329,192,40081,1,0,0:0:0:0:
109,192,40312,1,0,0:0:0:0:
182,192,40312,1,0,0:0:0:0:
475,192,40543,1,0,0:0:0:0:
402,192,40543,1,0,0:0:0:0:
329,192,40658,1,0,0:0:0:0:
256,192,40658,1,0,0:0:0:0:
329,192,41120,1,0,0:0:0:0:
475,192,41120,1,0,0:0:0:0:
109,192,41120,128,0,41351:0:0:0:0:
182,192,41351,1,0,0:0:0:0:
402,192,41351,1,0,0:0:0:0:
36,192,41351,1,0,0:0:0:0:
329,192,41466,1,0,0:0:0:0:
256,192,41581,1,0,0:0:0:0:
182,192,41697,1,0,0:0:0:0:
329,192,41697,1,0,0:0:0:0:
36,192,41812,1,0,0:0:0:0:
109,192,41812,1,0,0:0:0:0:
402,192,41812,1,0,0:0:0:0:
329,192,41928,1,0,0:0:0:0:
256,192,42043,128,0,42274:0:0:0:0:
109,192,42043,1,0,0:0:0:0:
402,192,42043,1,0,0:0:0:0:
475,192,42274,1,0,0:0:0:0:
182,192,42274,1,0,0:0:0:0:
36,192,42274,1,0,0:0:0:0:
402,192,42389,1,0,0:0:0:0:
329,192,42505,1,0,0:0:0:0:
256,192,42620,1,0,0:0:0:0:
402,192,42620,1,0,0:0:0:0:
36,192,42735,1,0,0:0:0:0:
182,192,42735,1,0,0:0:0:0:
109,192,42735,1,0,0:0:0:0:
475,192,42851,128,0,43081:0:0:0:0:
402,192,42966,128,0,43197:0:0:0:0:
256,192,42966,1,0,0:0:0:0:
109,192,42966,1,0,0:0:0:0:
36,192,43197,1,0,0:0:0:0:
329,192,43197,1,0,0:0:0:0:
256,192,43197,1,0,0:0:0:0:
109,192,43312,1,0,0:0:0:0:
182,192,43428,1,0,0:0:0:0:
329,192,43543,1,0,0:0:0:0:
109,192,43543,1,0,0:0:0:0:
36,192,43658,1,0,0:0:0:0:
402,192,43658,1,0,0:0:0:0:
256,192,43658,1,0,0:0:0:0:
182,192,43774,1,0,0:0:0:0:
109,192,43889,128,0,44005:0:0:0:0:
329,192,43889,128,0,44005:0:0:0:0:
256,192,43889,1,0,0:0:0:0:
402,192,44120,128,0,44235:0:0:0:0:
475,192,44120,1,0,0:0:0:0:
182,192,44120,128,0,44235:0:0:0:0:
109,192,44351,1,0,0:0:0:0:
36,192,44351,128,0,44466:0:0:0:0:
329,192,44351,128,0,44466:0:0:0:0:
182,192,44581,1,0,0:0:0:0:
402,192,44581,128,0,44697:0:0:0:0:
475,192,44581,128,0,44697:0:0:0:0:
36,192,44812,128,0,45043:0:0:0:0:
109,192,44812,1,0,0:0:0:0:
329,192,44812,1,0,0:0:0:0:
182,192,45043,1,0,0:0:0:0:
256,192,45043,1,0,0:0:0:0:
475,192,45043,1,0,0:0:0:0:
402,192,45158,1,0,0:0:0:0:
109,192,45274,1,0,0:0:0:0:
182,192,45389,1,0,0:0:0:0:
402,192,45505,1,0,0:0:0:0:
109,192,45505,1,0,0:0:0:0:
36,192,45505,1,0,0:0:0:0:
182,192,45735,1,0,0:0:0:0:
475,192,45735,1,0,0:0:0:0:
402,192,45851,1,0,0:0:0:0:
329,192,45966,1,0,0:0:0:0:
36,192,45966,1,0,0:0:0:0:
109,192,45966,1,0,0:0:0:0:
182,192,46081,1,0,0:0:0:0:
256,192,46197,128,0,46428:0:0:0:0:
109,192,46428,1,0,0:0:0:0:
402,192,46428,1,0,0:0:0:0:
475,192,46428,1,0,0:0:0:0:
182,192,46658,1,0,0:0:0:0:
329,192,46658,1,0,0:0:0:0:
402,192,46658,1,0,0:0:0:0:
256,192,46774,1,0,0:0:0:0:
182,192,46889,1,0,0:0:0:0:
109,192,47005,1,0,0:0:0:0:
402,192,47120,1,0,0:0:0:0:
329,192,47235,1,0,0:0:0:0:
475,192,47351,1,0,0:0:0:0:
36,192,47466,1,0,0:0:0:0:
109,192,47581,1,0,0:0:0:0:
402,192,47697,1,0,0:0:0:0:
329,192,47812,1,0,0:0:0:0:
182,192,47928,1,0,0:0:0:0:
256,192,48043,128,0,48274:0:0:0:0:
36,192,48505,1,0,0:0:0:0:
182,192,48505,1,0,0:0:0:0:
402,192,48505,1,0,0:0:0:0:
256,192,48620,1,0,0:0:0:0:
329,192,48735,1,0,0:0:0:0:
109,192,48735,1,0,0:0:0:0:
182,192,48735,1,0,0:0:0:0:
475,192,48735,1,0,0:0:0:0:
402,192,48851,1,0,0:0:0:0:
256,192,48966,1,0,0:0:0:0:
475,192,48966,1,0,0:0:0:0:
36,192,48966,1,0,0:0:0:0:
182,192,49081,1,0,0:0:0:0:
109,192,49197,1,0,0:0:0:0:
256,192,49197,1,0,0:0:0:0:
402,192,49197,1,0,0:0:0:0:
475,192,49197,1,0,0:0:0:0:
329,192,49312,1,0,0:0:0:0:
182,192,49428,1,0,0:0:0:0:
36,192,49428,1,0,0:0:0:0:
402,192,49428,1,0,0:0:0:0:
256,192,49543,1,0,0:0:0:0:
329,192,49658,1,0,0:0:0:0:
475,192,49658,1,0,0:0:0:0:
402,192,49658,1,0,0:0:0:0:
109,192,49658,1,0,0:0:0:0:
182,192,49774,128,0,50005:0:0:0:0:
256,192,49889,1,0,0:0:0:0:
329,192,49889,1,0,0:0:0:0:
402,192,49889,1,0,0:0:0:0:
36,192,50005,1,0,0:0:0:0:
109,192,50120,1,0,0:0:0:0:
256,192,50120,1,0,0:0:0:0:
475,192,50120,1,0,0:0:0:0:
182,192,50120,1,0,0:0:0:0:
402,192,50235,1,0,0:0:0:0:
329,192,50351,1,0,0:0:0:0:
36,192,50351,1,0,0:0:0:0:
256,192,50351,1,0,0:0:0:0:
109,192,50466,1,0,0:0:0:0:
182,192,50581,1,0,0:0:0:0:
256,192,50581,1,0,0:0:0:0:
475,192,50581,1,0,0:0:0:0:
402,192,50581,1,0,0:0:0:0:
329,192,50697,1,0,0:0:0:0:
402,192,50812,1,0,0:0:0:0:
475,192,50812,1,0,0:0:0:0:
36,192,50812,1,0,0:0:0:0:
36,192,50985,1,0,0:0:0:0:
182,192,51043,1,0,0:0:0:0:
402,192,51043,1,0,0:0:0:0:
475,192,51043,1,0,0:0:0:0:
109,192,51043,1,0,0:0:0:0:
256,192,51158,1,0,0:0:0:0:
329,192,51274,128,0,51620:0:0:0:0:
36,192,51274,128,0,51389:0:0:0:0:
475,192,51274,1,0,0:0:0:0:
182,192,51274,1,0,0:0:0:0:
109,192,51447,128,0,51505:0:0:0:0:
182,192,51505,128,0,51562:0:0:0:0:
256,192,51505,1,0,0:0:0:0:
475,192,51505,1,0,0:0:0:0:
402,192,51620,128,0,52081:0:0:0:0:
36,192,51620,128,0,51735:0:0:0:0:
109,192,51735,128,0,51851:0:0:0:0:
256,192,51735,1,0,0:0:0:0:
329,192,51735,1,0,0:0:0:0:
36,192,51908,128,0,51966:0:0:0:0:
109,192,51966,128,0,52024:0:0:0:0:
475,192,51966,1,0,0:0:0:0:
182,192,51966,1,0,0:0:0:0:
329,192,52081,128,0,52197:0:0:0:0:
182,192,52197,1,0,0:0:0:0:
256,192,52197,1,0,0:0:0:0:
36,192,52197,128,0,52428:0:0:0:0:
109,192,52428,1,0,0:0:0:0:
329,192,52428,1,0,0:0:0:0:
475,192,52428,1,0,0:0:0:0:
182,192,52428,1,0,0:0:0:0:
256,192,52543,1,0,0:0:0:0:
329,192,52658,1,0,0:0:0:0:
109,192,52658,1,0,0:0:0:0:
36,192,52658,1,0,0:0:0:0:
182,192,52774,1,0,0:0:0:0:
256,192,52889,1,0,0:0:0:0:
475,192,52889,1,0,0:0:0:0:
109,192,52889,1,0,0:0:0:0:
36,192,52889,1,0,0:0:0:0:
402,192,53005,1,0,0:0:0:0:
182,192,53120,1,0,0:0:0:0:
109,192,53120,1,0,0:0:0:0:
329,192,53120,128,0,53351:0:0:0:0:
36,192,53351,1,0,0:0:0:0:
182,192,53351,1,0,0:0:0:0:
402,192,53351,1,0,0:0:0:0:
475,192,53351,1,0,0:0:0:0:
109,192,53466,1,0,0:0:0:0:
182,192,53581,1,0,0:0:0:0:
256,192,53581,1,0,0:0:0:0:
475,192,53581,1,0,0:0:0:0:
329,192,53697,1,0,0:0:0:0:
402,192,53812,1,0,0:0:0:0:
475,192,53812,1,0,0:0:0:0:
109,192,53812,1,0,0:0:0:0:
36,192,53812,1,0,0:0:0:0:
182,192,53928,1,0,0:0:0:0:
256,192,54043,1,0,0:0:0:0:
329,192,54043,1,0,0:0:0:0:
109,192,54043,1,0,0:0:0:0:
182,192,54158,1,0,0:0:0:0:
256,192,54274,1,0,0:0:0:0:
402,192,54274,1,0,0:0:0:0:
475,192,54274,1,0,0:0:0:0:
36,192,54274,1,0,0:0:0:0:
182,192,54389,1,0,0:0:0:0:
109,192,54505,1,0,0:0:0:0:
36,192,54505,1,0,0:0:0:0:
402,192,54505,1,0,0:0:0:0:
329,192,54620,1,0,0:0:0:0:
256,192,54735,1,0,0:0:0:0:
36,192,54735,1,0,0:0:0:0:
402,192,54735,1,0,0:0:0:0:
475,192,54735,1,0,0:0:0:0:
109,192,54851,1,0,0:0:0:0:
182,192,54966,1,0,0:0:0:0:
329,192,54966,128,0,55197:0:0:0:0:
402,192,54966,128,0,55428:0:0:0:0:
256,192,55197,128,0,55428:0:0:0:0:
36,192,55197,1,0,0:0:0:0:
475,192,55197,1,0,0:0:0:0:
329,192,55428,128,0,55889:0:0:0:0:
109,192,55428,1,0,0:0:0:0:
475,192,55428,1,0,0:0:0:0:
475,192,55658,1,0,0:0:0:0:
182,192,55658,1,0,0:0:0:0:
36,192,55658,1,0,0:0:0:0:
109,192,55889,1,0,0:0:0:0:
256,192,55889,1,0,0:0:0:0:
475,192,55889,1,0,0:0:0:0:
402,192,56005,1,0,0:0:0:0:
329,192,56120,1,0,0:0:0:0:
256,192,56120,1,0,0:0:0:0:
36,192,56120,1,0,0:0:0:0:
109,192,56235,1,0,0:0:0:0:
182,192,56351,1,0,0:0:0:0:
402,192,56351,1,0,0:0:0:0:
475,192,56351,1,0,0:0:0:0:
256,192,56466,1,0,0:0:0:0:
329,192,56581,1,0,0:0:0:0:
402,192,56581,1,0,0:0:0:0:
475,192,56581,1,0,0:0:0:0:
109,192,56581,1,0,0:0:0:0:
182,192,56697,1,0,0:0:0:0:
36,192,56812,1,0,0:0:0:0:
109,192,56812,1,0,0:0:0:0:
329,192,56812,1,0,0:0:0:0:
256,192,56928,1,0,0:0:0:0:
182,192,57043,1,0,0:0:0:0:
36,192,57043,1,0,0:0:0:0:
329,192,57043,1,0,0:0:0:0:
402,192,57043,1,0,0:0:0:0:
109,192,57158,128,0,57505:0:0:0:0:
256,192,57274,1,0,0:0:0:0:
402,192,57274,1,0,0:0:0:0:
182,192,57274,1,0,0:0:0:0:
256,192,57505,1,0,0:0:0:0:
475,192,57505,1,0,0:0:0:0:
36,192,57505,1,0,0:0:0:0:
182,192,57505,1,0,0:0:0:0:
329,192,57735,1,0,0:0:0:0:
256,192,57735,1,0,0:0:0:0:
36,192,57735,1,0,0:0:0:0:
402,192,57851,1,0,0:0:0:0:
475,192,57966,1,0,0:0:0:0:
109,192,57966,1,0,0:0:0:0:
182,192,57966,1,0,0:0:0:0:
329,192,57966,1,0,0:0:0:0:
256,192,58081,1,0,0:0:0:0:
402,192,58197,1,0,0:0:0:0:
36,192,58197,1,0,0:0:0:0:
109,192,58197,1,0,0:0:0:0:
182,192,58312,1,0,0:0:0:0:
36,192,58428,1,0,0:0:0:0:
475,192,58428,1,0,0:0:0:0:
256,192,58428,1,0,0:0:0:0:
329,192,58428,1,0,0:0:0:0:
109,192,58543,128,0,58774:0:0:0:0:
475,192,58658,128,0,58774:0:0:0:0:
256,192,58658,1,0,0:0:0:0:
36,192,58774,128,0,58831:0:0:0:0:
402,192,58831,128,0,58889:0:0:0:0:
36,192,58889,128,0,59005:0:0:0:0:
329,192,58889,128,0,58947:0:0:0:0:
182,192,58889,1,0,0:0:0:0:
109,192,59005,128,0,59293:0:0:0:0:
475,192,59005,128,0,59120:0:0:0:0:
256,192,59005,1,0,0:0:0:0:
182,192,59005,1,0,0:0:0:0:
402,192,59120,128,0,59235:0:0:0:0:
36,192,59293,128,0,59581:0:0:0:0:
475,192,59293,128,0,59351:0:0:0:0:
402,192,59351,128,0,59408:0:0:0:0:
182,192,59351,1,0,0:0:0:0:
256,192,59351,1,0,0:0:0:0:
329,192,59466,128,0,59581:0:0:0:0:
109,192,59581,1,0,0:0:0:0:
402,192,59581,1,0,0:0:0:0:
475,192,59581,1,0,0:0:0:0:
182,192,59697,1,0,0:0:0:0:
109,192,59812,1,0,0:0:0:0:
329,192,59812,1,0,0:0:0:0:
402,192,59812,1,0,0:0:0:0:
475,192,59812,1,0,0:0:0:0:
182,192,59928,1,0,0:0:0:0:
256,192,60043,1,0,0:0:0:0:
402,192,60043,1,0,0:0:0:0:
475,192,60043,1,0,0:0:0:0:
36,192,60274,1,0,0:0:0:0:
329,192,60274,1,0,0:0:0:0:
256,192,60274,1,0,0:0:0:0:
475,192,60274,1,0,0:0:0:0:
109,192,60389,1,0,0:0:0:0:
182,192,60505,1,0,0:0:0:0:
256,192,60505,1,0,0:0:0:0:
402,192,60505,1,0,0:0:0:0:
329,192,60620,1,0,0:0:0:0:
256,192,60735,1,0,0:0:0:0:
36,192,60735,1,0,0:0:0:0:
402,192,60735,1,0,0:0:0:0:
475,192,60735,1,0,0:0:0:0:
109,192,60851,1,0,0:0:0:0:
402,192,60966,1,0,0:0:0:0:
475,192,60966,1,0,0:0:0:0:
182,192,60966,128,0,61197:0:0:0:0:
256,192,61197,1,0,0:0:0:0:
36,192,61197,1,0,0:0:0:0:
109,192,61197,1,0,0:0:0:0:
329,192,61197,128,0,61370:0:0:0:0:
402,192,61197,1,0,0:0:0:0:
36,192,61370,128,0,62120:0:0:0:0:
402,192,61428,1,0,0:0:0:0:
475,192,61428,1,0,0:0:0:0:
109,192,61428,1,0,0:0:0:0:
182,192,61658,1,0,0:0:0:0:
329,192,61658,1,0,0:0:0:0:
402,192,61658,1,0,0:0:0:0:
256,192,61774,1,0,0:0:0:0:
109,192,61774,1,0,0:0:0:0:
329,192,61774,1,0,0:0:0:0:
475,192,61774,1,0,0:0:0:0:
182,192,61889,1,0,0:0:0:0:
402,192,61889,1,0,0:0:0:0:
475,192,61889,1,0,0:0:0:0:
109,192,62120,1,0,0:0:0:0:
256,192,62120,1,0,0:0:0:0:
329,192,62120,1,0,0:0:0:0:
475,192,62120,1,0,0:0:0:0:
182,192,62351,1,0,0:0:0:0:
402,192,62351,1,0,0:0:0:0:
109,192,62351,1,0,0:0:0:0:
402,192,63274,1,0,0:0:0:0:
475,192,63274,1,0,0:0:0:0:
36,192,63274,128,0,63505:0:0:0:0:
329,192,63274,128,0,63505:0:0:0:0:
109,192,63505,1,0,0:0:0:0:
182,192,63620,1,0,0:0:0:0:
256,192,63735,1,0,0:0:0:0:
329,192,63851,1,0,0:0:0:0:
402,192,63966,1,0,0:0:0:0:
256,192,63966,1,0,0:0:0:0:
109,192,63966,1,0,0:0:0:0:
329,192,64081,1,0,0:0:0:0:
402,192,64197,1,0,0:0:0:0:
475,192,64197,1,0,0:0:0:0:
36,192,64197,128,0,64428:0:0:0:0:
256,192,64197,128,0,64428:0:0:0:0:
182,192,64428,1,0,0:0:0:0:
182,192,64543,1,0,0:0:0:0:
109,192,64658,1,0,0:0:0:0:
182,192,64716,1,0,0:0:0:0:
256,192,64774,1,0,0:0:0:0:
329,192,64831,1,0,0:0:0:0:
475,192,64889,1,0,0:0:0:0:
182,192,64889,128,0,65120:0:0:0:0:
402,192,64889,1,0,0:0:0:0:
36,192,65120,1,0,0:0:0:0:
109,192,65120,1,0,0:0:0:0:
329,192,65120,1,0,0:0:0:0:
182,192,65235,1,0,0:0:0:0:
256,192,65351,1,0,0:0:0:0:
109,192,65351,1,0,0:0:0:0:
402,192,65351,1,0,0:0:0:0:
475,192,65351,1,0,0:0:0:0:
329,192,65466,1,0,0:0:0:0:
182,192,65581,1,0,0:0:0:0:
329,192,65697,1,0,0:0:0:0:
475,192,65812,128,0,66043:0:0:0:0:
256,192,65812,1,0,0:0:0:0:
36,192,65812,1,0,0:0:0:0:
36,192,66043,128,0,66216:0:0:0:0:
109,192,66043,128,0,66216:0:0:0:0:
402,192,66216,128,0,66447:0:0:0:0:
475,192,66216,128,0,66447:0:0:0:0:
256,192,66447,128,0,66678:0:0:0:0:
329,192,66447,128,0,66678:0:0:0:0:
36,192,66678,128,0,66851:0:0:0:0:
109,192,66678,128,0,66851:0:0:0:0:
182,192,66851,128,0,66966:0:0:0:0:
256,192,66851,128,0,66966:0:0:0:0:
329,192,66966,128,0,67197:0:0:0:0:
475,192,66966,128,0,67197:0:0:0:0:
402,192,66966,1,0,0:0:0:0:
36,192,66966,1,0,0:0:0:0:
109,192,67197,1,0,0:0:0:0:
182,192,67312,1,0,0:0:0:0:
402,192,67428,1,0,0:0:0:0:
329,192,67543,1,0,0:0:0:0:
475,192,67658,1,0,0:0:0:0:
256,192,67658,1,0,0:0:0:0:
36,192,67658,128,0,67889:0:0:0:0:
109,192,67831,1,0,0:0:0:0:
329,192,67831,1,0,0:0:0:0:
475,192,67831,1,0,0:0:0:0:
402,192,67889,1,0,0:0:0:0:
182,192,67889,1,0,0:0:0:0:
256,192,67889,1,0,0:0:0:0:
182,192,68005,1,0,0:0:0:0:
329,192,68005,1,0,0:0:0:0:
36,192,68005,1,0,0:0:0:0:
256,192,68120,1,0,0:0:0:0:
182,192,68235,1,0,0:0:0:0:
475,192,68351,1,0,0:0:0:0:
402,192,68408,1,0,0:0:0:0:
329,192,68466,1,0,0:0:0:0:
256,192,68524,1,0,0:0:0:0:
109,192,68581,128,0,68812:0:0:0:0:
475,192,68581,1,0,0:0:0:0:
182,192,68581,1,0,0:0:0:0:
182,192,68812,1,0,0:0:0:0:
402,192,68812,1,0,0:0:0:0:
36,192,68812,1,0,0:0:0:0:
109,192,68928,1,0,0:0:0:0:
329,192,68928,1,0,0:0:0:0:
475,192,68928,1,0,0:0:0:0:
182,192,69043,1,0,0:0:0:0:
256,192,69043,1,0,0:0:0:0:
402,192,69043,1,0,0:0:0:0:
109,192,69158,1,0,0:0:0:0:
182,192,69274,1,0,0:0:0:0:
256,192,69331,1,0,0:0:0:0:
329,192,69389,1,0,0:0:0:0:
402,192,69447,1,0,0:0:0:0:
475,192,69505,1,0,0:0:0:0:
109,192,69505,128,0,69735:0:0:0:0:
182,192,69505,128,0,69735:0:0:0:0:
36,192,70658,128,0,70889:0:0:0:0:
182,192,70658,1,0,0:0:0:0:
329,192,70658,1,0,0:0:0:0:
256,192,70889,1,0,0:0:0:0:
109,192,70889,1,0,0:0:0:0:
475,192,70889,1,0,0:0:0:0:
329,192,71005,1,0,0:0:0:0:
402,192,71120,1,0,0:0:0:0:
475,192,71235,1,0,0:0:0:0:
182,192,71235,1,0,0:0:0:0:
256,192,71351,1,0,0:0:0:0:
402,192,71351,1,0,0:0:0:0:
109,192,71351,1,0,0:0:0:0:
36,192,71466,1,0,0:0:0:0:
109,192,71581,1,0,0:0:0:0:
329,192,71581,1,0,0:0:0:0:
182,192,71697,1,0,0:0:0:0:
402,192,71812,1,0,0:0:0:0:
475,192,71812,1,0,0:0:0:0:
109,192,71812,128,0,72043:0:0:0:0:
329,192,71928,1,0,0:0:0:0:
256,192,71928,1,0,0:0:0:0:
36,192,72043,128,0,72274:0:0:0:0:
182,192,72158,1,0,0:0:0:0:
402,192,72158,1,0,0:0:0:0:
475,192,72274,1,0,0:0:0:0:
109,192,72274,1,0,0:0:0:0:
256,192,72274,1,0,0:0:0:0:
182,192,72505,128,0,72735:0:0:0:0:
329,192,72505,1,0,0:0:0:0:
475,192,72505,1,0,0:0:0:0:
109,192,72735,1,0,0:0:0:0:
402,192,72735,1,0,0:0:0:0:
475,192,72735,1,0,0:0:0:0:
329,192,72851,128,0,73081:0:0:0:0:
36,192,73081,1,0,0:0:0:0:
256,192,73081,1,0,0:0:0:0:
402,192,73197,1,0,0:0:0:0:
182,192,73197,1,0,0:0:0:0:
109,192,73197,1,0,0:0:0:0:
256,192,73312,1,0,0:0:0:0:
329,192,73428,128,0,73658:0:0:0:0:
182,192,73658,128,0,73889:0:0:0:0:
329,192,73889,128,0,74120:0:0:0:0:
36,192,74351,128,0,74581:0:0:0:0:
182,192,74351,1,0,0:0:0:0:
402,192,74351,1,0,0:0:0:0:
109,192,74581,1,0,0:0:0:0:
256,192,74581,1,0,0:0:0:0:
475,192,74581,1,0,0:0:0:0:
402,192,74697,1,0,0:0:0:0:
182,192,74812,1,0,0:0:0:0:
256,192,74928,1,0,0:0:0:0:
109,192,74928,1,0,0:0:0:0:
329,192,75043,1,0,0:0:0:0:
36,192,75043,1,0,0:0:0:0:
402,192,75043,1,0,0:0:0:0:
256,192,75158,1,0,0:0:0:0:
182,192,75274,1,0,0:0:0:0:
475,192,75274,1,0,0:0:0:0:
329,192,75389,1,0,0:0:0:0:
402,192,75505,1,0,0:0:0:0:
475,192,75505,1,0,0:0:0:0:
109,192,75505,1,0,0:0:0:0:
256,192,75620,1,0,0:0:0:0:
36,192,75735,128,0,75851:0:0:0:0:
329,192,75735,1,0,0:0:0:0:
109,192,75851,128,0,75966:0:0:0:0:
475,192,75851,1,0,0:0:0:0:
256,192,75851,1,0,0:0:0:0:
182,192,75966,128,0,76197:0:0:0:0:
402,192,75966,128,0,76197:0:0:0:0:
109,192,76197,128,0,76312:0:0:0:0:
329,192,76197,1,0,0:0:0:0:
36,192,76197,128,0,76312:0:0:0:0:
329,192,76428,128,0,76543:0:0:0:0:
402,192,76428,128,0,76543:0:0:0:0:
109,192,76658,1,0,0:0:0:0:
182,192,76658,1,0,0:0:0:0:
256,192,76774,128,0,76889:0:0:0:0:
329,192,76774,128,0,76889:0:0:0:0:
402,192,77005,128,0,77120:0:0:0:0:
475,192,77005,128,0,77120:0:0:0:0:
329,192,77235,128,0,77351:0:0:0:0:
402,192,77235,128,0,77351:0:0:0:0:
36,192,77466,1,0,0:0:0:0:
109,192,77466,1,0,0:0:0:0:
256,192,77581,128,0,77697:0:0:0:0:
182,192,77581,128,0,77697:0:0:0:0:
