osu file format v14

[General]
AudioFilename: audio.mp3
AudioLeadIn: 0
PreviewTime: 84253
Countdown: 0
SampleSet: Soft
StackLeniency: 0.3
Mode: 0
LetterboxInBreaks: 0
WidescreenStoryboard: 0

[Editor]
Bookmarks: 96039,111039,119610,128896,138896,153181,163181,178896,192780
DistanceSpacing: 0.5
BeatDivisor: 4
GridSize: 4
TimelineZoom: 1.5

[Metadata]
Title:Weekly Shonen Bye-Bye
TitleUnicode:Weekly Shonen Bye-Bye
Artist:Pinocchio-P
ArtistUnicode:Pinocchio-P
Creator:Silverboxer
Version:Fruit Loops
Source:
Tags:vocaloid hatsune miku or something
BeatmapID:1312453
BeatmapSetID:622581

[Difficulty]
HPDrainRate:6
CircleSize:3.8
OverallDifficulty:9
ApproachRate:10
SliderMultiplier:1.7
SliderTickRate:1

[Events]
//Background and Video events
0,0,"miku.jpg",0,0
//Break Periods
2,83381,84160
2,111039,118446
2,139095,141303
2,151396,152731
//Storyboard Layer 0 (Background)
//Storyboard Layer 1 (Fail)
//Storyboard Layer 2 (Pass)
//Storyboard Layer 3 (Foreground)
//Storyboard Sound Samples

[TimingPoints]
3182,357.142857142857,4,2,0,70,1,0
8181,-66.6666666666667,4,2,0,70,0,0
8896,-100,4,2,0,70,0,0
10324,-50,4,2,0,70,0,0
10771,-100,4,2,0,70,0,0
22735,-76.9230769230769,4,2,0,70,0,0
23181,-83.3333333333333,4,2,0,70,0,0
33181,-76.9230769230769,4,2,0,70,0,0
46574,-66.6666666666667,4,2,0,70,0,0
47110,-100,4,2,0,70,0,0
47467,-62.5,4,2,0,70,0,1
52467,-62.5,4,2,0,70,0,0
53181,-62.5,4,2,0,70,0,1
58896,-62.5,4,2,0,70,0,0
84610,-62.5,4,2,0,70,0,1
84967,-62.5,4,2,0,70,0,0
86039,-58.8235294117647,4,2,0,70,0,1
89610,-58.8235294117647,4,2,0,70,0,0
90324,-58.8235294117647,4,2,0,70,0,1
96039,-58.8235294117647,4,2,0,70,0,0
126039,-133.333333333333,4,2,0,70,0,0
127467,-44.2477876106195,4,2,0,70,0,0
128896,-58.8235294117647,4,2,0,70,0,0
130324,-50,4,2,0,70,0,0
150324,-50,4,2,0,10,0,0
150414,-50,4,2,0,20,0,0
150503,-50,4,2,0,30,0,0
150592,-50,4,2,0,40,0,0
150681,-50,4,2,0,50,0,0
150771,-50,4,2,0,60,0,0
150860,-50,4,2,0,70,0,0
150949,-50,4,2,0,80,0,0
151039,-50,4,2,0,100,0,0
153181,-33.3333333333333,4,2,0,70,0,0
154610,-33.3333333333333,4,2,0,70,0,1
156753,-33.3333333333333,4,2,0,70,0,0
160324,-33.3333333333333,4,2,0,70,0,1
162467,-33.3333333333333,4,2,0,70,0,0
163181,-33.3333333333333,4,2,0,70,0,1
168896,-33.3333333333333,4,2,0,70,0,0
178896,-25,4,2,0,70,0,1
187467,-33.3333333333333,4,2,0,70,0,0

[Colours]
Combo1 : 23,238,238
Combo2 : 254,83,33
Combo3 : 254,75,94
Combo4 : 185,233,84

[HitObjects]
256,192,3181,12,0,5324,0:0:0:0:
116,75,5771,5,0,0:0:0:0:
116,75,5860,2,0,L|103:121,1,42.5,8|0,0:0|0:0,0:0:0:0:
66,224,6039,6,0,P|70:265|88:305,1,85
207,189,6307,2,0,P|246:236|283:253,1,85
382,288,6574,1,0,0:0:0:0:
481,266,6664,1,0,0:0:0:0:
369,309,6753,6,0,L|284:329,1,85
409,207,7021,2,0,L|494:227,1,85
303,137,7289,1,0,0:0:0:0:
283,149,7378,1,0,0:0:0:0:
378,83,7467,6,0,L|408:123,1,42.5
284,48,7646,1,0,0:0:0:0:
312,22,7735,1,0,0:0:0:0:
235,42,7824,6,0,P|186:61|134:65,1,85
64,44,8182,6,8,B|32:30|32:30|-31:109|61:194,2,191.250007295609
138,162,8896,6,0,P|127:227|113:267,1,85
255,151,9164,2,0,B|286:120|286:120|328:95,1,85
464,164,9432,2,0,L|494:204,1,42.5
279,256,9610,5,8,0:0:0:0:
485,287,9789,5,0,1:0:0:0:
264,269,9878,2,0,L|181:287,1,85,0|0,1:0|0:0,0:0:0:0:
471,315,10146,2,0,L|422:331,1,42.5
286,162,10324,6,4,B|264:111|322:84|288:32,2,127.5
286,162,10860,1,0,0:0:0:0:
286,162,11039,5,8,0:0:0:0:
393,112,11128,2,0,P|417:113|444:118,1,42.5,8|0,0:0|0:0,0:0:0:0:
195,134,11307,2,0,P|143:141|85:142,1,85,8|0,0:0|0:0,0:0:0:0:
36,110,11574,1,0,0:0:0:0:
36,110,11753,6,0,L|37:208,1,85
195,134,12021,2,0,L|202:228,1,85
93,296,12289,2,0,L|85:343,1,42.5
220,328,12467,5,0,0:0:0:0:
247,333,12556,1,0,0:0:0:0:
276,326,12646,1,0,0:0:0:0:
303,331,12735,1,0,0:0:0:0:
332,324,12824,2,0,L|374:328,1,42.5
93,296,13003,1,0,0:0:0:0:
324,174,13181,5,0,1:0:0:0:
236,135,13271,1,0,0:0:0:0:
315,78,13360,2,0,P|361:86|399:108,1,85,0|0,1:0|0:0,0:0:0:0:
162,283,13628,5,0,0:0:0:0:
129,149,13717,2,0,L|115:91,1,42.5,0|0,1:0|0:0,0:0:0:0:
202,284,13896,5,0,1:0:0:0:
228,105,13985,2,0,L|234:60,1,42.5,0|0,1:0|0:0,0:0:0:0:
300,251,14164,2,0,P|313:302|331:340,1,85,0|0,1:0|0:0,0:0:0:0:
419,128,14431,1,4,0:0:0:0:
419,128,14610,6,0,B|393:106|383:75|383:75|307:82,1,127.5,8|0,0:0|0:0,0:0:0:0:
482,47,14967,1,2,0:0:0:0:
93,246,15324,6,0,B|119:224|129:193|129:193|205:200,1,127.5,8|0,0:0|0:0,0:0:0:0:
30,165,15681,1,2,0:0:0:0:
419,364,16039,6,0,B|393:342|383:311|383:311|307:318,1,127.5,8|0,0:0|0:0,0:0:0:0:
482,283,16396,1,2,0:0:0:0:
247,186,16842,5,8,0:0:0:0:
354,168,16931,1,8,0:0:0:0:
209,147,17021,1,8,0:0:0:0:
394,137,17110,2,0,L|486:166,1,85,8|0,0:0|0:0,0:0:0:0:
83,150,17467,5,0,1:0:0:0:
83,150,17824,1,0,1:0:0:0:
83,150,18181,1,0,1:0:0:0:
83,150,18539,5,0,1:0:0:0:
184,156,18628,2,0,L|191:69,1,85,8|0,0:0|0:0,0:0:0:0:
165,303,18896,5,0,1:0:0:0:
165,303,19253,1,0,1:0:0:0:
165,303,19610,6,0,P|198:327|256:327,1,85,8|0,0:0|0:0,0:0:0:0:
332,271,19878,2,0,P|299:295|241:295,1,85,8|0,0:0|0:0,0:0:0:0:
349,184,20146,2,0,P|376:193|398:208,1,42.5,8|0,0:0|0:0,0:0:0:0:
68,297,20324,5,0,1:0:0:0:
68,297,20681,5,0,1:0:0:0:
176,308,20771,1,0,1:0:0:0:
68,297,21039,6,0,L|76:210,1,85,0|0,1:0|0:0,0:0:0:0:
176,308,21306,2,0,L|171:356,1,42.5,0|0,1:0|0:0,0:0:0:0:
195,180,21485,2,0,P|201:113|200:72,1,85,0|0,1:0|0:0,0:0:0:0:
286,10,21753,5,8,0:0:0:0:
453,76,21931,1,0,0:0:0:0:
456,101,22021,1,0,0:0:0:0:
459,126,22110,1,0,0:0:0:0:
463,151,22199,1,0,0:0:0:0:
467,175,22289,2,0,L|472:218,1,42.5
438,333,22467,5,8,0:0:0:0:
350,157,22556,1,8,0:0:0:0:
408,361,22735,6,0,B|382:381|324:385|294:333|294:333|330:337,1,165.749992412568,8|0,0:0|0:0,0:0:0:0:
221,373,23181,6,0,P|157:365|131:333,1,101.999996887207,0|0,0:0|1:0,0:0:0:0:
179,196,23539,1,0,0:0:0:0:
210,188,23628,1,0,0:0:0:0:
239,189,23717,1,0,1:0:0:0:
266,202,23806,6,0,P|313:228|361:249,1,101.999996887207
350,136,24074,1,0,1:0:0:0:
216,286,24164,2,0,P|169:312|121:333,1,101.999996887207
342,317,24431,1,0,1:0:0:0:
335,353,24521,1,0,0:0:0:0:
409,365,24610,6,0,L|462:350,1,50.9999984436036
350,136,24789,1,0,1:0:0:0:
409,365,24967,6,0,L|462:350,1,50.9999984436036
350,136,25146,2,0,L|295:142,1,50.9999984436036,0|0,1:0|0:0,0:0:0:0:
466,200,25324,6,0,P|474:173|487:147,1,50.9999984436036,0|0,1:0|0:0,0:0:0:0:
186,86,25503,2,0,P|194:113|207:139,1,50.9999984436036,0|0,1:0|0:0,0:0:0:0:
357,275,25681,5,0,1:0:0:0:
265,231,25771,1,0,1:0:0:0:
382,268,25860,2,0,P|406:281|421:300,1,50.9999984436036,8|0,0:0|0:0,0:0:0:0:
231,363,26039,6,0,B|181:356|181:356|136:332,1,101.999996887207,0|0,0:0|1:0,0:0:0:0:
99,251,26306,1,0,0:0:0:0:
82,238,26396,2,0,L|70:183,1,50.9999984436036,0|0,1:0|1:0,0:0:0:0:
180,78,26574,2,0,L|168:23,1,50.9999984436036,0|0,1:0|0:0,0:0:0:0:
223,244,26753,5,8,0:0:0:0:
294,47,26931,5,0,1:0:0:0:
228,263,27021,2,0,P|226:329|305:329,1,152.999995330811,0|0,1:0|0:0,0:0:0:0:
409,79,27467,6,0,B|419:49|419:49|473:76|492:143|434:190,2,203.999993774414,0|0|8,0:0|0:0|0:0,0:0:0:0:
373,296,28539,2,0,P|433:305|516:341,1,101.999996887207
252,358,28896,6,0,P|241:277|229:232,1,101.999996887207,2|0,0:0|0:0,0:0:0:0:
396,179,29164,2,0,P|407:98|419:53,1,101.999996887207,2|0,0:0|0:0,0:0:0:0:
373,296,29431,1,0,0:0:0:0:
147,205,29610,6,0,P|113:194|93:191,1,50.9999984436036,0|0,1:0|0:0,0:0:0:0:
281,88,29789,1,0,0:0:0:0:
318,95,29878,1,0,1:0:0:0:
366,73,29967,5,0,1:0:0:0:
400,138,30056,1,0,0:0:0:0:
463,83,30146,2,0,L|454:28,1,50.9999984436036
275,216,30324,6,0,P|250:239|221:255,1,50.9999984436036,0|0,1:0|0:0,0:0:0:0:
459,271,30503,2,0,P|496:308|510:356,1,101.999996887207,8|0,0:0|0:0,0:0:0:0:
403,353,30771,5,0,0:0:0:0:
403,353,30860,1,0,1:0:0:0:
354,193,31039,5,0,1:0:0:0:
403,353,31128,1,0,1:0:0:0:
367,197,31306,6,0,P|378:131|388:83,1,101.999996887207,0|0,1:0|0:0,0:0:0:0:
226,346,31574,1,0,1:0:0:0:
169,178,31753,5,0,0:0:0:0:
185,176,31842,1,0,0:0:0:0:
165,171,31931,1,0,0:0:0:0:
187,181,32020,1,0,0:0:0:0:
167,163,32110,1,0,0:0:0:0:
185,189,32199,1,0,0:0:0:0:
174,157,32289,1,0,0:0:0:0:
179,195,32378,1,0,0:0:0:0:
187,148,32467,6,2,L|197:96,1,50.9999984436036
310,288,32646,2,2,P|312:314|312:341,2,50.9999984436036
421,72,33003,5,8,0:0:0:0:
421,72,33181,6,0,P|459:78|487:86,1,55.2499974708558
324,167,33360,1,0,1:0:0:0:
306,113,33449,1,0,0:0:0:0:
362,155,33539,2,0,P|371:190|374:215,1,55.2499974708558
344,343,33717,1,0,1:0:0:0:
329,316,33806,1,0,0:0:0:0:
305,283,33896,6,0,P|276:273|239:270,1,55.2499974708558
428,283,34074,2,0,P|455:279|481:269,1,55.2499974708558,0|0,1:0|0:0,0:0:0:0:
176,181,34253,2,0,P|148:184|122:194,1,55.2499974708558
412,121,34431,2,0,L|434:43,1,55.2499974708558,0|0,1:0|0:0,0:0:0:0:
254,365,34610,5,4,0:0:0:0:
254,365,34967,1,0,1:0:0:0:
254,365,35324,6,0,P|246:293|236:250,1,110.499994941712,8|0,0:0|0:0,0:0:0:0:
337,53,35592,2,0,P|443:62|459:62,1,110.499994941712,8|0,0:0|0:0,0:0:0:0:
161,67,35860,2,0,P|120:53|89:50,1,55.2499974708558,8|0,0:0|0:0,0:0:0:0:
389,199,36039,5,0,0:0:0:0:
116,175,36217,1,0,1:0:0:0:
337,53,36396,5,0,0:0:0:0:
340,327,36574,1,0,1:0:0:0:
97,299,36753,5,0,0:0:0:0:
161,67,36931,1,0,1:0:0:0:
226,323,37110,6,0,P|234:353|235:378,1,55.2499974708558
287,79,37289,2,0,P|295:49|296:24,1,55.2499974708558
432,268,37467,5,0,0:0:0:0:
445,298,37556,1,0,0:0:0:0:
440,331,37645,1,0,0:0:0:0:
419,357,37734,1,0,0:0:0:0:
388,367,37824,1,0,0:0:0:0:
355,360,37913,1,0,0:0:0:0:
331,337,38002,1,0,0:0:0:0:
323,305,38092,1,0,0:0:0:0:
333,273,38181,6,0,P|341:247|344:220,1,55.2499974708558,8|0,0:0|0:0,0:0:0:0:
292,26,38360,5,0,1:0:0:0:
363,230,38449,2,0,P|420:242|475:227,1,110.499994941712,0|0,1:0|0:0,0:0:0:0:
183,188,38717,5,0,1:0:0:0:
415,121,38896,5,8,0:0:0:0:
183,188,38985,1,8,0:0:0:0:
183,188,39610,6,0,B|127:199|127:199|81:229,1,110.499994941712,0|0,1:0|0:0,0:0:0:0:
297,120,39878,2,0,L|357:130,1,55.2499974708558,0|0,1:0|0:0,0:0:0:0:
436,256,40056,5,0,1:0:0:0:
305,233,40146,1,0,1:0:0:0:
436,202,40235,1,0,1:0:0:0:
360,351,40324,2,0,B|301:367|301:367|243:365,1,110.499994941712,8|0,0:0|0:0,0:0:0:0:
185,125,41485,5,0,1:0:0:0:
221,190,41574,1,0,1:0:0:0:
245,106,41664,1,0,1:0:0:0:
246,202,41753,5,0,0:0:0:0:
240,234,41842,1,0,0:0:0:0:
227,264,41931,1,0,0:0:0:0:
207,291,42021,1,0,0:0:0:0:
184,315,42110,2,0,B|130:325|130:325|174:284|237:319,1,165.749992412568,2|0,0:0|0:0,0:0:0:0:
345,356,42467,5,0,0:0:0:0:
375,342,42556,1,0,0:0:0:0:
400,320,42646,1,0,0:0:0:0:
418,292,42735,1,0,0:0:0:0:
426,260,42824,2,0,B|416:221|416:221|381:269|462:340,1,165.749992412568,2|0,0:0|0:0,0:0:0:0:
296,220,43181,6,0,P|264:191|243:167,1,55.2499974708558
475,153,43360,2,0,L|527:172,1,55.2499974708558
302,59,43539,1,0,1:0:0:0:
302,59,43717,1,0,1:0:0:0:
302,59,43896,6,0,B|251:95|179:61|179:61|210:103|216:138|216:138|105:111|188:184,1,331.499984825135,2|0,0:0|0:0,0:0:0:0:
282,257,44610,5,2,0:0:0:0:
285,267,44699,1,2,0:0:0:0:
288,277,44789,1,2,0:0:0:0:
291,287,44878,1,2,0:0:0:0:
177,220,45146,5,2,0:0:0:0:
180,230,45235,1,2,0:0:0:0:
183,240,45325,1,2,0:0:0:0:
186,250,45414,1,2,0:0:0:0:
72,183,45682,5,0,1:0:0:0:
75,193,45771,1,0,1:0:0:0:
78,203,45861,1,0,1:0:0:0:
81,213,45950,1,0,1:0:0:0:
84,223,46039,6,0,P|91:253|92:285,1,55.2499974708558,0|0,1:0|0:0,0:0:0:0:
291,125,46217,2,0,L|323:73,1,55.2499974708558,0|0,1:0|0:0,0:0:0:0:
461,301,46396,1,0,0:0:0:0:
35,371,46574,6,0,P|65:359|97:356,1,63.7500024318696,4|0,0:0|0:0,0:0:0:0:
461,301,46753,2,0,P|431:289|399:286,1,63.7500024318696,4|0,0:0|0:0,0:0:0:0:
231,300,47110,6,0,L|239:345,1,42.5
303,255,47289,2,0,L|311:300,1,42.5
221,209,47467,5,0,0:0:0:0:
190,193,47556,1,0,0:0:0:0:
161,178,47646,2,0,P|125:169|92:169,1,68
240,119,47824,5,0,0:0:0:0:
119,187,47914,2,0,P|85:187|52:196,1,68
322,190,48092,6,0,B|390:198|389:198|389:198|335:240,1,136
224,276,48360,1,0,0:0:0:0:
200,315,48449,1,0,0:0:0:0:
202,352,48539,6,0,P|220:371|258:388,1,68
240,119,48717,2,0,P|226:75|205:51,1,68
361,317,48896,5,0,0:0:0:0:
405,333,48985,1,0,0:0:0:0:
443,360,49074,1,0,0:0:0:0:
437,312,49164,1,0,0:0:0:0:
439,264,49253,1,0,0:0:0:0:
457,220,49342,1,0,0:0:0:0:
474,175,49431,1,0,0:0:0:0:
479,127,49521,6,0,B|466:88|466:88|443:182,1,136
289,230,49789,2,0,L|214:221,1,68
332,83,49967,5,0,0:0:0:0:
332,83,50056,2,0,P|349:113|362:143,1,68
74,143,50235,5,0,0:0:0:0:
79,88,50324,2,0,L|85:20,1,68,8|0,0:0|0:0,0:0:0:0:
142,242,50503,5,0,0:0:0:0:
160,150,50592,2,0,L|158:78,1,68,8|0,0:0|0:0,0:0:0:0:
227,290,50771,5,0,0:0:0:0:
249,149,50860,2,0,L|259:79,1,68,8|0,0:0|0:0,0:0:0:0:
335,344,51039,5,0,0:0:0:0:
364,108,51128,2,0,L|358:36,1,68,8|0,0:0|0:0,0:0:0:0:
454,378,51306,5,0,0:0:0:0:
445,67,51396,2,0,L|454:-7,1,68,8|0,0:0|0:0,0:0:0:0:
437,262,51574,5,0,0:0:0:0:
482,158,51664,1,8,0:0:0:0:
463,278,51753,6,0,P|420:289|392:303,1,68,8|0,0:0|0:0,0:0:0:0:
94,111,51931,2,0,P|137:122|165:136,1,68,8|0,0:0|0:0,0:0:0:0:
368,196,52110,5,0,0:0:0:0:
368,196,52199,1,0,0:0:0:0:
359,175,52289,2,0,L|364:106,1,68,8|0,0:0|0:0,0:0:0:0:
123,358,52467,1,4,0:0:0:0:
123,358,52824,5,0,0:0:0:0:
119,310,52914,1,0,0:0:0:0:
115,262,53003,1,0,0:0:0:0:
111,214,53092,1,0,0:0:0:0:
106,166,53181,6,0,P|61:170|28:172,1,68,0|0,1:0|0:0,0:0:0:0:
314,99,53360,2,0,P|359:103|392:105,1,68,0|0,1:0|0:0,0:0:0:0:
223,234,53539,1,0,0:0:0:0:
209,268,53628,1,0,0:0:0:0:
213,308,53717,1,0,1:0:0:0:
237,345,53806,2,0,P|312:358|346:312,1,136
233,61,54074,6,0,P|210:31|186:12,1,68,0|0,1:0|0:0,0:0:0:0:
383,229,54253,2,0,L|451:250,1,68
145,190,54431,2,0,P|97:203|74:214,1,68,0|0,1:0|0:0,0:0:0:0:
292,298,54610,6,0,P|307:324|321:366,1,68
315,145,54789,1,0,1:0:0:0:
349,114,54878,1,0,0:0:0:0:
389,107,54967,1,0,0:0:0:0:
432,113,55056,1,0,0:0:0:0:
469,136,55146,1,0,1:0:0:0:
484,169,55235,6,0,B|471:207|471:207|446:152|479:93,1,136
422,280,55503,6,0,P|432:308|437:346,1,68
306,247,55681,1,0,0:0:0:0:
306,247,55771,2,0,P|296:275|291:313,1,68,8|0,0:0|0:0,0:0:0:0:
191,367,55949,5,0,0:0:0:0:
132,352,56039,2,0,L|61:340,1,68,8|0,0:0|0:0,0:0:0:0:
230,289,56217,5,0,0:0:0:0:
127,233,56306,2,0,L|47:236,1,68,8|0,0:0|0:0,0:0:0:0:
306,247,56485,5,0,0:0:0:0:
190,145,56574,2,0,L|132:89,1,68,8|0,0:0|0:0,0:0:0:0:
394,237,56753,5,0,0:0:0:0:
266,28,56842,2,0,L|199:7,1,68,8|0,0:0|0:0,0:0:0:0:
492,286,57021,5,0,0:0:0:0:
386,54,57110,2,0,L|352:-4,1,68,8|0,0:0|0:0,0:0:0:0:
424,369,57289,5,0,0:0:0:0:
453,111,57378,2,0,L|476:35,1,68,8|0,0:0|0:0,0:0:0:0:
259,372,57556,5,0,0:0:0:0:
351,71,57646,2,0,L|365:0,1,68,8|0,0:0|0:0,0:0:0:0:
104,375,57824,5,0,0:0:0:0:
245,77,57914,2,0,L|286:9,1,68,8|0,0:0|0:0,0:0:0:0:
6,309,58092,5,0,0:0:0:0:
125,39,58181,1,4,0:0:0:0:
125,39,58449,1,4,0:0:0:0:
125,39,58717,1,4,0:0:0:0:
96,158,58896,5,0,0:0:0:0:
101,170,58985,1,0,0:0:0:0:
106,182,59074,1,0,0:0:0:0:
111,194,59164,1,0,0:0:0:0:
116,208,59253,2,0,B|146:271|146:271|191:259|227:269,1,136
385,253,59610,5,8,0:0:0:0:
209,285,59699,1,8,0:0:0:0:
413,271,59967,5,0,0:0:0:0:
416,257,60056,1,0,0:0:0:0:
419,243,60146,1,0,0:0:0:0:
422,229,60235,1,0,0:0:0:0:
425,215,60324,1,0,0:0:0:0:
327,179,60503,5,0,0:0:0:0:
330,165,60592,1,0,0:0:0:0:
333,151,60682,1,0,0:0:0:0:
336,137,60771,1,0,0:0:0:0:
339,123,60860,1,0,0:0:0:0:
296,311,61039,1,0,1:0:0:0:
182,191,61217,6,0,L|111:201,1,68,2|0,0:0|0:0,0:0:0:0:
393,211,61396,2,0,B|436:198|436:198|403:178|331:177|286:225,1,204,2|0,0:0|0:0,0:0:0:0:
178,295,61753,5,0,0:0:0:0:
181,309,61842,1,0,0:0:0:0:
184,323,61932,1,0,0:0:0:0:
187,337,62021,1,0,0:0:0:0:
189,352,62110,2,0,P|256:371|321:349,1,136
314,187,62467,5,8,0:0:0:0:
330,363,62556,1,8,0:0:0:0:
333,140,62824,5,0,0:0:0:0:
326,127,62914,1,0,0:0:0:0:
317,116,63003,1,0,0:0:0:0:
306,107,63092,1,0,0:0:0:0:
294,100,63181,1,0,0:0:0:0:
136,79,63360,5,2,0:0:0:0:
136,79,63539,5,2,0:0:0:0:
139,107,63628,1,0,0:0:0:0:
139,107,63806,5,2,0:0:0:0:
139,107,63985,5,2,0:0:0:0:
139,107,64164,5,2,0:0:0:0:
136,79,64253,1,0,0:0:0:0:
136,79,64431,6,0,L|130:9,1,68
101,262,64610,6,0,B|113:328|113:328|149:386,1,136,8|0,0:0|0:0,0:0:0:0:
236,178,65771,5,0,1:0:0:0:
161,197,65860,2,0,P|112:202|77:212,1,68,0|0,1:0|0:0,0:0:0:0:
368,267,66039,2,0,P|420:296|475:350,1,136,8|0,0:0|0:0,0:0:0:0:
400,164,67021,6,0,L|424:27,1,136,8|0,0:0|0:0,0:0:0:0:
289,209,67289,2,0,L|300:283,1,68,8|0,0:0|0:0,0:0:0:0:
258,23,67467,1,4,0:0:0:0:
258,23,68360,5,0,1:0:0:0:
198,179,68449,2,0,P|126:179|69:144,1,136,0|0,1:0|0:0,0:0:0:0:
360,105,68717,2,0,P|400:101|441:81,1,68,0|0,1:0|0:0,0:0:0:0:
150,82,68896,6,0,B|106:171|115:267|144:318|144:318|219:269|238:185,1,408,8|0,0:0|0:0,0:0:0:0:
286,59,69610,5,0,1:0:0:0:
314,227,69699,2,0,L|327:298,1,68,0|0,1:0|0:0,0:0:0:0:
319,17,69878,5,0,1:0:0:0:
243,289,69967,2,0,L|204:348,1,68,0|0,1:0|0:0,0:0:0:0:
189,87,70146,2,0,L|204:16,1,68
357,141,70324,6,0,L|427:149,1,68
146,170,70503,2,0,L|78:162,1,68
340,252,70681,1,0,1:0:0:0:
358,271,70771,1,0,0:0:0:0:
390,285,70860,1,0,0:0:0:0:
426,290,70949,1,0,0:0:0:0:
463,282,71039,6,0,P|478:254|488:217,1,68
188,363,71217,2,0,P|101:381|48:358,1,136,0|0,1:0|0:0,0:0:0:0:
399,102,71574,2,0,P|420:87|464:72,1,68,0|0,1:0|0:0,0:0:0:0:
196,117,71753,6,0,L|130:100,1,68
351,189,71931,1,0,0:0:0:0:
361,197,72021,1,0,0:0:0:0:
392,209,72110,2,0,P|431:212|475:219,1,68,0|0,1:0|0:0,0:0:0:0:
335,328,72289,2,0,P|296:331|252:338,1,68
226,208,72467,5,0,0:0:0:0:
212,182,72556,1,0,0:0:0:0:
196,157,72646,2,0,P|172:84|141:28,1,136,0|0,1:0|0:0,0:0:0:0:
164,309,73003,2,0,P|178:346|182:375,1,68,0|0,1:0|0:0,0:0:0:0:
294,93,73181,5,0,0:0:0:0:
309,64,73270,1,0,0:0:0:0:
331,40,73359,1,0,0:0:0:0:
361,30,73448,1,0,0:0:0:0:
393,38,73538,1,0,1:0:0:0:
414,62,73627,1,0,0:0:0:0:
415,94,73716,1,0,0:0:0:0:
401,123,73805,1,0,0:0:0:0:
387,153,73895,5,0,0:0:0:0:
383,185,73984,1,0,0:0:0:0:
391,216,74074,2,0,L|429:279,1,68,0|0,1:0|0:0,0:0:0:0:
248,109,74253,2,0,L|252:37,1,68
290,311,74431,2,0,L|275:382,1,68,0|0,1:0|0:0,0:0:0:0:
48,186,74610,5,8,0:0:0:0:
48,186,75503,6,0,P|84:190|116:198,1,68,0|0,1:0|0:0,0:0:0:0:
398,117,75681,2,0,P|362:121|330:129,1,68,0|0,1:0|0:0,0:0:0:0:
111,26,75860,2,0,P|147:30|179:38,1,68,0|0,1:0|0:0,0:0:0:0:
274,299,76039,5,8,0:0:0:0:
250,118,76128,1,8,0:0:0:0:
250,118,76753,6,0,P|186:175|123:176,1,136,0|0,1:0|0:0,0:0:0:0:
377,180,77021,2,0,L|451:160,1,68,0|0,1:0|0:0,0:0:0:0:
226,280,77199,1,0,0:0:0:0:
261,255,77289,1,0,0:0:0:0:
203,256,77378,1,0,0:0:0:0:
319,317,77467,5,8,0:0:0:0:
73,333,77556,1,8,0:0:0:0:
73,333,77914,5,0,0:0:0:0:
72,319,78003,1,0,0:0:0:0:
71,305,78092,1,0,0:0:0:0:
89,278,78181,5,0,0:0:0:0:
91,264,78271,1,0,0:0:0:0:
93,250,78360,1,0,0:0:0:0:
95,236,78449,1,0,0:0:0:0:
132,217,78539,5,0,0:0:0:0:
139,205,78628,1,0,0:0:0:0:
146,194,78717,1,0,0:0:0:0:
154,183,78806,1,0,0:0:0:0:
168,169,78896,6,0,B|223:102|312:129|312:129|269:140,1,204,2|0,0:0|0:0,0:0:0:0:
348,150,79253,6,0,B|305:164|305:164|365:93|448:119,1,204,2|0,0:0|0:0,0:0:0:0:
495,182,79610,6,0,P|459:248|497:370,1,204,2|0,0:0|0:0,0:0:0:0:
437,304,79967,6,0,L|232:323,1,204,2|0,0:0|0:0,0:0:0:0:
168,265,80324,5,0,0:0:0:0:
147,261,80414,1,0,0:0:0:0:
128,251,80503,1,0,0:0:0:0:
112,237,80592,1,0,0:0:0:0:
99,220,80681,2,0,P|81:182|83:143,1,68,0|0,1:0|0:0,0:0:0:0:
201,125,80860,5,0,0:0:0:0:
207,104,80949,1,0,0:0:0:0:
220,78,81039,2,0,P|240:53|274:33,1,68,8|0,0:0|0:0,0:0:0:0:
491,113,81217,6,0,P|437:74|369:64,1,136,0|0,1:0|0:0,0:0:0:0:
59,137,81574,1,8,0:0:0:0:
439,193,81753,5,2,1:0:0:0:
423,179,81842,1,2,0:0:0:0:
405,169,81931,1,2,0:0:0:0:
385,162,82021,1,2,0:0:0:0:
364,161,82110,1,0,0:0:0:0:
405,274,82289,5,2,0:0:0:0:
389,260,82378,1,2,0:0:0:0:
371,250,82467,1,2,0:0:0:0:
351,243,82557,1,2,0:0:0:0:
330,242,82646,1,0,0:0:0:0:
345,357,82824,5,0,1:0:0:0:
304,331,82914,1,0,1:0:0:0:
257,321,83003,1,0,1:0:0:0:
210,329,83092,1,0,1:0:0:0:
169,354,83181,1,4,1:0:0:0:
155,347,84610,6,0,B|135:290|57:249|57:249|133:264|172:196,1,272,4|0,0:0|0:0,0:0:0:0:
121,24,85324,6,0,P|81:92|87:171,1,136,0|0,1:0|0:0,0:0:0:0:
283,230,85592,2,0,P|278:162|242:106,1,136,0|0,1:0|0:0,0:0:0:0:
186,307,85860,2,0,L|201:373,1,68,0|0,1:0|0:0,0:0:0:0:
323,81,86039,5,0,0:0:0:0:
373,31,86128,1,0,0:0:0:0:
443,31,86217,1,0,0:0:0:0:
494,80,86306,1,0,0:0:0:0:
496,150,86396,1,0,0:0:0:0:
448,202,86485,1,0,0:0:0:0:
378,206,86574,5,0,0:0:0:0:
336,181,86664,2,0,L|192:202,1,144.500002756119
400,296,86931,2,0,L|475:306,1,72.2500013780594
293,352,87110,5,0,0:0:0:0:
280,290,87199,2,0,L|267:217,1,72.2500013780594,8|0,0:0|0:0,0:0:0:0:
212,370,87378,5,0,0:0:0:0:
188,276,87467,2,0,L|165:186,1,72.2500013780594,8|0,0:0|0:0,0:0:0:0:
119,369,87646,5,0,0:0:0:0:
97,228,87735,2,0,L|100:149,1,72.2500013780594,8|0,0:0|0:0,0:0:0:0:
32,364,87914,5,0,0:0:0:0:
20,163,88003,2,0,L|10:88,1,72.2500013780594,8|0,0:0|0:0,0:0:0:0:
114,326,88181,5,0,0:0:0:0:
125,104,88271,2,0,L|143:33,1,72.2500013780594,8|0,0:0|0:0,0:0:0:0:
203,313,88449,5,0,0:0:0:0:
261,71,88539,2,0,L|238:3,1,72.2500013780594,8|0,0:0|0:0,0:0:0:0:
301,273,88717,5,0,0:0:0:0:
274,164,88806,1,0,0:0:0:0:
324,298,88896,6,0,P|336:335|345:367,1,72.2500013780594,8|0,0:0|0:0,0:0:0:0:
140,139,89074,2,0,P|135:84|134:58,1,72.2500013780594,0|0,1:0|0:0,0:0:0:0:
112,313,89253,2,0,L|65:372,1,72.2500013780594,8|8,0:0|0:0,0:0:0:0:
371,88,89431,2,0,L|402:17,1,72.2500013780594,0|0,1:0|0:0,0:0:0:0:
477,362,89610,1,4,0:0:0:0:
477,362,89967,5,0,1:0:0:0:
496,296,90056,1,0,1:0:0:0:
447,248,90145,1,0,1:0:0:0:
381,269,90234,1,0,1:0:0:0:
369,336,90324,6,0,P|349:375|325:400,1,72.2500013780594
212,111,90503,2,0,L|254:43,1,72.2500013780594,0|0,1:0|0:0,0:0:0:0:
199,307,90681,2,0,L|185:378,1,72.2500013780594
383,132,90860,2,0,P|426:102|459:95,1,72.2500013780594,0|0,1:0|0:0,0:0:0:0:
121,226,91039,6,0,B|83:234|83:234|106:189|198:206,1,144.500002756119,0|0,0:0|1:0,0:0:0:0:
226,231,91306,1,0,0:0:0:0:
277,229,91396,2,0,L|350:223,1,72.2500013780594
169,95,91574,2,0,L|96:101,1,72.2500013780594,0|0,1:0|0:0,0:0:0:0:
336,55,91753,5,0,0:0:0:0:
392,87,91842,1,0,0:0:0:0:
433,97,91931,1,0,1:0:0:0:
473,99,92021,1,0,0:0:0:0:
506,91,92110,1,0,0:0:0:0:
478,122,92199,1,0,0:0:0:0:
460,169,92289,1,0,1:0:0:0:
459,217,92378,6,0,P|468:312|477:368,1,144.500002756119
330,47,92646,1,0,1:0:0:0:
252,0,92824,5,0,0:0:0:0:
337,7,92914,2,0,L|419:19,1,72.2500013780594,8|0,0:0|0:0,0:0:0:0:
220,59,93092,5,0,0:0:0:0:
332,83,93181,2,0,P|369:91|410:91,1,72.2500013780594,8|0,0:0|0:0,0:0:0:0:
196,129,93360,5,0,0:0:0:0:
376,156,93449,2,0,P|407:162|447:173,1,72.2500013780594,8|0,0:0|0:0,0:0:0:0:
159,195,93628,5,0,0:0:0:0:
405,233,93717,2,0,L|491:238,1,72.2500013780594,8|0,0:0|0:0,0:0:0:0:
101,271,93896,5,0,0:0:0:0:
421,299,93985,2,0,P|472:304|496:310,1,72.2500013780594,8|0,0:0|0:0,0:0:0:0:
40,350,94164,5,0,0:0:0:0:
424,356,94253,2,0,L|490:384,1,72.2500013780594,8|0,0:0|0:0,0:0:0:0:
139,366,94431,5,0,0:0:0:0:
419,248,94521,2,0,L|501:213,1,72.2500013780594,8|0,0:0|0:0,0:0:0:0:
68,308,94699,5,0,0:0:0:0:
418,148,94789,2,0,P|450:130|492:120,1,72.2500013780594,8|0,0:0|0:0,0:0:0:0:
3,258,94967,5,0,0:0:0:0:
430,49,95056,2,0,P|471:32|505:21,1,72.2500013780594,8|0,0:0|0:0,0:0:0:0:
0,157,95235,5,0,0:0:0:0:
352,20,95324,1,4,0:0:0:0:
352,20,95592,1,4,0:0:0:0:
352,20,95860,1,4,0:0:0:0:
352,20,96039,6,0,L|342:94,1,72.2500013780594
240,66,96217,1,0,1:0:0:0:
286,354,96396,1,0,1:0:0:0:
240,44,96574,6,0,B|101:67|101:67|65:108|45:122,1,216.750004134178,2|0,0:0|0:0,0:0:0:0:
158,166,97021,5,0,1:0:0:0:
158,166,97110,2,0,L|177:244,1,72.2500013780594,0|0,1:0|0:0,0:0:0:0:
283,206,97289,2,0,L|277:291,1,72.2500013780594,0|0,1:0|0:0,0:0:0:0:
395,252,97467,6,0,B|406:213|406:213|441:264|456:322|372:368,1,216.750004134178,0|0,1:0|0:0,0:0:0:0:
291,362,97824,5,0,1:0:0:0:
253,359,97914,2,0,L|179:354,1,72.2500013780594,0|0,1:0|0:0,0:0:0:0:
323,149,98092,1,0,1:0:0:0:
349,152,98181,6,0,B|417:151|469:174|469:174|431:120|438:81,1,216.750004134178,0|0,1:0|0:0,0:0:0:0:
362,64,98539,2,0,B|294:63|242:86|242:86|280:32|273:-7,1,216.750004134178
172,11,98896,6,0,P|143:11|74:34,2,96.3333351707459
149,118,99253,5,0,1:0:0:0:
138,152,99342,1,0,1:0:0:0:
130,187,99431,1,0,1:0:0:0:
127,223,99521,1,0,1:0:0:0:
128,258,99610,6,0,P|133:311|145:348,1,72.2500013780594
52,124,99789,1,8,0:0:0:0:
237,346,99967,5,0,1:0:0:0:
237,346,100027,1,0,0:0:0:0:
237,346,100086,1,0,0:0:0:0:
237,346,100146,1,0,1:0:0:0:
237,346,100205,2,0,B|305:352|362:344|362:344|414:308,1,168.583336548805
428,282,100503,1,0,0:0:0:0:
439,194,100592,1,0,1:0:0:0:
408,102,100681,6,0,P|390:68|375:29,1,72.2500013780594,8|0,0:0|0:0,0:0:0:0:
500,313,100860,2,0,L|508:387,1,72.2500013780594
300,193,101039,6,0,P|259:93|246:51,1,144.500002756119,8|0,0:0|0:0,0:0:0:0:
210,281,101306,2,0,P|196:178|173:98,1,144.500002756119,8|0,0:0|0:0,0:0:0:0:
84,210,101574,2,0,P|85:152|91:124,1,72.2500013780594,8|0,0:0|0:0,0:0:0:0:
439,194,101753,1,4,0:0:0:0:
439,194,102467,5,0,1:0:0:0:
251,225,102646,1,0,1:0:0:0:
403,212,102824,5,0,0:0:0:0:
291,206,102914,1,0,0:0:0:0:
370,202,103003,1,0,0:0:0:0:
330,215,103092,1,0,0:0:0:0:
351,184,103181,6,0,P|382:164|418:149,1,72.2500013780594,0|0,1:0|0:0,0:0:0:0:
240,124,103360,2,0,P|209:104|173:89,1,72.2500013780594
381,61,103539,1,0,1:0:0:0:
417,64,103628,1,0,0:0:0:0:
451,58,103717,6,0,B|490:60|490:60|468:31|405:7|377:11|326:48,1,216.750004134178
199,210,104074,5,0,1:0:0:0:
155,229,104164,1,0,0:0:0:0:
125,274,104253,1,0,0:0:0:0:
122,359,104342,1,0,0:0:0:0:
88,274,104431,2,0,L|79:200,1,72.2500013780594,0|0,1:0|0:0,0:0:0:0:
175,96,104610,5,0,1:0:0:0:
175,96,104699,1,0,0:0:0:0:
175,96,104789,2,0,P|175:40|101:9,1,144.500002756119
348,187,105146,2,0,P|394:197|431:204,1,72.2500013780594,0|0,1:0|0:0,0:0:0:0:
209,211,105324,6,0,B|176:226|176:226|138:255,1,72.2500013780594
338,271,105503,2,0,B|371:286|371:286|409:315,1,72.2500013780594
167,283,105681,2,0,B|134:298|134:298|96:327,1,72.2500013780594,0|0,1:0|0:0,0:0:0:0:
371,340,105860,1,0,0:0:0:0:
426,360,105949,1,8,0:0:0:0:
387,377,106039,6,0,P|292:362|232:360,1,144.500002756119,0|0,1:0|0:0,0:0:0:0:
76,202,106396,1,0,1:0:0:0:
76,202,106485,1,0,1:0:0:0:
76,202,106574,1,0,1:0:0:0:
76,202,106664,1,0,1:0:0:0:
76,202,106753,6,0,L|97:286,1,72.2500013780594
335,141,106931,2,0,L|314:225,1,72.2500013780594,0|0,1:0|0:0,0:0:0:0:
112,21,107110,2,0,P|124:103|143:170,1,144.500002756119,0|0,1:0|0:0,0:0:0:0:
474,62,107467,6,0,L|305:37,1,144.500002756119,8|0,0:0|0:0,0:0:0:0:
424,293,107735,2,0,P|446:208|475:141,1,144.500002756119,8|0,0:0|0:0,0:0:0:0:
267,189,108003,2,0,P|278:226|285:266,1,72.2500013780594,8|0,0:0|0:0,0:0:0:0:
35,169,108181,6,0,L|55:22,1,144.500002756119,0|0,1:0|0:0,0:0:0:0:
235,95,108539,1,0,1:0:0:0:
235,95,108628,2,0,L|245:15,1,72.2500013780594,0|0,1:0|0:0,0:0:0:0:
375,124,108806,1,0,0:0:0:0:
385,86,108896,5,0,0:0:0:0:
389,117,108985,2,0,L|401:189,1,72.2500013780594
319,274,109164,2,0,P|233:265|171:216,1,144.500002756119,8|0,0:0|0:0,0:0:0:0:
494,324,109431,2,0,P|432:360|361:364,1,144.500002756119,8|0,0:0|0:0,0:0:0:0:
278,172,109699,5,0,1:0:0:0:
278,172,109789,2,0,P|274:121|269:91,1,72.2500013780594,8|0,0:0|0:0,0:0:0:0:
126,49,109967,6,0,B|52:89|18:182|52:229|112:253|151:244|181:177,2,289.000005512238,10|10|2,0:0|0:0|0:0,0:0:0:0:
70,240,118896,6,0,L|146:248,3,72.2500013780594
156,223,119253,2,0,L|195:217,7,36.1250006890297
235,230,119610,6,0,P|270:237|307:254,1,72.2500013780594,0|0,1:0|0:0,0:0:0:0:
474,145,119789,1,0,1:0:0:0:
447,151,119878,1,0,0:0:0:0:
481,165,119967,2,0,P|446:172|409:189,1,72.2500013780594,0|0,1:0|0:0,0:0:0:0:
250,103,120146,2,0,L|241:28,1,72.2500013780594
437,43,120324,5,0,1:0:0:0:
110,118,120503,1,0,0:0:0:0:
110,118,120592,1,0,1:0:0:0:
110,118,120681,2,0,B|99:153|99:153|76:186,1,72.2500013780594,0|0,1:0|0:0,0:0:0:0:
183,357,120860,2,0,B|175:323|175:323|180:284,1,72.2500013780594,0|0,1:0|0:0,0:0:0:0:
252,127,121039,2,0,L|291:61,1,72.2500013780594,0|0,1:0|0:0,0:0:0:0:
266,315,121217,1,0,0:0:0:0:
375,136,121396,5,0,1:0:0:0:
410,128,121485,1,0,1:0:0:0:
444,138,121574,1,0,1:0:0:0:
464,168,121664,1,0,1:0:0:0:
464,204,121753,6,0,L|452:279,1,72.2500013780594
398,31,121931,1,0,1:0:0:0:
398,31,122021,1,0,0:0:0:0:
398,31,122110,2,0,P|454:41|471:42,1,72.2500013780594,0|0,1:0|0:0,0:0:0:0:
357,229,122289,2,0,P|317:219|283:216,1,72.2500013780594
280,17,122467,5,0,1:0:0:0:
181,191,122646,1,0,0:0:0:0:
176,210,122735,1,0,1:0:0:0:
160,190,122824,2,0,P|155:150|144:113,1,72.2500013780594,0|0,1:0|0:0,0:0:0:0:
301,304,123003,2,0,P|296:344|285:381,1,72.2500013780594,0|0,1:0|0:0,0:0:0:0:
334,141,123181,2,0,L|376:81,1,72.2500013780594,0|0,1:0|0:0,0:0:0:0:
184,329,123360,1,0,0:0:0:0:
424,225,123539,5,0,1:0:0:0:
456,241,123628,1,0,1:0:0:0:
476,270,123717,1,0,1:0:0:0:
465,304,123806,1,0,1:0:0:0:
433,323,123896,6,0,L|361:329,1,72.2500013780594
138,241,124074,1,0,1:0:0:0:
138,241,124164,1,0,0:0:0:0:
138,241,124253,2,0,L|73:276,1,72.2500013780594,0|0,1:0|0:0,0:0:0:0:
361,158,124431,2,0,P|400:176|432:186,1,72.2500013780594
252,359,124610,5,0,1:0:0:0:
241,89,124789,1,0,0:0:0:0:
231,64,124878,1,0,1:0:0:0:
256,78,124967,2,0,B|266:112|266:112|265:152,1,72.2500013780594,0|0,1:0|0:0,0:0:0:0:
131,325,125146,2,0,L|58:306,1,72.2500013780594,0|0,1:0|0:0,0:0:0:0:
381,325,125324,2,0,L|454:306,1,72.2500013780594,0|0,1:0|0:0,0:0:0:0:
125,163,125503,1,0,0:0:0:0:
403,59,125681,5,0,1:0:0:0:
438,66,125771,1,0,1:0:0:0:
471,93,125860,1,0,1:0:0:0:
489,139,125949,1,0,1:0:0:0:
471,197,126039,6,0,B|443:228|391:228|366:231|232:157|296:19|391:92|385:212|384:252|353:294|321:293|310:287,1,382.500014591218
310,287,127467,6,0,B|321:293|353:294|384:252|385:212|384:97|297:8|236:159|366:231|391:228|443:228|471:197,2,382.500014591218
118,226,128539,5,0,1:0:0:0:
118,226,128628,1,0,1:0:0:0:
118,226,128717,1,0,1:0:0:0:
118,226,128806,1,0,1:0:0:0:
118,226,128896,6,0,P|99:183|73:154,1,72.2500013780594,2|0,0:0|0:0,0:0:0:0:
354,294,129074,1,0,0:0:0:0:
354,294,129164,6,0,P|326:332|314:369,1,72.2500013780594,2|0,0:0|0:0,0:0:0:0:
295,55,129342,1,0,0:0:0:0:
295,55,129432,6,0,P|342:60|380:52,1,72.2500013780594,2|0,0:0|0:0,0:0:0:0:
221,273,129610,6,0,L|187:344,1,72.2500013780594,0|0,1:0|0:0,0:0:0:0:
174,64,129789,2,0,B|153:34|153:34|123:13,1,72.2500013780594,0|0,1:0|0:0,0:0:0:0:
396,279,129967,2,0,L|416:351,1,72.2500013780594,0|0,1:0|0:0,0:0:0:0:
401,44,130146,2,0,B|431:29|431:29|465:9,1,72.2500013780594,0|0,1:0|0:0,0:0:0:0:
213,266,130324,6,0,P|256:313|246:251,1,170,8|0,0:0|0:0,0:0:0:0:
397,151,130592,2,0,P|354:198|364:135,1,170,8|0,0:0|0:0,0:0:0:0:
115,66,130860,2,0,P|157:113|148:53,1,85,8|0,0:0|0:0,0:0:0:0:
319,39,131039,6,0,L|489:27,1,170,4|0,0:0|0:0,0:0:0:0:
193,347,131306,2,0,L|23:334,1,170,4|0,0:0|0:0,0:0:0:0:
441,325,131574,2,0,B|475:351|475:351|516:323|511:264|483:230,1,170,4|0,0:0|0:0,0:0:0:0:
282,156,131931,5,0,1:0:0:0:
247,156,132021,1,0,0:0:0:0:
218,170,132110,1,2,0:0:0:0:
299,125,132199,1,2,0:0:0:0:
301,93,132289,2,0,P|297:44|286:10,1,85,2|0,0:0|0:0,0:0:0:0:
263,251,132467,6,0,P|266:354|317:381,1,170,2|0,0:0|1:0,0:0:0:0:
470,153,132735,2,0,P|467:50|416:23,1,170,2|0,0:0|0:0,0:0:0:0:
164,75,133003,2,0,P|116:81|78:84,1,85,0|0,1:0|0:0,0:0:0:0:
370,238,133181,6,4,B|434:259|434:259|494:243,2,127.5
370,238,133717,2,0,P|377:286|377:331,1,85,8|0,0:0|0:0,0:0:0:0:
284,376,133896,5,0,1:0:0:0:
284,376,133985,2,0,L|199:367,1,85,0|0,1:0|0:0,0:0:0:0:
444,73,134164,2,0,P|461:160|480:240,1,170,0|0,1:0|0:0,0:0:0:0:
269,214,134431,2,0,P|275:156|276:122,1,85
108,229,134610,6,0,P|117:274|134:311,1,85
378,375,134789,2,0,P|395:336|403:294,1,85,0|0,1:0|0:0,0:0:0:0:
317,42,134967,1,0,0:0:0:0:
317,42,135056,1,0,0:0:0:0:
317,42,135146,2,0,L|230:49,1,85,0|0,1:0|0:0,0:0:0:0:
385,140,135324,6,0,B|511:161|511:161|479:190,1,170,0|0,0:0|1:0,0:0:0:0:
127,228,135592,2,0,B|1:249|1:249|33:278,1,170
394,323,135860,2,0,L|399:238,1,85,0|0,1:0|0:0,0:0:0:0:
197,44,136039,5,8,0:0:0:0:
197,44,136217,1,8,0:0:0:0:
197,44,136485,5,0,1:0:0:0:
177,132,136574,2,0,P|126:124|91:123,1,85,0|0,1:0|0:0,0:0:0:0:
197,44,136753,5,0,1:0:0:0:
215,251,136842,2,0,P|266:243|301:242,1,85,0|0,1:0|0:0,0:0:0:0:
446,151,137021,2,0,P|441:108|440:63,1,85
425,341,137199,1,0,1:0:0:0:
425,341,137289,1,0,1:0:0:0:
263,359,137467,5,8,0:0:0:0:
241,254,137556,1,8,0:0:0:0:
306,332,137646,1,8,0:0:0:0:
134,296,137735,1,8,0:0:0:0:
113,130,138003,5,8,0:0:0:0:
186,172,138092,1,8,0:0:0:0:
145,42,138181,1,8,0:0:0:0:
134,296,138271,1,8,0:0:0:0:
297,229,138539,5,8,0:0:0:0:
384,289,138628,1,8,0:0:0:0:
134,296,138717,2,0,P|78:312|141:327,1,170,4|0,0:0|0:0,0:0:0:0:
153,69,141753,6,0,B|153:155|172:209|238:269|238:269|272:197|277:148|258:97|258:97|313:113|365:103,1,510,4|0,0:0|0:0,0:0:0:0:
442,220,142467,6,0,B|314:243|135:265|135:265|148:313|151:357|151:357|101:347|44:351,1,510,4|0,0:0|0:0,0:0:0:0:
276,349,143181,6,0,P|369:352|455:358,1,170,4|0,0:0|0:0,0:0:0:0:
236,144,143539,2,0,P|143:147|57:153,1,170,4|0,0:0|0:0,0:0:0:0:
449,107,143896,6,0,P|452:54|448:15,1,85
153,46,144074,1,0,0:0:0:0:
149,69,144164,2,0,P|145:111|157:240,1,170
247,353,144431,1,0,0:0:0:0:
310,246,144610,5,2,0:0:0:0:
326,248,144699,1,2,0:0:0:0:
342,250,144789,1,2,0:0:0:0:
358,252,144878,1,2,0:0:0:0:
298,158,145146,5,2,0:0:0:0:
331,162,145235,1,2,0:0:0:0:
364,167,145324,1,2,0:0:0:0:
397,172,145414,1,2,0:0:0:0:
228,54,145681,5,2,0:0:0:0:
295,64,145771,1,2,0:0:0:0:
361,74,145860,1,2,0:0:0:0:
427,85,145949,1,2,0:0:0:0:
494,97,146039,5,0,1:0:0:0:
355,182,146128,2,0,P|309:172|265:170,1,85,0|0,1:0|0:0,0:0:0:0:
475,222,146306,5,0,1:0:0:0:
280,275,146396,2,0,P|235:295|189:312,1,85,0|0,1:0|0:0,0:0:0:0:
347,363,146574,5,8,0:0:0:0:
201,307,146664,1,8,0:0:0:0:
55,251,146753,1,8,0:0:0:0:
155,38,147467,5,0,1:0:0:0:
181,167,147556,2,0,P|166:216|156:253,1,85,0|0,1:0|0:0,0:0:0:0:
260,69,147735,5,0,1:0:0:0:
321,233,147824,2,0,L|336:323,1,85,0|0,1:0|0:0,0:0:0:0:
428,132,148003,5,8,0:0:0:0:
321,233,148092,1,8,0:0:0:0:
214,334,148181,1,8,0:0:0:0:
214,334,148896,5,2,0:0:0:0:
214,334,149074,1,2,0:0:0:0:
214,334,149253,5,2,0:0:0:0:
203,226,149342,1,0,0:0:0:0:
203,226,149521,1,2,0:0:0:0:
203,226,149699,5,2,0:0:0:0:
321,274,149789,1,0,0:0:0:0:
313,109,149967,1,2,0:0:0:0:
427,342,150146,1,2,0:0:0:0:
427,342,150324,5,8,0:0:0:0:
433,299,150414,1,8,0:0:0:0:
382,327,150503,1,8,0:0:0:0:
383,250,150592,1,8,0:0:0:0:
295,285,150681,1,8,0:0:0:0:
346,171,150771,1,8,0:0:0:0:
204,213,150860,1,8,0:0:0:0:
321,82,150949,1,8,0:0:0:0:
82,104,151039,1,4,0:0:0:0:
96,119,153181,6,0,P|230:158|347:149,1,255.000009727478,8|0,0:0|0:0,0:0:0:0:
456,74,153449,2,0,P|329:67|208:104,1,255.000009727478,8|0,0:0|0:0,0:0:0:0:
406,222,153717,2,0,P|477:183|512:145,1,127.500004863739,8|0,0:0|0:0,0:0:0:0:
100,247,153896,1,8,0:0:0:0:
85,63,154253,5,0,0:0:0:0:
100,247,154342,1,0,0:0:0:0:
85,63,154521,5,0,0:0:0:0:
100,247,154610,2,0,P|97:314|109:380,1,127.500004863739,8|0,0:0|0:0,0:0:0:0:
168,23,154789,5,0,0:0:0:0:
178,212,154878,2,0,P|168:280|152:338,1,127.500004863739,8|0,0:0|0:0,0:0:0:0:
252,37,155056,5,0,0:0:0:0:
252,254,155146,2,0,P|242:313|251:381,1,127.500004863739,8|0,0:0|0:0,0:0:0:0:
334,34,155324,5,0,0:0:0:0:
338,223,155413,2,0,P|348:294|347:353,1,127.500004863739,8|0,0:0|0:0,0:0:0:0:
438,24,155592,5,0,0:0:0:0:
431,295,155681,2,0,P|460:335|466:282,1,127.500004863739,8|0,0:0|0:0,0:0:0:0:
334,34,155860,2,0,P|305:-6|299:47,1,127.500004863739,8|0,0:0|0:0,0:0:0:0:
343,328,156039,5,0,1:0:0:0:
343,328,156128,2,0,P|291:358|224:372,1,127.500004863739,0|0,1:0|0:0,0:0:0:0:
62,90,156306,1,0,1:0:0:0:
62,90,156396,2,0,P|124:102|179:133,1,127.500004863739,0|0,1:0|0:0,0:0:0:0:
133,310,156574,1,8,0:0:0:0:
133,310,156664,1,8,0:0:0:0:
375,206,156753,1,4,0:0:0:0:
375,206,157110,5,0,0:0:0:0:
443,173,157467,6,0,P|397:278|374:131,1,382.500014591218,4|0,0:0|0:0,0:0:0:0:
465,274,157824,5,0,0:0:0:0:
485,321,157914,1,0,0:0:0:0:
460,365,158003,1,0,0:0:0:0:
410,378,158092,2,0,P|264:338|204:232,1,255.000009727478,8|0,0:0|0:0,0:0:0:0:
269,25,158360,2,0,P|276:88|262:160,1,127.500004863739
26,229,158539,6,0,P|77:191|146:167,1,127.500004863739,0|0,1:0|0:0,0:0:0:0:
486,155,158717,2,0,P|434:192|365:216,1,127.500004863739,0|0,1:0|0:0,0:0:0:0:
163,290,158896,5,0,0:0:0:0:
129,251,158985,1,0,0:0:0:0:
108,205,159074,1,0,1:0:0:0:
100,154,159163,1,0,0:0:0:0:
106,104,159253,6,0,B|108:53|150:17|150:17|168:36,1,127.500004863739
349,272,159431,2,0,B|347:323|305:359|305:359|287:340,1,127.500004863739,0|0,1:0|0:0,0:0:0:0:
295,126,159610,5,0,1:0:0:0:
295,126,159699,1,0,1:0:0:0:
295,126,159789,1,0,1:0:0:0:
295,126,159878,1,0,1:0:0:0:
295,126,159967,1,0,1:0:0:0:
295,126,160056,1,0,1:0:0:0:
295,126,160146,1,0,1:0:0:0:
295,126,160235,5,0,0:0:0:0:
446,155,160324,2,0,P|487:118|445:113,1,127.500004863739,8|0,0:0|0:0,0:0:0:0:
239,212,160503,5,0,0:0:0:0:
449,241,160592,2,0,P|495:260|450:282,1,127.500004863739,8|0,0:0|0:0,0:0:0:0:
261,87,160771,5,0,0:0:0:0:
425,76,160860,2,0,P|475:72|444:113,1,127.500004863739,8|0,0:0|0:0,0:0:0:0:
228,252,161039,5,0,0:0:0:0:
430,319,161128,2,0,P|480:322|449:281,1,127.500004863739,8|0,0:0|0:0,0:0:0:0:
204,167,161306,5,0,0:0:0:0:
383,192,161396,2,0,L|506:162,1,127.500004863739,8|0,0:0|0:0,0:0:0:0:
175,54,161574,2,0,L|52:24,1,127.500004863739,8|0,0:0|0:0,0:0:0:0:
318,258,161753,6,0,B|362:301|362:301|391:361,1,127.500004863739,0|0,1:0|0:0,0:0:0:0:
356,103,161931,2,0,B|385:43|385:43|429:0,1,127.500004863739,0|0,1:0|0:0,0:0:0:0:
166,276,162110,2,0,P|84:292|39:294,1,127.500004863739,0|0,1:0|0:0,0:0:0:0:
120,0,162289,2,0,P|183:4|245:18,1,127.500004863739,0|0,1:0|0:0,0:0:0:0:
485,192,162467,5,4,0:0:0:0:
485,192,162646,1,0,1:0:0:0:
485,192,162824,5,2,0:0:0:0:
465,239,162914,1,2,0:0:0:0:
430,276,163003,1,2,0:0:0:0:
386,302,163092,1,2,0:0:0:0:
336,313,163181,6,0,P|299:304|299:373,1,127.500004863739,4|0,0:0|0:0,0:0:0:0:
60,244,163360,2,0,P|97:235|97:304,1,127.500004863739,4|0,0:0|0:0,0:0:0:0:
465,132,163539,2,0,P|428:123|428:192,1,127.500004863739,4|0,0:0|0:0,0:0:0:0:
189,63,163718,2,0,P|226:54|226:123,1,127.500004863739,4|0,0:0|0:0,0:0:0:0:
169,353,163896,6,0,P|115:386|40:364,1,127.500004863739,4|0,0:0|0:0,0:0:0:0:
356,241,164074,2,0,P|410:274|485:252,1,127.500004863739,4|0,0:0|0:0,0:0:0:0:
47,132,164253,2,0,P|14:78|36:3,1,127.500004863739,4|0,0:0|0:0,0:0:0:0:
486,17,164431,2,0,P|497:78|465:132,1,127.500004863739,4|0,0:0|0:0,0:0:0:0:
60,244,164610,6,0,B|110:201|110:201|177:178,1,127.500004863739,4|0,0:0|0:0,0:0:0:0:
399,335,164789,2,0,B|336:313|336:313|283:267,1,127.500004863739,4|0,0:0|0:0,0:0:0:0:
308,0,164967,2,0,B|321:61|321:61|307:130,1,127.500004863739,4|0,0:0|0:0,0:0:0:0:
184,285,165146,6,0,B|144:327|168:383|168:383|181:367,1,127.500004863739,4|0,0:0|0:0,0:0:0:0:
211,83,165324,2,0,B|194:27|133:20|133:20|141:40,1,127.500004863739,4|0,0:0|0:0,0:0:0:0:
372,207,165503,2,0,B|429:220|465:171|465:171|444:168,1,127.500004863739,4|0,0:0|0:0,0:0:0:0:
146,180,165681,5,0,0:0:0:0:
146,180,165771,2,0,L|23:213,1,127.500004863739
370,24,165949,5,0,0:0:0:0:
370,24,166039,2,0,L|493:57,1,127.500004863739,8|0,0:0|0:0,0:0:0:0:
287,64,166217,5,0,0:0:0:0:
362,109,166306,2,0,L|474:171,1,127.500004863739,8|0,0:0|0:0,0:0:0:0:
231,129,166485,5,0,0:0:0:0:
366,203,166574,2,0,L|489:234,1,127.500004863739,8|0,0:0|0:0,0:0:0:0:
145,143,166753,5,0,0:0:0:0:
373,288,166842,2,0,L|483:360,1,127.500004863739,8|0,0:0|0:0,0:0:0:0:
58,221,167021,5,0,0:0:0:0:
316,372,167110,2,0,L|442:384,1,127.500004863739,8|0,0:0|0:0,0:0:0:0:
26,342,167289,5,0,0:0:0:0:
373,288,167378,2,0,B|437:270|437:270|496:290,1,127.500004863739,8|0,0:0|0:0,0:0:0:0:
14,240,167556,5,0,0:0:0:0:
403,154,167646,2,0,B|466:136|466:136|513:95,1,127.500004863739,8|0,0:0|0:0,0:0:0:0:
10,125,167824,5,0,0:0:0:0:
419,47,167914,2,0,P|423:-3|383:28,1,127.500004863739,8|0,0:0|0:0,0:0:0:0:
42,20,168092,5,0,0:0:0:0:
153,48,168181,1,0,1:0:0:0:
198,70,168271,1,0,1:0:0:0:
220,115,168360,1,0,1:0:0:0:
213,165,168449,2,0,P|194:212|201:287,1,127.500004863739,0|0,1:0|0:0,0:0:0:0:
313,72,168628,5,0,1:0:0:0:
333,219,168717,2,0,P|352:266|345:341,1,127.500004863739,0|0,1:0|0:0,0:0:0:0:
98,366,168896,6,2,B|1:253|64:127|64:127|136:158|137:231,1,382.500014591218
192,315,169253,2,0,P|251:327|319:325,1,127.500004863739,0|0,1:0|0:0,0:0:0:0:
468,275,169431,5,0,0:0:0:0:
205,194,169610,1,0,0:0:0:0:
425,146,169789,1,0,0:0:0:0:
275,78,169967,1,0,1:0:0:0:
275,78,170056,1,0,0:0:0:0:
275,78,170146,1,0,0:0:0:0:
367,348,170324,6,0,B|347:276|403:235|403:235|459:276|439:348,1,255.000009727478
145,267,170681,2,0,B|165:195|109:154|109:154|53:195|73:267,1,255.000009727478,0|0,1:0|0:0,0:0:0:0:
367,145,171039,6,0,B|347:73|403:32,1,127.500004863739
287,260,171217,2,0,B|359:278|366:347,1,127.500004863739
227,133,171396,1,0,1:0:0:0:
227,133,171753,6,2,B|136:147|67:167|67:167|61:114|48:76|48:76|121:76|170:52,1,382.500014591218
269,44,172110,2,0,P|331:59|406:66,1,127.500004863739,0|0,1:0|0:0,0:0:0:0:
498,144,172289,5,0,1:0:0:0:
457,353,172467,1,0,0:0:0:0:
320,105,172646,1,0,0:0:0:0:
275,384,172824,1,0,1:0:0:0:
275,384,172914,1,0,0:0:0:0:
275,384,173003,1,0,0:0:0:0:
163,159,173181,5,0,0:0:0:0:
163,159,173271,1,0,0:0:0:0:
163,159,173360,2,2,L|32:170,2,127.500004863739
434,248,173717,2,0,P|481:223|425:206,1,127.500004863739,0|0,1:0|0:0,0:0:0:0:
158,279,173896,2,0,P|27:330|174:344,1,382.500014591218,4|0,0:0|0:0,0:0:0:0:
291,235,174253,5,0,1:0:0:0:
291,235,174342,1,0,1:0:0:0:
291,235,174431,1,0,1:0:0:0:
291,235,174521,1,0,1:0:0:0:
291,235,174610,6,2,B|218:139|280:53|280:53|333:79|391:76|391:76|416:10,1,382.500014591218
501,69,174967,2,0,L|512:199,1,127.500004863739,0|0,1:0|0:0,0:0:0:0:
411,171,175146,2,0,L|400:301,1,127.500004863739,0|0,1:0|0:0,0:0:0:0:
484,360,175324,5,0,0:0:0:0:
303,324,175503,1,0,0:0:0:0:
161,363,175681,1,0,1:0:0:0:
161,363,175771,1,0,0:0:0:0:
161,363,175860,1,0,0:0:0:0:
45,287,176039,6,0,L|22:31,1,255.000009727478
161,363,176396,2,0,L|184:107,1,255.000009727478,0|0,1:0|1:0,0:0:0:0:
312,284,176753,2,0,L|289:28,1,255.000009727478
428,360,177110,2,0,B|450:104|450:104|428:360,1,510.000019454957
137,105,178628,5,0,1:0:0:0:
138,250,178717,2,0,B|113:300|140:352|140:352|156:331,1,127.500004863739,8|0,0:0|0:0,0:0:0:0:
226,51,178896,6,0,P|135:0|62:175,1,340,4|0,0:0|0:0,0:0:0:0:
397,162,179164,2,0,P|448:71|273:-2,1,340,4|0,0:0|0:0,0:0:0:0:
295,308,179431,2,0,P|388:314|459:347,1,170,0|0,1:0|0:0,0:0:0:0:
179,254,179610,6,0,P|91:279|17:241,1,170
333,185,179789,2,0,P|421:210|495:172,1,170,0|0,1:0|0:0,0:0:0:0:
179,116,179967,2,0,P|91:141|17:103,1,170
333,47,180146,2,0,P|421:72|495:34,1,170,0|0,1:0|0:0,0:0:0:0:
104,34,180324,6,0,P|149:156|101:362,1,340,2|2,0:0|0:0,0:0:0:0:
50,203,180592,1,0,0:0:0:0:
241,231,180681,2,0,P|389:209|468:369,1,340,2|0,0:0|0:0,0:0:0:0:
330,333,180949,1,0,0:0:0:0:
371,172,181039,6,0,P|348:74|469:152,1,340,4|0,0:0|0:0,0:0:0:0:
91,116,181306,2,0,P|166:6|189:137,1,340,4|0,0:0|0:0,0:0:0:0:
84,351,181574,2,0,P|36:288|49:203,1,170,8|0,0:0|0:0,0:0:0:0:
305,28,181753,5,0,0:0:0:0:
279,320,181931,5,0,1:0:0:0:
307,235,182021,1,0,0:0:0:0:
365,303,182110,2,0,P|429:347|517:337,1,170
233,88,182289,5,0,1:0:0:0:
205,173,182379,1,0,0:0:0:0:
147,105,182468,2,0,P|81:116|-12:78,1,170,2|0,0:0|0:0,0:0:0:0:
371,143,182646,2,0,P|433:157|513:231,1,170,2|0,0:0|0:0,0:0:0:0:
138,369,182824,2,0,P|112:310|120:207,1,170,2|0,0:0|0:0,0:0:0:0:
375,23,183003,1,0,1:0:0:0:
375,23,183181,6,4,B|368:120|368:120|323:192|323:192|317:272,2,255
447,227,183717,5,0,1:0:0:0:
447,227,183896,1,8,0:0:0:0:
333,343,183985,2,0,P|266:359|160:351,1,170,8|0,0:0|0:0,0:0:0:0:
318,95,184164,2,0,P|421:124|292:204,1,340,0|0,1:0|0:0,0:0:0:0:
79,160,184431,2,0,P|117:72|131:-13,1,170
23,281,184610,6,0,P|70:344|156:343,1,170
355,162,184789,1,0,1:0:0:0:
439,154,184878,1,0,0:0:0:0:
501,211,184967,2,0,P|480:286|465:380,1,170
241,194,185146,2,0,P|227:110|205:28,1,170,0|0,1:0|0:0,0:0:0:0:
136,253,185324,5,0,0:0:0:0:
181,325,185414,1,0,0:0:0:0:
263,344,185503,2,0,P|316:331|402:253,1,170,2|0,0:0|0:0,0:0:0:0:
113,23,185681,2,0,P|64:93|57:182,1,170,2|0,0:0|0:0,0:0:0:0:
493,128,185860,2,0,P|424:54|344:27,1,170,2|0,0:0|0:0,0:0:0:0:
12,343,186039,6,0,L|183:324,1,170,4|0,0:0|0:0,0:0:0:0:
500,213,186217,2,0,L|329:194,1,170,4|0,0:0|0:0,0:0:0:0:
331,194,186485,5,0,1:0:0:0:
183,178,186574,2,0,L|12:159,1,170,0|0,1:0|0:0,0:0:0:0:
193,49,186753,5,0,1:0:0:0:
346,22,186842,2,0,P|403:65|503:106,1,170,0|0,1:0|0:0,0:0:0:0:
271,365,187021,2,0,P|364:231|270:103,1,340,8|0,0:0|0:0,0:0:0:0:
34,251,187289,2,0,P|113:259|204:290,1,170,8|0,0:0|0:0,0:0:0:0:
331,194,187467,5,0,1:0:0:0:
183,178,187556,1,0,1:0:0:0:
346,22,187646,1,0,1:0:0:0:
193,49,187735,1,0,1:0:0:0:
415,144,188181,5,0,1:0:0:0:
262,117,188270,1,0,1:0:0:0:
425,273,188360,1,0,1:0:0:0:
277,289,188449,1,0,1:0:0:0:
256,192,188940,12,4,192735,0:0:0:0:
