osu file format v14

[General]
AudioFilename: audio.mp3
AudioLeadIn: 0
PreviewTime: 51283
Countdown: 1
SampleSet: Normal
StackLeniency: 0.7
Mode: 3
LetterboxInBreaks: 0
SpecialStyle: 0
WidescreenStoryboard: 1

[Editor]
DistanceSpacing: 1
BeatDivisor: 4
GridSize: 4
TimelineZoom: 2.599999

[Metadata]
Title:Arifureta Sekai Seifuku
TitleUnicode:ありふれたせかいせいふく
Artist:Pinocchio P feat. Hatsune Miku
ArtistUnicode:ピノキオP feat. 初音ミク
Creator:inkuxuan
Version:Insane
Source:
Tags:Miku Magicalmirai
BeatmapID:1016561
BeatmapSetID:475823

[Difficulty]
HPDrainRate:5
CircleSize:4
OverallDifficulty:5
ApproachRate:5
SliderMultiplier:1.99999990463257
SliderTickRate:2

[Events]
//Background and Video events
0,0,"4f352fdb6795d4af85179468fe1b60ea.jpg",0,0
//Break Periods
//Storyboard Layer 0 (Background)
//Storyboard Layer 1 (Fail)
//Storyboard Layer 2 (Pass)
//Storyboard Layer 3 (Foreground)
//Storyboard Sound Samples

[TimingPoints]
469,400,4,1,0,31,1,0
51683,-100,4,1,0,31,0,1
64483,-100,4,1,0,31,0,0
138083,400,5,1,0,31,1,0
138883,400,4,1,0,31,1,0
167683,-100,4,1,0,31,0,1
180483,400,5,1,0,31,1,1
181283,400,4,1,0,31,1,0

[HitObjects]
192,192,469,5,0,0:0:0:0:
448,192,469,128,0,769:0:0:0:0:
320,192,669,1,0,0:0:0:0:
192,192,769,1,0,0:0:0:0:
64,192,769,1,0,0:0:0:0:
448,192,869,1,0,0:0:0:0:
192,192,1069,1,0,0:0:0:0:
64,192,1269,1,0,0:0:0:0:
320,192,1269,1,0,0:0:0:0:
64,192,1469,1,0,0:0:0:0:
320,192,1469,1,0,0:0:0:0:
192,192,1569,1,0,0:0:0:0:
448,192,1569,1,0,0:0:0:0:
192,192,1769,1,0,0:0:0:0:
448,192,1769,1,0,0:0:0:0:
64,192,2069,1,0,0:0:0:0:
320,192,2069,128,0,2369:0:0:0:0:
192,192,2269,1,0,0:0:0:0:
448,192,2369,1,0,0:0:0:0:
320,192,2469,1,0,0:0:0:0:
320,192,2669,1,0,0:0:0:0:
64,192,2869,1,0,0:0:0:0:
448,192,2869,128,0,3269:0:0:0:0:
320,192,3269,1,0,0:0:0:0:
64,192,3269,1,0,0:0:0:0:
192,192,3369,1,0,0:0:0:0:
64,192,3669,128,0,3969:0:0:0:0:
320,192,3669,1,0,0:0:0:0:
192,192,3869,1,0,0:0:0:0:
448,192,3969,1,0,0:0:0:0:
320,192,3969,1,0,0:0:0:0:
64,192,4069,1,0,0:0:0:0:
64,192,4269,1,0,0:0:0:0:
320,192,4469,1,0,0:0:0:0:
192,192,4469,1,0,0:0:0:0:
64,192,4769,1,0,0:0:0:0:
448,192,4869,1,0,0:0:0:0:
192,192,4969,1,0,0:0:0:0:
320,192,4969,1,0,0:0:0:0:
64,192,5269,1,0,0:0:0:0:
320,192,5269,1,0,0:0:0:0:
448,192,5369,1,0,0:0:0:0:
448,192,5569,1,0,0:0:0:0:
192,192,5569,1,0,0:0:0:0:
64,192,5769,1,0,0:0:0:0:
320,192,5769,1,0,0:0:0:0:
192,192,5869,1,0,0:0:0:0:
320,192,5969,1,0,0:0:0:0:
448,192,6069,1,0,0:0:0:0:
64,192,6169,1,0,0:0:0:0:
192,192,6369,1,0,0:0:0:0:
448,192,6469,1,0,0:0:0:0:
320,192,6569,1,0,0:0:0:0:
64,192,6669,1,0,0:0:0:0:
192,192,6769,1,0,0:0:0:0:
320,192,6869,128,0,7169:0:0:0:0:
448,192,6869,128,0,7169:0:0:0:0:
64,192,7169,1,0,0:0:0:0:
320,192,7269,128,0,7469:0:0:0:0:
192,192,7269,1,8,0:0:0:0:
64,192,7469,1,0,0:0:0:0:
192,192,7669,1,0,0:0:0:0:
448,192,7669,128,0,7969:0:0:0:0:
64,192,7669,1,0,0:0:0:0:
320,192,7969,1,0,0:0:0:0:
192,192,8069,1,0,0:0:0:0:
448,192,8069,1,0,0:0:0:0:
64,192,8169,1,0,0:0:0:0:
192,192,8269,1,0,0:0:0:0:
192,192,8469,128,0,8769:0:0:0:0:
320,192,8469,1,0,0:0:0:0:
64,192,8469,1,0,0:0:0:0:
320,192,8669,1,0,0:0:0:0:
448,192,8769,1,0,0:0:0:0:
320,192,8869,128,8,9069:0:0:0:0:
192,192,8869,1,8,0:0:0:0:
448,192,9069,1,0,0:0:0:0:
192,192,9169,1,0,0:0:0:0:
64,192,9269,1,0,0:0:0:0:
320,192,9469,1,0,0:0:0:0:
448,192,9569,1,0,0:0:0:0:
320,192,9669,1,0,0:0:0:0:
64,192,9669,1,0,0:0:0:0:
192,192,9769,1,0,0:0:0:0:
64,192,9869,1,0,0:0:0:0:
448,192,9869,1,0,0:0:0:0:
64,192,10069,128,0,10269:0:0:0:0:
320,192,10069,128,0,10269:0:0:0:0:
192,192,10369,128,0,10569:0:0:0:0:
448,192,10369,128,0,10569:0:0:0:0:
64,192,10669,128,0,10869:0:0:0:0:
320,192,10669,128,0,10869:0:0:0:0:
192,192,10869,1,0,0:0:0:0:
448,192,10869,1,0,0:0:0:0:
320,192,10969,1,0,0:0:0:0:
448,192,11069,1,0,0:0:0:0:
192,192,11169,1,0,0:0:0:0:
64,192,11269,1,0,0:0:0:0:
320,192,11269,128,0,11469:0:0:0:0:
448,192,11469,1,0,0:0:0:0:
64,192,11669,128,0,12869:0:0:0:0:
448,192,11669,128,0,12869:0:0:0:0:
320,192,12269,1,0,0:0:0:0:
192,192,12369,1,0,0:0:0:0:
320,192,12569,1,0,0:0:0:0:
192,192,12769,1,0,0:0:0:0:
320,192,12869,1,0,0:0:0:0:
192,192,12969,1,0,0:0:0:0:
320,192,13069,1,0,0:0:0:0:
448,192,13169,1,0,0:0:0:0:
320,192,13269,1,4,0:0:0:0:
192,192,13269,1,4,0:0:0:0:
448,192,13369,1,0,0:0:0:0:
192,192,13469,1,0,0:0:0:0:
64,192,13569,1,0,0:0:0:0:
320,192,13569,1,0,0:0:0:0:
448,192,13669,1,0,0:0:0:0:
192,192,13669,1,0,0:0:0:0:
320,192,13769,1,0,0:0:0:0:
448,192,13869,1,0,0:0:0:0:
192,192,13869,1,0,0:0:0:0:
192,192,14069,1,0,0:0:0:0:
320,192,14069,1,0,0:0:0:0:
64,192,14169,1,0,0:0:0:0:
320,192,14269,1,0,0:0:0:0:
192,192,14369,1,0,0:0:0:0:
448,192,14369,1,0,0:0:0:0:
320,192,14469,1,0,0:0:0:0:
64,192,14469,1,0,0:0:0:0:
192,192,14569,1,0,0:0:0:0:
64,192,14669,1,0,0:0:0:0:
320,192,14669,1,0,0:0:0:0:
448,192,14869,128,0,15669:0:0:0:0:
64,192,14869,1,0,0:0:0:0:
192,192,14969,1,0,0:0:0:0:
64,192,15069,1,0,0:0:0:0:
320,192,15169,1,0,0:0:0:0:
192,192,15269,1,0,0:0:0:0:
64,192,15469,1,0,0:0:0:0:
320,192,15469,1,0,0:0:0:0:
64,192,15669,1,0,0:0:0:0:
320,192,15669,1,0,0:0:0:0:
192,192,15769,1,0,0:0:0:0:
448,192,15769,1,0,0:0:0:0:
64,192,15869,1,0,0:0:0:0:
192,192,15935,1,0,0:0:0:0:
320,192,16002,1,0,0:0:0:0:
448,192,16069,1,0,0:0:0:0:
64,192,16069,1,0,0:0:0:0:
64,192,16469,128,0,16869:0:0:0:0:
192,192,16469,1,0,0:0:0:0:
448,192,16469,1,0,0:0:0:0:
320,192,16569,1,0,0:0:0:0:
448,192,16669,1,0,0:0:0:0:
192,192,16769,1,0,0:0:0:0:
320,192,16869,1,0,0:0:0:0:
64,192,16969,1,0,0:0:0:0:
192,192,17069,1,0,0:0:0:0:
448,192,17069,1,0,0:0:0:0:
448,192,17269,128,0,17669:0:0:0:0:
64,192,17269,1,0,0:0:0:0:
320,192,17269,1,0,0:0:0:0:
192,192,17369,1,0,0:0:0:0:
64,192,17469,1,0,0:0:0:0:
320,192,17569,1,0,0:0:0:0:
192,192,17669,1,0,0:0:0:0:
448,192,17769,1,0,0:0:0:0:
64,192,17869,1,0,0:0:0:0:
320,192,17869,1,0,0:0:0:0:
448,192,17969,1,0,0:0:0:0:
64,192,18069,1,0,0:0:0:0:
320,192,18069,1,0,0:0:0:0:
192,192,18169,1,0,0:0:0:0:
448,192,18169,1,0,0:0:0:0:
64,192,18269,1,0,0:0:0:0:
192,192,18369,1,0,0:0:0:0:
320,192,18369,1,0,0:0:0:0:
64,192,18469,1,0,0:0:0:0:
448,192,18469,1,0,0:0:0:0:
192,192,18669,5,0,0:0:0:0:
448,192,18669,1,0,0:0:0:0:
64,192,18669,1,0,0:0:0:0:
192,192,18869,1,0,0:0:0:0:
320,192,18869,1,0,0:0:0:0:
448,192,18869,1,0,0:0:0:0:
64,192,19069,1,0,0:0:0:0:
448,192,19069,1,0,0:0:0:0:
64,192,19269,1,0,0:0:0:0:
448,192,19269,1,0,0:0:0:0:
320,192,19369,1,0,0:0:0:0:
64,192,19469,1,0,0:0:0:0:
192,192,19569,1,0,0:0:0:0:
448,192,19669,5,0,0:0:0:0:
64,192,19669,1,0,0:0:0:0:
320,192,19769,1,0,0:0:0:0:
448,192,19869,1,0,0:0:0:0:
320,192,19969,1,0,0:0:0:0:
448,192,20069,1,0,0:0:0:0:
192,192,20069,128,0,20269:0:0:0:0:
320,192,20269,1,0,0:0:0:0:
64,192,20469,128,0,20869:0:0:0:0:
192,192,20869,1,0,0:0:0:0:
448,192,20869,1,0,0:0:0:0:
320,192,20969,1,0,0:0:0:0:
448,192,21069,1,0,0:0:0:0:
64,192,21069,1,0,0:0:0:0:
320,192,21169,1,0,0:0:0:0:
192,192,21269,1,0,0:0:0:0:
448,192,21269,1,0,0:0:0:0:
64,192,21369,1,0,0:0:0:0:
192,192,21469,1,0,0:0:0:0:
64,192,21569,1,0,0:0:0:0:
192,192,21669,128,0,21869:0:0:0:0:
448,192,21669,1,0,0:0:0:0:
320,192,21869,1,0,0:0:0:0:
448,192,22069,128,0,22469:0:0:0:0:
320,192,22469,1,0,0:0:0:0:
64,192,22469,1,0,0:0:0:0:
320,192,22569,1,0,0:0:0:0:
192,192,22669,1,0,0:0:0:0:
192,192,22769,1,0,0:0:0:0:
64,192,22869,1,0,0:0:0:0:
320,192,22869,1,0,0:0:0:0:
192,192,22969,1,0,0:0:0:0:
320,192,23069,1,0,0:0:0:0:
448,192,23169,1,0,0:0:0:0:
320,192,23269,128,0,23469:0:0:0:0:
64,192,23269,1,0,0:0:0:0:
64,192,23469,1,0,0:0:0:0:
448,192,23469,1,0,0:0:0:0:
192,192,23669,128,0,24069:0:0:0:0:
448,192,23669,128,0,24069:0:0:0:0:
64,192,23869,1,0,0:0:0:0:
320,192,23869,1,0,0:0:0:0:
64,192,24069,1,0,0:0:0:0:
320,192,24169,1,0,0:0:0:0:
448,192,24269,1,0,0:0:0:0:
448,192,24469,1,0,0:0:0:0:
64,192,24469,1,0,0:0:0:0:
320,192,24569,1,0,0:0:0:0:
64,192,24669,1,0,0:0:0:0:
448,192,24669,1,0,0:0:0:0:
192,192,24769,1,0,0:0:0:0:
448,192,24869,1,0,0:0:0:0:
64,192,24869,1,0,0:0:0:0:
320,192,24969,1,0,0:0:0:0:
192,192,25069,1,0,0:0:0:0:
64,192,25169,1,0,0:0:0:0:
448,192,25269,1,0,0:0:0:0:
192,192,25269,1,0,0:0:0:0:
320,192,25369,1,0,0:0:0:0:
192,192,25469,1,0,0:0:0:0:
64,192,25569,1,0,0:0:0:0:
192,192,25669,1,0,0:0:0:0:
448,192,25669,1,0,0:0:0:0:
320,192,25769,1,0,0:0:0:0:
448,192,25869,1,0,0:0:0:0:
320,192,25969,1,0,0:0:0:0:
448,192,26069,128,4,26369:0:0:0:0:
192,192,26069,128,4,26369:0:0:0:0:
64,192,26069,1,0,0:0:0:0:
64,192,26369,1,0,0:0:0:0:
320,192,26369,1,0,0:0:0:0:
192,192,26469,1,0,0:0:0:0:
448,192,26469,1,0,0:0:0:0:
320,192,26669,1,0,0:0:0:0:
448,192,26669,1,0,0:0:0:0:
64,192,26869,128,0,27169:0:0:0:0:
320,192,26869,128,0,27169:0:0:0:0:
192,192,26869,1,0,0:0:0:0:
448,192,26869,1,0,0:0:0:0:
448,192,27169,1,0,0:0:0:0:
192,192,27169,1,0,0:0:0:0:
64,192,27269,1,0,0:0:0:0:
320,192,27269,1,0,0:0:0:0:
192,192,27469,1,0,0:0:0:0:
64,192,27469,1,0,0:0:0:0:
192,192,27669,128,0,27969:0:0:0:0:
320,192,27669,128,0,27969:0:0:0:0:
448,192,27969,1,0,0:0:0:0:
64,192,28069,1,0,0:0:0:0:
320,192,28069,1,0,0:0:0:0:
320,192,28269,1,0,0:0:0:0:
320,192,28469,1,0,0:0:0:0:
64,192,28469,1,0,0:0:0:0:
448,192,28469,1,0,0:0:0:0:
64,192,28869,1,0,0:0:0:0:
320,192,28869,128,0,29269:0:0:0:0:
192,192,29069,1,0,0:0:0:0:
192,192,29269,1,0,0:0:0:0:
64,192,29269,1,0,0:0:0:0:
448,192,29269,128,0,29669:0:0:0:0:
320,192,29469,1,0,0:0:0:0:
64,192,29669,1,8,0:0:0:0:
320,192,29669,128,8,30069:0:0:0:0:
448,192,29869,1,0,0:0:0:0:
64,192,30069,1,0,0:0:0:0:
192,192,30069,128,0,30469:0:0:0:0:
64,192,30269,1,0,0:0:0:0:
448,192,30469,1,8,0:0:0:0:
64,192,30469,128,8,30869:0:0:0:0:
448,192,30669,1,0,0:0:0:0:
320,192,30669,1,0,0:0:0:0:
320,192,30869,128,0,31469:0:0:0:0:
448,192,30869,1,0,0:0:0:0:
192,192,31269,1,8,0:0:0:0:
448,192,31269,1,8,0:0:0:0:
448,192,31469,1,0,0:0:0:0:
64,192,31469,1,0,0:0:0:0:
192,192,31669,128,0,32069:0:0:0:0:
64,192,31669,1,0,0:0:0:0:
320,192,31669,1,0,0:0:0:0:
320,192,31869,1,0,0:0:0:0:
448,192,32069,128,8,32469:0:0:0:0:
320,192,32069,1,8,0:0:0:0:
192,192,32469,1,0,0:0:0:0:
64,192,32469,1,0,0:0:0:0:
448,192,32669,1,0,0:0:0:0:
192,192,32769,1,0,0:0:0:0:
448,192,32869,1,0,0:0:0:0:
64,192,32869,1,0,0:0:0:0:
192,192,33069,1,0,0:0:0:0:
64,192,33169,1,0,0:0:0:0:
192,192,33269,1,0,0:0:0:0:
448,192,33269,1,0,0:0:0:0:
320,192,33369,1,0,0:0:0:0:
64,192,33469,1,0,0:0:0:0:
192,192,33569,1,0,0:0:0:0:
320,192,33669,1,0,0:0:0:0:
64,192,33669,1,0,0:0:0:0:
320,192,33869,1,0,0:0:0:0:
192,192,34069,128,0,34369:0:0:0:0:
320,192,34069,1,0,0:0:0:0:
448,192,34369,1,0,0:0:0:0:
64,192,34469,1,0,0:0:0:0:
320,192,34469,1,0,0:0:0:0:
448,192,34669,1,0,0:0:0:0:
192,192,34669,1,0,0:0:0:0:
448,192,34869,1,0,0:0:0:0:
320,192,34869,128,0,35269:0:0:0:0:
64,192,34869,128,0,35269:0:0:0:0:
192,192,35069,1,0,0:0:0:0:
192,192,35269,1,0,0:0:0:0:
320,192,35469,1,0,0:0:0:0:
64,192,35469,1,0,0:0:0:0:
448,192,35669,1,0,0:0:0:0:
64,192,35669,1,0,0:0:0:0:
192,192,35669,128,0,36069:0:0:0:0:
320,192,36069,1,8,0:0:0:0:
64,192,36069,1,8,0:0:0:0:
320,192,36269,1,0,0:0:0:0:
64,192,36269,1,0,0:0:0:0:
64,192,36469,1,0,0:0:0:0:
320,192,36469,128,0,36869:0:0:0:0:
448,192,36469,1,0,0:0:0:0:
448,192,36869,1,8,0:0:0:0:
192,192,36869,1,8,0:0:0:0:
320,192,37069,1,0,0:0:0:0:
448,192,37269,128,0,37469:0:0:0:0:
192,192,37269,1,0,0:0:0:0:
320,192,37469,128,0,37669:0:0:0:0:
64,192,37469,1,0,0:0:0:0:
448,192,37669,128,0,37869:0:0:0:0:
192,192,37669,1,0,0:0:0:0:
192,192,37869,128,0,38069:0:0:0:0:
448,192,38069,128,0,38469:0:0:0:0:
64,192,38069,1,0,0:0:0:0:
192,192,38469,1,2,0:0:0:0:
64,192,38469,1,2,0:0:0:0:
448,192,38869,128,0,39169:0:0:0:0:
320,192,38869,1,4,0:0:0:0:
64,192,38869,1,4,0:0:0:0:
192,192,39169,1,0,0:0:0:0:
64,192,39269,1,0,0:0:0:0:
448,192,39269,1,0,0:0:0:0:
320,192,39469,1,0,0:0:0:0:
64,192,39469,1,0,0:0:0:0:
448,192,39569,1,0,0:0:0:0:
320,192,39669,1,0,0:0:0:0:
64,192,39669,1,0,0:0:0:0:
192,192,39669,1,0,0:0:0:0:
448,192,39869,1,0,0:0:0:0:
320,192,39869,1,0,0:0:0:0:
448,192,40069,1,0,0:0:0:0:
192,192,40069,1,0,0:0:0:0:
448,192,40269,1,0,0:0:0:0:
64,192,40269,1,0,0:0:0:0:
320,192,40469,128,0,40769:0:0:0:0:
448,192,40469,1,0,0:0:0:0:
64,192,40469,1,0,0:0:0:0:
192,192,40569,1,0,0:0:0:0:
192,192,40769,1,0,0:0:0:0:
64,192,40869,1,0,0:0:0:0:
320,192,40869,1,0,0:0:0:0:
192,192,41069,1,0,0:0:0:0:
448,192,41069,1,0,0:0:0:0:
192,192,41269,128,0,41469:0:0:0:0:
320,192,41269,1,0,0:0:0:0:
448,192,41469,1,0,0:0:0:0:
448,192,41669,1,0,0:0:0:0:
192,192,41669,128,0,41869:0:0:0:0:
320,192,41869,1,0,0:0:0:0:
64,192,42069,128,0,42369:0:0:0:0:
448,192,42069,1,0,0:0:0:0:
320,192,42269,1,0,0:0:0:0:
192,192,42369,1,0,0:0:0:0:
448,192,42469,128,0,42669:0:0:0:0:
320,192,42469,128,0,42669:0:0:0:0:
192,192,42669,1,0,0:0:0:0:
320,192,42769,1,0,0:0:0:0:
192,192,42869,1,0,0:0:0:0:
448,192,42869,1,0,0:0:0:0:
64,192,42869,1,0,0:0:0:0:
320,192,43069,1,0,0:0:0:0:
64,192,43069,1,0,0:0:0:0:
192,192,43169,1,0,0:0:0:0:
448,192,43269,1,0,0:0:0:0:
192,192,43369,1,0,0:0:0:0:
320,192,43469,1,0,0:0:0:0:
192,192,43569,1,0,0:0:0:0:
448,192,43669,128,0,44069:0:0:0:0:
320,192,43669,1,0,0:0:0:0:
192,192,43769,1,0,0:0:0:0:
64,192,43869,1,0,0:0:0:0:
64,192,44069,128,0,44469:0:0:0:0:
192,192,44069,1,0,0:0:0:0:
320,192,44269,128,0,44469:0:0:0:0:
192,192,44469,1,0,0:0:0:0:
448,192,44469,128,0,44869:0:0:0:0:
320,192,44569,1,0,0:0:0:0:
192,192,44669,1,0,0:0:0:0:
192,192,44869,1,8,0:0:0:0:
320,192,45069,1,0,0:0:0:0:
192,192,45169,1,0,0:0:0:0:
64,192,45269,1,0,0:0:0:0:
320,192,45269,1,0,0:0:0:0:
448,192,45269,128,0,45669:0:0:0:0:
192,192,45369,1,0,0:0:0:0:
320,192,45469,1,0,0:0:0:0:
192,192,45669,1,0,0:0:0:0:
64,192,45869,1,0,0:0:0:0:
192,192,45969,1,0,0:0:0:0:
320,192,46069,1,0,0:0:0:0:
448,192,46069,128,0,46469:0:0:0:0:
64,192,46069,1,0,0:0:0:0:
192,192,46169,1,0,0:0:0:0:
64,192,46269,1,0,0:0:0:0:
192,192,46469,1,0,0:0:0:0:
320,192,46669,1,0,0:0:0:0:
448,192,46769,1,0,0:0:0:0:
320,192,46869,1,0,0:0:0:0:
64,192,46869,1,0,0:0:0:0:
448,192,46969,1,0,0:0:0:0:
192,192,47069,1,0,0:0:0:0:
448,192,47169,1,0,0:0:0:0:
320,192,47269,1,0,0:0:0:0:
64,192,47269,1,0,0:0:0:0:
192,192,47269,1,0,0:0:0:0:
320,192,47469,1,0,0:0:0:0:
448,192,47669,1,0,0:0:0:0:
64,192,47669,1,0,0:0:0:0:
192,192,47769,1,0,0:0:0:0:
320,192,47869,1,0,0:0:0:0:
320,192,48069,1,0,0:0:0:0:
192,192,48069,1,0,0:0:0:0:
448,192,48069,1,0,0:0:0:0:
64,192,48269,1,0,0:0:0:0:
64,192,48469,128,0,49269:0:0:0:0:
320,192,48469,1,0,0:0:0:0:
448,192,48469,1,0,0:0:0:0:
320,192,48769,1,0,0:0:0:0:
192,192,48769,1,0,0:0:0:0:
320,192,49069,1,0,0:0:0:0:
192,192,49069,1,0,0:0:0:0:
320,192,49269,1,0,0:0:0:0:
192,192,49269,128,0,50069:0:0:0:0:
448,192,49269,1,0,0:0:0:0:
320,192,49569,1,0,0:0:0:0:
64,192,49569,1,0,0:0:0:0:
320,192,49769,1,0,0:0:0:0:
64,192,49769,1,0,0:0:0:0:
448,192,50069,1,0,0:0:0:0:
64,192,50069,1,0,0:0:0:0:
448,192,50469,1,0,0:0:0:0:
448,192,50769,1,0,0:0:0:0:
64,192,51069,1,0,0:0:0:0:
448,192,51169,1,0,0:0:0:0:
192,192,51169,1,0,0:0:0:0:
320,192,51269,1,0,0:0:0:0:
64,192,51269,1,0,0:0:0:0:
64,192,51469,1,0,0:0:0:0:
192,192,51569,1,0,0:0:0:0:
320,192,51669,1,4,0:0:0:0:
448,192,51669,1,4,0:0:0:0:
64,192,51669,128,4,52069:0:0:0:0:
192,192,51769,1,0,0:0:0:0:
320,192,51869,1,0,0:0:0:0:
448,192,52069,1,0,0:0:0:0:
192,192,52069,1,0,0:0:0:0:
192,192,52269,1,0,0:0:0:0:
320,192,52369,1,0,0:0:0:0:
448,192,52469,1,0,0:0:0:0:
64,192,52469,1,0,0:0:0:0:
192,192,52469,128,0,52869:0:0:0:0:
320,192,52569,1,0,0:0:0:0:
64,192,52669,1,0,0:0:0:0:
64,192,52869,1,0,0:0:0:0:
320,192,52869,1,0,0:0:0:0:
320,192,53069,1,0,0:0:0:0:
192,192,53169,1,0,0:0:0:0:
448,192,53269,1,0,0:0:0:0:
64,192,53269,1,0,0:0:0:0:
320,192,53269,128,0,54069:0:0:0:0:
192,192,53469,1,0,0:0:0:0:
448,192,53669,1,0,0:0:0:0:
192,192,53669,128,0,54469:0:0:0:0:
64,192,53869,1,0,0:0:0:0:
448,192,54069,1,0,0:0:0:0:
320,192,54269,1,0,0:0:0:0:
448,192,54469,1,0,0:0:0:0:
64,192,54469,1,0,0:0:0:0:
192,192,54669,1,0,0:0:0:0:
64,192,54769,1,0,0:0:0:0:
320,192,54869,128,4,55269:0:0:0:0:
448,192,54869,128,0,55269:0:0:0:0:
192,192,54869,1,4,0:0:0:0:
64,192,54969,1,0,0:0:0:0:
192,192,55069,1,0,0:0:0:0:
64,192,55269,1,0,0:0:0:0:
320,192,55469,1,0,0:0:0:0:
448,192,55569,1,0,0:0:0:0:
192,192,55669,128,0,56069:0:0:0:0:
64,192,55669,128,0,56069:0:0:0:0:
320,192,55669,1,0,0:0:0:0:
448,192,55769,1,0,0:0:0:0:
320,192,55869,1,0,0:0:0:0:
448,192,56069,1,0,0:0:0:0:
192,192,56269,1,0,0:0:0:0:
448,192,56469,1,0,0:0:0:0:
192,192,56469,1,0,0:0:0:0:
320,192,56569,1,0,0:0:0:0:
448,192,56669,1,0,0:0:0:0:
64,192,56669,1,0,0:0:0:0:
192,192,56769,1,0,0:0:0:0:
64,192,56869,1,0,0:0:0:0:
320,192,56869,1,0,0:0:0:0:
192,192,56969,1,0,0:0:0:0:
448,192,57069,1,0,0:0:0:0:
64,192,57069,1,0,0:0:0:0:
192,192,57269,128,0,57669:0:0:0:0:
320,192,57269,128,0,57669:0:0:0:0:
64,192,57469,1,0,0:0:0:0:
448,192,57469,1,0,0:0:0:0:
64,192,57669,1,0,0:0:0:0:
448,192,57669,1,0,0:0:0:0:
192,192,57869,128,0,57969:0:0:0:0:
320,192,57969,128,0,58069:0:0:0:0:
448,192,58069,1,4,0:0:0:0:
192,192,58069,1,4,0:0:0:0:
320,192,58269,1,0,0:0:0:0:
64,192,58269,1,0,0:0:0:0:
448,192,58469,1,0,0:0:0:0:
192,192,58469,1,0,0:0:0:0:
320,192,58669,128,0,58769:0:0:0:0:
192,192,58769,128,0,58869:0:0:0:0:
320,192,58869,1,0,0:0:0:0:
64,192,58869,1,0,0:0:0:0:
448,192,59069,1,0,0:0:0:0:
192,192,59069,1,0,0:0:0:0:
64,192,59269,1,0,0:0:0:0:
320,192,59269,1,0,0:0:0:0:
448,192,59469,1,0,0:0:0:0:
64,192,59469,1,0,0:0:0:0:
192,192,59569,1,0,0:0:0:0:
320,192,59569,1,0,0:0:0:0:
448,192,59669,128,0,59869:0:0:0:0:
64,192,59669,128,0,59869:0:0:0:0:
320,192,59869,1,0,0:0:0:0:
448,192,60069,1,0,0:0:0:0:
192,192,60069,1,0,0:0:0:0:
64,192,60269,1,0,0:0:0:0:
320,192,60269,1,0,0:0:0:0:
448,192,60469,128,0,60869:0:0:0:0:
192,192,60469,128,0,60869:0:0:0:0:
64,192,60669,1,4,0:0:0:0:
320,192,60669,1,4,0:0:0:0:
64,192,60869,1,4,0:0:0:0:
320,192,60869,1,4,0:0:0:0:
192,192,61069,1,0,0:0:0:0:
448,192,61069,1,0,0:0:0:0:
64,192,61169,1,0,0:0:0:0:
320,192,61169,1,0,0:0:0:0:
192,192,61269,128,0,61669:0:0:0:0:
448,192,61269,128,0,61669:0:0:0:0:
320,192,61469,1,0,0:0:0:0:
64,192,61569,1,0,0:0:0:0:
320,192,61669,1,0,0:0:0:0:
64,192,61869,1,0,0:0:0:0:
320,192,61869,1,0,0:0:0:0:
448,192,61969,1,0,0:0:0:0:
192,192,61969,1,0,0:0:0:0:
64,192,62069,128,0,62469:0:0:0:0:
320,192,62069,128,0,62469:0:0:0:0:
448,192,62269,1,0,0:0:0:0:
192,192,62369,1,0,0:0:0:0:
448,192,62469,1,0,0:0:0:0:
448,192,62869,128,0,63169:0:0:0:0:
192,192,62869,128,0,63169:0:0:0:0:
64,192,63269,128,0,63469:0:0:0:0:
320,192,63269,128,0,63469:0:0:0:0:
64,192,63569,128,0,63769:0:0:0:0:
448,192,63569,128,0,63769:0:0:0:0:
448,192,63869,1,0,0:0:0:0:
192,192,63869,1,0,0:0:0:0:
192,192,64069,1,0,0:0:0:0:
448,192,64069,1,0,0:0:0:0:
320,192,64169,1,0,0:0:0:0:
448,192,64269,1,0,0:0:0:0:
320,192,64369,1,0,0:0:0:0:
192,192,64469,128,4,65269:0:0:0:0:
448,192,64469,128,4,65269:0:0:0:0:
320,192,64469,1,0,0:0:0:0:
64,192,64569,1,0,0:0:0:0:
320,192,64669,1,0,0:0:0:0:
64,192,64769,1,0,0:0:0:0:
320,192,64869,1,0,0:0:0:0:
64,192,65069,1,0,0:0:0:0:
320,192,65269,1,0,0:0:0:0:
448,192,65369,1,0,0:0:0:0:
320,192,65469,1,0,0:0:0:0:
192,192,65569,1,0,0:0:0:0:
64,192,65669,1,0,0:0:0:0:
320,192,65669,1,0,0:0:0:0:
192,192,66069,1,0,0:0:0:0:
448,192,66069,1,0,0:0:0:0:
64,192,66169,1,0,0:0:0:0:
192,192,66269,1,0,0:0:0:0:
320,192,66369,1,0,0:0:0:0:
64,192,66469,1,0,0:0:0:0:
448,192,66469,1,0,0:0:0:0:
192,192,66469,1,0,0:0:0:0:
192,192,66869,1,0,0:0:0:0:
320,192,66969,1,0,0:0:0:0:
448,192,67069,1,0,0:0:0:0:
320,192,67102,1,0,0:0:0:0:
64,192,67169,1,0,0:0:0:0:
192,192,67202,1,0,0:0:0:0:
320,192,67269,1,0,0:0:0:0:
448,192,67269,1,0,0:0:0:0:
448,192,67669,1,0,0:0:0:0:
64,192,67669,128,0,68069:0:0:0:0:
320,192,67769,1,0,0:0:0:0:
448,192,67869,1,0,0:0:0:0:
320,192,67969,1,0,0:0:0:0:
448,192,68069,1,0,0:0:0:0:
448,192,68469,128,0,68869:0:0:0:0:
64,192,68469,1,0,0:0:0:0:
192,192,68569,1,0,0:0:0:0:
320,192,68669,1,0,0:0:0:0:
192,192,68769,1,0,0:0:0:0:
64,192,68869,1,0,0:0:0:0:
448,192,69269,1,0,0:0:0:0:
192,192,69269,1,0,0:0:0:0:
64,192,69269,1,0,0:0:0:0:
64,192,69569,1,0,0:0:0:0:
448,192,69569,1,0,0:0:0:0:
320,192,69569,1,0,0:0:0:0:
320,192,69869,1,0,0:0:0:0:
448,192,69869,1,0,0:0:0:0:
192,192,69869,1,0,0:0:0:0:
64,192,70069,1,0,0:0:0:0:
192,192,70069,1,0,0:0:0:0:
320,192,70069,1,0,0:0:0:0:
448,192,70869,1,0,0:0:0:0:
64,192,70869,1,0,0:0:0:0:
320,192,70969,1,0,0:0:0:0:
64,192,71069,1,0,0:0:0:0:
192,192,71169,1,0,0:0:0:0:
448,192,71269,1,0,0:0:0:0:
64,192,71269,1,0,0:0:0:0:
192,192,71469,1,0,0:0:0:0:
320,192,71469,1,0,0:0:0:0:
320,192,71669,1,0,0:0:0:0:
448,192,71669,1,0,0:0:0:0:
192,192,71669,1,0,0:0:0:0:
64,192,71869,1,0,0:0:0:0:
320,192,71869,1,0,0:0:0:0:
448,192,72069,1,0,0:0:0:0:
192,192,72069,1,0,0:0:0:0:
320,192,72169,1,0,0:0:0:0:
192,192,72269,1,0,0:0:0:0:
64,192,72369,1,0,0:0:0:0:
192,192,72469,128,0,73669:0:0:0:0:
320,192,72469,128,0,73669:0:0:0:0:
448,192,73669,1,0,0:0:0:0:
64,192,73669,1,0,0:0:0:0:
64,192,73869,1,0,0:0:0:0:
448,192,73869,1,0,0:0:0:0:
192,192,74069,128,0,74369:0:0:0:0:
448,192,74069,128,0,74369:0:0:0:0:
64,192,74369,1,0,0:0:0:0:
448,192,74469,1,0,0:0:0:0:
192,192,74469,1,0,0:0:0:0:
64,192,74669,1,0,0:0:0:0:
320,192,74669,1,0,0:0:0:0:
448,192,74769,1,0,0:0:0:0:
64,192,74869,128,0,75169:0:0:0:0:
192,192,74869,128,0,75169:0:0:0:0:
320,192,74869,1,0,0:0:0:0:
448,192,75169,1,0,0:0:0:0:
320,192,75269,1,0,0:0:0:0:
64,192,75269,1,0,0:0:0:0:
320,192,75469,1,0,0:0:0:0:
64,192,75469,1,0,0:0:0:0:
448,192,75569,1,0,0:0:0:0:
320,192,75669,128,0,75969:0:0:0:0:
192,192,75669,128,0,75969:0:0:0:0:
64,192,75669,1,0,0:0:0:0:
64,192,75969,1,0,0:0:0:0:
448,192,76069,1,0,0:0:0:0:
320,192,76269,1,0,0:0:0:0:
448,192,76269,1,0,0:0:0:0:
448,192,76469,1,0,0:0:0:0:
64,192,76469,1,0,0:0:0:0:
320,192,76469,1,0,0:0:0:0:
192,192,76669,1,0,0:0:0:0:
64,192,76869,1,0,0:0:0:0:
320,192,76869,1,0,0:0:0:0:
192,192,77069,1,0,0:0:0:0:
448,192,77069,1,0,0:0:0:0:
448,192,77269,128,0,77669:0:0:0:0:
64,192,77269,1,0,0:0:0:0:
192,192,77269,1,0,0:0:0:0:
192,192,77469,1,0,0:0:0:0:
64,192,77669,1,0,0:0:0:0:
320,192,77669,1,0,0:0:0:0:
448,192,77869,1,0,0:0:0:0:
192,192,78069,1,0,0:0:0:0:
320,192,78069,1,0,0:0:0:0:
64,192,78069,1,0,0:0:0:0:
320,192,78269,1,0,0:0:0:0:
192,192,78269,1,0,0:0:0:0:
64,192,78469,1,0,0:0:0:0:
448,192,78469,1,0,0:0:0:0:
192,192,78469,1,0,0:0:0:0:
448,192,78669,1,0,0:0:0:0:
448,192,78869,1,0,0:0:0:0:
320,192,78869,128,0,79469:0:0:0:0:
64,192,78869,1,0,0:0:0:0:
448,192,79069,1,0,0:0:0:0:
192,192,79269,1,0,0:0:0:0:
64,192,79469,1,0,0:0:0:0:
448,192,79469,1,0,0:0:0:0:
448,192,79669,1,0,0:0:0:0:
320,192,79769,1,0,0:0:0:0:
64,192,79869,1,0,0:0:0:0:
192,192,79969,1,0,0:0:0:0:
448,192,80069,1,0,0:0:0:0:
320,192,80169,1,0,0:0:0:0:
192,192,80269,1,0,0:0:0:0:
64,192,80369,1,0,0:0:0:0:
192,192,80469,1,0,0:0:0:0:
448,192,80469,1,0,0:0:0:0:
320,192,80469,1,0,0:0:0:0:
320,192,80669,1,0,0:0:0:0:
192,192,80769,1,0,0:0:0:0:
64,192,80869,1,0,0:0:0:0:
448,192,80869,1,0,0:0:0:0:
192,192,81069,1,0,0:0:0:0:
448,192,81269,1,0,0:0:0:0:
192,192,81269,1,0,0:0:0:0:
320,192,81369,1,0,0:0:0:0:
448,192,81469,1,0,0:0:0:0:
192,192,81569,1,0,0:0:0:0:
64,192,81669,1,0,0:0:0:0:
320,192,81669,1,0,0:0:0:0:
320,192,81869,1,0,0:0:0:0:
320,192,82069,1,0,0:0:0:0:
192,192,82069,128,0,82369:0:0:0:0:
448,192,82369,1,0,0:0:0:0:
320,192,82469,1,0,0:0:0:0:
64,192,82469,1,0,0:0:0:0:
192,192,82669,1,0,0:0:0:0:
448,192,82669,1,0,0:0:0:0:
64,192,82869,128,0,83269:0:0:0:0:
320,192,82869,128,0,83269:0:0:0:0:
448,192,82869,1,0,0:0:0:0:
192,192,83069,1,0,0:0:0:0:
448,192,83269,1,0,0:0:0:0:
320,192,83469,1,0,0:0:0:0:
192,192,83669,128,0,84069:0:0:0:0:
64,192,83669,1,0,0:0:0:0:
448,192,83669,1,0,0:0:0:0:
320,192,83869,1,0,0:0:0:0:
64,192,83869,1,0,0:0:0:0:
64,192,84069,1,0,0:0:0:0:
320,192,84069,1,0,0:0:0:0:
320,192,84269,1,0,0:0:0:0:
448,192,84469,1,0,0:0:0:0:
320,192,84469,128,0,84869:0:0:0:0:
64,192,84469,1,0,0:0:0:0:
192,192,84669,1,0,0:0:0:0:
448,192,84669,1,0,0:0:0:0:
192,192,84869,1,0,0:0:0:0:
448,192,84869,1,0,0:0:0:0:
320,192,85069,1,0,0:0:0:0:
64,192,85269,128,0,85469:0:0:0:0:
192,192,85469,128,0,85669:0:0:0:0:
448,192,85669,128,0,85869:0:0:0:0:
320,192,85669,1,0,0:0:0:0:
192,192,85869,128,0,86069:0:0:0:0:
64,192,85869,1,0,0:0:0:0:
448,192,86069,128,0,86469:0:0:0:0:
320,192,86269,1,0,0:0:0:0:
192,192,86369,1,0,0:0:0:0:
64,192,86469,1,0,0:0:0:0:
320,192,86469,1,0,0:0:0:0:
448,192,86869,128,0,87169:0:0:0:0:
320,192,86869,1,0,0:0:0:0:
64,192,86869,1,0,0:0:0:0:
320,192,87069,1,0,0:0:0:0:
192,192,87169,1,0,0:0:0:0:
64,192,87269,1,0,0:0:0:0:
448,192,87269,1,0,0:0:0:0:
192,192,87469,1,0,0:0:0:0:
448,192,87469,1,0,0:0:0:0:
320,192,87669,1,0,0:0:0:0:
64,192,87669,1,0,0:0:0:0:
192,192,87769,1,0,0:0:0:0:
448,192,87869,1,0,0:0:0:0:
320,192,87869,1,0,0:0:0:0:
192,192,87969,1,0,0:0:0:0:
448,192,88069,1,0,0:0:0:0:
64,192,88069,1,0,0:0:0:0:
448,192,88269,1,0,0:0:0:0:
64,192,88269,1,0,0:0:0:0:
320,192,88469,128,0,88769:0:0:0:0:
448,192,88469,1,0,0:0:0:0:
64,192,88569,1,0,0:0:0:0:
64,192,88769,1,0,0:0:0:0:
320,192,88869,1,0,0:0:0:0:
192,192,88869,1,0,0:0:0:0:
192,192,89069,1,0,0:0:0:0:
448,192,89069,1,0,0:0:0:0:
192,192,89269,128,0,89469:0:0:0:0:
320,192,89269,1,0,0:0:0:0:
448,192,89469,1,0,0:0:0:0:
448,192,89669,1,0,0:0:0:0:
192,192,89669,128,0,89869:0:0:0:0:
320,192,89869,1,0,0:0:0:0:
64,192,90069,128,0,90369:0:0:0:0:
448,192,90069,1,0,0:0:0:0:
192,192,90369,1,0,0:0:0:0:
448,192,90469,128,0,90669:0:0:0:0:
320,192,90469,128,0,90669:0:0:0:0:
192,192,90669,1,0,0:0:0:0:
192,192,90869,1,0,0:0:0:0:
448,192,90869,1,0,0:0:0:0:
64,192,90869,1,0,0:0:0:0:
192,192,91069,1,0,0:0:0:0:
448,192,91069,1,0,0:0:0:0:
448,192,91269,1,0,0:0:0:0:
192,192,91269,1,0,0:0:0:0:
320,192,91369,1,0,0:0:0:0:
448,192,91469,1,0,0:0:0:0:
64,192,91469,1,0,0:0:0:0:
192,192,91569,1,0,0:0:0:0:
448,192,91669,128,0,91969:0:0:0:0:
64,192,91669,128,0,92469:0:0:0:0:
320,192,91969,128,0,92069:0:0:0:0:
448,192,92069,128,0,92269:0:0:0:0:
192,192,92069,1,0,0:0:0:0:
192,192,92269,128,0,92469:0:0:0:0:
448,192,92469,1,0,0:0:0:0:
192,192,92869,1,0,0:0:0:0:
320,192,93069,1,0,0:0:0:0:
192,192,93169,1,0,0:0:0:0:
64,192,93269,1,0,0:0:0:0:
448,192,93269,128,0,93669:0:0:0:0:
320,192,93269,128,0,93669:0:0:0:0:
192,192,93469,1,0,0:0:0:0:
192,192,93669,1,0,0:0:0:0:
64,192,93669,1,0,0:0:0:0:
192,192,93869,1,0,0:0:0:0:
320,192,93969,1,0,0:0:0:0:
448,192,94069,1,0,0:0:0:0:
192,192,94069,128,0,94469:0:0:0:0:
64,192,94069,128,0,94469:0:0:0:0:
320,192,94269,1,0,0:0:0:0:
320,192,94469,1,0,0:0:0:0:
448,192,94469,1,0,0:0:0:0:
448,192,94669,1,0,0:0:0:0:
320,192,94769,1,0,0:0:0:0:
192,192,94869,128,0,95269:0:0:0:0:
64,192,95069,128,0,95269:0:0:0:0:
448,192,95269,1,0,0:0:0:0:
192,192,95469,1,0,0:0:0:0:
448,192,95669,1,0,0:0:0:0:
320,192,95669,1,0,0:0:0:0:
64,192,95669,1,0,0:0:0:0:
192,192,95769,1,0,0:0:0:0:
320,192,95869,1,0,0:0:0:0:
64,192,95869,1,0,0:0:0:0:
192,192,96069,1,0,0:0:0:0:
448,192,96069,1,0,0:0:0:0:
320,192,96169,1,0,0:0:0:0:
192,192,96269,1,0,0:0:0:0:
448,192,96269,1,0,0:0:0:0:
64,192,96469,128,0,96669:0:0:0:0:
320,192,96469,128,0,96669:0:0:0:0:
448,192,96669,1,0,0:0:0:0:
192,192,96669,1,0,0:0:0:0:
448,192,96869,1,0,0:0:0:0:
64,192,96869,1,0,0:0:0:0:
192,192,97069,128,0,97269:0:0:0:0:
64,192,97269,128,0,97469:0:0:0:0:
320,192,97269,1,0,0:0:0:0:
320,192,97469,1,0,0:0:0:0:
448,192,97469,1,0,0:0:0:0:
64,192,98269,1,0,0:0:0:0:
192,192,98269,1,0,0:0:0:0:
448,192,98269,1,0,0:0:0:0:
448,192,98569,1,0,0:0:0:0:
320,192,98569,1,0,0:0:0:0:
64,192,98569,1,0,0:0:0:0:
192,192,98869,128,0,99269:0:0:0:0:
448,192,98869,128,0,99269:0:0:0:0:
320,192,98869,1,0,0:0:0:0:
320,192,99069,1,0,0:0:0:0:
64,192,99269,1,0,0:0:0:0:
320,192,99369,1,0,0:0:0:0:
448,192,99369,1,0,0:0:0:0:
64,192,99469,1,0,0:0:0:0:
192,192,99569,1,0,0:0:0:0:
64,192,99669,128,4,100069:0:0:0:0:
448,192,99669,1,4,0:0:0:0:
320,192,99669,1,4,0:0:0:0:
192,192,99769,1,0,0:0:0:0:
320,192,99869,1,0,0:0:0:0:
192,192,100069,1,0,0:0:0:0:
448,192,100069,1,0,0:0:0:0:
192,192,100269,1,0,0:0:0:0:
320,192,100369,1,0,0:0:0:0:
192,192,100469,128,0,100869:0:0:0:0:
64,192,100469,1,0,0:0:0:0:
448,192,100469,1,0,0:0:0:0:
320,192,100569,1,0,0:0:0:0:
448,192,100669,1,0,0:0:0:0:
320,192,100869,1,0,0:0:0:0:
64,192,100869,1,0,0:0:0:0:
320,192,101069,1,0,0:0:0:0:
192,192,101169,1,0,0:0:0:0:
320,192,101269,128,0,102069:0:0:0:0:
64,192,101269,1,0,0:0:0:0:
448,192,101269,1,0,0:0:0:0:
192,192,101469,1,0,0:0:0:0:
192,192,101669,128,0,102469:0:0:0:0:
448,192,101669,1,0,0:0:0:0:
64,192,101869,1,0,0:0:0:0:
448,192,102069,1,0,0:0:0:0:
320,192,102269,1,0,0:0:0:0:
64,192,102469,1,0,0:0:0:0:
448,192,102469,1,0,0:0:0:0:
192,192,102669,1,0,0:0:0:0:
64,192,102769,1,0,0:0:0:0:
192,192,102869,1,4,0:0:0:0:
448,192,102869,128,0,103269:0:0:0:0:
320,192,102869,128,4,103269:0:0:0:0:
64,192,102969,1,0,0:0:0:0:
192,192,103069,1,0,0:0:0:0:
64,192,103269,1,0,0:0:0:0:
320,192,103469,1,0,0:0:0:0:
448,192,103569,1,0,0:0:0:0:
320,192,103669,1,0,0:0:0:0:
64,192,103669,128,0,104069:0:0:0:0:
192,192,103669,128,0,104069:0:0:0:0:
448,192,103769,1,0,0:0:0:0:
320,192,103869,1,0,0:0:0:0:
448,192,104069,1,0,0:0:0:0:
192,192,104269,1,0,0:0:0:0:
192,192,104469,1,0,0:0:0:0:
448,192,104469,1,0,0:0:0:0:
320,192,104569,1,0,0:0:0:0:
64,192,104669,1,0,0:0:0:0:
448,192,104669,1,0,0:0:0:0:
192,192,104769,1,0,0:0:0:0:
320,192,104869,1,0,0:0:0:0:
64,192,104869,1,0,0:0:0:0:
192,192,104969,1,0,0:0:0:0:
64,192,105069,1,0,0:0:0:0:
448,192,105069,1,0,0:0:0:0:
320,192,105269,128,0,105669:0:0:0:0:
192,192,105269,128,0,105669:0:0:0:0:
64,192,105469,1,0,0:0:0:0:
448,192,105469,1,0,0:0:0:0:
64,192,105669,1,0,0:0:0:0:
448,192,105669,1,0,0:0:0:0:
192,192,105869,128,0,105969:0:0:0:0:
448,192,106069,128,0,106269:0:0:0:0:
320,192,106069,128,0,106269:0:0:0:0:
64,192,106269,1,0,0:0:0:0:
192,192,106269,1,0,0:0:0:0:
320,192,106469,1,0,0:0:0:0:
448,192,106469,1,0,0:0:0:0:
192,192,106469,1,0,0:0:0:0:
64,192,106669,1,0,0:0:0:0:
192,192,106769,1,0,0:0:0:0:
320,192,106869,1,0,0:0:0:0:
64,192,106869,1,0,0:0:0:0:
192,192,106969,1,0,0:0:0:0:
320,192,107069,1,0,0:0:0:0:
64,192,107069,1,0,0:0:0:0:
448,192,107069,1,0,0:0:0:0:
192,192,107269,1,0,0:0:0:0:
448,192,107269,1,0,0:0:0:0:
64,192,107269,1,0,0:0:0:0:
448,192,107469,1,0,0:0:0:0:
320,192,107569,1,0,0:0:0:0:
192,192,107669,1,0,0:0:0:0:
448,192,107669,1,0,0:0:0:0:
64,192,107869,1,0,0:0:0:0:
320,192,107869,1,0,0:0:0:0:
64,192,108069,1,0,0:0:0:0:
448,192,108069,1,0,0:0:0:0:
192,192,108269,1,0,0:0:0:0:
320,192,108269,1,0,0:0:0:0:
448,192,108469,128,0,108869:0:0:0:0:
64,192,108469,128,0,108869:0:0:0:0:
320,192,108669,1,4,0:0:0:0:
192,192,108669,1,0,0:0:0:0:
320,192,108869,1,4,0:0:0:0:
192,192,108869,1,0,0:0:0:0:
320,192,109069,1,0,0:0:0:0:
64,192,109069,1,0,0:0:0:0:
448,192,109169,1,0,0:0:0:0:
320,192,109269,128,0,109669:0:0:0:0:
192,192,109269,128,0,109669:0:0:0:0:
64,192,109669,1,0,0:0:0:0:
448,192,109669,1,0,0:0:0:0:
64,192,109869,1,0,0:0:0:0:
448,192,109869,1,0,0:0:0:0:
192,192,109969,1,0,0:0:0:0:
448,192,110069,128,0,110469:0:0:0:0:
64,192,110069,128,0,110469:0:0:0:0:
320,192,110469,1,0,0:0:0:0:
192,192,110469,1,0,0:0:0:0:
192,192,110869,128,0,111169:0:0:0:0:
320,192,110869,128,0,111169:0:0:0:0:
448,192,111069,1,0,0:0:0:0:
64,192,111069,1,0,0:0:0:0:
64,192,111269,128,0,111469:0:0:0:0:
448,192,111269,128,0,111469:0:0:0:0:
192,192,111569,128,0,111769:0:0:0:0:
320,192,111569,128,0,111769:0:0:0:0:
192,192,111869,1,0,0:0:0:0:
64,192,111869,1,0,0:0:0:0:
320,192,111969,1,0,0:0:0:0:
448,192,111969,1,0,0:0:0:0:
64,192,112069,1,0,0:0:0:0:
192,192,112069,1,0,0:0:0:0:
448,192,112169,1,0,0:0:0:0:
320,192,112269,1,0,0:0:0:0:
192,192,112369,1,0,0:0:0:0:
64,192,112469,128,0,113669:0:0:0:0:
320,192,112469,128,0,112869:0:0:0:0:
448,192,112869,128,0,113269:0:0:0:0:
192,192,112869,1,0,0:0:0:0:
192,192,113269,128,0,113669:0:0:0:0:
320,192,113269,1,0,0:0:0:0:
320,192,113669,1,0,0:0:0:0:
448,192,113669,1,0,0:0:0:0:
64,192,113869,1,0,0:0:0:0:
192,192,113869,1,0,0:0:0:0:
320,192,113969,1,0,0:0:0:0:
192,192,114069,1,0,0:0:0:0:
448,192,114069,1,0,0:0:0:0:
64,192,114069,1,0,0:0:0:0:
64,192,114369,1,0,0:0:0:0:
320,192,114369,1,0,0:0:0:0:
448,192,114369,1,0,0:0:0:0:
192,192,114669,1,0,0:0:0:0:
320,192,114669,1,0,0:0:0:0:
448,192,114669,1,0,0:0:0:0:
320,192,114769,1,0,0:0:0:0:
64,192,114869,1,0,0:0:0:0:
192,192,114869,1,0,0:0:0:0:
320,192,114869,1,0,0:0:0:0:
320,192,115069,1,0,0:0:0:0:
448,192,115069,1,0,0:0:0:0:
192,192,115169,1,0,0:0:0:0:
64,192,115269,1,0,0:0:0:0:
320,192,115269,1,0,0:0:0:0:
448,192,115369,1,0,0:0:0:0:
320,192,115469,1,0,0:0:0:0:
64,192,115469,1,0,0:0:0:0:
64,192,115669,128,0,116469:0:0:0:0:
320,192,115669,1,0,0:0:0:0:
192,192,115769,1,0,0:0:0:0:
448,192,115869,1,0,0:0:0:0:
320,192,115969,1,0,0:0:0:0:
192,192,116069,1,0,0:0:0:0:
448,192,116269,1,0,0:0:0:0:
320,192,116369,1,0,0:0:0:0:
192,192,116469,1,0,0:0:0:0:
320,192,116569,1,0,0:0:0:0:
64,192,116669,128,0,116869:0:0:0:0:
448,192,116669,128,0,116869:0:0:0:0:
64,192,117069,128,0,117269:0:0:0:0:
320,192,117069,128,0,117269:0:0:0:0:
192,192,117269,128,0,118069:0:0:0:0:
448,192,117369,1,0,0:0:0:0:
320,192,117469,1,0,0:0:0:0:
64,192,117569,1,0,0:0:0:0:
320,192,117769,1,0,0:0:0:0:
448,192,117869,1,0,0:0:0:0:
64,192,118069,128,0,118469:0:0:0:0:
320,192,118069,1,0,0:0:0:0:
448,192,118169,1,0,0:0:0:0:
320,192,118269,1,0,0:0:0:0:
192,192,118369,1,0,0:0:0:0:
320,192,118469,1,0,0:0:0:0:
192,192,118569,1,0,0:0:0:0:
448,192,118569,1,0,0:0:0:0:
320,192,118669,1,0,0:0:0:0:
64,192,118669,1,0,0:0:0:0:
448,192,118869,1,0,0:0:0:0:
64,192,118869,128,0,119469:0:0:0:0:
320,192,118869,1,0,0:0:0:0:
192,192,119069,1,0,0:0:0:0:
448,192,119169,1,0,0:0:0:0:
320,192,119169,1,0,0:0:0:0:
192,192,119269,1,0,0:0:0:0:
448,192,119469,1,0,0:0:0:0:
320,192,119469,1,0,0:0:0:0:
320,192,119669,1,0,0:0:0:0:
448,192,119669,128,0,120269:0:0:0:0:
192,192,119669,1,0,0:0:0:0:
64,192,119869,1,0,0:0:0:0:
320,192,119969,1,0,0:0:0:0:
192,192,119969,1,0,0:0:0:0:
64,192,120069,1,0,0:0:0:0:
320,192,120269,1,0,0:0:0:0:
192,192,120269,1,0,0:0:0:0:
192,192,120469,1,0,0:0:0:0:
448,192,120469,1,0,0:0:0:0:
64,192,120469,1,0,0:0:0:0:
320,192,120569,1,0,0:0:0:0:
448,192,120669,1,0,0:0:0:0:
192,192,120769,1,0,0:0:0:0:
64,192,120769,1,0,0:0:0:0:
448,192,120869,1,0,0:0:0:0:
320,192,120969,1,0,0:0:0:0:
192,192,121069,1,0,0:0:0:0:
64,192,121069,1,0,0:0:0:0:
64,192,121269,1,0,0:0:0:0:
320,192,121269,1,0,0:0:0:0:
192,192,121369,1,0,0:0:0:0:
448,192,121469,1,0,0:0:0:0:
64,192,121569,1,0,0:0:0:0:
320,192,121569,1,0,0:0:0:0:
192,192,121669,1,0,0:0:0:0:
448,192,121769,1,0,0:0:0:0:
64,192,121869,1,0,0:0:0:0:
192,192,121935,1,0,0:0:0:0:
320,192,122002,1,0,0:0:0:0:
448,192,122069,128,0,123269:0:0:0:0:
192,192,122469,128,0,123269:0:0:0:0:
320,192,122869,128,0,123269:0:0:0:0:
64,192,123269,1,0,0:0:0:0:
448,192,123469,1,0,0:0:0:0:
320,192,123535,1,0,0:0:0:0:
192,192,123602,1,0,0:0:0:0:
64,192,123669,128,0,124869:0:0:0:0:
448,192,124069,128,0,124469:0:0:0:0:
320,192,124069,1,0,0:0:0:0:
320,192,124469,128,0,124869:0:0:0:0:
192,192,124469,1,0,0:0:0:0:
192,192,124869,1,0,0:0:0:0:
448,192,124869,1,0,0:0:0:0:
448,192,125269,128,0,125569:0:0:0:0:
64,192,125269,128,0,125569:0:0:0:0:
320,192,125569,1,0,0:0:0:0:
192,192,125669,1,0,0:0:0:0:
320,192,125769,1,0,0:0:0:0:
448,192,125869,1,0,0:0:0:0:
192,192,125869,1,0,0:0:0:0:
448,192,126069,1,0,0:0:0:0:
192,192,126069,1,0,0:0:0:0:
320,192,126169,128,0,126269:0:0:0:0:
64,192,126169,128,0,126269:0:0:0:0:
192,192,126269,1,0,0:0:0:0:
448,192,126269,1,0,0:0:0:0:
320,192,126369,1,0,0:0:0:0:
64,192,126469,1,0,0:0:0:0:
192,192,126469,1,0,0:0:0:0:
448,192,126469,1,0,0:0:0:0:
192,192,126669,128,0,126869:0:0:0:0:
448,192,126669,128,0,126869:0:0:0:0:
320,192,126869,1,0,0:0:0:0:
64,192,126869,1,0,0:0:0:0:
192,192,127069,128,0,127269:0:0:0:0:
64,192,127069,1,0,0:0:0:0:
448,192,127069,128,0,127269:0:0:0:0:
64,192,127469,1,0,0:0:0:0:
448,192,127469,1,0,0:0:0:0:
192,192,127469,128,0,127669:0:0:0:0:
320,192,127669,1,0,0:0:0:0:
64,192,127669,1,0,0:0:0:0:
448,192,127769,1,0,0:0:0:0:
320,192,127869,1,0,0:0:0:0:
192,192,127969,1,0,0:0:0:0:
64,192,128069,1,0,0:0:0:0:
320,192,128069,1,0,0:0:0:0:
192,192,128169,1,0,0:0:0:0:
320,192,128269,1,0,0:0:0:0:
192,192,128469,1,0,0:0:0:0:
448,192,128469,1,0,0:0:0:0:
64,192,128469,1,0,0:0:0:0:
320,192,128569,1,0,0:0:0:0:
192,192,128669,1,0,0:0:0:0:
64,192,128669,1,0,0:0:0:0:
448,192,128669,1,0,0:0:0:0:
320,192,128769,1,0,0:0:0:0:
64,192,128869,1,0,0:0:0:0:
192,192,128869,128,0,129069:0:0:0:0:
320,192,128969,1,0,0:0:0:0:
448,192,129069,1,0,0:0:0:0:
320,192,129169,1,0,0:0:0:0:
64,192,129269,1,0,0:0:0:0:
192,192,129269,128,0,129469:0:0:0:0:
448,192,129469,1,0,0:0:0:0:
320,192,129569,1,0,0:0:0:0:
192,192,129602,1,0,0:0:0:0:
192,192,129702,1,0,0:0:0:0:
320,192,129769,1,0,0:0:0:0:
320,192,129869,128,0,130069:0:0:0:0:
64,192,129869,1,0,0:0:0:0:
448,192,130069,1,0,0:0:0:0:
192,192,130069,128,0,130369:0:0:0:0:
448,192,130369,1,0,0:0:0:0:
64,192,130469,1,0,0:0:0:0:
192,192,130469,1,0,0:0:0:0:
448,192,130569,1,0,0:0:0:0:
320,192,130669,128,0,130869:0:0:0:0:
192,192,130869,1,0,0:0:0:0:
320,192,130969,5,0,0:0:0:0:
64,192,130969,1,0,0:0:0:0:
320,192,131169,1,0,0:0:0:0:
192,192,131169,1,0,0:0:0:0:
192,192,131369,1,0,0:0:0:0:
320,192,131469,1,0,0:0:0:0:
320,192,131669,1,0,0:0:0:0:
448,192,131669,128,0,132469:0:0:0:0:
64,192,131669,1,0,0:0:0:0:
192,192,131769,1,0,0:0:0:0:
320,192,131869,1,0,0:0:0:0:
64,192,131969,1,0,0:0:0:0:
320,192,132069,1,0,0:0:0:0:
192,192,132069,1,0,0:0:0:0:
320,192,132269,1,0,0:0:0:0:
320,192,132469,1,0,0:0:0:0:
64,192,132469,1,0,0:0:0:0:
192,192,132569,1,0,0:0:0:0:
448,192,132869,1,0,0:0:0:0:
192,192,132869,1,0,0:0:0:0:
320,192,132969,1,0,0:0:0:0:
64,192,133069,1,0,0:0:0:0:
192,192,133069,1,0,0:0:0:0:
320,192,133169,1,0,0:0:0:0:
448,192,133269,128,0,133669:0:0:0:0:
192,192,133269,1,0,0:0:0:0:
320,192,133369,1,0,0:0:0:0:
320,192,133669,1,0,0:0:0:0:
320,192,133969,1,0,0:0:0:0:
448,192,133969,1,0,0:0:0:0:
320,192,134169,1,0,0:0:0:0:
192,192,134169,1,0,0:0:0:0:
448,192,134469,1,0,0:0:0:0:
320,192,134469,1,0,0:0:0:0:
448,192,134569,1,0,0:0:0:0:
320,192,134569,1,0,0:0:0:0:
192,192,134669,1,0,0:0:0:0:
64,192,134669,1,0,0:0:0:0:
192,192,134769,1,0,0:0:0:0:
64,192,134769,1,0,0:0:0:0:
448,192,134869,1,0,0:0:0:0:
320,192,134969,1,0,0:0:0:0:
64,192,135069,1,0,0:0:0:0:
192,192,135169,1,0,0:0:0:0:
448,192,135269,1,0,0:0:0:0:
320,192,135369,1,0,0:0:0:0:
192,192,135469,1,0,0:0:0:0:
64,192,135569,1,0,0:0:0:0:
192,192,135669,1,0,0:0:0:0:
448,192,135669,1,0,0:0:0:0:
320,192,135769,1,0,0:0:0:0:
448,192,135869,1,0,0:0:0:0:
192,192,135869,1,0,0:0:0:0:
320,192,135969,1,0,0:0:0:0:
64,192,136069,1,0,0:0:0:0:
192,192,136169,1,0,0:0:0:0:
448,192,136269,1,0,0:0:0:0:
64,192,136269,1,0,0:0:0:0:
320,192,136369,1,0,0:0:0:0:
64,192,136469,128,0,136869:0:0:0:0:
448,192,136469,128,0,136869:0:0:0:0:
320,192,136669,1,0,0:0:0:0:
192,192,136669,1,0,0:0:0:0:
192,192,136869,1,0,0:0:0:0:
320,192,136869,1,0,0:0:0:0:
448,192,137069,1,0,0:0:0:0:
192,192,137069,1,0,0:0:0:0:
192,192,137269,1,0,0:0:0:0:
320,192,137269,1,0,0:0:0:0:
64,192,137469,1,0,0:0:0:0:
320,192,137469,1,0,0:0:0:0:
320,192,137669,1,0,0:0:0:0:
448,192,137669,1,0,0:0:0:0:
192,192,137769,1,0,0:0:0:0:
64,192,137769,1,0,0:0:0:0:
320,192,137869,1,0,0:0:0:0:
448,192,137869,1,0,0:0:0:0:
192,192,137969,1,0,0:0:0:0:
64,192,137969,1,0,0:0:0:0:
448,192,138483,1,0,0:0:0:0:
64,192,138583,1,0,0:0:0:0:
320,192,138683,1,0,0:0:0:0:
192,192,138783,1,0,0:0:0:0:
64,192,138883,1,0,0:0:0:0:
448,192,138883,1,0,0:0:0:0:
320,192,138983,1,0,0:0:0:0:
448,192,139083,1,0,0:0:0:0:
64,192,139183,1,0,0:0:0:0:
320,192,139283,1,0,0:0:0:0:
448,192,139283,1,0,0:0:0:0:
192,192,139383,1,0,0:0:0:0:
320,192,139483,1,0,0:0:0:0:
64,192,139483,1,0,0:0:0:0:
192,192,139583,1,0,0:0:0:0:
448,192,139683,128,0,139883:0:0:0:0:
320,192,139683,1,0,0:0:0:0:
320,192,139883,128,0,140083:0:0:0:0:
192,192,139883,1,0,0:0:0:0:
448,192,140083,128,0,140283:0:0:0:0:
64,192,140083,128,0,140283:0:0:0:0:
192,192,140083,1,0,0:0:0:0:
192,192,140283,1,0,0:0:0:0:
320,192,140383,1,0,0:0:0:0:
448,192,140483,128,0,140683:0:0:0:0:
64,192,140483,128,0,140683:0:0:0:0:
192,192,140883,128,0,141083:0:0:0:0:
448,192,140883,128,0,141083:0:0:0:0:
320,192,141283,128,0,141483:0:0:0:0:
448,192,141283,128,0,141483:0:0:0:0:
448,192,141683,128,0,141883:0:0:0:0:
192,192,142083,1,0,0:0:0:0:
320,192,142083,1,0,0:0:0:0:
448,192,142183,1,0,0:0:0:0:
64,192,142283,1,0,0:0:0:0:
320,192,142283,1,0,0:0:0:0:
192,192,142383,1,0,0:0:0:0:
64,192,142483,1,0,0:0:0:0:
320,192,142483,1,0,0:0:0:0:
448,192,142583,1,0,0:0:0:0:
192,192,142683,1,0,0:0:0:0:
320,192,142783,1,0,0:0:0:0:
64,192,142883,1,0,0:0:0:0:
448,192,142883,1,0,0:0:0:0:
192,192,142883,1,0,0:0:0:0:
192,192,142983,1,0,0:0:0:0:
320,192,143083,1,0,0:0:0:0:
448,192,143183,128,0,143483:0:0:0:0:
448,192,143683,1,0,0:0:0:0:
64,192,143683,1,0,0:0:0:0:
64,192,143883,1,0,0:0:0:0:
320,192,143883,1,0,0:0:0:0:
64,192,144083,1,0,0:0:0:0:
192,192,144083,1,0,0:0:0:0:
64,192,144283,1,0,0:0:0:0:
64,192,144483,1,0,0:0:0:0:
448,192,144483,1,0,0:0:0:0:
320,192,144683,1,0,0:0:0:0:
192,192,144783,128,0,145083:0:0:0:0:
448,192,144783,128,0,145083:0:0:0:0:
64,192,145083,1,0,0:0:0:0:
320,192,145083,1,0,0:0:0:0:
192,192,145183,1,0,0:0:0:0:
448,192,145283,1,0,0:0:0:0:
192,192,145283,1,0,0:0:0:0:
64,192,145383,1,0,0:0:0:0:
192,192,145483,1,0,0:0:0:0:
448,192,145483,1,0,0:0:0:0:
320,192,145583,1,0,0:0:0:0:
192,192,145683,1,0,0:0:0:0:
320,192,145783,128,0,145983:0:0:0:0:
64,192,145983,1,0,0:0:0:0:
320,192,146083,1,0,0:0:0:0:
192,192,146083,1,0,0:0:0:0:
448,192,146183,1,0,0:0:0:0:
320,192,146283,1,0,0:0:0:0:
64,192,146483,1,0,0:0:0:0:
192,192,146483,1,0,0:0:0:0:
320,192,146683,1,0,0:0:0:0:
448,192,146683,1,0,0:0:0:0:
192,192,146783,1,0,0:0:0:0:
64,192,146883,128,0,147083:0:0:0:0:
64,192,147283,128,0,147483:0:0:0:0:
192,192,147283,128,0,147483:0:0:0:0:
64,192,147683,128,0,147883:0:0:0:0:
320,192,147683,128,0,147883:0:0:0:0:
64,192,148083,128,0,148283:0:0:0:0:
448,192,148083,128,0,148283:0:0:0:0:
192,192,148483,128,0,149083:0:0:0:0:
320,192,148483,128,0,149083:0:0:0:0:
448,192,148483,1,0,0:0:0:0:
64,192,148483,1,0,0:0:0:0:
448,192,148683,1,0,0:0:0:0:
448,192,148883,1,0,0:0:0:0:
64,192,148883,1,0,0:0:0:0:
64,192,149083,1,0,0:0:0:0:
64,192,149283,128,0,149583:0:0:0:0:
192,192,149883,128,0,150483:0:0:0:0:
448,192,149883,128,0,150483:0:0:0:0:
64,192,149883,128,0,150283:0:0:0:0:
320,192,149883,128,0,150083:0:0:0:0:
320,192,150483,128,0,150683:0:0:0:0:
448,192,150683,128,0,151083:0:0:0:0:
320,192,151083,1,0,0:0:0:0:
320,192,151183,1,0,0:0:0:0:
64,192,151283,1,0,0:0:0:0:
64,192,151383,1,0,0:0:0:0:
320,192,151483,1,0,0:0:0:0:
448,192,151483,1,0,0:0:0:0:
448,192,151683,1,0,0:0:0:0:
320,192,151683,1,0,0:0:0:0:
192,192,151883,1,0,0:0:0:0:
320,192,151883,1,0,0:0:0:0:
64,192,152083,1,0,0:0:0:0:
192,192,152083,1,0,0:0:0:0:
448,192,152083,1,0,0:0:0:0:
448,192,152483,5,0,0:0:0:0:
320,192,152483,1,0,0:0:0:0:
192,192,152683,1,0,0:0:0:0:
320,192,152683,1,0,0:0:0:0:
448,192,152883,1,0,0:0:0:0:
320,192,152883,1,0,0:0:0:0:
64,192,152883,1,0,0:0:0:0:
448,192,153283,5,0,0:0:0:0:
192,192,153283,1,0,0:0:0:0:
64,192,153383,1,0,0:0:0:0:
320,192,153383,1,0,0:0:0:0:
192,192,153483,1,0,0:0:0:0:
320,192,153583,1,0,0:0:0:0:
64,192,153583,1,0,0:0:0:0:
448,192,153683,1,0,0:0:0:0:
448,192,153883,1,0,0:0:0:0:
64,192,153883,1,0,0:0:0:0:
320,192,153983,1,0,0:0:0:0:
192,192,153983,1,0,0:0:0:0:
64,192,154083,1,0,0:0:0:0:
448,192,154083,1,0,0:0:0:0:
192,192,154183,1,0,0:0:0:0:
320,192,154183,1,0,0:0:0:0:
448,192,154283,1,0,0:0:0:0:
64,192,154283,1,0,0:0:0:0:
448,192,154483,1,0,0:0:0:0:
320,192,154549,1,0,0:0:0:0:
192,192,154616,1,0,0:0:0:0:
64,192,154683,1,0,0:0:0:0:
192,192,154749,1,0,0:0:0:0:
320,192,154816,1,0,0:0:0:0:
64,192,154883,1,0,0:0:0:0:
448,192,154883,1,0,0:0:0:0:
448,192,155083,128,0,155283:0:0:0:0:
192,192,155083,128,0,155283:0:0:0:0:
320,192,155283,1,0,0:0:0:0:
64,192,155483,1,0,0:0:0:0:
320,192,155483,1,0,0:0:0:0:
192,192,155583,1,0,0:0:0:0:
448,192,155683,1,0,0:0:0:0:
64,192,155883,128,0,156083:0:0:0:0:
320,192,155883,128,0,156083:0:0:0:0:
192,192,156083,1,0,0:0:0:0:
64,192,156283,128,0,157383:0:0:0:0:
192,192,156283,128,0,157283:0:0:0:0:
320,192,156283,128,0,157183:0:0:0:0:
448,192,156483,1,0,0:0:0:0:
448,192,156683,1,0,0:0:0:0:
448,192,156883,1,0,0:0:0:0:
448,192,157083,1,0,0:0:0:0:
320,192,157483,1,0,0:0:0:0:
448,192,157483,1,0,0:0:0:0:
64,192,157683,1,0,0:0:0:0:
192,192,157683,1,0,0:0:0:0:
320,192,157883,1,0,0:0:0:0:
64,192,157883,1,0,0:0:0:0:
448,192,157983,1,0,0:0:0:0:
64,192,158083,1,0,0:0:0:0:
192,192,158083,1,0,0:0:0:0:
192,192,158283,1,0,0:0:0:0:
448,192,158283,1,0,0:0:0:0:
64,192,158483,1,4,0:0:0:0:
448,192,158483,128,4,158683:0:0:0:0:
192,192,158483,128,4,158683:0:0:0:0:
320,192,158483,128,4,158683:0:0:0:0:
64,192,158683,1,0,0:0:0:0:
320,192,158783,1,0,0:0:0:0:
64,192,158883,128,0,159083:0:0:0:0:
320,192,159083,1,0,0:0:0:0:
448,192,159283,1,0,0:0:0:0:
192,192,159283,1,0,0:0:0:0:
192,192,159483,1,0,0:0:0:0:
320,192,159483,1,0,0:0:0:0:
64,192,159683,1,0,0:0:0:0:
448,192,159683,1,0,0:0:0:0:
320,192,159783,1,0,0:0:0:0:
64,192,159883,1,0,0:0:0:0:
448,192,159883,1,0,0:0:0:0:
320,192,159983,1,0,0:0:0:0:
192,192,160083,1,0,0:0:0:0:
448,192,160083,1,0,0:0:0:0:
64,192,160183,1,0,0:0:0:0:
320,192,160183,1,0,0:0:0:0:
192,192,160283,1,0,0:0:0:0:
448,192,160283,1,0,0:0:0:0:
64,192,160383,1,0,0:0:0:0:
448,192,160483,128,0,160883:0:0:0:0:
64,192,160683,1,0,0:0:0:0:
320,192,160683,1,0,0:0:0:0:
192,192,160883,1,0,0:0:0:0:
320,192,160883,1,0,0:0:0:0:
64,192,161083,1,0,0:0:0:0:
320,192,161083,1,0,0:0:0:0:
192,192,161183,1,0,0:0:0:0:
320,192,161283,1,0,0:0:0:0:
448,192,161283,1,0,0:0:0:0:
64,192,161283,1,0,0:0:0:0:
320,192,161383,1,0,0:0:0:0:
64,192,161483,1,0,0:0:0:0:
192,192,161483,1,0,0:0:0:0:
448,192,161483,1,0,0:0:0:0:
320,192,161683,1,0,0:0:0:0:
448,192,161683,1,0,0:0:0:0:
64,192,161683,1,0,0:0:0:0:
448,192,161883,1,0,0:0:0:0:
192,192,161883,1,0,0:0:0:0:
320,192,161983,1,0,0:0:0:0:
448,192,162083,1,0,0:0:0:0:
64,192,162083,1,0,0:0:0:0:
320,192,162183,1,0,0:0:0:0:
192,192,162283,1,0,0:0:0:0:
64,192,162283,1,0,0:0:0:0:
448,192,162283,1,0,0:0:0:0:
64,192,162483,1,0,0:0:0:0:
192,192,162483,1,0,0:0:0:0:
320,192,162483,1,0,0:0:0:0:
192,192,162683,1,0,0:0:0:0:
448,192,162683,1,0,0:0:0:0:
320,192,162783,1,0,0:0:0:0:
64,192,162883,1,0,0:0:0:0:
192,192,162883,128,0,163083:0:0:0:0:
320,192,163083,128,0,163283:0:0:0:0:
64,192,163083,1,0,0:0:0:0:
448,192,163283,128,0,163483:0:0:0:0:
192,192,163283,1,0,0:0:0:0:
320,192,163483,128,0,163683:0:0:0:0:
192,192,163483,1,0,0:0:0:0:
64,192,163683,128,0,164083:0:0:0:0:
192,192,163883,1,4,0:0:0:0:
448,192,163883,1,4,0:0:0:0:
320,192,164083,1,4,0:0:0:0:
448,192,164083,1,4,0:0:0:0:
192,192,164083,1,0,0:0:0:0:
64,192,164283,1,0,0:0:0:0:
448,192,164283,1,0,0:0:0:0:
192,192,164383,1,0,0:0:0:0:
64,192,164483,128,0,164883:0:0:0:0:
320,192,164483,128,0,164883:0:0:0:0:
192,192,164883,1,0,0:0:0:0:
448,192,164883,1,0,0:0:0:0:
448,192,165083,1,0,0:0:0:0:
64,192,165083,1,0,0:0:0:0:
320,192,165183,1,0,0:0:0:0:
448,192,165283,128,0,165683:0:0:0:0:
192,192,165283,128,0,165683:0:0:0:0:
64,192,165683,1,0,0:0:0:0:
320,192,165683,1,0,0:0:0:0:
192,192,165883,1,0,0:0:0:0:
320,192,165883,1,0,0:0:0:0:
320,192,165983,1,0,0:0:0:0:
64,192,165983,1,0,0:0:0:0:
448,192,166083,1,0,0:0:0:0:
192,192,166083,1,0,0:0:0:0:
192,192,166283,1,0,0:0:0:0:
448,192,166283,1,0,0:0:0:0:
192,192,166383,1,0,0:0:0:0:
320,192,166383,1,0,0:0:0:0:
64,192,166483,1,0,0:0:0:0:
320,192,166483,1,0,0:0:0:0:
320,192,166683,1,0,0:0:0:0:
192,192,166683,1,0,0:0:0:0:
192,192,166783,1,0,0:0:0:0:
320,192,166783,1,0,0:0:0:0:
448,192,166883,128,0,167283:0:0:0:0:
64,192,166883,128,0,167283:0:0:0:0:
192,192,167283,1,0,0:0:0:0:
320,192,167283,1,0,0:0:0:0:
320,192,167483,1,0,0:0:0:0:
448,192,167483,1,0,0:0:0:0:
192,192,167583,1,0,0:0:0:0:
64,192,167583,1,0,0:0:0:0:
448,192,167683,1,0,0:0:0:0:
64,192,167683,1,0,0:0:0:0:
320,192,167783,1,0,0:0:0:0:
192,192,167883,1,0,0:0:0:0:
448,192,167883,1,0,0:0:0:0:
64,192,167983,1,0,0:0:0:0:
448,192,168083,1,0,0:0:0:0:
192,192,168083,1,0,0:0:0:0:
320,192,168183,1,0,0:0:0:0:
192,192,168283,1,0,0:0:0:0:
64,192,168283,1,0,0:0:0:0:
320,192,168383,1,0,0:0:0:0:
64,192,168483,1,0,0:0:0:0:
448,192,168483,1,0,0:0:0:0:
192,192,168583,1,0,0:0:0:0:
320,192,168683,1,0,0:0:0:0:
64,192,168683,1,0,0:0:0:0:
448,192,168783,1,0,0:0:0:0:
64,192,168883,1,0,0:0:0:0:
320,192,168883,1,0,0:0:0:0:
192,192,168983,1,0,0:0:0:0:
320,192,169083,1,0,0:0:0:0:
448,192,169083,1,0,0:0:0:0:
192,192,169183,1,0,0:0:0:0:
448,192,169283,1,0,0:0:0:0:
64,192,169283,1,0,0:0:0:0:
320,192,169383,1,0,0:0:0:0:
64,192,169483,1,0,0:0:0:0:
448,192,169483,1,0,0:0:0:0:
192,192,169583,1,0,0:0:0:0:
448,192,169683,1,0,0:0:0:0:
64,192,169683,1,0,0:0:0:0:
320,192,169783,1,0,0:0:0:0:
64,192,169883,1,0,0:0:0:0:
448,192,169883,1,0,0:0:0:0:
192,192,169983,1,0,0:0:0:0:
320,192,169983,1,0,0:0:0:0:
64,192,170083,1,0,0:0:0:0:
448,192,170083,1,0,0:0:0:0:
192,192,170183,1,0,0:0:0:0:
320,192,170283,1,0,0:0:0:0:
64,192,170283,1,0,0:0:0:0:
448,192,170383,1,0,0:0:0:0:
64,192,170483,1,0,0:0:0:0:
320,192,170483,1,0,0:0:0:0:
192,192,170583,1,0,0:0:0:0:
320,192,170683,1,0,0:0:0:0:
64,192,170683,1,0,0:0:0:0:
448,192,170783,1,0,0:0:0:0:
320,192,170883,1,0,0:0:0:0:
192,192,170883,1,0,0:0:0:0:
64,192,170983,1,0,0:0:0:0:
448,192,171083,1,0,0:0:0:0:
192,192,171083,1,0,0:0:0:0:
64,192,171183,1,0,0:0:0:0:
192,192,171283,1,0,0:0:0:0:
320,192,171283,1,0,0:0:0:0:
448,192,171383,1,0,0:0:0:0:
64,192,171483,1,0,0:0:0:0:
192,192,171483,1,0,0:0:0:0:
448,192,171583,1,0,0:0:0:0:
192,192,171683,1,0,0:0:0:0:
64,192,171683,1,0,0:0:0:0:
320,192,171783,1,0,0:0:0:0:
448,192,171883,1,0,0:0:0:0:
192,192,171883,1,0,0:0:0:0:
320,192,171983,1,0,0:0:0:0:
192,192,172083,1,0,0:0:0:0:
448,192,172083,1,0,0:0:0:0:
64,192,172183,1,0,0:0:0:0:
192,192,172283,1,0,0:0:0:0:
320,192,172283,1,0,0:0:0:0:
320,192,172383,1,0,0:0:0:0:
448,192,172483,128,0,172883:0:0:0:0:
320,192,172683,128,0,173083:0:0:0:0:
64,192,172883,128,0,173283:0:0:0:0:
448,192,173283,128,0,173683:0:0:0:0:
320,192,173283,128,0,173683:0:0:0:0:
64,192,173483,1,0,0:0:0:0:
192,192,173483,1,0,0:0:0:0:
192,192,173683,1,0,0:0:0:0:
64,192,173683,1,0,0:0:0:0:
320,192,173883,128,0,174083:0:0:0:0:
64,192,173983,1,0,0:0:0:0:
192,192,174083,1,4,0:0:0:0:
448,192,174083,1,4,0:0:0:0:
320,192,174183,1,0,0:0:0:0:
64,192,174283,1,0,0:0:0:0:
448,192,174283,1,0,0:0:0:0:
320,192,174383,1,0,0:0:0:0:
192,192,174483,1,0,0:0:0:0:
448,192,174483,1,0,0:0:0:0:
64,192,174683,1,0,0:0:0:0:
192,192,174783,1,0,0:0:0:0:
64,192,174883,1,0,0:0:0:0:
320,192,174883,1,0,0:0:0:0:
448,192,174983,1,0,0:0:0:0:
192,192,175083,1,0,0:0:0:0:
320,192,175083,1,0,0:0:0:0:
320,192,175283,1,0,0:0:0:0:
448,192,175283,1,0,0:0:0:0:
192,192,175383,1,0,0:0:0:0:
320,192,175483,1,0,0:0:0:0:
64,192,175483,1,0,0:0:0:0:
448,192,175583,1,0,0:0:0:0:
192,192,175583,1,0,0:0:0:0:
64,192,175683,1,0,0:0:0:0:
320,192,175683,1,0,0:0:0:0:
64,192,175883,1,0,0:0:0:0:
192,192,175883,1,0,0:0:0:0:
192,192,176083,1,0,0:0:0:0:
448,192,176083,1,0,0:0:0:0:
320,192,176283,1,0,0:0:0:0:
448,192,176283,1,0,0:0:0:0:
64,192,176483,128,0,176883:0:0:0:0:
192,192,176483,128,0,176883:0:0:0:0:
448,192,176683,1,4,0:0:0:0:
320,192,176883,1,0,0:0:0:0:
448,192,176883,1,4,0:0:0:0:
64,192,177083,1,0,0:0:0:0:
320,192,177083,1,0,0:0:0:0:
192,192,177183,1,0,0:0:0:0:
448,192,177183,1,0,0:0:0:0:
64,192,177283,128,0,177683:0:0:0:0:
320,192,177283,128,0,177683:0:0:0:0:
192,192,177683,1,0,0:0:0:0:
448,192,177683,1,0,0:0:0:0:
448,192,177883,1,0,0:0:0:0:
192,192,177883,1,0,0:0:0:0:
64,192,177983,1,0,0:0:0:0:
320,192,177983,1,0,0:0:0:0:
192,192,178083,128,0,178483:0:0:0:0:
448,192,178083,128,0,178483:0:0:0:0:
320,192,178483,1,0,0:0:0:0:
64,192,178483,1,0,0:0:0:0:
448,192,178883,128,0,180083:0:0:0:0:
320,192,178883,1,0,0:0:0:0:
64,192,178883,1,0,0:0:0:0:
192,192,179083,1,0,0:0:0:0:
64,192,179083,1,0,0:0:0:0:
320,192,179283,1,0,0:0:0:0:
192,192,179283,1,0,0:0:0:0:
64,192,179483,1,0,0:0:0:0:
192,192,179483,1,0,0:0:0:0:
320,192,179683,128,0,179883:0:0:0:0:
192,192,179883,128,0,180083:0:0:0:0:
64,192,180083,128,0,180283:0:0:0:0:
448,192,180283,128,0,180483:0:0:0:0:
320,192,180483,128,0,181283:0:0:0:0:
192,192,180483,128,0,182883:0:0:0:0:
64,192,180683,1,0,0:0:0:0:
448,192,180683,1,0,0:0:0:0:
64,192,180883,1,0,0:0:0:0:
448,192,180883,1,0,0:0:0:0:
448,192,181283,1,4,0:0:0:0:
64,192,181283,1,4,0:0:0:0:
448,192,181483,1,0,0:0:0:0:
448,192,181683,1,0,0:0:0:0:
320,192,181783,1,0,0:0:0:0:
64,192,181883,1,0,0:0:0:0:
320,192,181983,1,0,0:0:0:0:
448,192,182083,128,0,182483:0:0:0:0:
320,192,182183,1,0,0:0:0:0:
64,192,182283,1,0,0:0:0:0:
320,192,182483,1,0,0:0:0:0:
320,192,182683,1,0,0:0:0:0:
448,192,182683,1,0,0:0:0:0:
64,192,182883,1,0,0:0:0:0:
320,192,183083,1,0,0:0:0:0:
192,192,183183,1,0,0:0:0:0:
64,192,183283,1,0,0:0:0:0:
320,192,183283,1,0,0:0:0:0:
448,192,183283,128,0,183483:0:0:0:0:
192,192,183483,1,0,0:0:0:0:
320,192,183683,1,0,0:0:0:0:
64,192,183683,1,0,0:0:0:0:
448,192,183883,1,0,0:0:0:0:
320,192,183949,1,0,0:0:0:0:
192,192,184016,1,0,0:0:0:0:
64,192,184083,1,0,0:0:0:0:
448,192,184083,1,0,0:0:0:0:
192,192,184183,1,0,0:0:0:0:
320,192,184283,128,0,184483:0:0:0:0:
64,192,184483,1,0,0:0:0:0:
448,192,184483,1,0,0:0:0:0:
192,192,184583,1,0,0:0:0:0:
320,192,184683,1,0,0:0:0:0:
64,192,184683,1,0,0:0:0:0:
192,192,184783,1,0,0:0:0:0:
320,192,184883,1,0,0:0:0:0:
448,192,185083,1,0,0:0:0:0:
192,192,185183,1,0,0:0:0:0:
64,192,185283,1,0,0:0:0:0:
320,192,185283,1,0,0:0:0:0:
320,192,185483,1,0,0:0:0:0:
64,192,185583,1,0,0:0:0:0:
192,192,185683,1,0,0:0:0:0:
448,192,185683,1,0,0:0:0:0:
320,192,185783,1,0,0:0:0:0:
192,192,185883,1,0,0:0:0:0:
64,192,185983,1,0,0:0:0:0:
448,192,186083,1,0,0:0:0:0:
320,192,186083,1,0,0:0:0:0:
192,192,186183,1,0,0:0:0:0:
320,192,186283,1,0,0:0:0:0:
64,192,186383,1,0,0:0:0:0:
448,192,186483,1,0,0:0:0:0:
192,192,186483,1,0,0:0:0:0:
64,192,186683,1,0,0:0:0:0:
320,192,186683,1,0,0:0:0:0:
192,192,186883,128,0,187283:0:0:0:0:
448,192,186883,1,0,0:0:0:0:
64,192,186883,1,0,0:0:0:0:
64,192,187083,1,0,0:0:0:0:
320,192,187083,1,0,0:0:0:0:
448,192,187283,1,0,0:0:0:0:
448,192,187383,1,0,0:0:0:0:
192,192,187483,1,0,0:0:0:0:
192,192,187583,1,0,0:0:0:0:
448,192,187683,1,4,0:0:0:0:
64,192,187683,1,4,0:0:0:0:
320,192,187783,1,0,0:0:0:0:
448,192,187883,1,0,0:0:0:0:
320,192,187983,1,0,0:0:0:0:
64,192,188083,1,0,0:0:0:0:
192,192,188083,1,0,0:0:0:0:
64,192,188283,1,0,0:0:0:0:
192,192,188283,1,0,0:0:0:0:
448,192,188283,1,0,0:0:0:0:
64,192,188483,1,0,0:0:0:0:
192,192,188483,1,0,0:0:0:0:
320,192,188683,128,0,189283:0:0:0:0:
448,192,188883,128,0,189283:0:0:0:0:
64,192,189283,1,0,0:0:0:0:
192,192,189383,1,0,0:0:0:0:
320,192,189483,1,0,0:0:0:0:
64,192,189483,1,0,0:0:0:0:
448,192,189583,1,0,0:0:0:0:
64,192,189683,1,0,0:0:0:0:
192,192,189683,1,0,0:0:0:0:
320,192,189783,1,0,0:0:0:0:
64,192,189883,1,0,0:0:0:0:
192,192,189883,1,0,0:0:0:0:
448,192,189883,1,0,0:0:0:0:
64,192,190083,1,0,0:0:0:0:
192,192,190083,1,0,0:0:0:0:
320,192,190283,1,0,0:0:0:0:
448,192,190483,1,0,0:0:0:0:
64,192,190483,1,0,0:0:0:0:
320,192,190583,1,0,0:0:0:0:
192,192,190583,1,0,0:0:0:0:
64,192,190683,1,0,0:0:0:0:
448,192,190683,1,0,0:0:0:0:
192,192,190783,1,0,0:0:0:0:
320,192,190783,1,0,0:0:0:0:
448,192,190883,1,0,0:0:0:0:
320,192,190883,1,0,0:0:0:0:
192,192,190983,1,0,0:0:0:0:
64,192,191083,1,0,0:0:0:0:
448,192,191183,1,0,0:0:0:0:
320,192,191283,1,0,0:0:0:0:
192,192,191283,1,0,0:0:0:0:
448,192,191483,1,0,0:0:0:0:
64,192,191483,1,0,0:0:0:0:
448,192,191683,1,0,0:0:0:0:
192,192,191683,1,0,0:0:0:0:
320,192,191783,1,0,0:0:0:0:
64,192,191783,1,0,0:0:0:0:
64,192,191983,1,0,0:0:0:0:
448,192,192083,1,0,0:0:0:0:
192,192,192083,1,0,0:0:0:0:
320,192,192183,1,0,0:0:0:0:
64,192,192283,1,0,0:0:0:0:
448,192,192283,1,0,0:0:0:0:
448,192,192383,1,0,0:0:0:0:
64,192,192483,1,0,0:0:0:0:
192,192,192483,1,0,0:0:0:0:
320,192,192483,1,0,0:0:0:0:
192,192,192783,1,0,0:0:0:0:
320,192,192783,1,0,0:0:0:0:
448,192,192783,1,0,0:0:0:0:
64,192,193083,1,0,0:0:0:0:
192,192,193083,1,0,0:0:0:0:
448,192,193083,1,0,0:0:0:0:
448,192,193383,1,0,0:0:0:0:
320,192,193383,1,0,0:0:0:0:
64,192,193383,1,0,0:0:0:0:
192,192,193683,1,0,0:0:0:0:
320,192,193683,1,0,0:0:0:0:
192,192,193883,1,0,0:0:0:0:
320,192,193883,1,0,0:0:0:0:
64,192,193883,128,0,194483:0:0:0:0:
448,192,193883,1,0,0:0:0:0:
192,192,194383,1,0,0:0:0:0:
320,192,194416,1,0,0:0:0:0:
192,192,194483,128,0,199116:0:0:0:0:
448,192,194483,128,0,198983:0:0:0:0:
64,192,198983,1,0,0:0:0:0:
320,192,198983,1,0,0:0:0:0:
64,192,199149,1,0,0:0:0:0:
192,192,199149,1,0,0:0:0:0:
320,192,199149,1,0,0:0:0:0:
